  0
SECTION
  2
HEADER
  9
$ACADVER
  1
AC1015
  9
$ACADMAINTVER
 70
     6
  9
$DWGCODEPAGE
  3
ANSI_1252
  9
$INSBASE
 10
0.0
 20
0.0
 30
0.0
  9
$EXTMIN
 10
0.0
 20
0.0
 30
0.0
  9
$EXTMAX
 10
840.0
 20
594.0
 30
0.0
  9
$LIMMIN
 10
0.0
 20
0.0
  9
$LIMMAX
 10
840.0
 20
594.0
  9
$ORTHOMODE
 70
     0
  9
$REGENMODE
 70
     1
  9
$FILLMODE
 70
     1
  9
$QTEXTMODE
 70
     0
  9
$MIRRTEXT
 70
     1
  9
$LTSCALE
 40
2.0
  9
$ATTMODE
 70
     1
  9
$TEXTSIZE
 40
2.5
  9
$TRACEWID
 40
1.0
  9
$TEXTSTYLE
  7
Standard
  9
$CLAYER
  8
0
  9
$CELTYPE
  6
ByLayer
  9
$CECOLOR
 62
     7
  9
$CELTSCALE
 40
1.0
  9
$DISPSILH
 70
     0
  9
$DIMSCALE
 40
2.0
  9
$DIMASZ
 40
3.5
  9
$DIMEXO
 40
0.625
  9
$DIMDLI
 40
3.75
  9
$DIMRND
 40
0.0
  9
$DIMDLE
 40
0.0
  9
$DIMEXE
 40
1.25
  9
$DIMTP
 40
0.0
  9
$DIMTM
 40
0.0
  9
$DIMTXT
 40
3.5
  9
$DIMCEN
 40
2.5
  9
$DIMTSZ
 40
0.0
  9
$DIMTOL
 70
     0
  9
$DIMLIM
 70
     0
  9
$DIMTIH
 70
     0
  9
$DIMTOH
 70
     0
  9
$DIMSE1
 70
     0
  9
$DIMSE2
 70
     0
  9
$DIMTAD
 70
     1
  9
$DIMZIN
 70
     8
  9
$DIMBLK
  1

  9
$DIMASO
 70
     1
  9
$DIMSHO
 70
     1
  9
$DIMPOST
  1

  9
$DIMAPOST
  1

  9
$DIMALT
 70
     0
  9
$DIMALTD
 70
     3
  9
$DIMALTF
 40
0.03937
  9
$DIMLFAC
 40
1.0
  9
$DIMTOFL
 70
     1
  9
$DIMTVP
 40
0.0
  9
$DIMTIX
 70
     0
  9
$DIMSOXD
 70
     0
  9
$DIMSAH
 70
     0
  9
$DIMBLK1
  1

  9
$DIMBLK2
  1

  9
$DIMSTYLE
  2
ISO-25
  9
$DIMCLRD
 70
     0
  9
$DIMCLRE
 70
     0
  9
$DIMCLRT
 70
     0
  9
$DIMTFAC
 40
1.0
  9
$DIMGAP
 40
0.625
  9
$DIMJUST
 70
     0
  9
$DIMSD1
 70
     0
  9
$DIMSD2
 70
     0
  9
$DIMTOLJ
 70
     0
  9
$DIMTZIN
 70
     8
  9
$DIMALTZ
 70
     0
  9
$DIMALTTZ
 70
     0
  9
$DIMUPT
 70
     0
  9
$DIMDEC
 70
     2
  9
$DIMTDEC
 70
     2
  9
$DIMALTU
 70
     2
  9
$DIMALTTD
 70
     3
  9
$DIMTXSTY
  7
Standard
  9
$DIMAUNIT
 70
     0
  9
$DIMADEC
 70
     0
  9
$DIMALTRND
 40
0.0
  9
$DIMAZIN
 70
     0
  9
$DIMDSEP
 70
    44
  9
$DIMATFIT
 70
     3
  9
$DIMFRAC
 70
     0
  9
$DIMLDRBLK
  1

  9
$DIMLUNIT
 70
     2
  9
$DIMLWD
 70
    -2
  9
$DIMLWE
 70
    -2
  9
$DIMTMOVE
 70
     0
  9
$LUNITS
 70
     2
  9
$LUPREC
 70
     4
  9
$SKETCHINC
 40
1.0
  9
$FILLETRAD
 40
10.0
  9
$AUNITS
 70
     0
  9
$AUPREC
 70
     0
  9
$MENU
  1
.
  9
$ELEVATION
 40
0.0
  9
$PELEVATION
 40
0.0
  9
$THICKNESS
 40
0.0
  9
$LIMCHECK
 70
     0
  9
$CHAMFERA
 40
10.0
  9
$CHAMFERB
 40
10.0
  9
$CHAMFERC
 40
20.0
  9
$CHAMFERD
 40
0.0
  9
$SKPOLY
 70
     0
  9
$TDCREATE
 40
2455765.40999463
  9
$TDUCREATE
 40
2455765.326661296
  9
$TDUPDATE
 40
2455765.409994641
  9
$TDUUPDATE
 40
2455765.326661308
  9
$TDINDWG
 40
0.0000000116
  9
$TDUSRTIMER
 40
0.0000000116
  9
$USRTIMER
 70
     1
  9
$ANGBASE
 50
0.0
  9
$ANGDIR
 70
     0
  9
$PDMODE
 70
     0
  9
$PDSIZE
 40
0.0
  9
$PLINEWID
 40
0.0
  9
$SPLFRAME
 70
     0
  9
$SPLINETYPE
 70
     6
  9
$SPLINESEGS
 70
     8
  9
$HANDSEED
  5
554
  9
$SURFTAB1
 70
     6
  9
$SURFTAB2
 70
     6
  9
$SURFTYPE
 70
     6
  9
$SURFU
 70
     6
  9
$SURFV
 70
     6
  9
$UCSBASE
  2

  9
$UCSNAME
  2

  9
$UCSORG
 10
0.0
 20
0.0
 30
0.0
  9
$UCSXDIR
 10
1.0
 20
0.0
 30
0.0
  9
$UCSYDIR
 10
0.0
 20
1.0
 30
0.0
  9
$UCSORTHOREF
  2

  9
$UCSORTHOVIEW
 70
     0
  9
$UCSORGTOP
 10
0.0
 20
0.0
 30
0.0
  9
$UCSORGBOTTOM
 10
0.0
 20
0.0
 30
0.0
  9
$UCSORGLEFT
 10
0.0
 20
0.0
 30
0.0
  9
$UCSORGRIGHT
 10
0.0
 20
0.0
 30
0.0
  9
$UCSORGFRONT
 10
0.0
 20
0.0
 30
0.0
  9
$UCSORGBACK
 10
0.0
 20
0.0
 30
0.0
  9
$PUCSBASE
  2

  9
$PUCSNAME
  2

  9
$PUCSORG
 10
0.0
 20
0.0
 30
0.0
  9
$PUCSXDIR
 10
1.0
 20
0.0
 30
0.0
  9
$PUCSYDIR
 10
0.0
 20
1.0
 30
0.0
  9
$PUCSORTHOREF
  2

  9
$PUCSORTHOVIEW
 70
     0
  9
$PUCSORGTOP
 10
0.0
 20
0.0
 30
0.0
  9
$PUCSORGBOTTOM
 10
0.0
 20
0.0
 30
0.0
  9
$PUCSORGLEFT
 10
0.0
 20
0.0
 30
0.0
  9
$PUCSORGRIGHT
 10
0.0
 20
0.0
 30
0.0
  9
$PUCSORGFRONT
 10
0.0
 20
0.0
 30
0.0
  9
$PUCSORGBACK
 10
0.0
 20
0.0
 30
0.0
  9
$USERI1
 70
     0
  9
$USERI2
 70
     0
  9
$USERI3
 70
     0
  9
$USERI4
 70
     0
  9
$USERI5
 70
     0
  9
$USERR1
 40
0.0
  9
$USERR2
 40
0.0
  9
$USERR3
 40
0.0
  9
$USERR4
 40
0.0
  9
$USERR5
 40
0.0
  9
$WORLDVIEW
 70
     1
  9
$SHADEDGE
 70
     3
  9
$SHADEDIF
 70
    70
  9
$TILEMODE
 70
     1
  9
$MAXACTVP
 70
    64
  9
$PINSBASE
 10
0.0
 20
0.0
 30
0.0
  9
$PLIMCHECK
 70
     0
  9
$PEXTMIN
 10
0.0
 20
0.0
 30
0.0
  9
$PEXTMAX
 10
840.0
 20
594.0
 30
0.0
  9
$PLIMMIN
 10
0.0
 20
0.0
  9
$PLIMMAX
 10
840.0
 20
594.0
  9
$UNITMODE
 70
     0
  9
$VISRETAIN
 70
     1
  9
$PLINEGEN
 70
     0
  9
$PSLTSCALE
 70
     1
  9
$TREEDEPTH
 70
  3020
  9
$CMLSTYLE
  2
Standard
  9
$CMLJUST
 70
     0
  9
$CMLSCALE
 40
20.0
  9
$PROXYGRAPHICS
 70
     1
  9
$MEASUREMENT
 70
     1
  9
$CELWEIGHT
370
    -1
  9
$ENDCAPS
280
     0
  9
$JOINSTYLE
280
     0
  9
$LWDISPLAY
290
     0
  9
$INSUNITS
 70
     4
  9
$HYPERLINKBASE
  1

  9
$STYLESHEET
  1

  9
$XEDIT
290
     1
  9
$CEPSNTYPE
380
     0
  9
$PSTYLEMODE
290
     1
  9
$FINGERPRINTGUID
  2
{FAEB1C30-E019-11D5-929B-00C0DF256EC4}
  9
$VERSIONGUID
  2
{FAEB1C32-E019-11D5-929B-00C0DF256EC4}
  9
$EXTNAMES
290
     1
  9
$PSVPSCALE
 40
0.0
  9
$OLESTARTUP
290
     0
  0
ENDSEC
  0
SECTION
  2
CLASSES
  0
CLASS
  1
ACDBDICTIONARYWDFLT
  2
AcDbDictionaryWithDefault
  3
ObjectDBX Classes
 90
        0
280
     0
281
     0
  0
CLASS
  1
ACDBPLACEHOLDER
  2
AcDbPlaceHolder
  3
ObjectDBX Classes
 90
        0
280
     0
281
     0
  0
CLASS
  1
LAYOUT
  2
AcDbLayout
  3
ObjectDBX Classes
 90
        0
280
     0
281
     0
  0
ENDSEC
  0
SECTION
  2
TABLES
  0
TABLE
  2
VPORT
  5
8
330
0
100
AcDbSymbolTable
 70
     2
  0
VPORT
  5
29
330
8
100
AcDbSymbolTableRecord
100
AcDbViewportTableRecord
  2
*ACTIVE
 70
     0
 10
0.0
 20
0.0
 11
1.0
 21
1.0
 12
420.0
 22
297.0
 13
0.0
 23
0.0
 14
1.0
 24
1.0
 15
0.0
 25
0.0
 16
0.0
 26
0.0
 36
1.0
 17
0.0
 27
0.0
 37
0.0
 40
594.0
 41
1.414141
 42
50.0
 43
0.0
 44
0.0
 50
0.0
 51
0.0
 71
    16
 72
   100
 73
     1
 74
     0
 75
     0
 76
     0
 77
     0
 78
     0
281
     0
 65
     0
110
0.0
120
0.0
130
0.0
111
1.0
121
0.0
131
0.0
112
0.0
122
1.0
132
0.0
 79
     0
146
0.0
  0
ENDTAB
  0
TABLE
  2
LTYPE
  5
5
330
0
100
AcDbSymbolTable
 70
     4
  0
LTYPE
  5
14
330
5
100
AcDbSymbolTableRecord
100
AcDbLinetypeTableRecord
  2
ByBlock
 70
     0
  3

 72
    65
 73
     0
 40
0.0
  0
LTYPE
  5
15
330
5
100
AcDbSymbolTableRecord
100
AcDbLinetypeTableRecord
  2
ByLayer
 70
     0
  3

 72
    65
 73
     0
 40
0.0
  0
LTYPE
  5
16
330
5
100
AcDbSymbolTableRecord
100
AcDbLinetypeTableRecord
  2
Continuous
 70
     0
  3
Solid line
 72
    65
 73
     0
 40
0.0
  0
LTYPE
  5
2A
330
5
100
AcDbSymbolTableRecord
100
AcDbLinetypeTableRecord
  2
DASHED
 70
     0
  3
__ __ __ __ __
 72
    65
 73
     2
 40
6.25
 49
5.0
 74
     4
 75
     0
340
0
 46
1.0
 50
0.0
 44
0.0
 45
0.0
 49
-1.25
 74
     4
 75
     0
340
0
 46
1.0
 50
0.0
 44
0.0
 45
0.0
  0
LTYPE
  5
6D
330
5
100
AcDbSymbolTableRecord
100
AcDbLinetypeTableRecord
  2
DASHDOT
 70
     0
  3
__ . __ . __ . __ . __
 72
    65
 73
     4
 40
7.5
 49
5.0
 74
     4
 75
     0
340
0
 46
1.0
 50
0.0
 44
0.0
 45
0.0
 49
-1.25
 74
     4
 75
     0
340
0
 46
1.0
 50
0.0
 44
0.0
 45
0.0
 49
0.0
 74
     4
 75
     0
340
0
 46
1.0
 50
0.0
 44
0.0
 45
0.0
 49
-1.25
 74
     4
 75
     0
340
0
 46
1.0
 50
0.0
 44
0.0
 45
0.0
  0
LTYPE
  5
44B
330
5
100
AcDbSymbolTableRecord
100
AcDbLinetypeTableRecord
  2
CENTER
 70
     0
  3
__ . __ . __ . __ . __
 72
    65
 73
     4
 40
7.5
 49
5.0
 74
     4
 75
     0
340
0
 46
1.0
 50
0.0
 44
0.0
 45
0.0
 49
-1.25
 74
     4
 75
     0
340
0
 46
1.0
 50
0.0
 44
0.0
 45
0.0
 49
0.0
 74
     4
 75
     0
340
0
 46
1.0
 50
0.0
 44
0.0
 45
0.0
 49
-1.25
 74
     4
 75
     0
340
0
 46
1.0
 50
0.0
 44
0.0
 45
0.0
  0
ENDTAB
  0
TABLE
  2
LAYER
  5
2
330
0
100
AcDbSymbolTable
 70
    14
  0
LAYER
  5
10
330
2
100
AcDbSymbolTableRecord
100
AcDbLayerTableRecord
  2
0
 70
     0
 62
     7
  6
Continuous
370
    -3
390
F
  0
LAYER
  5
2B
330
2
100
AcDbSymbolTableRecord
100
AcDbLayerTableRecord
  2
LC-INFO-1-2-mm-A3-0
 70
     1
 62
     7
  6
ByBlock
370
    -3
390
F
  0
LAYER
  5
2C
330
2
100
AcDbSymbolTableRecord
100
AcDbLayerTableRecord
  2
LC-CUT-HIDDEN
 70
     0
 62
     7
  6
DASHED
370
    -3
390
F
  0
LAYER
  5
2D
330
2
100
AcDbSymbolTableRecord
100
AcDbLayerTableRecord
  2
LC-VIEWPORT
 70
     0
 62
     7
  6
ByBlock
370
    -3
390
F
  0
LAYER
  5
2E
330
2
100
AcDbSymbolTableRecord
100
AcDbLayerTableRecord
  2
LC-3D-HIDDEN
 70
     0
 62
     9
  6
DASHED
370
    -3
390
F
  0
LAYER
  5
30
330
2
100
AcDbSymbolTableRecord
100
AcDbLayerTableRecord
  2
LC-001-020-----0
 70
     0
 62
     1
  6
ByBlock
370
    -3
390
F
  0
LAYER
  5
94
330
2
100
AcDbSymbolTableRecord
100
AcDbLayerTableRecord
  2
LC-002-002-----0
 70
     0
 62
     1
  6
ByBlock
370
    -3
390
F
  0
LAYER
  5
9B
330
2
100
AcDbSymbolTableRecord
100
AcDbLayerTableRecord
  2
LC-003-005-----0
 70
     0
 62
     2
  6
ByBlock
370
    -3
390
F
  0
LAYER
  5
B8
330
2
100
AcDbSymbolTableRecord
100
AcDbLayerTableRecord
  2
LC-004-001-----0
 70
     0
 62
     2
  6
ByBlock
370
    -3
390
F
  0
LAYER
  5
13B
330
2
100
AcDbSymbolTableRecord
100
AcDbLayerTableRecord
  2
LC-005-003-----0
 70
     0
 62
     2
  6
ByBlock
370
    -3
390
F
  0
LAYER
  5
13D
330
2
100
AcDbSymbolTableRecord
100
AcDbLayerTableRecord
  2
Defpoints
 70
     0
 62
     7
  6
Continuous
290
     0
370
    -3
390
F
  0
LAYER
  5
150
330
2
100
AcDbSymbolTableRecord
100
AcDbLayerTableRecord
  2
LC-006-002-RND-0
 70
     0
 62
     1
  6
ByBlock
370
    -3
390
F
  0
LAYER
  5
44C
330
2
100
AcDbSymbolTableRecord
100
AcDbLayerTableRecord
  2
LC-007-006-MLN-0
 70
     0
 62
     2
  6
CENTER
370
    -3
390
F
  0
LAYER
  5
4A7
330
2
100
AcDbSymbolTableRecord
100
AcDbLayerTableRecord
  2
LC-008-100-D00-0
 70
     0
 62
     1
  6
ByBlock
370
    -3
390
F
  0
ENDTAB
  0
TABLE
  2
STYLE
  5
3
330
0
100
AcDbSymbolTable
 70
     3
  0
STYLE
  5
11
330
3
100
AcDbSymbolTableRecord
100
AcDbTextStyleTableRecord
  2
Standard
 70
     0
 40
0.0
 41
1.0
 50
0.0
 71
     0
 42
2.5
  3
txt
  4

  0
STYLE
  5
2F
330
3
100
AcDbSymbolTableRecord
100
AcDbTextStyleTableRecord
  2
LCTX15-400-0-0-Arial
 70
     0
 40
0.0
 41
0.9
 50
0.0
 71
     0
 42
3.5
  3

  4

1001
ACAD
1000
Arial
1071
 16777218
  0
STYLE
  5
139
330
3
100
AcDbSymbolTableRecord
100
AcDbTextStyleTableRecord
  2
LCTX15-400-0-0pDIN-Schrift
 70
     0
 40
2.5
 41
0.8
 50
15.0
 71
     0
 42
3.5
  3
STANDARD
  4

  0
ENDTAB
  0
TABLE
  2
VIEW
  5
6
330
0
100
AcDbSymbolTable
 70
     0
  0
ENDTAB
  0
TABLE
  2
UCS
  5
7
330
0
100
AcDbSymbolTable
 70
     0
  0
ENDTAB
  0
TABLE
  2
APPID
  5
9
330
0
100
AcDbSymbolTable
 70
     1
  0
APPID
  5
12
330
9
100
AcDbSymbolTableRecord
100
AcDbRegAppTableRecord
  2
ACAD
 70
     0
  0
ENDTAB
  0
TABLE
  2
DIMSTYLE
  5
A
330
0
100
AcDbSymbolTable
 70
     2
100
AcDbDimStyleTable
  0
DIMSTYLE
105
27
330
A
100
AcDbSymbolTableRecord
100
AcDbDimStyleTableRecord
  2
ISO-25
 70
     0
 41
2.5
 42
0.625
 43
3.75
 44
1.25
 73
     0
 74
     0
 77
     1
 78
     8
140
2.5
141
2.5
143
0.03937
147
0.625
171
     3
172
     1
271
     2
272
     2
274
     3
278
    44
283
     0
284
     8
340
11
  0
DIMSTYLE
105
13A
102
{ACAD_REACTORS
330
13C
330
154
330
17A
330
1A6
330
2E8
330
2F5
330
303
330
3DC
330
4FC
330
509
330
516
102
}
330
A
100
AcDbSymbolTableRecord
100
AcDbDimStyleTableRecord
  2
LC-DIM-L-0140-02-02
 70
     0
 40
2.0
 41
14.0
 42
0.0
 43
7.5
 44
1.8
 73
     0
 74
     0
 77
     1
 78
     8
 79
     2
140
14.0
141
0.0
146
0.71
147
1.5
176
     2
177
     2
178
     2
179
     2
271
     2
278
    44
289
     1
340
139
  0
ENDTAB
  0
TABLE
  2
BLOCK_RECORD
  5
1
330
0
100
AcDbSymbolTable
 70
    33
  0
BLOCK_RECORD
  5
1F
330
1
100
AcDbSymbolTableRecord
100
AcDbBlockTableRecord
  2
*Model_Space
340
22
  0
BLOCK_RECORD
  5
1B
330
1
100
AcDbSymbolTableRecord
100
AcDbBlockTableRecord
  2
*Paper_Space
340
1E
  0
BLOCK_RECORD
  5
23
330
1
100
AcDbSymbolTableRecord
100
AcDbBlockTableRecord
  2
*Paper_Space0
340
26
  0
BLOCK_RECORD
  5
71
330
1
100
AcDbSymbolTableRecord
100
AcDbBlockTableRecord
  2
*X11
340
0
102
{BLKREFS
331
7F
102
}
  0
BLOCK_RECORD
  5
80
330
1
100
AcDbSymbolTableRecord
100
AcDbBlockTableRecord
  2
*X22
340
0
102
{BLKREFS
331
8D
102
}
  0
BLOCK_RECORD
  5
98
330
1
100
AcDbSymbolTableRecord
100
AcDbBlockTableRecord
  2
*X33
340
0
102
{BLKREFS
331
B7
102
}
  0
BLOCK_RECORD
  5
BA
330
1
100
AcDbSymbolTableRecord
100
AcDbBlockTableRecord
  2
*X44
340
0
102
{BLKREFS
331
C2
102
}
  0
BLOCK_RECORD
  5
C3
330
1
100
AcDbSymbolTableRecord
100
AcDbBlockTableRecord
  2
*X55
340
0
102
{BLKREFS
331
DA
102
}
  0
BLOCK_RECORD
  5
129
330
1
100
AcDbSymbolTableRecord
100
AcDbBlockTableRecord
  2
*X66
340
0
102
{BLKREFS
331
12E
102
}
  0
BLOCK_RECORD
  5
132
330
1
100
AcDbSymbolTableRecord
100
AcDbBlockTableRecord
  2
*X77
340
0
102
{BLKREFS
331
137
102
}
  0
BLOCK_RECORD
  5
13E
330
1
100
AcDbSymbolTableRecord
100
AcDbBlockTableRecord
  2
*D8
340
0
  0
BLOCK_RECORD
  5
155
330
1
100
AcDbSymbolTableRecord
100
AcDbBlockTableRecord
  2
*D9
340
0
  0
BLOCK_RECORD
  5
17B
330
1
100
AcDbSymbolTableRecord
100
AcDbBlockTableRecord
  2
*D10
340
0
  0
BLOCK_RECORD
  5
1A7
330
1
100
AcDbSymbolTableRecord
100
AcDbBlockTableRecord
  2
*D11
340
0
  0
BLOCK_RECORD
  5
1B3
330
1
100
AcDbSymbolTableRecord
100
AcDbBlockTableRecord
  2
*X812
340
0
102
{BLKREFS
331
1FE
102
}
  0
BLOCK_RECORD
  5
1FF
330
1
100
AcDbSymbolTableRecord
100
AcDbBlockTableRecord
  2
*X913
340
0
102
{BLKREFS
331
245
102
}
  0
BLOCK_RECORD
  5
251
330
1
100
AcDbSymbolTableRecord
100
AcDbBlockTableRecord
  2
*X1014
340
0
102
{BLKREFS
331
290
102
}
  0
BLOCK_RECORD
  5
292
330
1
100
AcDbSymbolTableRecord
100
AcDbBlockTableRecord
  2
*X1115
340
0
102
{BLKREFS
331
2E6
102
}
  0
BLOCK_RECORD
  5
2E9
330
1
100
AcDbSymbolTableRecord
100
AcDbBlockTableRecord
  2
*D16
340
0
  0
BLOCK_RECORD
  5
2F6
330
1
100
AcDbSymbolTableRecord
100
AcDbBlockTableRecord
  2
*D17
340
0
  0
BLOCK_RECORD
  5
304
330
1
100
AcDbSymbolTableRecord
100
AcDbBlockTableRecord
  2
*D18
340
0
  0
BLOCK_RECORD
  5
313
330
1
100
AcDbSymbolTableRecord
100
AcDbBlockTableRecord
  2
*X1219
340
0
102
{BLKREFS
331
31A
102
}
  0
BLOCK_RECORD
  5
31B
330
1
100
AcDbSymbolTableRecord
100
AcDbBlockTableRecord
  2
*X1320
340
0
102
{BLKREFS
331
328
102
}
  0
BLOCK_RECORD
  5
329
330
1
100
AcDbSymbolTableRecord
100
AcDbBlockTableRecord
  2
*X1421
340
0
102
{BLKREFS
331
336
102
}
  0
BLOCK_RECORD
  5
337
330
1
100
AcDbSymbolTableRecord
100
AcDbBlockTableRecord
  2
*X1522
340
0
102
{BLKREFS
331
368
102
}
  0
BLOCK_RECORD
  5
3B5
330
1
100
AcDbSymbolTableRecord
100
AcDbBlockTableRecord
  2
*X1623
340
0
102
{BLKREFS
331
3C6
102
}
  0
BLOCK_RECORD
  5
3C7
330
1
100
AcDbSymbolTableRecord
100
AcDbBlockTableRecord
  2
*X1724
340
0
102
{BLKREFS
331
3DB
102
}
  0
BLOCK_RECORD
  5
3DD
330
1
100
AcDbSymbolTableRecord
100
AcDbBlockTableRecord
  2
*D25
340
0
  0
BLOCK_RECORD
  5
3F6
330
1
100
AcDbSymbolTableRecord
100
AcDbBlockTableRecord
  2
*X1826
340
0
102
{BLKREFS
331
420
102
}
  0
BLOCK_RECORD
  5
44E
330
1
100
AcDbSymbolTableRecord
100
AcDbBlockTableRecord
  2
*X1927
340
0
102
{BLKREFS
331
4A1
102
}
  0
BLOCK_RECORD
  5
4C7
330
1
100
AcDbSymbolTableRecord
100
AcDbBlockTableRecord
  2
KLON1
340
0
102
{BLKREFS
331
4D1
102
}
  0
BLOCK_RECORD
  5
4F1
330
1
100
AcDbSymbolTableRecord
100
AcDbBlockTableRecord
  2
KLON2
340
0
102
{BLKREFS
331
4FB
102
}
  0
BLOCK_RECORD
  5
4FD
330
1
100
AcDbSymbolTableRecord
100
AcDbBlockTableRecord
  2
*D30
340
0
  0
BLOCK_RECORD
  5
50A
330
1
100
AcDbSymbolTableRecord
100
AcDbBlockTableRecord
  2
*D31
340
0
  0
BLOCK_RECORD
  5
517
330
1
100
AcDbSymbolTableRecord
100
AcDbBlockTableRecord
  2
*D32
340
0
  0
ENDTAB
  0
ENDSEC
  0
SECTION
  2
BLOCKS
  0
BLOCK
  5
20
330
1F
100
AcDbEntity
  8
0
100
AcDbBlockBegin
  2
*Model_Space
 70
     0
 71
     0
 10
0.0
 20
0.0
 30
0.0
  3
*Model_Space
  1

  0
ENDBLK
  5
21
330
1F
100
AcDbEntity
  8
0
100
AcDbBlockEnd
  0
BLOCK
  5
1C
330
1B
100
AcDbEntity
 67
     1
  8
0
100
AcDbBlockBegin
  2
*Paper_Space
 70
     0
 71
     0
 10
0.0
 20
0.0
 30
0.0
  3
*Paper_Space
  1

  0
ENDBLK
  5
1D
330
1B
100
AcDbEntity
 67
     1
  8
0
100
AcDbBlockEnd
  0
BLOCK
  5
24
330
23
100
AcDbEntity
  8
0
100
AcDbBlockBegin
  2
*Paper_Space0
 70
     0
 71
     0
 10
0.0
 20
0.0
 30
0.0
  3
*Paper_Space0
  1

  0
ENDBLK
  5
25
330
23
100
AcDbEntity
  8
0
100
AcDbBlockEnd
  0
BLOCK
  5
72
330
71
100
AcDbEntity
  8
0
100
AcDbBlockBegin
  2
*X11
 70
     1
 71
     0
 10
0.0
 20
0.0
 30
0.0
  3
*X11
  1

  4
*X1
  0
LINE
  5
74
330
71
100
AcDbEntity
  8
LC-001-020-----0
 62
     7
370
    25
100
AcDbLine
 10
397.458133
 20
360.688077
 30
0.0
 11
399.381552
 21
362.611494
 31
0.0
  0
LINE
  5
75
330
71
100
AcDbEntity
  8
LC-001-020-----0
 62
     7
370
    25
100
AcDbLine
 10
394.920636
 20
360.979009
 30
0.0
 11
396.694376
 21
362.752747
 31
0.0
  0
LINE
  5
76
330
71
100
AcDbEntity
  8
LC-001-020-----0
 62
     7
370
    25
100
AcDbLine
 10
392.56176
 20
361.448562
 30
0.0
 11
394.212635
 21
363.099434
 31
0.0
  0
LINE
  5
77
330
71
100
AcDbEntity
  8
LC-001-020-----0
 62
     7
370
    25
100
AcDbLine
 10
390.354794
 20
362.070024
 30
0.0
 11
391.900573
 21
363.6158
 31
0.0
  0
LINE
  5
78
330
71
100
AcDbEntity
  8
LC-001-020-----0
 62
     7
370
    25
100
AcDbLine
 10
383.066925
 20
357.61059
 30
0.0
 11
384.6177
 21
359.161363
 31
0.0
  0
LINE
  5
79
330
71
100
AcDbEntity
  8
LC-001-020-----0
 62
     7
370
    25
100
AcDbLine
 10
388.281319
 20
362.824976
 30
0.0
 11
389.734333
 21
364.277989
 31
0.0
  0
LINE
  5
7A
330
71
100
AcDbEntity
  8
LC-001-020-----0
 62
     7
370
    25
100
AcDbLine
 10
382.117701
 20
359.489792
 30
0.0
 11
384.617704
 21
361.989792
 31
0.0
  0
LINE
  5
7B
330
71
100
AcDbEntity
  8
LC-001-020-----0
 62
     7
370
    25
100
AcDbLine
 10
386.328235
 20
363.70032
 30
0.0
 11
387.697289
 21
365.069373
 31
0.0
  0
LINE
  5
7C
330
71
100
AcDbEntity
  8
LC-001-020-----0
 62
     7
370
    25
100
AcDbLine
 10
382.117705
 20
362.318221
 30
0.0
 11
385.777544
 21
365.978056
 31
0.0
  0
LINE
  5
7D
330
71
100
AcDbEntity
  8
LC-001-020-----0
 62
     7
370
    25
100
AcDbLine
 10
381.08165
 20
364.110592
 30
0.0
 11
383.58165
 21
366.610589
 31
0.0
  0
LINE
  5
7E
330
71
100
AcDbEntity
  8
LC-001-020-----0
 62
     7
370
    25
100
AcDbLine
 10
378.253224
 20
364.110596
 30
0.0
 11
380.753224
 21
366.610593
 31
0.0
  0
ENDBLK
  5
73
330
71
100
AcDbEntity
  8
0
100
AcDbBlockEnd
  0
BLOCK
  5
81
330
80
100
AcDbEntity
  8
0
100
AcDbBlockBegin
  2
*X22
 70
     1
 71
     0
 10
0.0
 20
0.0
 30
0.0
  3
*X22
  1

  4
*X2
  0
LINE
  5
83
330
80
100
AcDbEntity
  8
LC-001-020-----0
 62
     7
370
    25
100
AcDbLine
 10
417.008028
 20
357.610545
 30
0.0
 11
417.117698
 21
357.720215
 31
0.0
  0
LINE
  5
84
330
80
100
AcDbEntity
  8
LC-001-020-----0
 62
     7
370
    25
100
AcDbLine
 10
414.617699
 20
358.048644
 30
0.0
 11
417.117702
 21
360.548644
 31
0.0
  0
LINE
  5
85
330
80
100
AcDbEntity
  8
LC-001-020-----0
 62
     7
370
    25
100
AcDbLine
 10
420.679603
 20
364.11054
 30
0.0
 11
421.117708
 21
364.548644
 31
0.0
  0
LINE
  5
86
330
80
100
AcDbEntity
  8
LC-001-020-----0
 62
     7
370
    25
100
AcDbLine
 10
414.617703
 20
360.877073
 30
0.0
 11
417.117706
 21
363.377073
 31
0.0
  0
LINE
  5
87
330
80
100
AcDbEntity
  8
LC-001-020-----0
 62
     7
370
    25
100
AcDbLine
 10
417.851178
 20
364.110544
 30
0.0
 11
420.351178
 21
366.61054
 31
0.0
  0
LINE
  5
88
330
80
100
AcDbEntity
  8
LC-001-020-----0
 62
     7
370
    25
100
AcDbLine
 10
414.617706
 20
363.705502
 30
0.0
 11
417.522753
 21
366.610544
 31
0.0
  0
LINE
  5
89
330
80
100
AcDbEntity
  8
LC-001-020-----0
 62
     7
370
    25
100
AcDbLine
 10
410.877892
 20
362.794117
 30
0.0
 11
414.694327
 21
366.610548
 31
0.0
  0
LINE
  5
8A
330
80
100
AcDbEntity
  8
LC-001-020-----0
 62
     7
370
    25
100
AcDbLine
 10
406.713522
 20
361.458178
 30
0.0
 11
409.550533
 21
364.295186
 31
0.0
  0
LINE
  5
8B
330
80
100
AcDbEntity
  8
LC-001-020-----0
 62
     7
370
    25
100
AcDbLine
 10
403.258264
 20
360.83135
 30
0.0
 11
405.647003
 21
363.220086
 31
0.0
  0
LINE
  5
8C
330
80
100
AcDbEntity
  8
LC-001-020-----0
 62
     7
370
    25
100
AcDbLine
 10
400.214973
 20
360.616489
 30
0.0
 11
402.33154
 21
362.733052
 31
0.0
  0
ENDBLK
  5
82
330
80
100
AcDbEntity
  8
0
100
AcDbBlockEnd
  0
BLOCK
  5
99
330
98
100
AcDbEntity
  8
0
100
AcDbBlockBegin
  2
*X33
 70
     1
 71
     0
 10
0.0
 20
0.0
 30
0.0
  3
*X33
  1

  4
*X3
  0
LINE
  5
9C
330
98
100
AcDbEntity
  8
LC-003-005-----0
 62
     7
370
    25
100
AcDbLine
 10
363.94948
 20
270.610964
 30
0.0
 11
364.760769
 21
271.422252
 31
0.0
  0
LINE
  5
9D
330
98
100
AcDbEntity
  8
LC-003-005-----0
 62
     7
370
    25
100
AcDbLine
 10
363.519152
 20
273.009062
 30
0.0
 11
365.369243
 21
274.859151
 31
0.0
  0
LINE
  5
9E
330
98
100
AcDbEntity
  8
LC-003-005-----0
 62
     7
370
    25
100
AcDbLine
 10
364.127626
 20
276.44596
 30
0.0
 11
365.977717
 21
278.296049
 31
0.0
  0
LINE
  5
9F
330
98
100
AcDbEntity
  8
LC-003-005-----0
 62
     7
370
    25
100
AcDbLine
 10
364.7361
 20
279.882859
 30
0.0
 11
366.586192
 21
281.732948
 31
0.0
  0
LINE
  5
A0
330
98
100
AcDbEntity
  8
LC-003-005-----0
 62
     7
370
    25
100
AcDbLine
 10
365.344574
 20
283.319757
 30
0.0
 11
367.194666
 21
285.169846
 31
0.0
  0
LINE
  5
A1
330
98
100
AcDbEntity
  8
LC-003-005-----0
 62
     7
370
    25
100
AcDbLine
 10
365.953048
 20
286.756656
 30
0.0
 11
367.80314
 21
288.606745
 31
0.0
  0
LINE
  5
A2
330
98
100
AcDbEntity
  8
LC-003-005-----0
 62
     7
370
    25
100
AcDbLine
 10
366.561523
 20
290.193555
 30
0.0
 11
368.411614
 21
292.043644
 31
0.0
  0
LINE
  5
A3
330
98
100
AcDbEntity
  8
LC-003-005-----0
 62
     7
370
    25
100
AcDbLine
 10
367.169997
 20
293.630453
 30
0.0
 11
369.020088
 21
295.480542
 31
0.0
  0
LINE
  5
A4
330
98
100
AcDbEntity
  8
LC-003-005-----0
 62
     7
370
    25
100
AcDbLine
 10
367.778471
 20
297.067352
 30
0.0
 11
369.628562
 21
298.917441
 31
0.0
  0
LINE
  5
A5
330
98
100
AcDbEntity
  8
LC-003-005-----0
 62
     7
370
    25
100
AcDbLine
 10
368.386945
 20
300.50425
 30
0.0
 11
370.237037
 21
302.354339
 31
0.0
  0
LINE
  5
A6
330
98
100
AcDbEntity
  8
LC-003-005-----0
 62
     7
370
    25
100
AcDbLine
 10
368.995419
 20
303.941149
 30
0.0
 11
370.845511
 21
305.791238
 31
0.0
  0
LINE
  5
A7
330
98
100
AcDbEntity
  8
LC-003-005-----0
 62
     7
370
    25
100
AcDbLine
 10
369.603893
 20
307.378047
 30
0.0
 11
371.453985
 21
309.228137
 31
0.0
  0
LINE
  5
A8
330
98
100
AcDbEntity
  8
LC-003-005-----0
 62
     7
370
    25
100
AcDbLine
 10
370.212367
 20
310.814946
 30
0.0
 11
372.062459
 21
312.665035
 31
0.0
  0
LINE
  5
A9
330
98
100
AcDbEntity
  8
LC-003-005-----0
 62
     7
370
    25
100
AcDbLine
 10
370.820842
 20
314.251845
 30
0.0
 11
372.670933
 21
316.101934
 31
0.0
  0
LINE
  5
AA
330
98
100
AcDbEntity
  8
LC-003-005-----0
 62
     7
370
    25
100
AcDbLine
 10
371.429316
 20
317.688743
 30
0.0
 11
373.279407
 21
319.538832
 31
0.0
  0
LINE
  5
AB
330
98
100
AcDbEntity
  8
LC-003-005-----0
 62
     7
370
    25
100
AcDbLine
 10
372.03779
 20
321.125642
 30
0.0
 11
373.887881
 21
322.975731
 31
0.0
  0
LINE
  5
AC
330
98
100
AcDbEntity
  8
LC-003-005-----0
 62
     7
370
    25
100
AcDbLine
 10
372.646264
 20
324.56254
 30
0.0
 11
374.496356
 21
326.412629
 31
0.0
  0
LINE
  5
AD
330
98
100
AcDbEntity
  8
LC-003-005-----0
 62
     7
370
    25
100
AcDbLine
 10
373.254738
 20
327.999439
 30
0.0
 11
375.10483
 21
329.849528
 31
0.0
  0
LINE
  5
AE
330
98
100
AcDbEntity
  8
LC-003-005-----0
 62
     7
370
    25
100
AcDbLine
 10
373.863212
 20
331.436338
 30
0.0
 11
375.713304
 21
333.286427
 31
0.0
  0
LINE
  5
AF
330
98
100
AcDbEntity
  8
LC-003-005-----0
 62
     7
370
    25
100
AcDbLine
 10
374.471687
 20
334.873236
 30
0.0
 11
376.321778
 21
336.723325
 31
0.0
  0
LINE
  5
B0
330
98
100
AcDbEntity
  8
LC-003-005-----0
 62
     7
370
    25
100
AcDbLine
 10
375.080161
 20
338.310135
 30
0.0
 11
376.930252
 21
340.160224
 31
0.0
  0
LINE
  5
B1
330
98
100
AcDbEntity
  8
LC-003-005-----0
 62
     7
370
    25
100
AcDbLine
 10
375.688635
 20
341.747033
 30
0.0
 11
377.538726
 21
343.597122
 31
0.0
  0
LINE
  5
B2
330
98
100
AcDbEntity
  8
LC-003-005-----0
 62
     7
370
    25
100
AcDbLine
 10
376.617686
 20
348.332934
 30
0.0
 11
378.08561
 21
349.800856
 31
0.0
  0
LINE
  5
B3
330
98
100
AcDbEntity
  8
LC-003-005-----0
 62
     7
370
    25
100
AcDbLine
 10
376.61769
 20
351.161363
 30
0.0
 11
378.085614
 21
352.629285
 31
0.0
  0
LINE
  5
B4
330
98
100
AcDbEntity
  8
LC-003-005-----0
 62
     7
370
    25
100
AcDbLine
 10
376.617693
 20
353.989792
 30
0.0
 11
378.085618
 21
355.457714
 31
0.0
  0
LINE
  5
B5
330
98
100
AcDbEntity
  8
LC-003-005-----0
 62
     7
370
    25
100
AcDbLine
 10
376.617697
 20
356.818221
 30
0.0
 11
378.085621
 21
358.286143
 31
0.0
  0
LINE
  5
B6
330
98
100
AcDbEntity
  8
LC-003-005-----0
 62
     7
370
    25
100
AcDbLine
 10
376.617701
 20
359.64665
 30
0.0
 11
379.581652
 21
362.610596
 31
0.0
  0
ENDBLK
  5
9A
330
98
100
AcDbEntity
  8
0
100
AcDbBlockEnd
  0
BLOCK
  5
BB
330
BA
100
AcDbEntity
  8
0
100
AcDbBlockBegin
  2
*X44
 70
     1
 71
     0
 10
0.0
 20
0.0
 30
0.0
  3
*X44
  1

  4
*X4
  0
LINE
  5
BD
330
BA
100
AcDbEntity
  8
LC-003-005-----0
 62
     7
370
    25
100
AcDbLine
 10
428.277831
 20
363.223482
 30
0.0
 11
429.345559
 21
364.291208
 31
0.0
  0
LINE
  5
BE
330
BA
100
AcDbEntity
  8
LC-003-005-----0
 62
     7
370
    25
100
AcDbLine
 10
426.659915
 20
363.019781
 30
0.0
 11
429.549262
 21
365.909124
 31
0.0
  0
LINE
  5
BF
330
BA
100
AcDbEntity
  8
LC-003-005-----0
 62
     7
370
    25
100
AcDbLine
 10
425.697732
 20
363.471811
 30
0.0
 11
429.097232
 21
366.871308
 31
0.0
  0
LINE
  5
C0
330
BA
100
AcDbEntity
  8
LC-003-005-----0
 62
     7
370
    25
100
AcDbLine
 10
425.049882
 20
364.238175
 30
0.0
 11
428.330869
 21
367.519158
 31
0.0
  0
LINE
  5
C1
330
BA
100
AcDbEntity
  8
LC-003-005-----0
 62
     7
370
    25
100
AcDbLine
 10
424.761268
 20
365.363775
 30
0.0
 11
427.20527
 21
367.807773
 31
0.0
  0
ENDBLK
  5
BC
330
BA
100
AcDbEntity
  8
0
100
AcDbBlockEnd
  0
BLOCK
  5
C4
330
C3
100
AcDbEntity
  8
0
100
AcDbBlockBegin
  2
*X55
 70
     1
 71
     0
 10
0.0
 20
0.0
 30
0.0
  3
*X55
  1

  4
*X5
  0
LINE
  5
C6
330
C3
100
AcDbEntity
  8
LC-003-005-----0
 62
     7
370
    25
100
AcDbLine
 10
423.117714
 20
369.610537
 30
0.0
 11
423.117705
 21
362.610537
 31
0.0
  0
LINE
  5
C7
330
C3
100
AcDbEntity
  8
LC-003-005-----0
 62
     7
370
    25
100
AcDbLine
 10
423.117705
 20
362.610537
 30
0.0
 11
417.117705
 21
362.610545
 31
0.0
  0
LINE
  5
C8
330
C3
100
AcDbEntity
  8
LC-003-005-----0
 62
     7
370
    25
100
AcDbLine
 10
417.117705
 20
362.610545
 30
0.0
 11
417.117703
 21
361.110545
 31
0.0
  0
LINE
  5
C9
330
C3
100
AcDbEntity
  8
LC-003-005-----0
 62
     7
370
    25
100
AcDbLine
 10
417.117703
 20
361.110545
 30
0.0
 11
429.617703
 21
361.110528
 31
0.0
  0
LINE
  5
CA
330
C3
100
AcDbEntity
  8
LC-003-005-----0
 62
     7
370
    25
100
AcDbLine
 10
429.617703
 20
361.110528
 30
0.0
 11
429.617705
 21
362.610528
 31
0.0
  0
LINE
  5
CB
330
C3
100
AcDbEntity
  8
LC-003-005-----0
 62
     7
370
    25
100
AcDbLine
 10
429.617705
 20
362.610528
 30
0.0
 11
424.617705
 21
362.610535
 31
0.0
  0
LINE
  5
CC
330
C3
100
AcDbEntity
  8
LC-003-005-----0
 62
     7
370
    25
100
AcDbLine
 10
424.617705
 20
362.610535
 30
0.0
 11
424.617712
 21
368.110535
 31
0.0
  0
LINE
  5
CD
330
C3
100
AcDbEntity
  8
LC-003-005-----0
 62
     7
370
    25
100
AcDbLine
 10
424.617712
 20
368.110535
 30
0.0
 11
429.617712
 21
368.110528
 31
0.0
  0
LINE
  5
CE
330
C3
100
AcDbEntity
  8
LC-003-005-----0
 62
     7
370
    25
100
AcDbLine
 10
429.617712
 20
368.110528
 30
0.0
 11
429.617714
 21
369.610528
 31
0.0
  0
LINE
  5
CF
330
C3
100
AcDbEntity
  8
LC-003-005-----0
 62
     7
370
    25
100
AcDbLine
 10
429.617714
 20
369.610528
 30
0.0
 11
423.117714
 21
369.610537
 31
0.0
  0
LINE
  5
D0
330
C3
100
AcDbEntity
  8
LC-003-005-----0
 62
     7
370
    25
100
AcDbLine
 10
428.993304
 20
361.110529
 30
0.0
 11
429.617704
 21
361.734928
 31
0.0
  0
LINE
  5
D1
330
C3
100
AcDbEntity
  8
LC-003-005-----0
 62
     7
370
    25
100
AcDbLine
 10
426.164879
 20
361.110533
 30
0.0
 11
427.664879
 21
362.610531
 31
0.0
  0
LINE
  5
D2
330
C3
100
AcDbEntity
  8
LC-003-005-----0
 62
     7
370
    25
100
AcDbLine
 10
423.336454
 20
361.110536
 30
0.0
 11
424.836454
 21
362.610534
 31
0.0
  0
LINE
  5
D3
330
C3
100
AcDbEntity
  8
LC-003-005-----0
 62
     7
370
    25
100
AcDbLine
 10
420.508028
 20
361.11054
 30
0.0
 11
422.008028
 21
362.610538
 31
0.0
  0
LINE
  5
D4
330
C3
100
AcDbEntity
  8
LC-003-005-----0
 62
     7
370
    25
100
AcDbLine
 10
423.117706
 20
363.720215
 30
0.0
 11
424.617708
 21
365.220215
 31
0.0
  0
LINE
  5
D5
330
C3
100
AcDbEntity
  8
LC-003-005-----0
 62
     7
370
    25
100
AcDbLine
 10
427.508028
 20
368.110531
 30
0.0
 11
429.008028
 21
369.610529
 31
0.0
  0
LINE
  5
D6
330
C3
100
AcDbEntity
  8
LC-003-005-----0
 62
     7
370
    25
100
AcDbLine
 10
417.679603
 20
361.110544
 30
0.0
 11
419.179603
 21
362.610542
 31
0.0
  0
LINE
  5
D7
330
C3
100
AcDbEntity
  8
LC-003-005-----0
 62
     7
370
    25
100
AcDbLine
 10
423.11771
 20
366.548644
 30
0.0
 11
424.617712
 21
368.048644
 31
0.0
  0
LINE
  5
D8
330
C3
100
AcDbEntity
  8
LC-003-005-----0
 62
     7
370
    25
100
AcDbLine
 10
424.679603
 20
368.110535
 30
0.0
 11
426.179603
 21
369.610533
 31
0.0
  0
LINE
  5
D9
330
C3
100
AcDbEntity
  8
LC-003-005-----0
 62
     7
370
    25
100
AcDbLine
 10
423.117714
 20
369.377073
 30
0.0
 11
423.351178
 21
369.610536
 31
0.0
  0
ENDBLK
  5
C5
330
C3
100
AcDbEntity
  8
0
100
AcDbBlockEnd
  0
BLOCK
  5
12A
330
129
100
AcDbEntity
  8
0
100
AcDbBlockBegin
  2
*X66
 70
     1
 71
     0
 10
0.0
 20
0.0
 30
0.0
  3
*X66
  1

  4
*X6
  0
LINE
  5
12C
330
129
100
AcDbEntity
  8
LC-003-005-----0
 62
     7
370
    25
100
AcDbLine
 10
227.868065
 20
361.858902
 30
0.0
 11
230.11289
 21
359.61408
 31
0.0
  0
LINE
  5
12D
330
129
100
AcDbEntity
  8
LC-003-005-----0
 62
     7
370
    25
100
AcDbLine
 10
231.355529
 20
362.61408
 30
0.0
 11
234.061741
 21
359.907871
 31
0.0
  0
ENDBLK
  5
12B
330
129
100
AcDbEntity
  8
0
100
AcDbBlockEnd
  0
BLOCK
  5
133
330
132
100
AcDbEntity
  8
0
100
AcDbBlockBegin
  2
*X77
 70
     1
 71
     0
 10
0.0
 20
0.0
 30
0.0
  3
*X77
  1

  4
*X7
  0
LINE
  5
135
330
132
100
AcDbEntity
  8
LC-003-005-----0
 62
     7
370
    25
100
AcDbLine
 10
229.200569
 20
309.614745
 30
0.0
 11
232.200589
 21
306.614729
 31
0.0
  0
LINE
  5
136
330
132
100
AcDbEntity
  8
LC-003-005-----0
 62
     7
370
    25
100
AcDbLine
 10
233.474703
 20
309.583255
 30
0.0
 11
234.637591
 21
308.420368
 31
0.0
  0
ENDBLK
  5
134
330
132
100
AcDbEntity
  8
0
100
AcDbBlockEnd
  0
BLOCK
  5
14A
330
13E
100
AcDbEntity
  8
0
100
AcDbBlockBegin
  2
*D8
 70
     1
 71
     0
 10
0.0
 20
0.0
 30
0.0
  3
*D8
  1

  0
LINE
  5
13F
330
13E
100
AcDbEntity
  8
LC-005-003-----0
 62
     2
370
    -2
100
AcDbLine
 10
393.117639
 20
331.114209
 30
0.0
 11
354.616212
 21
331.114209
 31
0.0
  0
LINE
  5
140
330
13E
100
AcDbEntity
  8
LC-005-003-----0
 62
     2
370
    -2
100
AcDbLine
 10
369.7264
 20
270.610955
 30
0.0
 11
354.616212
 21
270.610955
 31
0.0
  0
LINE
  5
141
330
13E
100
AcDbEntity
  8
LC-005-003-----0
 62
     2
370
    -2
100
AcDbLine
 10
358.216212
 20
359.114209
 30
0.0
 11
358.216212
 21
387.114209
 31
0.0
  0
LINE
  5
142
330
13E
100
AcDbEntity
  8
LC-005-003-----0
 62
     2
370
    -2
100
AcDbLine
 10
358.216212
 20
242.610955
 30
0.0
 11
358.216212
 21
214.610955
 31
0.0
  0
LINE
  5
143
330
13E
100
AcDbEntity
  8
LC-005-003-----0
 62
     2
370
    -2
100
AcDbLine
 10
358.216212
 20
331.114209
 30
0.0
 11
358.216212
 21
270.610955
 31
0.0
  0
SOLID
  5
144
330
13E
100
AcDbEntity
  8
LC-005-003-----0
 62
     2
100
AcDbTrace
 10
353.549546
 20
359.114209
 30
0.0
 11
362.882879
 21
359.114209
 31
0.0
 12
358.216212
 22
331.114209
 32
0.0
 13
358.216212
 23
331.114209
 33
0.0
  0
SOLID
  5
145
330
13E
100
AcDbEntity
  8
LC-005-003-----0
 62
     2
100
AcDbTrace
 10
362.882879
 20
242.610955
 30
0.0
 11
353.549546
 21
242.610955
 31
0.0
 12
358.216212
 22
270.610955
 32
0.0
 13
358.216212
 23
270.610955
 33
0.0
  0
MTEXT
  5
146
330
13E
100
AcDbEntity
  8
LC-005-003-----0
 62
     2
100
AcDbMText
 10
327.416212
 20
298.399296
 30
0.0
 40
28.0
 41
0.0
 71
     5
 72
     1
  1
\A1;60
  7
LCTX15-400-0-0pDIN-Schrift
 11
6.123031769111886E-17
 21
1.0
 31
0.0
 73
     1
 44
1.0
  0
POINT
  5
147
330
13E
100
AcDbEntity
  8
Defpoints
 62
     0
100
AcDbPoint
 10
393.117639
 20
331.114209
 30
0.0
  0
POINT
  5
148
330
13E
100
AcDbEntity
  8
Defpoints
 62
     0
100
AcDbPoint
 10
369.7264
 20
270.610955
 30
0.0
  0
POINT
  5
149
330
13E
100
AcDbEntity
  8
Defpoints
 62
     0
100
AcDbPoint
 10
358.216212
 20
270.610955
 30
0.0
  0
ENDBLK
  5
14B
330
13E
100
AcDbEntity
  8
0
100
AcDbBlockEnd
  0
BLOCK
  5
15F
330
155
100
AcDbEntity
  8
0
100
AcDbBlockBegin
  2
*D9
 70
     1
 71
     0
 10
0.0
 20
0.0
 30
0.0
  3
*D9
  1

  0
LINE
  5
156
330
155
100
AcDbEntity
  8
LC-005-003-----0
 62
     2
370
    -2
100
AcDbLine
 10
209.943443
 20
402.108731
 30
0.0
 11
114.0
 21
402.108731
 31
0.0
  0
LINE
  5
157
330
155
100
AcDbEntity
  8
LC-005-003-----0
 62
     2
370
    -2
100
AcDbLine
 10
308.608272
 20
251.11432
 30
0.0
 11
114.0
 21
251.11432
 31
0.0
  0
LINE
  5
158
330
155
100
AcDbEntity
  8
LC-005-003-----0
 62
     2
370
    -2
100
AcDbLine
 10
117.6
 20
374.108731
 30
0.0
 11
117.6
 21
279.11432
 31
0.0
  0
SOLID
  5
159
330
155
100
AcDbEntity
  8
LC-005-003-----0
 62
     2
100
AcDbTrace
 10
122.266667
 20
374.108731
 30
0.0
 11
112.933333
 21
374.108731
 31
0.0
 12
117.6
 22
402.108731
 32
0.0
 13
117.6
 23
402.108731
 33
0.0
  0
SOLID
  5
15A
330
155
100
AcDbEntity
  8
LC-005-003-----0
 62
     2
100
AcDbTrace
 10
112.933333
 20
279.11432
 30
0.0
 11
122.266667
 21
279.11432
 31
0.0
 12
117.6
 22
251.11432
 32
0.0
 13
117.6
 23
251.11432
 33
0.0
  0
MTEXT
  5
15B
330
155
100
AcDbEntity
  8
LC-005-003-----0
 62
     2
100
AcDbMText
 10
86.8
 20
326.611525
 30
0.0
 40
28.0
 41
0.0
 71
     5
 72
     1
  1
\A1;150
  7
LCTX15-400-0-0pDIN-Schrift
 11
6.123031769111886E-17
 21
1.0
 31
0.0
 73
     1
 44
1.0
  0
POINT
  5
15C
330
155
100
AcDbEntity
  8
Defpoints
 62
     0
100
AcDbPoint
 10
209.943443
 20
402.108731
 30
0.0
  0
POINT
  5
15D
330
155
100
AcDbEntity
  8
Defpoints
 62
     0
100
AcDbPoint
 10
308.608272
 20
251.11432
 30
0.0
  0
POINT
  5
15E
330
155
100
AcDbEntity
  8
Defpoints
 62
     0
100
AcDbPoint
 10
117.6
 20
251.11432
 30
0.0
  0
ENDBLK
  5
160
330
155
100
AcDbEntity
  8
0
100
AcDbBlockEnd
  0
BLOCK
  5
185
330
17B
100
AcDbEntity
  8
0
100
AcDbBlockBegin
  2
*D10
 70
     1
 71
     0
 10
0.0
 20
0.0
 30
0.0
  3
*D10
  1

  0
LINE
  5
17C
330
17B
100
AcDbEntity
  8
LC-005-003-----0
 62
     2
370
    -2
100
AcDbLine
 10
209.943443
 20
405.114108
 30
0.0
 11
209.943443
 21
474.0
 31
0.0
  0
LINE
  5
17D
330
17B
100
AcDbEntity
  8
LC-005-003-----0
 62
     2
370
    -2
100
AcDbLine
 10
511.272989
 20
405.114108
 30
0.0
 11
511.272989
 21
474.0
 31
0.0
  0
LINE
  5
17E
330
17B
100
AcDbEntity
  8
LC-005-003-----0
 62
     2
370
    -2
100
AcDbLine
 10
237.943443
 20
470.4
 30
0.0
 11
483.272989
 21
470.4
 31
0.0
  0
SOLID
  5
17F
330
17B
100
AcDbEntity
  8
LC-005-003-----0
 62
     2
100
AcDbTrace
 10
237.943443
 20
475.066667
 30
0.0
 11
237.943443
 21
465.733333
 31
0.0
 12
209.943443
 22
470.4
 32
0.0
 13
209.943443
 23
470.4
 33
0.0
  0
SOLID
  5
180
330
17B
100
AcDbEntity
  8
LC-005-003-----0
 62
     2
100
AcDbTrace
 10
483.272989
 20
465.733333
 30
0.0
 11
483.272989
 21
475.066667
 31
0.0
 12
511.272989
 22
470.4
 32
0.0
 13
511.272989
 23
470.4
 33
0.0
  0
MTEXT
  5
181
330
17B
100
AcDbEntity
  8
LC-005-003-----0
 62
     2
100
AcDbMText
 10
360.608216
 20
501.2
 30
0.0
 40
28.0
 41
0.0
 71
     5
 72
     1
  1
\A1;%%c300
  7
LCTX15-400-0-0pDIN-Schrift
 73
     1
 44
1.0
  0
POINT
  5
182
330
17B
100
AcDbEntity
  8
Defpoints
 62
     0
100
AcDbPoint
 10
209.943443
 20
405.114108
 30
0.0
  0
POINT
  5
183
330
17B
100
AcDbEntity
  8
Defpoints
 62
     0
100
AcDbPoint
 10
511.272989
 20
405.114108
 30
0.0
  0
POINT
  5
184
330
17B
100
AcDbEntity
  8
Defpoints
 62
     0
100
AcDbPoint
 10
511.272989
 20
470.4
 30
0.0
  0
ENDBLK
  5
186
330
17B
100
AcDbEntity
  8
0
100
AcDbBlockEnd
  0
BLOCK
  5
1B1
330
1A7
100
AcDbEntity
  8
0
100
AcDbBlockBegin
  2
*D11
 70
     1
 71
     0
 10
0.0
 20
0.0
 30
0.0
  3
*D11
  1

  0
LINE
  5
1A8
330
1A7
100
AcDbEntity
  8
LC-005-003-----0
 62
     2
370
    -2
100
AcDbLine
 10
209.943443
 20
402.108731
 30
0.0
 11
153.2
 21
402.108731
 31
0.0
  0
LINE
  5
1A9
330
1A7
100
AcDbEntity
  8
LC-005-003-----0
 62
     2
370
    -2
100
AcDbLine
 10
220.919971
 20
334.614848
 30
0.0
 11
153.2
 21
334.614848
 31
0.0
  0
LINE
  5
1AA
330
1A7
100
AcDbEntity
  8
LC-005-003-----0
 62
     2
370
    -2
100
AcDbLine
 10
156.8
 20
374.108731
 30
0.0
 11
156.8
 21
362.614848
 31
0.0
  0
SOLID
  5
1AB
330
1A7
100
AcDbEntity
  8
LC-005-003-----0
 62
     2
100
AcDbTrace
 10
161.466667
 20
374.108731
 30
0.0
 11
152.133333
 21
374.108731
 31
0.0
 12
156.8
 22
402.108731
 32
0.0
 13
156.8
 23
402.108731
 33
0.0
  0
SOLID
  5
1AC
330
1A7
100
AcDbEntity
  8
LC-005-003-----0
 62
     2
100
AcDbTrace
 10
152.133333
 20
362.614848
 30
0.0
 11
161.466667
 21
362.614848
 31
0.0
 12
156.8
 22
334.614848
 32
0.0
 13
156.8
 23
334.614848
 33
0.0
  0
MTEXT
  5
1AD
330
1A7
100
AcDbEntity
  8
LC-005-003-----0
 62
     2
100
AcDbMText
 10
126.0
 20
368.361789
 30
0.0
 40
28.0
 41
0.0
 71
     5
 72
     1
  1
\A1;70
  7
LCTX15-400-0-0pDIN-Schrift
 11
6.123031769111886E-17
 21
1.0
 31
0.0
 73
     1
 44
1.0
  0
POINT
  5
1AE
330
1A7
100
AcDbEntity
  8
Defpoints
 62
     0
100
AcDbPoint
 10
209.943443
 20
402.108731
 30
0.0
  0
POINT
  5
1AF
330
1A7
100
AcDbEntity
  8
Defpoints
 62
     0
100
AcDbPoint
 10
220.919971
 20
334.614848
 30
0.0
  0
POINT
  5
1B0
330
1A7
100
AcDbEntity
  8
Defpoints
 62
     0
100
AcDbPoint
 10
156.8
 20
334.614848
 30
0.0
  0
ENDBLK
  5
1B2
330
1A7
100
AcDbEntity
  8
0
100
AcDbBlockEnd
  0
BLOCK
  5
1B4
330
1B3
100
AcDbEntity
  8
0
100
AcDbBlockBegin
  2
*X812
 70
     1
 71
     0
 10
0.0
 20
0.0
 30
0.0
  3
*X812
  1

  4
*X8
  0
LINE
  5
1B6
330
1B3
100
AcDbEntity
  8
LC-003-005-----0
 62
     7
370
    25
100
AcDbLine
 10
291.561024
 20
356.614848
 30
0.0
 11
292.108399
 21
357.162223
 31
0.0
  0
LINE
  5
1B7
330
1B3
100
AcDbEntity
  8
LC-003-005-----0
 62
     7
370
    25
100
AcDbLine
 10
288.732597
 20
356.614848
 30
0.0
 11
292.108403
 21
359.990654
 31
0.0
  0
LINE
  5
1B8
330
1B3
100
AcDbEntity
  8
LC-003-005-----0
 62
     7
370
    25
100
AcDbLine
 10
285.90417
 20
356.614848
 30
0.0
 11
291.098717
 21
361.809395
 31
0.0
  0
LINE
  5
1B9
330
1B3
100
AcDbEntity
  8
LC-003-005-----0
 62
     7
370
    25
100
AcDbLine
 10
283.619404
 20
357.158509
 30
0.0
 11
286.075742
 21
359.614848
 31
0.0
  0
LINE
  5
1BA
330
1B3
100
AcDbEntity
  8
LC-003-005-----0
 62
     7
370
    25
100
AcDbLine
 10
288.608412
 20
362.147517
 30
0.0
 11
291.098717
 21
364.637822
 31
0.0
  0
LINE
  5
1BB
330
1B3
100
AcDbEntity
  8
LC-003-005-----0
 62
     7
370
    25
100
AcDbLine
 10
281.826253
 20
358.193785
 30
0.0
 11
284.022406
 21
360.389938
 31
0.0
  0
LINE
  5
1BC
330
1B3
100
AcDbEntity
  8
LC-003-005-----0
 62
     7
370
    25
100
AcDbLine
 10
288.608412
 20
364.975944
 30
0.0
 11
291.098717
 21
367.46625
 31
0.0
  0
LINE
  5
1BD
330
1B3
100
AcDbEntity
  8
LC-003-005-----0
 62
     7
370
    25
100
AcDbLine
 10
280.033102
 20
359.229062
 30
0.0
 11
282.229255
 21
361.425214
 31
0.0
  0
LINE
  5
1BE
330
1B3
100
AcDbEntity
  8
LC-003-005-----0
 62
     7
370
    25
100
AcDbLine
 10
287.415573
 20
366.611533
 30
0.0
 11
290.264258
 21
369.460217
 31
0.0
  0
LINE
  5
1BF
330
1B3
100
AcDbEntity
  8
LC-003-005-----0
 62
     7
370
    25
100
AcDbLine
 10
277.589707
 20
359.614093
 30
0.0
 11
280.436104
 21
362.46049
 31
0.0
  0
LINE
  5
1C0
330
1B3
100
AcDbEntity
  8
LC-003-005-----0
 62
     7
370
    25
100
AcDbLine
 10
284.587226
 20
366.611612
 30
0.0
 11
287.588962
 21
369.613349
 31
0.0
  0
LINE
  5
1C1
330
1B3
100
AcDbEntity
  8
LC-003-005-----0
 62
     7
370
    25
100
AcDbLine
 10
274.761295
 20
359.614108
 30
0.0
 11
277.761279
 21
362.614092
 31
0.0
  0
LINE
  5
1C2
330
1B3
100
AcDbEntity
  8
LC-003-005-----0
 62
     7
370
    25
100
AcDbLine
 10
281.758878
 20
366.611691
 30
0.0
 11
284.805596
 21
369.658409
 31
0.0
  0
LINE
  5
1C3
330
1B3
100
AcDbEntity
  8
LC-003-005-----0
 62
     7
370
    25
100
AcDbLine
 10
271.932882
 20
359.614123
 30
0.0
 11
274.932867
 21
362.614107
 31
0.0
  0
LINE
  5
1C4
330
1B3
100
AcDbEntity
  8
LC-003-005-----0
 62
     7
370
    25
100
AcDbLine
 10
279.009214
 20
366.690454
 30
0.0
 11
283.332215
 21
371.013456
 31
0.0
  0
LINE
  5
1C5
330
1B3
100
AcDbEntity
  8
LC-003-005-----0
 62
     7
370
    25
100
AcDbLine
 10
269.10447
 20
359.614138
 30
0.0
 11
272.104454
 21
362.614122
 31
0.0
  0
LINE
  5
1C6
330
1B3
100
AcDbEntity
  8
LC-003-005-----0
 62
     7
370
    25
100
AcDbLine
 10
277.296472
 20
367.80614
 30
0.0
 11
283.241183
 21
373.750851
 31
0.0
  0
LINE
  5
1C7
330
1B3
100
AcDbEntity
  8
LC-003-005-----0
 62
     7
370
    25
100
AcDbLine
 10
266.276058
 20
359.614153
 30
0.0
 11
269.276042
 21
362.614137
 31
0.0
  0
LINE
  5
1C8
330
1B3
100
AcDbEntity
  8
LC-003-005-----0
 62
     7
370
    25
100
AcDbLine
 10
276.350573
 20
369.688668
 30
0.0
 11
283.73609
 21
377.074185
 31
0.0
  0
LINE
  5
1C9
330
1B3
100
AcDbEntity
  8
LC-003-005-----0
 62
     7
370
    25
100
AcDbLine
 10
263.447646
 20
359.614168
 30
0.0
 11
266.44763
 21
362.614152
 31
0.0
  0
LINE
  5
1CA
330
1B3
100
AcDbEntity
  8
LC-003-005-----0
 62
     7
370
    25
100
AcDbLine
 10
275.451797
 20
371.618319
 30
0.0
 11
282.144345
 21
378.310867
 31
0.0
  0
LINE
  5
1CB
330
1B3
100
AcDbEntity
  8
LC-003-005-----0
 62
     7
370
    25
100
AcDbLine
 10
260.619234
 20
359.614183
 30
0.0
 11
263.619218
 21
362.614167
 31
0.0
  0
LINE
  5
1CC
330
1B3
100
AcDbEntity
  8
LC-003-005-----0
 62
     7
370
    25
100
AcDbLine
 10
274.553021
 20
373.547971
 30
0.0
 11
279.315918
 21
378.310867
 31
0.0
  0
LINE
  5
1CD
330
1B3
100
AcDbEntity
  8
LC-003-005-----0
 62
     7
370
    25
100
AcDbLine
 10
257.790822
 20
359.614198
 30
0.0
 11
260.790806
 21
362.614182
 31
0.0
  0
LINE
  5
1CE
330
1B3
100
AcDbEntity
  8
LC-003-005-----0
 62
     7
370
    25
100
AcDbLine
 10
273.654246
 20
375.477622
 30
0.0
 11
276.622985
 21
378.446361
 31
0.0
  0
LINE
  5
1CF
330
1B3
100
AcDbEntity
  8
LC-003-005-----0
 62
     7
370
    25
100
AcDbLine
 10
254.96241
 20
359.614213
 30
0.0
 11
257.962394
 21
362.614198
 31
0.0
  0
LINE
  5
1D0
330
1B3
100
AcDbEntity
  8
LC-003-005-----0
 62
     7
370
    25
100
AcDbLine
 10
272.75547
 20
377.407274
 30
0.0
 11
274.839239
 21
379.491043
 31
0.0
  0
LINE
  5
1D1
330
1B3
100
AcDbEntity
  8
LC-003-005-----0
 62
     7
370
    25
100
AcDbLine
 10
252.133998
 20
359.614228
 30
0.0
 11
255.133982
 21
362.614213
 31
0.0
  0
LINE
  5
1D2
330
1B3
100
AcDbEntity
  8
LC-003-005-----0
 62
     7
370
    25
100
AcDbLine
 10
271.856694
 20
379.336925
 30
0.0
 11
273.829957
 21
381.310188
 31
0.0
  0
LINE
  5
1D3
330
1B3
100
AcDbEntity
  8
LC-003-005-----0
 62
     7
370
    25
100
AcDbLine
 10
249.305586
 20
359.614243
 30
0.0
 11
252.30557
 21
362.614228
 31
0.0
  0
LINE
  5
1D4
330
1B3
100
AcDbEntity
  8
LC-003-005-----0
 62
     7
370
    25
100
AcDbLine
 10
271.403664
 20
381.712321
 30
0.0
 11
273.718869
 21
384.027527
 31
0.0
  0
LINE
  5
1D5
330
1B3
100
AcDbEntity
  8
LC-003-005-----0
 62
     7
370
    25
100
AcDbLine
 10
246.477173
 20
359.614258
 30
0.0
 11
249.477158
 21
362.614243
 31
0.0
  0
LINE
  5
1D6
330
1B3
100
AcDbEntity
  8
LC-003-005-----0
 62
     7
370
    25
100
AcDbLine
 10
271.403642
 20
384.540727
 30
0.0
 11
273.718869
 21
386.855954
 31
0.0
  0
LINE
  5
1D7
330
1B3
100
AcDbEntity
  8
LC-003-005-----0
 62
     7
370
    25
100
AcDbLine
 10
243.648761
 20
359.614273
 30
0.0
 11
246.648745
 21
362.614258
 31
0.0
  0
LINE
  5
1D8
330
1B3
100
AcDbEntity
  8
LC-003-005-----0
 62
     7
370
    25
100
AcDbLine
 10
270.829678
 20
386.79519
 30
0.0
 11
273.718869
 21
389.684382
 31
0.0
  0
LINE
  5
1D9
330
1B3
100
AcDbEntity
  8
LC-003-005-----0
 62
     7
370
    25
100
AcDbLine
 10
240.820349
 20
359.614288
 30
0.0
 11
243.820333
 21
362.614273
 31
0.0
  0
LINE
  5
1DA
330
1B3
100
AcDbEntity
  8
LC-003-005-----0
 62
     7
370
    25
100
AcDbLine
 10
268.855275
 20
387.649214
 30
0.0
 11
271.370619
 21
390.164559
 31
0.0
  0
LINE
  5
1DB
330
1B3
100
AcDbEntity
  8
LC-003-005-----0
 62
     7
370
    25
100
AcDbLine
 10
272.000926
 20
390.794865
 30
0.0
 11
273.718869
 21
392.512809
 31
0.0
  0
LINE
  5
1DC
330
1B3
100
AcDbEntity
  8
LC-003-005-----0
 62
     7
370
    25
100
AcDbLine
 10
237.991937
 20
359.614303
 30
0.0
 11
240.991921
 21
362.614288
 31
0.0
  0
LINE
  5
1DD
330
1B3
100
AcDbEntity
  8
LC-003-005-----0
 62
     7
370
    25
100
AcDbLine
 10
267.252781
 20
388.875147
 30
0.0
 11
269.076087
 21
390.698453
 31
0.0
  0
LINE
  5
1DE
330
1B3
100
AcDbEntity
  8
LC-003-005-----0
 62
     7
370
    25
100
AcDbLine
 10
272.000926
 20
393.623293
 30
0.0
 11
273.718869
 21
395.341236
 31
0.0
  0
LINE
  5
1DF
330
1B3
100
AcDbEntity
  8
LC-003-005-----0
 62
     7
370
    25
100
AcDbLine
 10
235.170079
 20
359.620872
 30
0.0
 11
239.170079
 21
363.620872
 31
0.0
  0
LINE
  5
1E0
330
1B3
100
AcDbEntity
  8
LC-003-005-----0
 62
     7
370
    25
100
AcDbLine
 10
266.432385
 20
390.883178
 30
0.0
 11
268.859544
 21
393.310338
 31
0.0
  0
LINE
  5
1E1
330
1B3
100
AcDbEntity
  8
LC-003-005-----0
 62
     7
370
    25
100
AcDbLine
 10
235.009701
 20
362.288922
 30
0.0
 11
237.670079
 21
364.9493
 31
0.0
  0
LINE
  5
1E2
330
1B3
100
AcDbEntity
  8
LC-003-005-----0
 62
     7
370
    25
100
AcDbLine
 10
266.406836
 20
393.686057
 30
0.0
 11
268.859544
 21
396.138765
 31
0.0
  0
LINE
  5
1E3
330
1B3
100
AcDbEntity
  8
LC-003-005-----0
 62
     7
370
    25
100
AcDbLine
 10
233.006432
 20
363.11408
 30
0.0
 11
235.506432
 21
365.61408
 31
0.0
  0
LINE
  5
1E4
330
1B3
100
AcDbEntity
  8
LC-003-005-----0
 62
     7
370
    25
100
AcDbLine
 10
265.932606
 20
396.040254
 30
0.0
 11
268.850291
 21
398.957939
 31
0.0
  0
LINE
  5
1E5
330
1B3
100
AcDbEntity
  8
LC-003-005-----0
 62
     7
370
    25
100
AcDbLine
 10
230.178005
 20
363.11408
 30
0.0
 11
232.678005
 21
365.61408
 31
0.0
  0
LINE
  5
1E6
330
1B3
100
AcDbEntity
  8
LC-003-005-----0
 62
     7
370
    25
100
AcDbLine
 10
263.400632
 20
396.336707
 30
0.0
 11
266.213479
 21
399.149554
 31
0.0
  0
LINE
  5
1E7
330
1B3
100
AcDbEntity
  8
LC-003-005-----0
 62
     7
370
    25
100
AcDbLine
 10
227.349578
 20
363.11408
 30
0.0
 11
229.849578
 21
365.61408
 31
0.0
  0
LINE
  5
1E8
330
1B3
100
AcDbEntity
  8
LC-003-005-----0
 62
     7
370
    25
100
AcDbLine
 10
260.762512
 20
396.527014
 30
0.0
 11
263.576667
 21
399.341169
 31
0.0
  0
LINE
  5
1E9
330
1B3
100
AcDbEntity
  8
LC-003-005-----0
 62
     7
370
    25
100
AcDbLine
 10
258.124391
 20
396.71732
 30
0.0
 11
260.939856
 21
399.532785
 31
0.0
  0
LINE
  5
1EA
330
1B3
100
AcDbEntity
  8
LC-003-005-----0
 62
     7
370
    25
100
AcDbLine
 10
255.48627
 20
396.907626
 30
0.0
 11
258.303044
 21
399.7244
 31
0.0
  0
LINE
  5
1EB
330
1B3
100
AcDbEntity
  8
LC-003-005-----0
 62
     7
370
    25
100
AcDbLine
 10
252.848149
 20
397.097933
 30
0.0
 11
255.775839
 21
400.025622
 31
0.0
  0
LINE
  5
1EC
330
1B3
100
AcDbEntity
  8
LC-003-005-----0
 62
     7
370
    25
100
AcDbLine
 10
250.210029
 20
397.288239
 30
0.0
 11
253.561892
 21
400.640103
 31
0.0
  0
LINE
  5
1ED
330
1B3
100
AcDbEntity
  8
LC-003-005-----0
 62
     7
370
    25
100
AcDbLine
 10
248.009832
 20
397.916469
 30
0.0
 11
251.518504
 21
401.425141
 31
0.0
  0
LINE
  5
1EE
330
1B3
100
AcDbEntity
  8
LC-003-005-----0
 62
     7
370
    25
100
AcDbLine
 10
245.922502
 20
398.657566
 30
0.0
 11
249.605597
 21
402.340662
 31
0.0
  0
LINE
  5
1EF
330
1B3
100
AcDbEntity
  8
LC-003-005-----0
 62
     7
370
    25
100
AcDbLine
 10
243.835172
 20
399.398663
 30
0.0
 11
246.962027
 21
402.525518
 31
0.0
  0
LINE
  5
1F0
330
1B3
100
AcDbEntity
  8
LC-003-005-----0
 62
     7
370
    25
100
AcDbLine
 10
241.5095
 20
399.901419
 30
0.0
 11
244.318456
 21
402.710375
 31
0.0
  0
LINE
  5
1F1
330
1B3
100
AcDbEntity
  8
LC-003-005-----0
 62
     7
370
    25
100
AcDbLine
 10
238.865929
 20
400.086275
 30
0.0
 11
241.674885
 21
402.895231
 31
0.0
  0
LINE
  5
1F2
330
1B3
100
AcDbEntity
  8
LC-003-005-----0
 62
     7
370
    25
100
AcDbLine
 10
236.222358
 20
400.271131
 30
0.0
 11
239.031314
 21
403.080087
 31
0.0
  0
LINE
  5
1F3
330
1B3
100
AcDbEntity
  8
LC-003-005-----0
 62
     7
370
    25
100
AcDbLine
 10
233.578787
 20
400.455988
 30
0.0
 11
236.387743
 21
403.264944
 31
0.0
  0
LINE
  5
1F4
330
1B3
100
AcDbEntity
  8
LC-003-005-----0
 62
     7
370
    25
100
AcDbLine
 10
230.935216
 20
400.640844
 30
0.0
 11
233.744173
 21
403.4498
 31
0.0
  0
LINE
  5
1F5
330
1B3
100
AcDbEntity
  8
LC-003-005-----0
 62
     7
370
    25
100
AcDbLine
 10
228.291646
 20
400.8257
 30
0.0
 11
231.100602
 21
403.634656
 31
0.0
  0
LINE
  5
1F6
330
1B3
100
AcDbEntity
  8
LC-003-005-----0
 62
     7
370
    25
100
AcDbLine
 10
225.648075
 20
401.010557
 30
0.0
 11
228.457031
 21
403.819513
 31
0.0
  0
LINE
  5
1F7
330
1B3
100
AcDbEntity
  8
LC-003-005-----0
 62
     7
370
    25
100
AcDbLine
 10
223.004504
 20
401.195413
 30
0.0
 11
225.81346
 21
404.004369
 31
0.0
  0
LINE
  5
1F8
330
1B3
100
AcDbEntity
  8
LC-003-005-----0
 62
     7
370
    25
100
AcDbLine
 10
220.360933
 20
401.380269
 30
0.0
 11
223.169889
 21
404.189225
 31
0.0
  0
LINE
  5
1F9
330
1B3
100
AcDbEntity
  8
LC-003-005-----0
 62
     7
370
    25
100
AcDbLine
 10
217.717362
 20
401.565126
 30
0.0
 11
220.526319
 21
404.374082
 31
0.0
  0
LINE
  5
1FA
330
1B3
100
AcDbEntity
  8
LC-003-005-----0
 62
     7
370
    25
100
AcDbLine
 10
215.073792
 20
401.749982
 30
0.0
 11
217.882748
 21
404.558938
 31
0.0
  0
LINE
  5
1FB
330
1B3
100
AcDbEntity
  8
LC-003-005-----0
 62
     7
370
    25
100
AcDbLine
 10
212.430221
 20
401.934838
 30
0.0
 11
215.239177
 21
404.743794
 31
0.0
  0
LINE
  5
1FC
330
1B3
100
AcDbEntity
  8
LC-003-005-----0
 62
     7
370
    25
100
AcDbLine
 10
209.943443
 20
402.276487
 30
0.0
 11
212.595606
 21
404.928651
 31
0.0
  0
LINE
  5
1FD
330
1B3
100
AcDbEntity
  8
LC-003-005-----0
 62
     7
370
    25
100
AcDbLine
 10
209.943443
 20
405.104914
 30
0.0
 11
209.952035
 21
405.113507
 31
0.0
  0
ENDBLK
  5
1B5
330
1B3
100
AcDbEntity
  8
0
100
AcDbBlockEnd
  0
BLOCK
  5
200
330
1FF
100
AcDbEntity
  8
0
100
AcDbBlockBegin
  2
*X913
 70
     1
 71
     0
 10
0.0
 20
0.0
 30
0.0
  3
*X913
  1

  4
*X9
  0
LINE
  5
202
330
1FF
100
AcDbEntity
  8
LC-003-005-----0
 62
     7
370
    25
100
AcDbLine
 10
358.594486
 20
251.114255
 30
0.0
 11
360.608386
 21
253.128155
 31
0.0
  0
LINE
  5
203
330
1FF
100
AcDbEntity
  8
LC-003-005-----0
 62
     7
370
    25
100
AcDbLine
 10
355.766062
 20
251.114259
 30
0.0
 11
358.266059
 21
253.614255
 31
0.0
  0
LINE
  5
204
330
1FF
100
AcDbEntity
  8
LC-003-005-----0
 62
     7
370
    25
100
AcDbLine
 10
352.937639
 20
251.114262
 30
0.0
 11
355.437636
 21
253.614259
 31
0.0
  0
LINE
  5
205
330
1FF
100
AcDbEntity
  8
LC-003-005-----0
 62
     7
370
    25
100
AcDbLine
 10
350.109216
 20
251.114266
 30
0.0
 11
352.609212
 21
253.614263
 31
0.0
  0
LINE
  5
206
330
1FF
100
AcDbEntity
  8
LC-003-005-----0
 62
     7
370
    25
100
AcDbLine
 10
347.280792
 20
251.11427
 30
0.0
 11
349.780789
 21
253.614267
 31
0.0
  0
LINE
  5
207
330
1FF
100
AcDbEntity
  8
LC-003-005-----0
 62
     7
370
    25
100
AcDbLine
 10
344.452369
 20
251.114274
 30
0.0
 11
346.952366
 21
253.61427
 31
0.0
  0
LINE
  5
208
330
1FF
100
AcDbEntity
  8
LC-003-005-----0
 62
     7
370
    25
100
AcDbLine
 10
341.623945
 20
251.114277
 30
0.0
 11
344.123942
 21
253.614274
 31
0.0
  0
LINE
  5
209
330
1FF
100
AcDbEntity
  8
LC-003-005-----0
 62
     7
370
    25
100
AcDbLine
 10
338.795522
 20
251.114281
 30
0.0
 11
341.295519
 21
253.614278
 31
0.0
  0
LINE
  5
20A
330
1FF
100
AcDbEntity
  8
LC-003-005-----0
 62
     7
370
    25
100
AcDbLine
 10
335.967099
 20
251.114285
 30
0.0
 11
338.467095
 21
253.614282
 31
0.0
  0
LINE
  5
20B
330
1FF
100
AcDbEntity
  8
LC-003-005-----0
 62
     7
370
    25
100
AcDbLine
 10
333.138675
 20
251.114289
 30
0.0
 11
335.638672
 21
253.614285
 31
0.0
  0
LINE
  5
20C
330
1FF
100
AcDbEntity
  8
LC-003-005-----0
 62
     7
370
    25
100
AcDbLine
 10
330.310252
 20
251.114292
 30
0.0
 11
332.810249
 21
253.614289
 31
0.0
  0
LINE
  5
20D
330
1FF
100
AcDbEntity
  8
LC-003-005-----0
 62
     7
370
    25
100
AcDbLine
 10
327.481829
 20
251.114296
 30
0.0
 11
329.981825
 21
253.614293
 31
0.0
  0
LINE
  5
20E
330
1FF
100
AcDbEntity
  8
LC-003-005-----0
 62
     7
370
    25
100
AcDbLine
 10
324.653405
 20
251.1143
 30
0.0
 11
327.153402
 21
253.614297
 31
0.0
  0
LINE
  5
20F
330
1FF
100
AcDbEntity
  8
LC-003-005-----0
 62
     7
370
    25
100
AcDbLine
 10
321.824982
 20
251.114304
 30
0.0
 11
324.324979
 21
253.6143
 31
0.0
  0
LINE
  5
210
330
1FF
100
AcDbEntity
  8
LC-003-005-----0
 62
     7
370
    25
100
AcDbLine
 10
318.996558
 20
251.114307
 30
0.0
 11
321.496555
 21
253.614304
 31
0.0
  0
LINE
  5
211
330
1FF
100
AcDbEntity
  8
LC-003-005-----0
 62
     7
370
    25
100
AcDbLine
 10
316.168135
 20
251.114311
 30
0.0
 11
318.668132
 21
253.614308
 31
0.0
  0
LINE
  5
212
330
1FF
100
AcDbEntity
  8
LC-003-005-----0
 62
     7
370
    25
100
AcDbLine
 10
313.339712
 20
251.114315
 30
0.0
 11
315.839708
 21
253.614312
 31
0.0
  0
LINE
  5
213
330
1FF
100
AcDbEntity
  8
LC-003-005-----0
 62
     7
370
    25
100
AcDbLine
 10
310.511288
 20
251.114319
 30
0.0
 11
313.011285
 21
253.614315
 31
0.0
  0
LINE
  5
214
330
1FF
100
AcDbEntity
  8
LC-003-005-----0
 62
     7
370
    25
100
AcDbLine
 10
307.767734
 20
251.199192
 30
0.0
 11
310.182862
 21
253.614319
 31
0.0
  0
LINE
  5
215
330
1FF
100
AcDbEntity
  8
LC-003-005-----0
 62
     7
370
    25
100
AcDbLine
 10
305.319657
 20
251.579542
 30
0.0
 11
307.483863
 21
253.743748
 31
0.0
  0
LINE
  5
216
330
1FF
100
AcDbEntity
  8
LC-003-005-----0
 62
     7
370
    25
100
AcDbLine
 10
303.110851
 20
252.199163
 30
0.0
 11
305.113177
 21
254.201488
 31
0.0
  0
LINE
  5
217
330
1FF
100
AcDbEntity
  8
LC-003-005-----0
 62
     7
370
    25
100
AcDbLine
 10
301.098376
 20
253.015115
 30
0.0
 11
302.995205
 21
254.911944
 31
0.0
  0
LINE
  5
218
330
1FF
100
AcDbEntity
  8
LC-003-005-----0
 62
     7
370
    25
100
AcDbLine
 10
299.256548
 20
254.001714
 30
0.0
 11
301.085042
 21
255.830208
 31
0.0
  0
LINE
  5
219
330
1FF
100
AcDbEntity
  8
LC-003-005-----0
 62
     7
370
    25
100
AcDbLine
 10
297.569728
 20
255.143321
 30
0.0
 11
299.357353
 21
256.930946
 31
0.0
  0
LINE
  5
21A
330
1FF
100
AcDbEntity
  8
LC-003-005-----0
 62
     7
370
    25
100
AcDbLine
 10
296.028941
 20
256.430961
 30
0.0
 11
297.798249
 21
258.200269
 31
0.0
  0
LINE
  5
21B
330
1FF
100
AcDbEntity
  8
LC-003-005-----0
 62
     7
370
    25
100
AcDbLine
 10
294.630258
 20
257.860705
 30
0.0
 11
296.401792
 21
259.632239
 31
0.0
  0
LINE
  5
21C
330
1FF
100
AcDbEntity
  8
LC-003-005-----0
 62
     7
370
    25
100
AcDbLine
 10
293.374154
 20
259.433029
 30
0.0
 11
295.168695
 21
261.227569
 31
0.0
  0
LINE
  5
21D
330
1FF
100
AcDbEntity
  8
LC-003-005-----0
 62
     7
370
    25
100
AcDbLine
 10
292.265583
 20
261.152884
 30
0.0
 11
294.10647
 21
262.993772
 31
0.0
  0
LINE
  5
21E
330
1FF
100
AcDbEntity
  8
LC-003-005-----0
 62
     7
370
    25
100
AcDbLine
 10
291.314796
 20
263.030525
 30
0.0
 11
293.231113
 21
264.946842
 31
0.0
  0
LINE
  5
21F
330
1FF
100
AcDbEntity
  8
LC-003-005-----0
 62
     7
370
    25
100
AcDbLine
 10
290.539261
 20
265.083417
 30
0.0
 11
292.571306
 21
267.115462
 31
0.0
  0
LINE
  5
220
330
1FF
100
AcDbEntity
  8
LC-003-005-----0
 62
     7
370
    25
100
AcDbLine
 10
289.967625
 20
267.340208
 30
0.0
 11
292.178279
 21
269.550862
 31
0.0
  0
LINE
  5
221
330
1FF
100
AcDbEntity
  8
LC-003-005-----0
 62
     7
370
    25
100
AcDbLine
 10
289.648342
 20
269.849353
 30
0.0
 11
292.1083
 21
272.30931
 31
0.0
  0
LINE
  5
222
330
1FF
100
AcDbEntity
  8
LC-003-005-----0
 62
     7
370
    25
100
AcDbLine
 10
289.6083
 20
272.637737
 30
0.0
 11
292.108303
 21
275.13774
 31
0.0
  0
LINE
  5
223
330
1FF
100
AcDbEntity
  8
LC-003-005-----0
 62
     7
370
    25
100
AcDbLine
 10
289.608303
 20
275.466167
 30
0.0
 11
292.108306
 21
277.96617
 31
0.0
  0
LINE
  5
224
330
1FF
100
AcDbEntity
  8
LC-003-005-----0
 62
     7
370
    25
100
AcDbLine
 10
289.608306
 20
278.294597
 30
0.0
 11
292.108308
 21
280.7946
 31
0.0
  0
LINE
  5
225
330
1FF
100
AcDbEntity
  8
LC-003-005-----0
 62
     7
370
    25
100
AcDbLine
 10
289.608308
 20
281.123027
 30
0.0
 11
292.108311
 21
283.62303
 31
0.0
  0
LINE
  5
226
330
1FF
100
AcDbEntity
  8
LC-003-005-----0
 62
     7
370
    25
100
AcDbLine
 10
289.608311
 20
283.951457
 30
0.0
 11
292.108314
 21
286.45146
 31
0.0
  0
LINE
  5
227
330
1FF
100
AcDbEntity
  8
LC-003-005-----0
 62
     7
370
    25
100
AcDbLine
 10
289.608314
 20
286.779887
 30
0.0
 11
292.108317
 21
289.27989
 31
0.0
  0
LINE
  5
228
330
1FF
100
AcDbEntity
  8
LC-003-005-----0
 62
     7
370
    25
100
AcDbLine
 10
289.608317
 20
289.608317
 30
0.0
 11
292.10832
 21
292.10832
 31
0.0
  0
LINE
  5
229
330
1FF
100
AcDbEntity
  8
LC-003-005-----0
 62
     7
370
    25
100
AcDbLine
 10
289.608319
 20
292.436746
 30
0.0
 11
292.108322
 21
294.936749
 31
0.0
  0
LINE
  5
22A
330
1FF
100
AcDbEntity
  8
LC-003-005-----0
 62
     7
370
    25
100
AcDbLine
 10
289.608322
 20
295.265176
 30
0.0
 11
292.108325
 21
297.765179
 31
0.0
  0
LINE
  5
22B
330
1FF
100
AcDbEntity
  8
LC-003-005-----0
 62
     7
370
    25
100
AcDbLine
 10
289.608325
 20
298.093606
 30
0.0
 11
292.108328
 21
300.593609
 31
0.0
  0
LINE
  5
22C
330
1FF
100
AcDbEntity
  8
LC-003-005-----0
 62
     7
370
    25
100
AcDbLine
 10
289.608328
 20
300.922036
 30
0.0
 11
292.108331
 21
303.422039
 31
0.0
  0
LINE
  5
22D
330
1FF
100
AcDbEntity
  8
LC-003-005-----0
 62
     7
370
    25
100
AcDbLine
 10
289.60833
 20
303.750466
 30
0.0
 11
292.108334
 21
306.250469
 31
0.0
  0
LINE
  5
22E
330
1FF
100
AcDbEntity
  8
LC-003-005-----0
 62
     7
370
    25
100
AcDbLine
 10
289.608333
 20
306.578896
 30
0.0
 11
292.108336
 21
309.078899
 31
0.0
  0
LINE
  5
22F
330
1FF
100
AcDbEntity
  8
LC-003-005-----0
 62
     7
370
    25
100
AcDbLine
 10
289.608336
 20
309.407326
 30
0.0
 11
292.108339
 21
311.907329
 31
0.0
  0
LINE
  5
230
330
1FF
100
AcDbEntity
  8
LC-003-005-----0
 62
     7
370
    25
100
AcDbLine
 10
286.987431
 20
309.614848
 30
0.0
 11
289.987431
 21
312.614848
 31
0.0
  0
LINE
  5
231
330
1FF
100
AcDbEntity
  8
LC-003-005-----0
 62
     7
370
    25
100
AcDbLine
 10
282.512344
 20
307.968188
 30
0.0
 11
287.159004
 21
312.614848
 31
0.0
  0
LINE
  5
232
330
1FF
100
AcDbEntity
  8
LC-003-005-----0
 62
     7
370
    25
100
AcDbLine
 10
278.330576
 20
306.614848
 30
0.0
 11
284.016316
 21
312.300587
 31
0.0
  0
LINE
  5
233
330
1FF
100
AcDbEntity
  8
LC-003-005-----0
 62
     7
370
    25
100
AcDbLine
 10
275.502149
 20
306.614848
 30
0.0
 11
278.502149
 21
309.614848
 31
0.0
  0
LINE
  5
234
330
1FF
100
AcDbEntity
  8
LC-003-005-----0
 62
     7
370
    25
100
AcDbLine
 10
272.673722
 20
306.614848
 30
0.0
 11
275.673722
 21
309.614848
 31
0.0
  0
LINE
  5
235
330
1FF
100
AcDbEntity
  8
LC-003-005-----0
 62
     7
370
    25
100
AcDbLine
 10
269.845295
 20
306.614848
 30
0.0
 11
272.845295
 21
309.614848
 31
0.0
  0
LINE
  5
236
330
1FF
100
AcDbEntity
  8
LC-003-005-----0
 62
     7
370
    25
100
AcDbLine
 10
267.016868
 20
306.614848
 30
0.0
 11
270.016868
 21
309.614848
 31
0.0
  0
LINE
  5
237
330
1FF
100
AcDbEntity
  8
LC-003-005-----0
 62
     7
370
    25
100
AcDbLine
 10
264.188441
 20
306.614848
 30
0.0
 11
267.188441
 21
309.614848
 31
0.0
  0
LINE
  5
238
330
1FF
100
AcDbEntity
  8
LC-003-005-----0
 62
     7
370
    25
100
AcDbLine
 10
261.360014
 20
306.614848
 30
0.0
 11
264.360014
 21
309.614848
 31
0.0
  0
LINE
  5
239
330
1FF
100
AcDbEntity
  8
LC-003-005-----0
 62
     7
370
    25
100
AcDbLine
 10
258.531587
 20
306.614848
 30
0.0
 11
261.531587
 21
309.614848
 31
0.0
  0
LINE
  5
23A
330
1FF
100
AcDbEntity
  8
LC-003-005-----0
 62
     7
370
    25
100
AcDbLine
 10
255.703159
 20
306.614848
 30
0.0
 11
258.703159
 21
309.614848
 31
0.0
  0
LINE
  5
23B
330
1FF
100
AcDbEntity
  8
LC-003-005-----0
 62
     7
370
    25
100
AcDbLine
 10
252.874732
 20
306.614848
 30
0.0
 11
255.874732
 21
309.614848
 31
0.0
  0
LINE
  5
23C
330
1FF
100
AcDbEntity
  8
LC-003-005-----0
 62
     7
370
    25
100
AcDbLine
 10
250.046305
 20
306.614848
 30
0.0
 11
253.046305
 21
309.614848
 31
0.0
  0
LINE
  5
23D
330
1FF
100
AcDbEntity
  8
LC-003-005-----0
 62
     7
370
    25
100
AcDbLine
 10
247.217878
 20
306.614848
 30
0.0
 11
250.217878
 21
309.614848
 31
0.0
  0
LINE
  5
23E
330
1FF
100
AcDbEntity
  8
LC-003-005-----0
 62
     7
370
    25
100
AcDbLine
 10
244.389451
 20
306.614848
 30
0.0
 11
247.389451
 21
309.614848
 31
0.0
  0
LINE
  5
23F
330
1FF
100
AcDbEntity
  8
LC-003-005-----0
 62
     7
370
    25
100
AcDbLine
 10
241.561024
 20
306.614848
 30
0.0
 11
244.561024
 21
309.614848
 31
0.0
  0
LINE
  5
240
330
1FF
100
AcDbEntity
  8
LC-003-005-----0
 62
     7
370
    25
100
AcDbLine
 10
235.732832
 20
303.615083
 30
0.0
 11
241.732597
 21
309.614848
 31
0.0
  0
LINE
  5
241
330
1FF
100
AcDbEntity
  8
LC-003-005-----0
 62
     7
370
    25
100
AcDbLine
 10
232.90442
 20
303.615098
 30
0.0
 11
238.90417
 21
309.614848
 31
0.0
  0
LINE
  5
242
330
1FF
100
AcDbEntity
  8
LC-003-005-----0
 62
     7
370
    25
100
AcDbLine
 10
230.076008
 20
303.615114
 30
0.0
 11
232.575995
 21
306.1151
 31
0.0
  0
LINE
  5
243
330
1FF
100
AcDbEntity
  8
LC-003-005-----0
 62
     7
370
    25
100
AcDbLine
 10
235.168272
 20
308.707377
 30
0.0
 11
236.075742
 21
309.614848
 31
0.0
  0
LINE
  5
244
330
1FF
100
AcDbEntity
  8
LC-003-005-----0
 62
     7
370
    25
100
AcDbLine
 10
227.247596
 20
303.615129
 30
0.0
 11
229.747583
 21
306.115115
 31
0.0
  0
ENDBLK
  5
201
330
1FF
100
AcDbEntity
  8
0
100
AcDbBlockEnd
  0
BLOCK
  5
252
330
251
100
AcDbEntity
  8
0
100
AcDbBlockBegin
  2
*X1014
 70
     1
 71
     0
 10
0.0
 20
0.0
 30
0.0
  3
*X1014
  1

  4
*X10
  0
LINE
  5
254
330
251
100
AcDbEntity
  8
LC-003-005-----0
 62
     7
370
    25
100
AcDbLine
 10
497.430647
 20
358.837718
 30
0.0
 11
498.608185
 21
360.015256
 31
0.0
  0
LINE
  5
255
330
251
100
AcDbEntity
  8
LC-003-005-----0
 62
     7
370
    25
100
AcDbLine
 10
494.602159
 20
358.837657
 30
0.0
 11
497.213582
 21
361.44908
 31
0.0
  0
LINE
  5
256
330
251
100
AcDbEntity
  8
LC-003-005-----0
 62
     7
370
    25
100
AcDbLine
 10
491.773671
 20
358.837596
 30
0.0
 11
494.773746
 21
361.837671
 31
0.0
  0
LINE
  5
257
330
251
100
AcDbEntity
  8
LC-003-005-----0
 62
     7
370
    25
100
AcDbLine
 10
488.945183
 20
358.837536
 30
0.0
 11
491.945257
 21
361.837609
 31
0.0
  0
LINE
  5
258
330
251
100
AcDbEntity
  8
LC-003-005-----0
 62
     7
370
    25
100
AcDbLine
 10
486.116696
 20
358.837475
 30
0.0
 11
489.116768
 21
361.837547
 31
0.0
  0
LINE
  5
259
330
251
100
AcDbEntity
  8
LC-003-005-----0
 62
     7
370
    25
100
AcDbLine
 10
483.288208
 20
358.837414
 30
0.0
 11
486.288279
 21
361.837486
 31
0.0
  0
LINE
  5
25A
330
251
100
AcDbEntity
  8
LC-003-005-----0
 62
     7
370
    25
100
AcDbLine
 10
480.45972
 20
358.837354
 30
0.0
 11
483.45979
 21
361.837424
 31
0.0
  0
LINE
  5
25B
330
251
100
AcDbEntity
  8
LC-003-005-----0
 62
     7
370
    25
100
AcDbLine
 10
477.631232
 20
358.837293
 30
0.0
 11
480.631301
 21
361.837362
 31
0.0
  0
LINE
  5
25C
330
251
100
AcDbEntity
  8
LC-003-005-----0
 62
     7
370
    25
100
AcDbLine
 10
474.802744
 20
358.837232
 30
0.0
 11
477.802812
 21
361.8373
 31
0.0
  0
LINE
  5
25D
330
251
100
AcDbEntity
  8
LC-003-005-----0
 62
     7
370
    25
100
AcDbLine
 10
471.974257
 20
358.837172
 30
0.0
 11
474.974324
 21
361.837239
 31
0.0
  0
LINE
  5
25E
330
251
100
AcDbEntity
  8
LC-003-005-----0
 62
     7
370
    25
100
AcDbLine
 10
469.145769
 20
358.837111
 30
0.0
 11
472.145835
 21
361.837177
 31
0.0
  0
LINE
  5
25F
330
251
100
AcDbEntity
  8
LC-003-005-----0
 62
     7
370
    25
100
AcDbLine
 10
466.317281
 20
358.83705
 30
0.0
 11
469.317346
 21
361.837115
 31
0.0
  0
LINE
  5
260
330
251
100
AcDbEntity
  8
LC-003-005-----0
 62
     7
370
    25
100
AcDbLine
 10
509.462349
 20
401.982118
 30
0.0
 11
511.272989
 21
403.792758
 31
0.0
  0
LINE
  5
261
330
251
100
AcDbEntity
  8
LC-003-005-----0
 62
     7
370
    25
100
AcDbLine
 10
463.488793
 20
358.836989
 30
0.0
 11
466.488857
 21
361.837053
 31
0.0
  0
LINE
  5
262
330
251
100
AcDbEntity
  8
LC-003-005-----0
 62
     7
370
    25
100
AcDbLine
 10
506.421269
 20
401.769466
 30
0.0
 11
509.652603
 21
405.000799
 31
0.0
  0
LINE
  5
263
330
251
100
AcDbEntity
  8
LC-003-005-----0
 62
     7
370
    25
100
AcDbLine
 10
460.660305
 20
358.836929
 30
0.0
 11
463.660368
 21
361.836992
 31
0.0
  0
LINE
  5
264
330
251
100
AcDbEntity
  8
LC-003-005-----0
 62
     7
370
    25
100
AcDbLine
 10
503.380189
 20
401.556813
 30
0.0
 11
506.611523
 21
404.788147
 31
0.0
  0
LINE
  5
265
330
251
100
AcDbEntity
  8
LC-003-005-----0
 62
     7
370
    25
100
AcDbLine
 10
457.831817
 20
358.836868
 30
0.0
 11
460.831879
 21
361.83693
 31
0.0
  0
LINE
  5
266
330
251
100
AcDbEntity
  8
LC-003-005-----0
 62
     7
370
    25
100
AcDbLine
 10
500.339109
 20
401.34416
 30
0.0
 11
503.570443
 21
404.575494
 31
0.0
  0
LINE
  5
267
330
251
100
AcDbEntity
  8
LC-003-005-----0
 62
     7
370
    25
100
AcDbLine
 10
455.00333
 20
358.836807
 30
0.0
 11
458.00339
 21
361.836868
 31
0.0
  0
LINE
  5
268
330
251
100
AcDbEntity
  8
LC-003-005-----0
 62
     7
370
    25
100
AcDbLine
 10
497.298029
 20
401.131507
 30
0.0
 11
500.529363
 21
404.362841
 31
0.0
  0
LINE
  5
269
330
251
100
AcDbEntity
  8
LC-003-005-----0
 62
     7
370
    25
100
AcDbLine
 10
452.174842
 20
358.836747
 30
0.0
 11
455.174901
 21
361.836806
 31
0.0
  0
LINE
  5
26A
330
251
100
AcDbEntity
  8
LC-003-005-----0
 62
     7
370
    25
100
AcDbLine
 10
494.256949
 20
400.918854
 30
0.0
 11
497.488283
 21
404.150188
 31
0.0
  0
LINE
  5
26B
330
251
100
AcDbEntity
  8
LC-003-005-----0
 62
     7
370
    25
100
AcDbLine
 10
449.346354
 20
358.836686
 30
0.0
 11
452.346413
 21
361.836745
 31
0.0
  0
LINE
  5
26C
330
251
100
AcDbEntity
  8
LC-003-005-----0
 62
     7
370
    25
100
AcDbLine
 10
491.215869
 20
400.706201
 30
0.0
 11
494.447203
 21
403.937535
 31
0.0
  0
LINE
  5
26D
330
251
100
AcDbEntity
  8
LC-003-005-----0
 62
     7
370
    25
100
AcDbLine
 10
446.517866
 20
358.836625
 30
0.0
 11
449.517924
 21
361.836683
 31
0.0
  0
LINE
  5
26E
330
251
100
AcDbEntity
  8
LC-003-005-----0
 62
     7
370
    25
100
AcDbLine
 10
488.174789
 20
400.493548
 30
0.0
 11
491.406123
 21
403.724882
 31
0.0
  0
LINE
  5
26F
330
251
100
AcDbEntity
  8
LC-003-005-----0
 62
     7
370
    25
100
AcDbLine
 10
443.689378
 20
358.836565
 30
0.0
 11
446.689435
 21
361.836621
 31
0.0
  0
LINE
  5
270
330
251
100
AcDbEntity
  8
LC-003-005-----0
 62
     7
370
    25
100
AcDbLine
 10
485.133709
 20
400.280896
 30
0.0
 11
488.365043
 21
403.51223
 31
0.0
  0
LINE
  5
271
330
251
100
AcDbEntity
  8
LC-003-005-----0
 62
     7
370
    25
100
AcDbLine
 10
440.860891
 20
358.836504
 30
0.0
 11
443.860946
 21
361.836559
 31
0.0
  0
LINE
  5
272
330
251
100
AcDbEntity
  8
LC-003-005-----0
 62
     7
370
    25
100
AcDbLine
 10
482.092629
 20
400.068243
 30
0.0
 11
485.323963
 21
403.299577
 31
0.0
  0
LINE
  5
273
330
251
100
AcDbEntity
  8
LC-003-005-----0
 62
     7
370
    25
100
AcDbLine
 10
438.032403
 20
358.836443
 30
0.0
 11
441.032457
 21
361.836498
 31
0.0
  0
LINE
  5
274
330
251
100
AcDbEntity
  8
LC-003-005-----0
 62
     7
370
    25
100
AcDbLine
 10
479.051549
 20
399.85559
 30
0.0
 11
482.282883
 21
403.086924
 31
0.0
  0
LINE
  5
275
330
251
100
AcDbEntity
  8
LC-003-005-----0
 62
     7
370
    25
100
AcDbLine
 10
435.203915
 20
358.836383
 30
0.0
 11
438.203968
 21
361.836436
 31
0.0
  0
LINE
  5
276
330
251
100
AcDbEntity
  8
LC-003-005-----0
 62
     7
370
    25
100
AcDbLine
 10
474.8478
 20
398.480267
 30
0.0
 11
479.241803
 21
402.874271
 31
0.0
  0
LINE
  5
277
330
251
100
AcDbEntity
  8
LC-003-005-----0
 62
     7
370
    25
100
AcDbLine
 10
432.375427
 20
358.836322
 30
0.0
 11
435.375479
 21
361.836374
 31
0.0
  0
LINE
  5
278
330
251
100
AcDbEntity
  8
LC-003-005-----0
 62
     7
370
    25
100
AcDbLine
 10
440.150815
 20
366.611709
 30
0.0
 11
446.294034
 21
372.754929
 31
0.0
  0
LINE
  5
279
330
251
100
AcDbEntity
  8
LC-003-005-----0
 62
     7
370
    25
100
AcDbLine
 10
470.777599
 20
397.238494
 30
0.0
 11
476.200723
 21
402.661618
 31
0.0
  0
LINE
  5
27A
330
251
100
AcDbEntity
  8
LC-003-005-----0
 62
     7
370
    25
100
AcDbLine
 10
429.546939
 20
358.836261
 30
0.0
 11
432.916919
 21
362.20624
 31
0.0
  0
LINE
  5
27B
330
251
100
AcDbEntity
  8
LC-003-005-----0
 62
     7
370
    25
100
AcDbLine
 10
437.322305
 20
366.611627
 30
0.0
 11
448.760017
 21
378.049339
 31
0.0
  0
LINE
  5
27C
330
251
100
AcDbEntity
  8
LC-003-005-----0
 62
     7
370
    25
100
AcDbLine
 10
467.736519
 20
397.025841
 30
0.0
 11
473.159643
 21
402.448965
 31
0.0
  0
LINE
  5
27D
330
251
100
AcDbEntity
  8
LC-003-005-----0
 62
     7
370
    25
100
AcDbLine
 10
430.117667
 20
362.235416
 30
0.0
 11
432.916922
 21
365.034671
 31
0.0
  0
LINE
  5
27E
330
251
100
AcDbEntity
  8
LC-003-005-----0
 62
     7
370
    25
100
AcDbLine
 10
434.493796
 20
366.611545
 30
0.0
 11
449.81277
 21
381.930519
 31
0.0
  0
LINE
  5
27F
330
251
100
AcDbEntity
  8
LC-003-005-----0
 62
     7
370
    25
100
AcDbLine
 10
464.695439
 20
396.813188
 30
0.0
 11
469.024055
 21
401.141804
 31
0.0
  0
LINE
  5
280
330
251
100
AcDbEntity
  8
LC-003-005-----0
 62
     7
370
    25
100
AcDbLine
 10
430.11769
 20
365.063866
 30
0.0
 11
434.664348
 21
369.610524
 31
0.0
  0
LINE
  5
281
330
251
100
AcDbEntity
  8
LC-003-005-----0
 62
     7
370
    25
100
AcDbLine
 10
437.975248
 20
372.921424
 30
0.0
 11
443.364691
 21
378.310867
 31
0.0
  0
LINE
  5
282
330
251
100
AcDbEntity
  8
LC-003-005-----0
 62
     7
370
    25
100
AcDbLine
 10
447.497562
 20
382.443738
 30
0.0
 11
449.812791
 21
384.758967
 31
0.0
  0
LINE
  5
283
330
251
100
AcDbEntity
  8
LC-003-005-----0
 62
     7
370
    25
100
AcDbLine
 10
453.134527
 20
388.080704
 30
0.0
 11
454.065784
 21
389.01196
 31
0.0
  0
LINE
  5
284
330
251
100
AcDbEntity
  8
LC-003-005-----0
 62
     7
370
    25
100
AcDbLine
 10
461.654359
 20
396.600535
 30
0.0
 11
464.98072
 21
399.926896
 31
0.0
  0
LINE
  5
285
330
251
100
AcDbEntity
  8
LC-003-005-----0
 62
     7
370
    25
100
AcDbLine
 10
430.117712
 20
367.892316
 30
0.0
 11
431.835915
 21
369.610518
 31
0.0
  0
LINE
  5
286
330
251
100
AcDbEntity
  8
LC-003-005-----0
 62
     7
370
    25
100
AcDbLine
 10
437.316789
 20
375.091392
 30
0.0
 11
440.536264
 21
378.310867
 31
0.0
  0
LINE
  5
287
330
251
100
AcDbEntity
  8
LC-003-005-----0
 62
     7
370
    25
100
AcDbLine
 10
447.497562
 20
385.272165
 30
0.0
 11
454.80959
 21
392.584194
 31
0.0
  0
LINE
  5
288
330
251
100
AcDbEntity
  8
LC-003-005-----0
 62
     7
370
    25
100
AcDbLine
 10
458.613279
 20
396.387882
 30
0.0
 11
461.874286
 21
399.648889
 31
0.0
  0
LINE
  5
289
330
251
100
AcDbEntity
  8
LC-003-005-----0
 62
     7
370
    25
100
AcDbLine
 10
447.497562
 20
388.100592
 30
0.0
 11
449.540155
 21
390.143185
 31
0.0
  0
LINE
  5
28A
330
251
100
AcDbEntity
  8
LC-003-005-----0
 62
     7
370
    25
100
AcDbLine
 10
452.356887
 20
392.959917
 30
0.0
 11
454.842942
 21
395.445972
 31
0.0
  0
LINE
  5
28B
330
251
100
AcDbEntity
  8
LC-003-005-----0
 62
     7
370
    25
100
AcDbLine
 10
455.552974
 20
396.156005
 30
0.0
 11
458.824212
 21
399.427243
 31
0.0
  0
LINE
  5
28C
330
251
100
AcDbEntity
  8
LC-003-005-----0
 62
     7
370
    25
100
AcDbLine
 10
447.497562
 20
390.92902
 30
0.0
 11
449.215505
 21
392.646963
 31
0.0
  0
LINE
  5
28D
330
251
100
AcDbEntity
  8
LC-003-005-----0
 62
     7
370
    25
100
AcDbLine
 10
452.356887
 20
395.788345
 30
0.0
 11
455.774138
 21
399.205596
 31
0.0
  0
LINE
  5
28E
330
251
100
AcDbEntity
  8
LC-003-005-----0
 62
     7
370
    25
100
AcDbLine
 10
447.497562
 20
393.757447
 30
0.0
 11
449.215505
 21
395.47539
 31
0.0
  0
LINE
  5
28F
330
251
100
AcDbEntity
  8
LC-003-005-----0
 62
     7
370
    25
100
AcDbLine
 10
452.356887
 20
398.616772
 30
0.0
 11
452.724064
 21
398.983949
 31
0.0
  0
ENDBLK
  5
253
330
251
100
AcDbEntity
  8
0
100
AcDbBlockEnd
  0
BLOCK
  5
293
330
292
100
AcDbEntity
  8
0
100
AcDbBlockBegin
  2
*X1115
 70
     1
 71
     0
 10
0.0
 20
0.0
 30
0.0
  3
*X1115
  1

  4
*X11
  0
LINE
  5
295
330
292
100
AcDbEntity
  8
LC-003-005-----0
 62
     7
370
    25
100
AcDbLine
 10
496.468469
 20
287.164862
 30
0.0
 11
498.608185
 21
289.304577
 31
0.0
  0
LINE
  5
296
330
292
100
AcDbEntity
  8
LC-003-005-----0
 62
     7
370
    25
100
AcDbLine
 10
493.393621
 20
286.918441
 30
0.0
 11
495.96857
 21
289.49339
 31
0.0
  0
LINE
  5
297
330
292
100
AcDbEntity
  8
LC-003-005-----0
 62
     7
370
    25
100
AcDbLine
 10
490.568413
 20
286.92166
 30
0.0
 11
493.136607
 21
289.489854
 31
0.0
  0
LINE
  5
298
330
292
100
AcDbEntity
  8
LC-003-005-----0
 62
     7
370
    25
100
AcDbLine
 10
487.743205
 20
286.92488
 30
0.0
 11
490.304645
 21
289.486319
 31
0.0
  0
LINE
  5
299
330
292
100
AcDbEntity
  8
LC-003-005-----0
 62
     7
370
    25
100
AcDbLine
 10
484.917998
 20
286.928099
 30
0.0
 11
487.472682
 21
289.482783
 31
0.0
  0
LINE
  5
29A
330
292
100
AcDbEntity
  8
LC-003-005-----0
 62
     7
370
    25
100
AcDbLine
 10
482.09279
 20
286.931318
 30
0.0
 11
484.64072
 21
289.479248
 31
0.0
  0
LINE
  5
29B
330
292
100
AcDbEntity
  8
LC-003-005-----0
 62
     7
370
    25
100
AcDbLine
 10
479.267582
 20
286.934537
 30
0.0
 11
481.808757
 21
289.475713
 31
0.0
  0
LINE
  5
29C
330
292
100
AcDbEntity
  8
LC-003-005-----0
 62
     7
370
    25
100
AcDbLine
 10
476.442374
 20
286.937756
 30
0.0
 11
478.976795
 21
289.472177
 31
0.0
  0
LINE
  5
29D
330
292
100
AcDbEntity
  8
LC-003-005-----0
 62
     7
370
    25
100
AcDbLine
 10
473.617166
 20
286.940975
 30
0.0
 11
476.144832
 21
289.468642
 31
0.0
  0
LINE
  5
29E
330
292
100
AcDbEntity
  8
LC-003-005-----0
 62
     7
370
    25
100
AcDbLine
 10
470.791958
 20
286.944195
 30
0.0
 11
473.31287
 21
289.465107
 31
0.0
  0
LINE
  5
29F
330
292
100
AcDbEntity
  8
LC-003-005-----0
 62
     7
370
    25
100
AcDbLine
 10
467.96675
 20
286.947414
 30
0.0
 11
470.480907
 21
289.461571
 31
0.0
  0
LINE
  5
2A0
330
292
100
AcDbEntity
  8
LC-003-005-----0
 62
     7
370
    25
100
AcDbLine
 10
465.141542
 20
286.950633
 30
0.0
 11
467.648945
 21
289.458036
 31
0.0
  0
LINE
  5
2A1
330
292
100
AcDbEntity
  8
LC-003-005-----0
 62
     7
370
    25
100
AcDbLine
 10
462.316334
 20
286.953852
 30
0.0
 11
464.816982
 21
289.4545
 31
0.0
  0
LINE
  5
2A2
330
292
100
AcDbEntity
  8
LC-003-005-----0
 62
     7
370
    25
100
AcDbLine
 10
459.491126
 20
286.957071
 30
0.0
 11
461.98502
 21
289.450965
 31
0.0
  0
LINE
  5
2A3
330
292
100
AcDbEntity
  8
LC-003-005-----0
 62
     7
370
    25
100
AcDbLine
 10
456.665918
 20
286.96029
 30
0.0
 11
459.153057
 21
289.44743
 31
0.0
  0
LINE
  5
2A4
330
292
100
AcDbEntity
  8
LC-003-005-----0
 62
     7
370
    25
100
AcDbLine
 10
419.695474
 20
252.818273
 30
0.0
 11
429.913042
 21
263.035841
 31
0.0
  0
LINE
  5
2A5
330
292
100
AcDbEntity
  8
LC-003-005-----0
 62
     7
370
    25
100
AcDbLine
 10
453.84071
 20
286.96351
 30
0.0
 11
456.321095
 21
289.443894
 31
0.0
  0
LINE
  5
2A6
330
292
100
AcDbEntity
  8
LC-003-005-----0
 62
     7
370
    25
100
AcDbLine
 10
415.554324
 20
251.505551
 30
0.0
 11
419.579073
 21
255.5303
 31
0.0
  0
LINE
  5
2A7
330
292
100
AcDbEntity
  8
LC-003-005-----0
 62
     7
370
    25
100
AcDbLine
 10
427.201016
 20
263.152242
 30
0.0
 11
431.225764
 21
267.176991
 31
0.0
  0
LINE
  5
2A8
330
292
100
AcDbEntity
  8
LC-003-005-----0
 62
     7
370
    25
100
AcDbLine
 10
451.015502
 20
286.966729
 30
0.0
 11
453.489132
 21
289.440359
 31
0.0
  0
LINE
  5
2A9
330
292
100
AcDbEntity
  8
LC-003-005-----0
 62
     7
370
    25
100
AcDbLine
 10
412.347885
 20
251.127539
 30
0.0
 11
415.206611
 21
253.986265
 31
0.0
  0
LINE
  5
2AA
330
292
100
AcDbEntity
  8
LC-003-005-----0
 62
     7
370
    25
100
AcDbLine
 10
428.74505
 20
267.524704
 30
0.0
 11
431.603776
 21
270.38343
 31
0.0
  0
LINE
  5
2AB
330
292
100
AcDbEntity
  8
LC-003-005-----0
 62
     7
370
    25
100
AcDbLine
 10
448.190294
 20
286.969948
 30
0.0
 11
450.65717
 21
289.436823
 31
0.0
  0
LINE
  5
2AC
330
292
100
AcDbEntity
  8
LC-003-005-----0
 62
     7
370
    25
100
AcDbLine
 10
409.506106
 20
251.114187
 30
0.0
 11
412.010526
 21
253.618607
 31
0.0
  0
LINE
  5
2AD
330
292
100
AcDbEntity
  8
LC-003-005-----0
 62
     7
370
    25
100
AcDbLine
 10
429.112708
 20
270.720789
 30
0.0
 11
431.617135
 21
273.225216
 31
0.0
  0
LINE
  5
2AE
330
292
100
AcDbEntity
  8
LC-003-005-----0
 62
     7
370
    25
100
AcDbLine
 10
445.365086
 20
286.973167
 30
0.0
 11
447.825207
 21
289.433288
 31
0.0
  0
LINE
  5
2AF
330
292
100
AcDbEntity
  8
LC-003-005-----0
 62
     7
370
    25
100
AcDbLine
 10
406.677683
 20
251.114191
 30
0.0
 11
409.17768
 21
253.614188
 31
0.0
  0
LINE
  5
2B0
330
292
100
AcDbEntity
  8
LC-003-005-----0
 62
     7
370
    25
100
AcDbLine
 10
429.117137
 20
273.553645
 30
0.0
 11
431.617142
 21
276.05365
 31
0.0
  0
LINE
  5
2B1
330
292
100
AcDbEntity
  8
LC-003-005-----0
 62
     7
370
    25
100
AcDbLine
 10
442.539878
 20
286.976386
 30
0.0
 11
444.993245
 21
289.429753
 31
0.0
  0
LINE
  5
2B2
330
292
100
AcDbEntity
  8
LC-003-005-----0
 62
     7
370
    25
100
AcDbLine
 10
403.84926
 20
251.114195
 30
0.0
 11
406.349256
 21
253.614192
 31
0.0
  0
LINE
  5
2B3
330
292
100
AcDbEntity
  8
LC-003-005-----0
 62
     7
370
    25
100
AcDbLine
 10
429.117145
 20
276.382081
 30
0.0
 11
431.617148
 21
278.882083
 31
0.0
  0
LINE
  5
2B4
330
292
100
AcDbEntity
  8
LC-003-005-----0
 62
     7
370
    25
100
AcDbLine
 10
439.71467
 20
286.979605
 30
0.0
 11
442.161282
 21
289.426217
 31
0.0
  0
LINE
  5
2B5
330
292
100
AcDbEntity
  8
LC-003-005-----0
 62
     7
370
    25
100
AcDbLine
 10
401.020836
 20
251.114199
 30
0.0
 11
403.520833
 21
253.614195
 31
0.0
  0
LINE
  5
2B6
330
292
100
AcDbEntity
  8
LC-003-005-----0
 62
     7
370
    25
100
AcDbLine
 10
429.117153
 20
279.210516
 30
0.0
 11
431.617154
 21
281.710517
 31
0.0
  0
LINE
  5
2B7
330
292
100
AcDbEntity
  8
LC-003-005-----0
 62
     7
370
    25
100
AcDbLine
 10
436.889462
 20
286.982825
 30
0.0
 11
439.32932
 21
289.422682
 31
0.0
  0
LINE
  5
2B8
330
292
100
AcDbEntity
  8
LC-003-005-----0
 62
     7
370
    25
100
AcDbLine
 10
398.192413
 20
251.114202
 30
0.0
 11
402.117552
 21
255.039342
 31
0.0
  0
LINE
  5
2B9
330
292
100
AcDbEntity
  8
LC-003-005-----0
 62
     7
370
    25
100
AcDbLine
 10
429.117161
 20
282.038951
 30
0.0
 11
431.617161
 21
284.53895
 31
0.0
  0
LINE
  5
2BA
330
292
100
AcDbEntity
  8
LC-003-005-----0
 62
     7
370
    25
100
AcDbLine
 10
434.064254
 20
286.986044
 30
0.0
 11
436.497357
 21
289.419147
 31
0.0
  0
LINE
  5
2BB
330
292
100
AcDbEntity
  8
LC-003-005-----0
 62
     7
370
    25
100
AcDbLine
 10
395.36399
 20
251.114206
 30
0.0
 11
397.863986
 21
253.614203
 31
0.0
  0
LINE
  5
2BC
330
292
100
AcDbEntity
  8
LC-003-005-----0
 62
     7
370
    25
100
AcDbLine
 10
400.117553
 20
255.86777
 30
0.0
 11
402.117555
 21
257.867772
 31
0.0
  0
LINE
  5
2BD
330
292
100
AcDbEntity
  8
LC-003-005-----0
 62
     7
370
    25
100
AcDbLine
 10
429.117169
 20
284.867386
 30
0.0
 11
433.665395
 21
289.415611
 31
0.0
  0
LINE
  5
2BE
330
292
100
AcDbEntity
  8
LC-003-005-----0
 62
     7
370
    25
100
AcDbLine
 10
392.535566
 20
251.11421
 30
0.0
 11
395.035563
 21
253.614207
 31
0.0
  0
LINE
  5
2BF
330
292
100
AcDbEntity
  8
LC-003-005-----0
 62
     7
370
    25
100
AcDbLine
 10
400.117556
 20
258.6962
 30
0.0
 11
402.117558
 21
260.696202
 31
0.0
  0
LINE
  5
2C0
330
292
100
AcDbEntity
  8
LC-003-005-----0
 62
     7
370
    25
100
AcDbLine
 10
429.117177
 20
287.695821
 30
0.0
 11
430.833432
 21
289.412076
 31
0.0
  0
LINE
  5
2C1
330
292
100
AcDbEntity
  8
LC-003-005-----0
 62
     7
370
    25
100
AcDbLine
 10
389.707143
 20
251.114214
 30
0.0
 11
392.207139
 21
253.61421
 31
0.0
  0
LINE
  5
2C2
330
292
100
AcDbEntity
  8
LC-003-005-----0
 62
     7
370
    25
100
AcDbLine
 10
400.117559
 20
261.52463
 30
0.0
 11
402.117562
 21
263.524633
 31
0.0
  0
LINE
  5
2C3
330
292
100
AcDbEntity
  8
LC-003-005-----0
 62
     7
370
    25
100
AcDbLine
 10
386.878719
 20
251.114217
 30
0.0
 11
389.378716
 21
253.614214
 31
0.0
  0
LINE
  5
2C4
330
292
100
AcDbEntity
  8
LC-003-005-----0
 62
     7
370
    25
100
AcDbLine
 10
400.117563
 20
264.353061
 30
0.0
 11
402.117565
 21
266.353063
 31
0.0
  0
LINE
  5
2C5
330
292
100
AcDbEntity
  8
LC-003-005-----0
 62
     7
370
    25
100
AcDbLine
 10
384.050296
 20
251.114221
 30
0.0
 11
386.550293
 21
253.614218
 31
0.0
  0
LINE
  5
2C6
330
292
100
AcDbEntity
  8
LC-003-005-----0
 62
     7
370
    25
100
AcDbLine
 10
400.117566
 20
267.181491
 30
0.0
 11
402.117568
 21
269.181493
 31
0.0
  0
LINE
  5
2C7
330
292
100
AcDbEntity
  8
LC-003-005-----0
 62
     7
370
    25
100
AcDbLine
 10
381.221873
 20
251.114225
 30
0.0
 11
383.721869
 21
253.614222
 31
0.0
  0
LINE
  5
2C8
330
292
100
AcDbEntity
  8
LC-003-005-----0
 62
     7
370
    25
100
AcDbLine
 10
400.117569
 20
270.009921
 30
0.0
 11
402.117571
 21
272.009924
 31
0.0
  0
LINE
  5
2C9
330
292
100
AcDbEntity
  8
LC-003-005-----0
 62
     7
370
    25
100
AcDbLine
 10
378.393449
 20
251.114229
 30
0.0
 11
380.893446
 21
253.614225
 31
0.0
  0
LINE
  5
2CA
330
292
100
AcDbEntity
  8
LC-003-005-----0
 62
     7
370
    25
100
AcDbLine
 10
400.117572
 20
272.838352
 30
0.0
 11
402.117575
 21
274.838354
 31
0.0
  0
LINE
  5
2CB
330
292
100
AcDbEntity
  8
LC-003-005-----0
 62
     7
370
    25
100
AcDbLine
 10
375.565026
 20
251.114232
 30
0.0
 11
378.065023
 21
253.614229
 31
0.0
  0
LINE
  5
2CC
330
292
100
AcDbEntity
  8
LC-003-005-----0
 62
     7
370
    25
100
AcDbLine
 10
400.117576
 20
275.666782
 30
0.0
 11
402.117578
 21
277.666784
 31
0.0
  0
LINE
  5
2CD
330
292
100
AcDbEntity
  8
LC-003-005-----0
 62
     7
370
    25
100
AcDbLine
 10
372.736603
 20
251.114236
 30
0.0
 11
375.236599
 21
253.614233
 31
0.0
  0
LINE
  5
2CE
330
292
100
AcDbEntity
  8
LC-003-005-----0
 62
     7
370
    25
100
AcDbLine
 10
400.117579
 20
278.495213
 30
0.0
 11
402.117581
 21
280.495215
 31
0.0
  0
LINE
  5
2CF
330
292
100
AcDbEntity
  8
LC-003-005-----0
 62
     7
370
    25
100
AcDbLine
 10
369.908179
 20
251.11424
 30
0.0
 11
372.408176
 21
253.614237
 31
0.0
  0
LINE
  5
2D0
330
292
100
AcDbEntity
  8
LC-003-005-----0
 62
     7
370
    25
100
AcDbLine
 10
400.117582
 20
281.323643
 30
0.0
 11
402.117584
 21
283.323645
 31
0.0
  0
LINE
  5
2D1
330
292
100
AcDbEntity
  8
LC-003-005-----0
 62
     7
370
    25
100
AcDbLine
 10
367.079756
 20
251.114244
 30
0.0
 11
369.579753
 21
253.61424
 31
0.0
  0
LINE
  5
2D2
330
292
100
AcDbEntity
  8
LC-003-005-----0
 62
     7
370
    25
100
AcDbLine
 10
400.117585
 20
284.152073
 30
0.0
 11
402.117588
 21
286.152076
 31
0.0
  0
LINE
  5
2D3
330
292
100
AcDbEntity
  8
LC-003-005-----0
 62
     7
370
    25
100
AcDbLine
 10
364.251332
 20
251.114247
 30
0.0
 11
366.751329
 21
253.614244
 31
0.0
  0
LINE
  5
2D4
330
292
100
AcDbEntity
  8
LC-003-005-----0
 62
     7
370
    25
100
AcDbLine
 10
400.117589
 20
286.980504
 30
0.0
 11
402.117591
 21
288.980506
 31
0.0
  0
LINE
  5
2D5
330
292
100
AcDbEntity
  8
LC-003-005-----0
 62
     7
370
    25
100
AcDbLine
 10
361.422909
 20
251.114251
 30
0.0
 11
363.922906
 21
253.614248
 31
0.0
  0
LINE
  5
2D6
330
292
100
AcDbEntity
  8
LC-003-005-----0
 62
     7
370
    25
100
AcDbLine
 10
400.117592
 20
289.808934
 30
0.0
 11
402.117594
 21
291.808936
 31
0.0
  0
LINE
  5
2D7
330
292
100
AcDbEntity
  8
LC-003-005-----0
 62
     7
370
    25
100
AcDbLine
 10
360.608386
 20
253.128155
 30
0.0
 11
361.094482
 21
253.614252
 31
0.0
  0
LINE
  5
2D8
330
292
100
AcDbEntity
  8
LC-003-005-----0
 62
     7
370
    25
100
AcDbLine
 10
400.117595
 20
292.637364
 30
0.0
 11
402.117597
 21
294.637367
 31
0.0
  0
LINE
  5
2D9
330
292
100
AcDbEntity
  8
LC-003-005-----0
 62
     7
370
    25
100
AcDbLine
 10
400.117598
 20
295.465795
 30
0.0
 11
402.117601
 21
297.465797
 31
0.0
  0
LINE
  5
2DA
330
292
100
AcDbEntity
  8
LC-003-005-----0
 62
     7
370
    25
100
AcDbLine
 10
400.117602
 20
298.294225
 30
0.0
 11
402.117604
 21
300.294227
 31
0.0
  0
LINE
  5
2DB
330
292
100
AcDbEntity
  8
LC-003-005-----0
 62
     7
370
    25
100
AcDbLine
 10
400.117605
 20
301.122655
 30
0.0
 11
402.117607
 21
303.122658
 31
0.0
  0
LINE
  5
2DC
330
292
100
AcDbEntity
  8
LC-003-005-----0
 62
     7
370
    25
100
AcDbLine
 10
400.117608
 20
303.951086
 30
0.0
 11
402.11761
 21
305.951088
 31
0.0
  0
LINE
  5
2DD
330
292
100
AcDbEntity
  8
LC-003-005-----0
 62
     7
370
    25
100
AcDbLine
 10
400.117611
 20
306.779516
 30
0.0
 11
402.117614
 21
308.779519
 31
0.0
  0
LINE
  5
2DE
330
292
100
AcDbEntity
  8
LC-003-005-----0
 62
     7
370
    25
100
AcDbLine
 10
400.117615
 20
309.607947
 30
0.0
 11
402.117617
 21
311.607949
 31
0.0
  0
LINE
  5
2DF
330
292
100
AcDbEntity
  8
LC-003-005-----0
 62
     7
370
    25
100
AcDbLine
 10
400.117618
 20
312.436377
 30
0.0
 11
402.11762
 21
314.436379
 31
0.0
  0
LINE
  5
2E0
330
292
100
AcDbEntity
  8
LC-003-005-----0
 62
     7
370
    25
100
AcDbLine
 10
400.117621
 20
315.264807
 30
0.0
 11
402.117623
 21
317.26481
 31
0.0
  0
LINE
  5
2E1
330
292
100
AcDbEntity
  8
LC-003-005-----0
 62
     7
370
    25
100
AcDbLine
 10
400.117624
 20
318.093238
 30
0.0
 11
402.117627
 21
320.09324
 31
0.0
  0
LINE
  5
2E2
330
292
100
AcDbEntity
  8
LC-003-005-----0
 62
     7
370
    25
100
AcDbLine
 10
400.117628
 20
320.921668
 30
0.0
 11
402.11763
 21
322.92167
 31
0.0
  0
LINE
  5
2E3
330
292
100
AcDbEntity
  8
LC-003-005-----0
 62
     7
370
    25
100
AcDbLine
 10
400.117631
 20
323.750098
 30
0.0
 11
402.117633
 21
325.750101
 31
0.0
  0
LINE
  5
2E4
330
292
100
AcDbEntity
  8
LC-003-005-----0
 62
     7
370
    25
100
AcDbLine
 10
400.117634
 20
326.578529
 30
0.0
 11
402.117636
 21
328.578531
 31
0.0
  0
LINE
  5
2E5
330
292
100
AcDbEntity
  8
LC-003-005-----0
 62
     7
370
    25
100
AcDbLine
 10
400.117637
 20
329.406959
 30
0.0
 11
401.824876
 21
331.114198
 31
0.0
  0
ENDBLK
  5
294
330
292
100
AcDbEntity
  8
0
100
AcDbBlockEnd
  0
BLOCK
  5
2F3
330
2E9
100
AcDbEntity
  8
0
100
AcDbBlockBegin
  2
*D16
 70
     1
 71
     0
 10
0.0
 20
0.0
 30
0.0
  3
*D16
  1

  0
LINE
  5
2EA
330
2E9
100
AcDbEntity
  8
LC-005-003-----0
 62
     2
370
    -2
100
AcDbLine
 10
511.272989
 20
402.108731
 30
0.0
 11
584.938325
 21
402.108731
 31
0.0
  0
LINE
  5
2EB
330
2E9
100
AcDbEntity
  8
LC-005-003-----0
 62
     2
370
    -2
100
AcDbLine
 10
498.608185
 20
324.159684
 30
0.0
 11
584.938325
 21
324.159684
 31
0.0
  0
LINE
  5
2EC
330
2E9
100
AcDbEntity
  8
LC-005-003-----0
 62
     2
370
    -2
100
AcDbLine
 10
581.338325
 20
374.108731
 30
0.0
 11
581.338325
 21
352.159684
 31
0.0
  0
SOLID
  5
2ED
330
2E9
100
AcDbEntity
  8
LC-005-003-----0
 62
     2
100
AcDbTrace
 10
586.004992
 20
374.108731
 30
0.0
 11
576.671659
 21
374.108731
 31
0.0
 12
581.338325
 22
402.108731
 32
0.0
 13
581.338325
 23
402.108731
 33
0.0
  0
SOLID
  5
2EE
330
2E9
100
AcDbEntity
  8
LC-005-003-----0
 62
     2
100
AcDbTrace
 10
576.671659
 20
352.159684
 30
0.0
 11
586.004992
 21
352.159684
 31
0.0
 12
581.338325
 22
324.159684
 32
0.0
 13
581.338325
 23
324.159684
 33
0.0
  0
MTEXT
  5
2EF
330
2E9
100
AcDbEntity
  8
LC-005-003-----0
 62
     2
100
AcDbMText
 10
550.538325
 20
359.37
 30
0.0
 40
28.0
 41
0.0
 71
     5
 72
     1
  1
\A1;80
  7
LCTX15-400-0-0pDIN-Schrift
 11
6.123031769111886E-17
 21
1.0
 31
0.0
 73
     1
 44
1.0
  0
POINT
  5
2F0
330
2E9
100
AcDbEntity
  8
Defpoints
 62
     0
100
AcDbPoint
 10
511.272989
 20
402.108731
 30
0.0
  0
POINT
  5
2F1
330
2E9
100
AcDbEntity
  8
Defpoints
 62
     0
100
AcDbPoint
 10
498.608185
 20
324.159684
 30
0.0
  0
POINT
  5
2F2
330
2E9
100
AcDbEntity
  8
Defpoints
 62
     0
100
AcDbPoint
 10
581.338325
 20
324.159684
 30
0.0
  0
ENDBLK
  5
2F4
330
2E9
100
AcDbEntity
  8
0
100
AcDbBlockEnd
  0
BLOCK
  5
300
330
2F6
100
AcDbEntity
  8
0
100
AcDbBlockBegin
  2
*D17
 70
     1
 71
     0
 10
0.0
 20
0.0
 30
0.0
  3
*D17
  1

  0
LINE
  5
2F7
330
2F6
100
AcDbEntity
  8
LC-005-003-----0
 62
     2
370
    -2
100
AcDbLine
 10
586.596249
 20
361.837689
 30
0.0
 11
636.353836
 21
361.837689
 31
0.0
  0
LINE
  5
2F8
330
2F6
100
AcDbEntity
  8
LC-005-003-----0
 62
     2
370
    -2
100
AcDbLine
 10
495.63118
 20
286.915892
 30
0.0
 11
636.353836
 21
286.915892
 31
0.0
  0
LINE
  5
2F9
330
2F6
100
AcDbEntity
  8
LC-005-003-----0
 62
     2
370
    -2
100
AcDbLine
 10
632.753836
 20
333.837689
 30
0.0
 11
632.753836
 21
314.915892
 31
0.0
  0
SOLID
  5
2FA
330
2F6
100
AcDbEntity
  8
LC-005-003-----0
 62
     2
100
AcDbTrace
 10
637.420502
 20
333.837689
 30
0.0
 11
628.087169
 21
333.837689
 31
0.0
 12
632.753836
 22
361.837689
 32
0.0
 13
632.753836
 23
361.837689
 33
0.0
  0
SOLID
  5
2FB
330
2F6
100
AcDbEntity
  8
LC-005-003-----0
 62
     2
100
AcDbTrace
 10
628.087169
 20
314.915892
 30
0.0
 11
637.420502
 21
314.915892
 31
0.0
 12
632.753836
 22
286.915892
 32
0.0
 13
632.753836
 23
286.915892
 33
0.0
  0
MTEXT
  5
2FC
330
2F6
100
AcDbEntity
  8
LC-005-003-----0
 62
     2
100
AcDbMText
 10
601.953836
 20
320.166
 30
0.0
 40
28.0
 41
0.0
 71
     5
 72
     1
  1
\A1;DN70
  7
LCTX15-400-0-0pDIN-Schrift
 11
6.123031769111886E-17
 21
1.0
 31
0.0
 73
     1
 44
1.0
  0
POINT
  5
2FD
330
2F6
100
AcDbEntity
  8
Defpoints
 62
     0
100
AcDbPoint
 10
586.596249
 20
361.837689
 30
0.0
  0
POINT
  5
2FE
330
2F6
100
AcDbEntity
  8
Defpoints
 62
     0
100
AcDbPoint
 10
495.63118
 20
286.915892
 30
0.0
  0
POINT
  5
2FF
330
2F6
100
AcDbEntity
  8
Defpoints
 62
     0
100
AcDbPoint
 10
632.753836
 20
286.915892
 30
0.0
  0
ENDBLK
  5
301
330
2F6
100
AcDbEntity
  8
0
100
AcDbBlockEnd
  0
BLOCK
  5
30F
330
304
100
AcDbEntity
  8
0
100
AcDbBlockBegin
  2
*D18
 70
     1
 71
     0
 10
0.0
 20
0.0
 30
0.0
  3
*D18
  1

  0
LINE
  5
305
330
304
100
AcDbEntity
  8
LC-005-003-----0
 62
     2
370
    -2
100
AcDbLine
 10
223.170079
 20
360.36408
 30
0.0
 11
192.4
 21
360.36408
 31
0.0
  0
LINE
  5
306
330
304
100
AcDbEntity
  8
LC-005-003-----0
 62
     2
370
    -2
100
AcDbLine
 10
223.164936
 20
308.865318
 30
0.0
 11
192.4
 21
308.865318
 31
0.0
  0
LINE
  5
307
330
304
100
AcDbEntity
  8
LC-005-003-----0
 62
     2
370
    -2
100
AcDbLine
 10
196.0
 20
280.865318
 30
0.0
 11
196.0
 21
252.865318
 31
0.0
  0
LINE
  5
308
330
304
100
AcDbEntity
  8
LC-005-003-----0
 62
     2
370
    -2
100
AcDbLine
 10
196.0
 20
388.36408
 30
0.0
 11
196.0
 21
492.724758
 31
0.0
  0
SOLID
  5
309
330
304
100
AcDbEntity
  8
LC-005-003-----0
 62
     2
100
AcDbTrace
 10
191.333333
 20
388.36408
 30
0.0
 11
200.666667
 21
388.36408
 31
0.0
 12
196.0
 22
360.36408
 32
0.0
 13
196.0
 23
360.36408
 33
0.0
  0
SOLID
  5
30A
330
304
100
AcDbEntity
  8
LC-005-003-----0
 62
     2
100
AcDbTrace
 10
200.666667
 20
280.865318
 30
0.0
 11
191.333333
 21
280.865318
 31
0.0
 12
196.0
 22
308.865318
 32
0.0
 13
196.0
 23
308.865318
 33
0.0
  0
MTEXT
  5
30B
330
304
100
AcDbEntity
  8
LC-005-003-----0
 62
     2
100
AcDbMText
 10
165.2
 20
446.688
 30
0.0
 40
28.0
 41
0.0
 71
     5
 72
     1
  1
\A1;DN50
  7
LCTX15-400-0-0pDIN-Schrift
 11
6.123031769111886E-17
 21
1.0
 31
0.0
 73
     1
 44
1.0
  0
POINT
  5
30C
330
304
100
AcDbEntity
  8
Defpoints
 62
     0
100
AcDbPoint
 10
223.170079
 20
360.36408
 30
0.0
  0
POINT
  5
30D
330
304
100
AcDbEntity
  8
Defpoints
 62
     0
100
AcDbPoint
 10
223.164936
 20
308.865318
 30
0.0
  0
POINT
  5
30E
330
304
100
AcDbEntity
  8
Defpoints
 62
     0
100
AcDbPoint
 10
196.0
 20
308.865318
 30
0.0
  0
ENDBLK
  5
310
330
304
100
AcDbEntity
  8
0
100
AcDbBlockEnd
  0
BLOCK
  5
314
330
313
100
AcDbEntity
  8
0
100
AcDbBlockBegin
  2
*X1219
 70
     1
 71
     0
 10
0.0
 20
0.0
 30
0.0
  3
*X1219
  1

  4
*X12
  0
LINE
  5
316
330
313
100
AcDbEntity
  8
LC-003-005-----0
 62
     7
370
    25
100
AcDbLine
 10
293.690818
 20
362.986847
 30
0.0
 11
296.431078
 21
365.727103
 31
0.0
  0
LINE
  5
317
330
313
100
AcDbEntity
  8
LC-003-005-----0
 62
     7
370
    25
100
AcDbLine
 10
292.671114
 20
363.381357
 30
0.0
 11
296.036569
 21
366.746808
 31
0.0
  0
LINE
  5
318
330
313
100
AcDbEntity
  8
LC-003-005-----0
 62
     7
370
    25
100
AcDbLine
 10
291.977637
 20
364.102094
 30
0.0
 11
295.315833
 21
367.440285
 31
0.0
  0
LINE
  5
319
330
313
100
AcDbEntity
  8
LC-003-005-----0
 62
     7
370
    25
100
AcDbLine
 10
291.620462
 20
365.159131
 30
0.0
 11
294.258797
 21
367.797463
 31
0.0
  0
ENDBLK
  5
315
330
313
100
AcDbEntity
  8
0
100
AcDbBlockEnd
  0
BLOCK
  5
31C
330
31B
100
AcDbEntity
  8
0
100
AcDbBlockBegin
  2
*X1320
 70
     1
 71
     0
 10
0.0
 20
0.0
 30
0.0
  3
*X1320
  1

  4
*X13
  0
LINE
  5
31E
330
31B
100
AcDbEntity
  8
LC-003-005-----0
 62
     7
370
    25
100
AcDbLine
 10
381.843901
 20
362.610596
 30
0.0
 11
382.117705
 21
362.884401
 31
0.0
  0
LINE
  5
31F
330
31B
100
AcDbEntity
  8
LC-003-005-----0
 62
     7
370
    25
100
AcDbLine
 10
381.278215
 20
362.610596
 30
0.0
 11
382.117706
 21
363.450087
 31
0.0
  0
LINE
  5
320
330
31B
100
AcDbEntity
  8
LC-003-005-----0
 62
     7
370
    25
100
AcDbLine
 10
380.71253
 20
362.610596
 30
0.0
 11
382.117707
 21
364.015773
 31
0.0
  0
LINE
  5
321
330
31B
100
AcDbEntity
  8
LC-003-005-----0
 62
     7
370
    25
100
AcDbLine
 10
380.146845
 20
362.610596
 30
0.0
 11
381.64684
 21
364.110592
 31
0.0
  0
LINE
  5
322
330
31B
100
AcDbEntity
  8
LC-003-005-----0
 62
     7
370
    25
100
AcDbLine
 10
379.581159
 20
362.610596
 30
0.0
 11
381.081155
 21
364.110592
 31
0.0
  0
LINE
  5
323
330
31B
100
AcDbEntity
  8
LC-003-005-----0
 62
     7
370
    25
100
AcDbLine
 10
379.015474
 20
362.610596
 30
0.0
 11
380.515471
 21
364.110593
 31
0.0
  0
LINE
  5
324
330
31B
100
AcDbEntity
  8
LC-003-005-----0
 62
     7
370
    25
100
AcDbLine
 10
378.449788
 20
362.610596
 30
0.0
 11
379.949786
 21
364.110594
 31
0.0
  0
LINE
  5
325
330
31B
100
AcDbEntity
  8
LC-003-005-----0
 62
     7
370
    25
100
AcDbLine
 10
378.117705
 20
362.844199
 30
0.0
 11
379.384101
 21
364.110595
 31
0.0
  0
LINE
  5
326
330
31B
100
AcDbEntity
  8
LC-003-005-----0
 62
     7
370
    25
100
AcDbLine
 10
378.117706
 20
363.409885
 30
0.0
 11
378.818417
 21
364.110595
 31
0.0
  0
LINE
  5
327
330
31B
100
AcDbEntity
  8
LC-003-005-----0
 62
     7
370
    25
100
AcDbLine
 10
378.117707
 20
363.975571
 30
0.0
 11
378.252732
 21
364.110596
 31
0.0
  0
ENDBLK
  5
31D
330
31B
100
AcDbEntity
  8
0
100
AcDbBlockEnd
  0
BLOCK
  5
32A
330
329
100
AcDbEntity
  8
0
100
AcDbBlockBegin
  2
*X1421
 70
     1
 71
     0
 10
0.0
 20
0.0
 30
0.0
  3
*X1421
  1

  4
*X14
  0
LINE
  5
32C
330
329
100
AcDbEntity
  8
LC-003-005-----0
 62
     7
370
    25
100
AcDbLine
 10
420.876138
 20
362.61054
 30
0.0
 11
421.117705
 21
362.852106
 31
0.0
  0
LINE
  5
32D
330
329
100
AcDbEntity
  8
LC-003-005-----0
 62
     7
370
    25
100
AcDbLine
 10
420.310454
 20
362.61054
 30
0.0
 11
421.117706
 21
363.417793
 31
0.0
  0
LINE
  5
32E
330
329
100
AcDbEntity
  8
LC-003-005-----0
 62
     7
370
    25
100
AcDbLine
 10
419.744769
 20
362.610541
 30
0.0
 11
421.117707
 21
363.983479
 31
0.0
  0
LINE
  5
32F
330
329
100
AcDbEntity
  8
LC-003-005-----0
 62
     7
370
    25
100
AcDbLine
 10
419.179084
 20
362.610542
 30
0.0
 11
420.679082
 21
364.11054
 31
0.0
  0
LINE
  5
330
330
329
100
AcDbEntity
  8
LC-003-005-----0
 62
     7
370
    25
100
AcDbLine
 10
418.6134
 20
362.610543
 30
0.0
 11
420.113398
 21
364.110541
 31
0.0
  0
LINE
  5
331
330
329
100
AcDbEntity
  8
LC-003-005-----0
 62
     7
370
    25
100
AcDbLine
 10
418.047715
 20
362.610543
 30
0.0
 11
419.547713
 21
364.110541
 31
0.0
  0
LINE
  5
332
330
329
100
AcDbEntity
  8
LC-003-005-----0
 62
     7
370
    25
100
AcDbLine
 10
417.48203
 20
362.610544
 30
0.0
 11
418.982028
 21
364.110542
 31
0.0
  0
LINE
  5
333
330
329
100
AcDbEntity
  8
LC-003-005-----0
 62
     7
370
    25
100
AcDbLine
 10
417.117705
 20
362.811904
 30
0.0
 11
418.416344
 21
364.110543
 31
0.0
  0
LINE
  5
334
330
329
100
AcDbEntity
  8
LC-003-005-----0
 62
     7
370
    25
100
AcDbLine
 10
417.117706
 20
363.377591
 30
0.0
 11
417.850659
 21
364.110544
 31
0.0
  0
LINE
  5
335
330
329
100
AcDbEntity
  8
LC-003-005-----0
 62
     7
370
    25
100
AcDbLine
 10
417.117707
 20
363.943277
 30
0.0
 11
417.284974
 21
364.110544
 31
0.0
  0
ENDBLK
  5
32B
330
329
100
AcDbEntity
  8
0
100
AcDbBlockEnd
  0
BLOCK
  5
338
330
337
100
AcDbEntity
  8
0
100
AcDbBlockBegin
  2
*X1522
 70
     1
 71
     0
 10
0.0
 20
0.0
 30
0.0
  3
*X1522
  1

  4
*X15
  0
LINE
  5
33A
330
337
100
AcDbEntity
  8
LC-003-005-----0
 62
     7
370
    25
100
AcDbLine
 10
315.865861
 20
270.611027
 30
0.0
 11
316.117137
 21
270.862303
 31
0.0
  0
LINE
  5
33B
330
337
100
AcDbEntity
  8
LC-003-005-----0
 62
     7
370
    25
100
AcDbLine
 10
314.617139
 20
272.190732
 30
0.0
 11
316.117141
 21
273.690734
 31
0.0
  0
LINE
  5
33C
330
337
100
AcDbEntity
  8
LC-003-005-----0
 62
     7
370
    25
100
AcDbLine
 10
314.617142
 20
275.019162
 30
0.0
 11
316.117144
 21
276.519164
 31
0.0
  0
LINE
  5
33D
330
337
100
AcDbEntity
  8
LC-003-005-----0
 62
     7
370
    25
100
AcDbLine
 10
314.617145
 20
277.847593
 30
0.0
 11
316.117147
 21
279.347595
 31
0.0
  0
LINE
  5
33E
330
337
100
AcDbEntity
  8
LC-003-005-----0
 62
     7
370
    25
100
AcDbLine
 10
314.617149
 20
280.676023
 30
0.0
 11
316.11715
 21
282.176025
 31
0.0
  0
LINE
  5
33F
330
337
100
AcDbEntity
  8
LC-003-005-----0
 62
     7
370
    25
100
AcDbLine
 10
314.617152
 20
283.504454
 30
0.0
 11
316.117154
 21
285.004455
 31
0.0
  0
LINE
  5
340
330
337
100
AcDbEntity
  8
LC-003-005-----0
 62
     7
370
    25
100
AcDbLine
 10
314.617155
 20
286.332884
 30
0.0
 11
316.117157
 21
287.832886
 31
0.0
  0
LINE
  5
341
330
337
100
AcDbEntity
  8
LC-003-005-----0
 62
     7
370
    25
100
AcDbLine
 10
314.617158
 20
289.161314
 30
0.0
 11
316.11716
 21
290.661316
 31
0.0
  0
LINE
  5
342
330
337
100
AcDbEntity
  8
LC-003-005-----0
 62
     7
370
    25
100
AcDbLine
 10
314.617162
 20
291.989745
 30
0.0
 11
316.117163
 21
293.489746
 31
0.0
  0
LINE
  5
343
330
337
100
AcDbEntity
  8
LC-003-005-----0
 62
     7
370
    25
100
AcDbLine
 10
314.617165
 20
294.818175
 30
0.0
 11
316.117167
 21
296.318177
 31
0.0
  0
LINE
  5
344
330
337
100
AcDbEntity
  8
LC-003-005-----0
 62
     7
370
    25
100
AcDbLine
 10
314.617168
 20
297.646605
 30
0.0
 11
316.11717
 21
299.146607
 31
0.0
  0
LINE
  5
345
330
337
100
AcDbEntity
  8
LC-003-005-----0
 62
     7
370
    25
100
AcDbLine
 10
314.617171
 20
300.475036
 30
0.0
 11
316.117173
 21
301.975038
 31
0.0
  0
LINE
  5
346
330
337
100
AcDbEntity
  8
LC-003-005-----0
 62
     7
370
    25
100
AcDbLine
 10
314.617175
 20
303.303466
 30
0.0
 11
316.117177
 21
304.803468
 31
0.0
  0
LINE
  5
347
330
337
100
AcDbEntity
  8
LC-003-005-----0
 62
     7
370
    25
100
AcDbLine
 10
314.617178
 20
306.131897
 30
0.0
 11
316.11718
 21
307.631898
 31
0.0
  0
LINE
  5
348
330
337
100
AcDbEntity
  8
LC-003-005-----0
 62
     7
370
    25
100
AcDbLine
 10
314.617181
 20
308.960327
 30
0.0
 11
316.117183
 21
310.460329
 31
0.0
  0
LINE
  5
349
330
337
100
AcDbEntity
  8
LC-003-005-----0
 62
     7
370
    25
100
AcDbLine
 10
314.617184
 20
311.788757
 30
0.0
 11
316.117186
 21
313.288759
 31
0.0
  0
LINE
  5
34A
330
337
100
AcDbEntity
  8
LC-003-005-----0
 62
     7
370
    25
100
AcDbLine
 10
314.617188
 20
314.617188
 30
0.0
 11
316.11719
 21
316.11719
 31
0.0
  0
LINE
  5
34B
330
337
100
AcDbEntity
  8
LC-003-005-----0
 62
     7
370
    25
100
AcDbLine
 10
314.617191
 20
317.445618
 30
0.0
 11
316.117193
 21
318.94562
 31
0.0
  0
LINE
  5
34C
330
337
100
AcDbEntity
  8
LC-003-005-----0
 62
     7
370
    25
100
AcDbLine
 10
314.617194
 20
320.274048
 30
0.0
 11
316.117196
 21
321.77405
 31
0.0
  0
LINE
  5
34D
330
337
100
AcDbEntity
  8
LC-003-005-----0
 62
     7
370
    25
100
AcDbLine
 10
314.617197
 20
323.102479
 30
0.0
 11
316.117199
 21
324.602481
 31
0.0
  0
LINE
  5
34E
330
337
100
AcDbEntity
  8
LC-003-005-----0
 62
     7
370
    25
100
AcDbLine
 10
314.617201
 20
325.930909
 30
0.0
 11
316.117203
 21
327.430911
 31
0.0
  0
LINE
  5
34F
330
337
100
AcDbEntity
  8
LC-003-005-----0
 62
     7
370
    25
100
AcDbLine
 10
314.617204
 20
328.75934
 30
0.0
 11
316.117206
 21
330.259342
 31
0.0
  0
LINE
  5
350
330
337
100
AcDbEntity
  8
LC-003-005-----0
 62
     7
370
    25
100
AcDbLine
 10
314.617207
 20
331.58777
 30
0.0
 11
316.117209
 21
333.087772
 31
0.0
  0
LINE
  5
351
330
337
100
AcDbEntity
  8
LC-003-005-----0
 62
     7
370
    25
100
AcDbLine
 10
314.61721
 20
334.4162
 30
0.0
 11
316.117212
 21
335.916202
 31
0.0
  0
LINE
  5
352
330
337
100
AcDbEntity
  8
LC-003-005-----0
 62
     7
370
    25
100
AcDbLine
 10
314.617214
 20
337.244631
 30
0.0
 11
316.117216
 21
338.744633
 31
0.0
  0
LINE
  5
353
330
337
100
AcDbEntity
  8
LC-003-005-----0
 62
     7
370
    25
100
AcDbLine
 10
314.617217
 20
340.073061
 30
0.0
 11
316.117219
 21
341.573063
 31
0.0
  0
LINE
  5
354
330
337
100
AcDbEntity
  8
LC-003-005-----0
 62
     7
370
    25
100
AcDbLine
 10
314.61722
 20
342.901492
 30
0.0
 11
316.117222
 21
344.401493
 31
0.0
  0
LINE
  5
355
330
337
100
AcDbEntity
  8
LC-003-005-----0
 62
     7
370
    25
100
AcDbLine
 10
314.617224
 20
345.729922
 30
0.0
 11
316.117225
 21
347.229924
 31
0.0
  0
LINE
  5
356
330
337
100
AcDbEntity
  8
LC-003-005-----0
 62
     7
370
    25
100
AcDbLine
 10
314.617227
 20
348.558352
 30
0.0
 11
316.117229
 21
350.058354
 31
0.0
  0
LINE
  5
357
330
337
100
AcDbEntity
  8
LC-003-005-----0
 62
     7
370
    25
100
AcDbLine
 10
314.61723
 20
351.386783
 30
0.0
 11
316.117232
 21
352.886785
 31
0.0
  0
LINE
  5
358
330
337
100
AcDbEntity
  8
LC-003-005-----0
 62
     7
370
    25
100
AcDbLine
 10
314.617233
 20
354.215213
 30
0.0
 11
316.117235
 21
355.715215
 31
0.0
  0
LINE
  5
359
330
337
100
AcDbEntity
  8
LC-003-005-----0
 62
     7
370
    25
100
AcDbLine
 10
314.617237
 20
357.043643
 30
0.0
 11
316.117239
 21
358.543645
 31
0.0
  0
LINE
  5
35A
330
337
100
AcDbEntity
  8
LC-003-005-----0
 62
     7
370
    25
100
AcDbLine
 10
314.61724
 20
359.872074
 30
0.0
 11
316.117242
 21
361.372076
 31
0.0
  0
LINE
  5
35B
330
337
100
AcDbEntity
  8
LC-003-005-----0
 62
     7
370
    25
100
AcDbLine
 10
313.031054
 20
361.114315
 30
0.0
 11
314.52742
 21
362.610681
 31
0.0
  0
LINE
  5
35C
330
337
100
AcDbEntity
  8
LC-003-005-----0
 62
     7
370
    25
100
AcDbLine
 10
310.202631
 20
361.114319
 30
0.0
 11
311.698996
 21
362.610685
 31
0.0
  0
LINE
  5
35D
330
337
100
AcDbEntity
  8
LC-003-005-----0
 62
     7
370
    25
100
AcDbLine
 10
307.374208
 20
361.114323
 30
0.0
 11
308.870573
 21
362.610688
 31
0.0
  0
LINE
  5
35E
330
337
100
AcDbEntity
  8
LC-003-005-----0
 62
     7
370
    25
100
AcDbLine
 10
304.545784
 20
361.114327
 30
0.0
 11
306.04215
 21
362.610692
 31
0.0
  0
LINE
  5
35F
330
337
100
AcDbEntity
  8
LC-003-005-----0
 62
     7
370
    25
100
AcDbLine
 10
301.717361
 20
361.11433
 30
0.0
 11
303.213726
 21
362.610696
 31
0.0
  0
LINE
  5
360
330
337
100
AcDbEntity
  8
LC-003-005-----0
 62
     7
370
    25
100
AcDbLine
 10
298.888937
 20
361.114334
 30
0.0
 11
300.385303
 21
362.6107
 31
0.0
  0
LINE
  5
361
330
337
100
AcDbEntity
  8
LC-003-005-----0
 62
     7
370
    25
100
AcDbLine
 10
296.060514
 20
361.114338
 30
0.0
 11
298.108407
 21
363.162231
 31
0.0
  0
LINE
  5
362
330
337
100
AcDbEntity
  8
LC-003-005-----0
 62
     7
370
    25
100
AcDbLine
 10
293.232091
 20
361.114342
 30
0.0
 11
294.732089
 21
362.61434
 31
0.0
  0
LINE
  5
363
330
337
100
AcDbEntity
  8
LC-003-005-----0
 62
     7
370
    25
100
AcDbLine
 10
296.608409
 20
364.49066
 30
0.0
 11
298.108411
 21
365.990662
 31
0.0
  0
LINE
  5
364
330
337
100
AcDbEntity
  8
LC-003-005-----0
 62
     7
370
    25
100
AcDbLine
 10
291.608406
 20
362.319084
 30
0.0
 11
291.903665
 21
362.614343
 31
0.0
  0
LINE
  5
365
330
337
100
AcDbEntity
  8
LC-003-005-----0
 62
     7
370
    25
100
AcDbLine
 10
296.608412
 20
367.319091
 30
0.0
 11
298.108414
 21
368.819093
 31
0.0
  0
LINE
  5
366
330
337
100
AcDbEntity
  8
LC-003-005-----0
 62
     7
370
    25
100
AcDbLine
 10
294.575235
 20
368.11434
 30
0.0
 11
296.075233
 21
369.614338
 31
0.0
  0
LINE
  5
367
330
337
100
AcDbEntity
  8
LC-003-005-----0
 62
     7
370
    25
100
AcDbLine
 10
291.746811
 20
368.114344
 30
0.0
 11
293.246809
 21
369.614342
 31
0.0
  0
ENDBLK
  5
339
330
337
100
AcDbEntity
  8
0
100
AcDbBlockEnd
  0
BLOCK
  5
3B6
330
3B5
100
AcDbEntity
  8
0
100
AcDbBlockBegin
  2
*X1623
 70
     1
 71
     0
 10
0.0
 20
0.0
 30
0.0
  3
*X1623
  1

  4
*X16
  0
LINE
  5
3B8
330
3B5
100
AcDbEntity
  8
LC-003-005-----0
 62
     7
370
    25
100
AcDbLine
 10
438.378029
 20
378.981059
 30
0.0
 11
439.608305
 21
380.211336
 31
0.0
  0
LINE
  5
3B9
330
3B5
100
AcDbEntity
  8
LC-003-005-----0
 62
     7
370
    25
100
AcDbLine
 10
435.549602
 20
378.981059
 30
0.0
 11
439.608305
 21
383.039763
 31
0.0
  0
LINE
  5
3BA
330
3B5
100
AcDbEntity
  8
LC-003-005-----0
 62
     7
370
    25
100
AcDbLine
 10
449.60809
 20
393.039548
 30
0.0
 11
451.826454
 21
395.257911
 31
0.0
  0
LINE
  5
3BB
330
3B5
100
AcDbEntity
  8
LC-003-005-----0
 62
     7
370
    25
100
AcDbLine
 10
432.721174
 20
378.981059
 30
0.0
 11
439.608305
 21
385.86819
 31
0.0
  0
LINE
  5
3BC
330
3B5
100
AcDbEntity
  8
LC-003-005-----0
 62
     7
370
    25
100
AcDbLine
 10
449.60809
 20
395.867975
 30
0.0
 11
452.29789
 21
398.557775
 31
0.0
  0
LINE
  5
3BD
330
3B5
100
AcDbEntity
  8
LC-003-005-----0
 62
     7
370
    25
100
AcDbLine
 10
430.108305
 20
379.196617
 30
0.0
 11
439.608305
 21
388.696617
 31
0.0
  0
LINE
  5
3BE
330
3B5
100
AcDbEntity
  8
LC-003-005-----0
 62
     7
370
    25
100
AcDbLine
 10
447.01242
 20
396.100731
 30
0.0
 11
449.706944
 21
398.795256
 31
0.0
  0
LINE
  5
3BF
330
3B5
100
AcDbEntity
  8
LC-003-005-----0
 62
     7
370
    25
100
AcDbLine
 10
432.858305
 20
384.775044
 30
0.0
 11
439.608305
 21
391.525044
 31
0.0
  0
LINE
  5
3C0
330
3B5
100
AcDbEntity
  8
LC-003-005-----0
 62
     7
370
    25
100
AcDbLine
 10
443.97134
 20
395.888078
 30
0.0
 11
446.665864
 21
398.582603
 31
0.0
  0
LINE
  5
3C1
330
3B5
100
AcDbEntity
  8
LC-003-005-----0
 62
     7
370
    25
100
AcDbLine
 10
432.858305
 20
387.603471
 30
0.0
 11
439.608305
 21
394.353471
 31
0.0
  0
LINE
  5
3C2
330
3B5
100
AcDbEntity
  8
LC-003-005-----0
 62
     7
370
    25
100
AcDbLine
 10
440.930259
 20
395.675425
 30
0.0
 11
443.624784
 21
398.36995
 31
0.0
  0
LINE
  5
3C3
330
3B5
100
AcDbEntity
  8
LC-003-005-----0
 62
     7
370
    25
100
AcDbLine
 10
432.858305
 20
390.431898
 30
0.0
 11
440.583703
 21
398.157297
 31
0.0
  0
LINE
  5
3C4
330
3B5
100
AcDbEntity
  8
LC-003-005-----0
 62
     7
370
    25
100
AcDbLine
 10
432.858305
 20
393.260325
 30
0.0
 11
437.542623
 21
397.944644
 31
0.0
  0
LINE
  5
3C5
330
3B5
100
AcDbEntity
  8
LC-003-005-----0
 62
     7
370
    25
100
AcDbLine
 10
432.858305
 20
396.088753
 30
0.0
 11
434.501543
 21
397.73199
 31
0.0
  0
ENDBLK
  5
3B7
330
3B5
100
AcDbEntity
  8
0
100
AcDbBlockEnd
  0
BLOCK
  5
3C8
330
3C7
100
AcDbEntity
  8
0
100
AcDbBlockBegin
  2
*X1724
 70
     1
 71
     0
 10
0.0
 20
0.0
 30
0.0
  3
*X1724
  1

  4
*X17
  0
LINE
  5
3CA
330
3C7
100
AcDbEntity
  8
LC-003-005-----0
 62
     7
370
    25
100
AcDbLine
 10
288.471391
 20
378.981059
 30
0.0
 11
291.108305
 21
381.617973
 31
0.0
  0
LINE
  5
3CB
330
3C7
100
AcDbEntity
  8
LC-003-005-----0
 62
     7
370
    25
100
AcDbLine
 10
285.642964
 20
378.981059
 30
0.0
 11
288.642964
 21
381.981059
 31
0.0
  0
LINE
  5
3CC
330
3C7
100
AcDbEntity
  8
LC-003-005-----0
 62
     7
370
    25
100
AcDbLine
 10
282.814537
 20
378.981059
 30
0.0
 11
288.358305
 21
384.524827
 31
0.0
  0
LINE
  5
3CD
330
3C7
100
AcDbEntity
  8
LC-003-005-----0
 62
     7
370
    25
100
AcDbLine
 10
281.608305
 20
380.603255
 30
0.0
 11
288.358305
 21
387.353255
 31
0.0
  0
LINE
  5
3CE
330
3C7
100
AcDbEntity
  8
LC-003-005-----0
 62
     7
370
    25
100
AcDbLine
 10
281.608305
 20
383.431682
 30
0.0
 11
288.358305
 21
390.181682
 31
0.0
  0
LINE
  5
3CF
330
3C7
100
AcDbEntity
  8
LC-003-005-----0
 62
     7
370
    25
100
AcDbLine
 10
281.608305
 20
386.260109
 30
0.0
 11
288.358305
 21
393.010109
 31
0.0
  0
LINE
  5
3D0
330
3C7
100
AcDbEntity
  8
LC-003-005-----0
 62
     7
370
    25
100
AcDbLine
 10
281.608305
 20
389.088536
 30
0.0
 11
288.358305
 21
395.838536
 31
0.0
  0
LINE
  5
3D1
330
3C7
100
AcDbEntity
  8
LC-003-005-----0
 62
     7
370
    25
100
AcDbLine
 10
281.608305
 20
391.916963
 30
0.0
 11
287.377043
 21
397.685701
 31
0.0
  0
LINE
  5
3D2
330
3C7
100
AcDbEntity
  8
LC-003-005-----0
 62
     7
370
    25
100
AcDbLine
 10
281.608305
 20
394.74539
 30
0.0
 11
284.733472
 21
397.870557
 31
0.0
  0
LINE
  5
3D3
330
3C7
100
AcDbEntity
  8
LC-003-005-----0
 62
     7
370
    25
100
AcDbLine
 10
279.747587
 20
395.713099
 30
0.0
 11
282.089901
 21
398.055414
 31
0.0
  0
LINE
  5
3D4
330
3C7
100
AcDbEntity
  8
LC-003-005-----0
 62
     7
370
    25
100
AcDbLine
 10
277.104017
 20
395.897956
 30
0.0
 11
279.446331
 21
398.24027
 31
0.0
  0
LINE
  5
3D5
330
3C7
100
AcDbEntity
  8
LC-003-005-----0
 62
     7
370
    25
100
AcDbLine
 10
270.358693
 20
391.981059
 30
0.0
 11
271.60852
 21
393.230886
 31
0.0
  0
LINE
  5
3D6
330
3C7
100
AcDbEntity
  8
LC-003-005-----0
 62
     7
370
    25
100
AcDbLine
 10
274.460446
 20
396.082812
 30
0.0
 11
276.80276
 21
398.425127
 31
0.0
  0
LINE
  5
3D7
330
3C7
100
AcDbEntity
  8
LC-003-005-----0
 62
     7
370
    25
100
AcDbLine
 10
269.567286
 20
394.018079
 30
0.0
 11
271.60852
 21
396.059313
 31
0.0
  0
LINE
  5
3D8
330
3C7
100
AcDbEntity
  8
LC-003-005-----0
 62
     7
370
    25
100
AcDbLine
 10
271.816875
 20
396.267669
 30
0.0
 11
274.15919
 21
398.609983
 31
0.0
  0
LINE
  5
3D9
330
3C7
100
AcDbEntity
  8
LC-003-005-----0
 62
     7
370
    25
100
AcDbLine
 10
269.213714
 20
396.492935
 30
0.0
 11
271.515619
 21
398.794839
 31
0.0
  0
LINE
  5
3DA
330
3C7
100
AcDbEntity
  8
LC-003-005-----0
 62
     7
370
    25
100
AcDbLine
 10
268.860143
 20
398.967791
 30
0.0
 11
268.872048
 21
398.979696
 31
0.0
  0
ENDBLK
  5
3C9
330
3C7
100
AcDbEntity
  8
0
100
AcDbBlockEnd
  0
BLOCK
  5
3E7
330
3DD
100
AcDbEntity
  8
0
100
AcDbBlockBegin
  2
*D25
 70
     1
 71
     0
 10
0.0
 20
0.0
 30
0.0
  3
*D25
  1

  0
LINE
  5
3DE
330
3DD
100
AcDbEntity
  8
LC-005-003-----0
 62
     2
370
    -2
100
AcDbLine
 10
266.406847
 20
391.334293
 30
0.0
 11
266.406847
 21
434.8
 31
0.0
  0
LINE
  5
3DF
330
3DD
100
AcDbEntity
  8
LC-005-003-----0
 62
     2
370
    -2
100
AcDbLine
 10
454.809585
 20
391.334293
 30
0.0
 11
454.809585
 21
434.8
 31
0.0
  0
LINE
  5
3E0
330
3DD
100
AcDbEntity
  8
LC-005-003-----0
 62
     2
370
    -2
100
AcDbLine
 10
294.406847
 20
431.2
 30
0.0
 11
426.809585
 21
431.2
 31
0.0
  0
SOLID
  5
3E1
330
3DD
100
AcDbEntity
  8
LC-005-003-----0
 62
     2
100
AcDbTrace
 10
294.406847
 20
435.866667
 30
0.0
 11
294.406847
 21
426.533333
 31
0.0
 12
266.406847
 22
431.2
 32
0.0
 13
266.406847
 23
431.2
 33
0.0
  0
SOLID
  5
3E2
330
3DD
100
AcDbEntity
  8
LC-005-003-----0
 62
     2
100
AcDbTrace
 10
426.809585
 20
426.533333
 30
0.0
 11
426.809585
 21
435.866667
 31
0.0
 12
454.809585
 22
431.2
 32
0.0
 13
454.809585
 23
431.2
 33
0.0
  0
MTEXT
  5
3E3
330
3DD
100
AcDbEntity
  8
LC-005-003-----0
 62
     2
100
AcDbMText
 10
360.608216
 20
462.0
 30
0.0
 40
28.0
 41
0.0
 71
     5
 72
     1
  1
\A1;%%c190
  7
LCTX15-400-0-0pDIN-Schrift
 73
     1
 44
1.0
  0
POINT
  5
3E4
330
3DD
100
AcDbEntity
  8
Defpoints
 62
     0
100
AcDbPoint
 10
266.406847
 20
391.334293
 30
0.0
  0
POINT
  5
3E5
330
3DD
100
AcDbEntity
  8
Defpoints
 62
     0
100
AcDbPoint
 10
454.809585
 20
391.334293
 30
0.0
  0
POINT
  5
3E6
330
3DD
100
AcDbEntity
  8
Defpoints
 62
     0
100
AcDbPoint
 10
454.809585
 20
431.2
 30
0.0
  0
ENDBLK
  5
3E8
330
3DD
100
AcDbEntity
  8
0
100
AcDbBlockEnd
  0
BLOCK
  5
3F7
330
3F6
100
AcDbEntity
  8
0
100
AcDbBlockBegin
  2
*X1826
 70
     1
 71
     0
 10
0.0
 20
0.0
 30
0.0
  3
*X1826
  1

  4
*X18
  0
LINE
  5
3F9
330
3F6
100
AcDbEntity
  8
LC-003-005-----0
 62
     7
370
    25
100
AcDbLine
 10
244.561024
 20
309.614848
 30
0.0
 11
248.164936
 21
313.21876
 31
0.0
  0
LINE
  5
3FA
330
3F6
100
AcDbEntity
  8
LC-003-005-----0
 62
     7
370
    25
100
AcDbLine
 10
241.732597
 20
309.614848
 30
0.0
 11
243.732597
 21
311.614848
 31
0.0
  0
LINE
  5
3FB
330
3F6
100
AcDbEntity
  8
LC-003-005-----0
 62
     7
370
    25
100
AcDbLine
 10
246.164936
 20
314.047187
 30
0.0
 11
248.164936
 21
316.047187
 31
0.0
  0
LINE
  5
3FC
330
3F6
100
AcDbEntity
  8
LC-003-005-----0
 62
     7
370
    25
100
AcDbLine
 10
238.90417
 20
309.614848
 30
0.0
 11
240.90417
 21
311.614848
 31
0.0
  0
LINE
  5
3FD
330
3F6
100
AcDbEntity
  8
LC-003-005-----0
 62
     7
370
    25
100
AcDbLine
 10
246.164936
 20
316.875614
 30
0.0
 11
248.164936
 21
318.875614
 31
0.0
  0
LINE
  5
3FE
330
3F6
100
AcDbEntity
  8
LC-003-005-----0
 62
     7
370
    25
100
AcDbLine
 10
236.075742
 20
309.614848
 30
0.0
 11
238.075742
 21
311.614848
 31
0.0
  0
LINE
  5
3FF
330
3F6
100
AcDbEntity
  8
LC-003-005-----0
 62
     7
370
    25
100
AcDbLine
 10
246.164936
 20
319.704041
 30
0.0
 11
248.164936
 21
321.704041
 31
0.0
  0
LINE
  5
400
330
3F6
100
AcDbEntity
  8
LC-003-005-----0
 62
     7
370
    25
100
AcDbLine
 10
233.247315
 20
309.614848
 30
0.0
 11
235.247315
 21
311.614848
 31
0.0
  0
LINE
  5
401
330
3F6
100
AcDbEntity
  8
LC-003-005-----0
 62
     7
370
    25
100
AcDbLine
 10
246.164936
 20
322.532468
 30
0.0
 11
248.164936
 21
324.532468
 31
0.0
  0
LINE
  5
402
330
3F6
100
AcDbEntity
  8
LC-003-005-----0
 62
     7
370
    25
100
AcDbLine
 10
230.418888
 20
309.614848
 30
0.0
 11
232.418888
 21
311.614848
 31
0.0
  0
LINE
  5
403
330
3F6
100
AcDbEntity
  8
LC-003-005-----0
 62
     7
370
    25
100
AcDbLine
 10
246.164936
 20
325.360895
 30
0.0
 11
248.164936
 21
327.360895
 31
0.0
  0
LINE
  5
404
330
3F6
100
AcDbEntity
  8
LC-003-005-----0
 62
     7
370
    25
100
AcDbLine
 10
221.590461
 20
303.614848
 30
0.0
 11
223.164936
 21
305.189322
 31
0.0
  0
LINE
  5
405
330
3F6
100
AcDbEntity
  8
LC-003-005-----0
 62
     7
370
    25
100
AcDbLine
 10
227.590461
 20
309.614848
 30
0.0
 11
229.590461
 21
311.614848
 31
0.0
  0
LINE
  5
406
330
3F6
100
AcDbEntity
  8
LC-003-005-----0
 62
     7
370
    25
100
AcDbLine
 10
246.164936
 20
328.189322
 30
0.0
 11
248.164936
 21
330.189322
 31
0.0
  0
LINE
  5
407
330
3F6
100
AcDbEntity
  8
LC-003-005-----0
 62
     7
370
    25
100
AcDbLine
 10
221.164936
 20
306.017749
 30
0.0
 11
223.164936
 21
308.017749
 31
0.0
  0
LINE
  5
408
330
3F6
100
AcDbEntity
  8
LC-003-005-----0
 62
     7
370
    25
100
AcDbLine
 10
224.762034
 20
309.614848
 30
0.0
 11
226.762034
 21
311.614848
 31
0.0
  0
LINE
  5
409
330
3F6
100
AcDbEntity
  8
LC-003-005-----0
 62
     7
370
    25
100
AcDbLine
 10
246.164936
 20
331.017749
 30
0.0
 11
248.164936
 21
333.017749
 31
0.0
  0
LINE
  5
40A
330
3F6
100
AcDbEntity
  8
LC-003-005-----0
 62
     7
370
    25
100
AcDbLine
 10
221.164936
 20
308.846177
 30
0.0
 11
223.933607
 21
311.614848
 31
0.0
  0
LINE
  5
40B
330
3F6
100
AcDbEntity
  8
LC-003-005-----0
 62
     7
370
    25
100
AcDbLine
 10
246.164936
 20
333.846177
 30
0.0
 11
248.164936
 21
335.846177
 31
0.0
  0
LINE
  5
40C
330
3F6
100
AcDbEntity
  8
LC-003-005-----0
 62
     7
370
    25
100
AcDbLine
 10
246.164936
 20
336.674604
 30
0.0
 11
248.164936
 21
338.674604
 31
0.0
  0
LINE
  5
40D
330
3F6
100
AcDbEntity
  8
LC-003-005-----0
 62
     7
370
    25
100
AcDbLine
 10
246.164936
 20
339.503031
 30
0.0
 11
248.164936
 21
341.503031
 31
0.0
  0
LINE
  5
40E
330
3F6
100
AcDbEntity
  8
LC-003-005-----0
 62
     7
370
    25
100
AcDbLine
 10
246.164936
 20
342.331458
 30
0.0
 11
248.164936
 21
344.331458
 31
0.0
  0
LINE
  5
40F
330
3F6
100
AcDbEntity
  8
LC-003-005-----0
 62
     7
370
    25
100
AcDbLine
 10
246.164936
 20
345.159885
 30
0.0
 11
248.164936
 21
347.159885
 31
0.0
  0
LINE
  5
410
330
3F6
100
AcDbEntity
  8
LC-003-005-----0
 62
     7
370
    25
100
AcDbLine
 10
246.164936
 20
347.988312
 30
0.0
 11
248.164936
 21
349.988312
 31
0.0
  0
LINE
  5
411
330
3F6
100
AcDbEntity
  8
LC-003-005-----0
 62
     7
370
    25
100
AcDbLine
 10
246.164936
 20
350.816739
 30
0.0
 11
248.164936
 21
352.816739
 31
0.0
  0
LINE
  5
412
330
3F6
100
AcDbEntity
  8
LC-003-005-----0
 62
     7
370
    25
100
AcDbLine
 10
246.164936
 20
353.645166
 30
0.0
 11
248.164936
 21
355.645166
 31
0.0
  0
LINE
  5
413
330
3F6
100
AcDbEntity
  8
LC-003-005-----0
 62
     7
370
    25
100
AcDbLine
 10
246.164936
 20
356.473594
 30
0.0
 11
248.164936
 21
358.473594
 31
0.0
  0
LINE
  5
414
330
3F6
100
AcDbEntity
  8
LC-003-005-----0
 62
     7
370
    25
100
AcDbLine
 10
244.477763
 20
357.614848
 30
0.0
 11
246.20033
 21
359.337415
 31
0.0
  0
LINE
  5
415
330
3F6
100
AcDbEntity
  8
LC-003-005-----0
 62
     7
370
    25
100
AcDbLine
 10
241.649336
 20
357.614848
 30
0.0
 11
243.649336
 21
359.614848
 31
0.0
  0
LINE
  5
416
330
3F6
100
AcDbEntity
  8
LC-003-005-----0
 62
     7
370
    25
100
AcDbLine
 10
238.820908
 20
357.614848
 30
0.0
 11
240.820908
 21
359.614848
 31
0.0
  0
LINE
  5
417
330
3F6
100
AcDbEntity
  8
LC-003-005-----0
 62
     7
370
    25
100
AcDbLine
 10
235.992481
 20
357.614848
 30
0.0
 11
237.992481
 21
359.614848
 31
0.0
  0
LINE
  5
418
330
3F6
100
AcDbEntity
  8
LC-003-005-----0
 62
     7
370
    25
100
AcDbLine
 10
233.164054
 20
357.614848
 30
0.0
 11
235.164054
 21
359.614848
 31
0.0
  0
LINE
  5
419
330
3F6
100
AcDbEntity
  8
LC-003-005-----0
 62
     7
370
    25
100
AcDbLine
 10
230.335627
 20
357.614848
 30
0.0
 11
232.335627
 21
359.614848
 31
0.0
  0
LINE
  5
41A
330
3F6
100
AcDbEntity
  8
LC-003-005-----0
 62
     7
370
    25
100
AcDbLine
 10
227.5072
 20
357.614848
 30
0.0
 11
229.5072
 21
359.614848
 31
0.0
  0
LINE
  5
41B
330
3F6
100
AcDbEntity
  8
LC-003-005-----0
 62
     7
370
    25
100
AcDbLine
 10
224.678773
 20
357.614848
 30
0.0
 11
226.678773
 21
359.614848
 31
0.0
  0
LINE
  5
41C
330
3F6
100
AcDbEntity
  8
LC-003-005-----0
 62
     7
370
    25
100
AcDbLine
 10
221.850346
 20
357.614848
 30
0.0
 11
223.850346
 21
359.614848
 31
0.0
  0
LINE
  5
41D
330
3F6
100
AcDbEntity
  8
LC-003-005-----0
 62
     7
370
    25
100
AcDbLine
 10
221.164936
 20
359.757865
 30
0.0
 11
223.164936
 21
361.757865
 31
0.0
  0
LINE
  5
41E
330
3F6
100
AcDbEntity
  8
LC-003-005-----0
 62
     7
370
    25
100
AcDbLine
 10
221.164936
 20
362.586292
 30
0.0
 11
223.164936
 21
364.586292
 31
0.0
  0
LINE
  5
41F
330
3F6
100
AcDbEntity
  8
LC-003-005-----0
 62
     7
370
    25
100
AcDbLine
 10
221.164936
 20
365.414719
 30
0.0
 11
221.365064
 21
365.614848
 31
0.0
  0
ENDBLK
  5
3F8
330
3F6
100
AcDbEntity
  8
0
100
AcDbBlockEnd
  0
BLOCK
  5
44F
330
44E
100
AcDbEntity
  8
0
100
AcDbBlockBegin
  2
*X1927
 70
     1
 71
     0
 10
0.0
 20
0.0
 30
0.0
  3
*X1927
  1

  4
*X19
  0
LINE
  5
451
330
44E
100
AcDbEntity
  8
LC-003-005-----0
 62
     7
370
    25
100
AcDbLine
 10
530.802935
 20
370.758211
 30
0.0
 11
528.102935
 21
373.458211
 31
0.0
  0
LINE
  5
452
330
44E
100
AcDbEntity
  8
LC-003-005-----0
 62
     7
370
    25
100
AcDbLine
 10
527.267401
 20
370.758211
 30
0.0
 11
524.567401
 21
373.458211
 31
0.0
  0
LINE
  5
453
330
44E
100
AcDbEntity
  8
LC-003-005-----0
 62
     7
370
    25
100
AcDbLine
 10
523.731867
 20
370.758211
 30
0.0
 11
521.031867
 21
373.458211
 31
0.0
  0
LINE
  5
454
330
44E
100
AcDbEntity
  8
LC-003-005-----0
 62
     7
370
    25
100
AcDbLine
 10
520.196333
 20
370.758211
 30
0.0
 11
517.496333
 21
373.458211
 31
0.0
  0
LINE
  5
455
330
44E
100
AcDbEntity
  8
LC-003-005-----0
 62
     7
370
    25
100
AcDbLine
 10
516.660799
 20
370.758211
 30
0.0
 11
513.960799
 21
373.458211
 31
0.0
  0
LINE
  5
456
330
44E
100
AcDbEntity
  8
LC-003-005-----0
 62
     7
370
    25
100
AcDbLine
 10
513.125265
 20
370.758211
 30
0.0
 11
510.425265
 21
373.458211
 31
0.0
  0
LINE
  5
457
330
44E
100
AcDbEntity
  8
LC-003-005-----0
 62
     7
370
    25
100
AcDbLine
 10
509.589731
 20
370.758211
 30
0.0
 11
506.889731
 21
373.458211
 31
0.0
  0
LINE
  5
458
330
44E
100
AcDbEntity
  8
LC-003-005-----0
 62
     7
370
    25
100
AcDbLine
 10
506.054197
 20
370.758211
 30
0.0
 11
503.354197
 21
373.458211
 31
0.0
  0
LINE
  5
459
330
44E
100
AcDbEntity
  8
LC-003-005-----0
 62
     7
370
    25
100
AcDbLine
 10
502.518663
 20
370.758211
 30
0.0
 11
499.818663
 21
373.458211
 31
0.0
  0
LINE
  5
45A
330
44E
100
AcDbEntity
  8
LC-003-005-----0
 62
     7
370
    25
100
AcDbLine
 10
498.983129
 20
370.758211
 30
0.0
 11
496.283129
 21
373.458211
 31
0.0
  0
LINE
  5
45B
330
44E
100
AcDbEntity
  8
LC-003-005-----0
 62
     7
370
    25
100
AcDbLine
 10
495.447595
 20
370.758211
 30
0.0
 11
492.747595
 21
373.458211
 31
0.0
  0
LINE
  5
45C
330
44E
100
AcDbEntity
  8
LC-003-005-----0
 62
     7
370
    25
100
AcDbLine
 10
498.608185
 20
364.062088
 30
0.0
 11
498.512062
 21
364.158211
 31
0.0
  0
LINE
  5
45D
330
44E
100
AcDbEntity
  8
LC-003-005-----0
 62
     7
370
    25
100
AcDbLine
 10
491.912062
 20
370.758211
 30
0.0
 11
489.212062
 21
373.458211
 31
0.0
  0
LINE
  5
45E
330
44E
100
AcDbEntity
  8
LC-003-005-----0
 62
     7
370
    25
100
AcDbLine
 10
497.477376
 20
361.657363
 30
0.0
 11
494.976528
 21
364.158211
 31
0.0
  0
LINE
  5
45F
330
44E
100
AcDbEntity
  8
LC-003-005-----0
 62
     7
370
    25
100
AcDbLine
 10
488.376528
 20
370.758211
 30
0.0
 11
485.676528
 21
373.458211
 31
0.0
  0
LINE
  5
460
330
44E
100
AcDbEntity
  8
LC-003-005-----0
 62
     7
370
    25
100
AcDbLine
 10
493.440994
 20
362.158211
 30
0.0
 11
491.440994
 21
364.158211
 31
0.0
  0
LINE
  5
461
330
44E
100
AcDbEntity
  8
LC-003-005-----0
 62
     7
370
    25
100
AcDbLine
 10
484.840994
 20
370.758211
 30
0.0
 11
482.140994
 21
373.458211
 31
0.0
  0
LINE
  5
462
330
44E
100
AcDbEntity
  8
LC-003-005-----0
 62
     7
370
    25
100
AcDbLine
 10
489.90546
 20
362.158211
 30
0.0
 11
487.90546
 21
364.158211
 31
0.0
  0
LINE
  5
463
330
44E
100
AcDbEntity
  8
LC-003-005-----0
 62
     7
370
    25
100
AcDbLine
 10
481.30546
 20
370.758211
 30
0.0
 11
478.60546
 21
373.458211
 31
0.0
  0
LINE
  5
464
330
44E
100
AcDbEntity
  8
LC-003-005-----0
 62
     7
370
    25
100
AcDbLine
 10
486.369926
 20
362.158211
 30
0.0
 11
484.369926
 21
364.158211
 31
0.0
  0
LINE
  5
465
330
44E
100
AcDbEntity
  8
LC-003-005-----0
 62
     7
370
    25
100
AcDbLine
 10
477.769926
 20
370.758211
 30
0.0
 11
475.069926
 21
373.458211
 31
0.0
  0
LINE
  5
466
330
44E
100
AcDbEntity
  8
LC-003-005-----0
 62
     7
370
    25
100
AcDbLine
 10
482.834392
 20
362.158211
 30
0.0
 11
480.834392
 21
364.158211
 31
0.0
  0
LINE
  5
467
330
44E
100
AcDbEntity
  8
LC-003-005-----0
 62
     7
370
    25
100
AcDbLine
 10
474.234392
 20
370.758211
 30
0.0
 11
471.534392
 21
373.458211
 31
0.0
  0
LINE
  5
468
330
44E
100
AcDbEntity
  8
LC-003-005-----0
 62
     7
370
    25
100
AcDbLine
 10
479.298858
 20
362.158211
 30
0.0
 11
477.298858
 21
364.158211
 31
0.0
  0
LINE
  5
469
330
44E
100
AcDbEntity
  8
LC-003-005-----0
 62
     7
370
    25
100
AcDbLine
 10
470.698858
 20
370.758211
 30
0.0
 11
467.998858
 21
373.458211
 31
0.0
  0
LINE
  5
46A
330
44E
100
AcDbEntity
  8
LC-003-005-----0
 62
     7
370
    25
100
AcDbLine
 10
475.763324
 20
362.158211
 30
0.0
 11
473.763324
 21
364.158211
 31
0.0
  0
LINE
  5
46B
330
44E
100
AcDbEntity
  8
LC-003-005-----0
 62
     7
370
    25
100
AcDbLine
 10
467.163324
 20
370.758211
 30
0.0
 11
464.463324
 21
373.458211
 31
0.0
  0
LINE
  5
46C
330
44E
100
AcDbEntity
  8
LC-003-005-----0
 62
     7
370
    25
100
AcDbLine
 10
472.22779
 20
362.158211
 30
0.0
 11
470.22779
 21
364.158211
 31
0.0
  0
LINE
  5
46D
330
44E
100
AcDbEntity
  8
LC-003-005-----0
 62
     7
370
    25
100
AcDbLine
 10
463.62779
 20
370.758211
 30
0.0
 11
460.92779
 21
373.458211
 31
0.0
  0
LINE
  5
46E
330
44E
100
AcDbEntity
  8
LC-003-005-----0
 62
     7
370
    25
100
AcDbLine
 10
468.692256
 20
362.158211
 30
0.0
 11
466.692256
 21
364.158211
 31
0.0
  0
LINE
  5
46F
330
44E
100
AcDbEntity
  8
LC-003-005-----0
 62
     7
370
    25
100
AcDbLine
 10
461.608185
 20
369.242283
 30
0.0
 11
458.631095
 21
372.219373
 31
0.0
  0
LINE
  5
470
330
44E
100
AcDbEntity
  8
LC-003-005-----0
 62
     7
370
    25
100
AcDbLine
 10
465.156723
 20
362.158211
 30
0.0
 11
463.156723
 21
364.158211
 31
0.0
  0
LINE
  5
471
330
44E
100
AcDbEntity
  8
LC-003-005-----0
 62
     7
370
    25
100
AcDbLine
 10
461.608185
 20
365.706749
 30
0.0
 11
458.563448
 21
368.751486
 31
0.0
  0
LINE
  5
472
330
44E
100
AcDbEntity
  8
LC-003-005-----0
 62
     7
370
    25
100
AcDbLine
 10
461.621189
 20
362.158211
 30
0.0
 11
459.708185
 21
364.071215
 31
0.0
  0
LINE
  5
473
330
44E
100
AcDbEntity
  8
LC-003-005-----0
 62
     7
370
    25
100
AcDbLine
 10
457.071189
 20
366.708211
 30
0.0
 11
455.321189
 21
368.458211
 31
0.0
  0
LINE
  5
474
330
44E
100
AcDbEntity
  8
LC-003-005-----0
 62
     7
370
    25
100
AcDbLine
 10
453.535655
 20
366.708211
 30
0.0
 11
451.785655
 21
368.458211
 31
0.0
  0
LINE
  5
475
330
44E
100
AcDbEntity
  8
LC-003-005-----0
 62
     7
370
    25
100
AcDbLine
 10
450.766003
 20
365.94233
 30
0.0
 11
449.075038
 21
367.633294
 31
0.0
  0
LINE
  5
476
330
44E
100
AcDbEntity
  8
LC-003-005-----0
 62
     7
370
    25
100
AcDbLine
 10
449.471907
 20
363.700891
 30
0.0
 11
448.007806
 21
365.164993
 31
0.0
  0
LINE
  5
477
330
44E
100
AcDbEntity
  8
LC-003-005-----0
 62
     7
370
    25
100
AcDbLine
 10
447.479053
 20
362.158211
 30
0.0
 11
445.479053
 21
364.158211
 31
0.0
  0
LINE
  5
478
330
44E
100
AcDbEntity
  8
LC-003-005-----0
 62
     7
370
    25
100
AcDbLine
 10
443.943519
 20
362.158211
 30
0.0
 11
443.608185
 21
362.493546
 31
0.0
  0
LINE
  5
479
330
44E
100
AcDbEntity
  8
LC-003-005-----0
 62
     7
370
    25
100
AcDbLine
 10
531.206678
 20
264.28845
 30
0.0
 11
529.336917
 21
266.158211
 31
0.0
  0
LINE
  5
47A
330
44E
100
AcDbEntity
  8
LC-003-005-----0
 62
     7
370
    25
100
AcDbLine
 10
528.418291
 20
263.541304
 30
0.0
 11
525.801383
 21
266.158211
 31
0.0
  0
LINE
  5
47B
330
44E
100
AcDbEntity
  8
LC-003-005-----0
 62
     7
370
    25
100
AcDbLine
 10
524.96585
 20
263.458211
 30
0.0
 11
522.26585
 21
266.158211
 31
0.0
  0
LINE
  5
47C
330
44E
100
AcDbEntity
  8
LC-003-005-----0
 62
     7
370
    25
100
AcDbLine
 10
521.430316
 20
263.458211
 30
0.0
 11
518.730316
 21
266.158211
 31
0.0
  0
LINE
  5
47D
330
44E
100
AcDbEntity
  8
LC-003-005-----0
 62
     7
370
    25
100
AcDbLine
 10
498.608185
 20
286.280342
 30
0.0
 11
497.597327
 21
287.2912
 31
0.0
  0
LINE
  5
47E
330
44E
100
AcDbEntity
  8
LC-003-005-----0
 62
     7
370
    25
100
AcDbLine
 10
517.894782
 20
263.458211
 30
0.0
 11
515.194782
 21
266.158211
 31
0.0
  0
LINE
  5
47F
330
44E
100
AcDbEntity
  8
LC-003-005-----0
 62
     7
370
    25
100
AcDbLine
 10
496.594782
 20
284.758211
 30
0.0
 11
494.594782
 21
286.758211
 31
0.0
  0
LINE
  5
480
330
44E
100
AcDbEntity
  8
LC-003-005-----0
 62
     7
370
    25
100
AcDbLine
 10
514.359248
 20
263.458211
 30
0.0
 11
511.659248
 21
266.158211
 31
0.0
  0
LINE
  5
481
330
44E
100
AcDbEntity
  8
LC-003-005-----0
 62
     7
370
    25
100
AcDbLine
 10
493.059248
 20
284.758211
 30
0.0
 11
491.059248
 21
286.758211
 31
0.0
  0
LINE
  5
482
330
44E
100
AcDbEntity
  8
LC-003-005-----0
 62
     7
370
    25
100
AcDbLine
 10
510.823714
 20
263.458211
 30
0.0
 11
508.123714
 21
266.158211
 31
0.0
  0
LINE
  5
483
330
44E
100
AcDbEntity
  8
LC-003-005-----0
 62
     7
370
    25
100
AcDbLine
 10
489.523714
 20
284.758211
 30
0.0
 11
487.523714
 21
286.758211
 31
0.0
  0
LINE
  5
484
330
44E
100
AcDbEntity
  8
LC-003-005-----0
 62
     7
370
    25
100
AcDbLine
 10
507.28818
 20
263.458211
 30
0.0
 11
504.58818
 21
266.158211
 31
0.0
  0
LINE
  5
485
330
44E
100
AcDbEntity
  8
LC-003-005-----0
 62
     7
370
    25
100
AcDbLine
 10
485.98818
 20
284.758211
 30
0.0
 11
483.98818
 21
286.758211
 31
0.0
  0
LINE
  5
486
330
44E
100
AcDbEntity
  8
LC-003-005-----0
 62
     7
370
    25
100
AcDbLine
 10
503.752646
 20
263.458211
 30
0.0
 11
501.052646
 21
266.158211
 31
0.0
  0
LINE
  5
487
330
44E
100
AcDbEntity
  8
LC-003-005-----0
 62
     7
370
    25
100
AcDbLine
 10
482.452646
 20
284.758211
 30
0.0
 11
480.452646
 21
286.758211
 31
0.0
  0
LINE
  5
488
330
44E
100
AcDbEntity
  8
LC-003-005-----0
 62
     7
370
    25
100
AcDbLine
 10
500.217112
 20
263.458211
 30
0.0
 11
497.517112
 21
266.158211
 31
0.0
  0
LINE
  5
489
330
44E
100
AcDbEntity
  8
LC-003-005-----0
 62
     7
370
    25
100
AcDbLine
 10
478.917112
 20
284.758211
 30
0.0
 11
476.917112
 21
286.758211
 31
0.0
  0
LINE
  5
48A
330
44E
100
AcDbEntity
  8
LC-003-005-----0
 62
     7
370
    25
100
AcDbLine
 10
496.681578
 20
263.458211
 30
0.0
 11
493.981578
 21
266.158211
 31
0.0
  0
LINE
  5
48B
330
44E
100
AcDbEntity
  8
LC-003-005-----0
 62
     7
370
    25
100
AcDbLine
 10
475.381578
 20
284.758211
 30
0.0
 11
473.381578
 21
286.758211
 31
0.0
  0
LINE
  5
48C
330
44E
100
AcDbEntity
  8
LC-003-005-----0
 62
     7
370
    25
100
AcDbLine
 10
493.146044
 20
263.458211
 30
0.0
 11
490.446044
 21
266.158211
 31
0.0
  0
LINE
  5
48D
330
44E
100
AcDbEntity
  8
LC-003-005-----0
 62
     7
370
    25
100
AcDbLine
 10
471.846044
 20
284.758211
 30
0.0
 11
469.846044
 21
286.758211
 31
0.0
  0
LINE
  5
48E
330
44E
100
AcDbEntity
  8
LC-003-005-----0
 62
     7
370
    25
100
AcDbLine
 10
489.610511
 20
263.458211
 30
0.0
 11
486.910511
 21
266.158211
 31
0.0
  0
LINE
  5
48F
330
44E
100
AcDbEntity
  8
LC-003-005-----0
 62
     7
370
    25
100
AcDbLine
 10
468.310511
 20
284.758211
 30
0.0
 11
466.310511
 21
286.758211
 31
0.0
  0
LINE
  5
490
330
44E
100
AcDbEntity
  8
LC-003-005-----0
 62
     7
370
    25
100
AcDbLine
 10
486.074977
 20
263.458211
 30
0.0
 11
483.374977
 21
266.158211
 31
0.0
  0
LINE
  5
491
330
44E
100
AcDbEntity
  8
LC-003-005-----0
 62
     7
370
    25
100
AcDbLine
 10
464.774977
 20
284.758211
 30
0.0
 11
462.774977
 21
286.758211
 31
0.0
  0
LINE
  5
492
330
44E
100
AcDbEntity
  8
LC-003-005-----0
 62
     7
370
    25
100
AcDbLine
 10
482.539443
 20
263.458211
 30
0.0
 11
479.839443
 21
266.158211
 31
0.0
  0
LINE
  5
493
330
44E
100
AcDbEntity
  8
LC-003-005-----0
 62
     7
370
    25
100
AcDbLine
 10
461.608185
 20
284.389469
 30
0.0
 11
459.708185
 21
286.289469
 31
0.0
  0
LINE
  5
494
330
44E
100
AcDbEntity
  8
LC-003-005-----0
 62
     7
370
    25
100
AcDbLine
 10
479.003909
 20
263.458211
 30
0.0
 11
476.303909
 21
266.158211
 31
0.0
  0
LINE
  5
495
330
44E
100
AcDbEntity
  8
LC-003-005-----0
 62
     7
370
    25
100
AcDbLine
 10
461.608185
 20
280.853936
 30
0.0
 11
459.708185
 21
282.753936
 31
0.0
  0
LINE
  5
496
330
44E
100
AcDbEntity
  8
LC-003-005-----0
 62
     7
370
    25
100
AcDbLine
 10
475.468375
 20
263.458211
 30
0.0
 11
472.768375
 21
266.158211
 31
0.0
  0
LINE
  5
497
330
44E
100
AcDbEntity
  8
LC-003-005-----0
 62
     7
370
    25
100
AcDbLine
 10
461.608185
 20
277.318402
 30
0.0
 11
456.718375
 21
282.208211
 31
0.0
  0
LINE
  5
498
330
44E
100
AcDbEntity
  8
LC-003-005-----0
 62
     7
370
    25
100
AcDbLine
 10
471.932841
 20
263.458211
 30
0.0
 11
469.232841
 21
266.158211
 31
0.0
  0
LINE
  5
499
330
44E
100
AcDbEntity
  8
LC-003-005-----0
 62
     7
370
    25
100
AcDbLine
 10
461.608185
 20
273.782868
 30
0.0
 11
458.608185
 21
276.782868
 31
0.0
  0
LINE
  5
49A
330
44E
100
AcDbEntity
  8
LC-003-005-----0
 62
     7
370
    25
100
AcDbLine
 10
454.932841
 20
280.458211
 30
0.0
 11
453.182841
 21
282.208211
 31
0.0
  0
LINE
  5
49B
330
44E
100
AcDbEntity
  8
LC-003-005-----0
 62
     7
370
    25
100
AcDbLine
 10
468.397307
 20
263.458211
 30
0.0
 11
465.697307
 21
266.158211
 31
0.0
  0
LINE
  5
49C
330
44E
100
AcDbEntity
  8
LC-003-005-----0
 62
     7
370
    25
100
AcDbLine
 10
461.608185
 20
270.247334
 30
0.0
 11
458.608185
 21
273.247334
 31
0.0
  0
LINE
  5
49D
330
44E
100
AcDbEntity
  8
LC-003-005-----0
 62
     7
370
    25
100
AcDbLine
 10
447.876282
 20
283.979237
 30
0.0
 11
445.097307
 21
286.758211
 31
0.0
  0
LINE
  5
49E
330
44E
100
AcDbEntity
  8
LC-003-005-----0
 62
     7
370
    25
100
AcDbLine
 10
464.861773
 20
263.458211
 30
0.0
 11
462.161773
 21
266.158211
 31
0.0
  0
LINE
  5
49F
330
44E
100
AcDbEntity
  8
LC-003-005-----0
 62
     7
370
    25
100
AcDbLine
 10
461.608185
 20
266.7118
 30
0.0
 11
458.608185
 21
269.7118
 31
0.0
  0
LINE
  5
4A0
330
44E
100
AcDbEntity
  8
LC-003-005-----0
 62
     7
370
    25
100
AcDbLine
 10
461.326239
 20
263.458211
 30
0.0
 11
458.608185
 21
266.176266
 31
0.0
  0
ENDBLK
  5
450
330
44E
100
AcDbEntity
  8
0
100
AcDbBlockEnd
  0
BLOCK
  5
4C8
330
4C7
100
AcDbEntity
  8
0
100
AcDbBlockBegin
  2
KLON1
 70
     0
 71
     0
 10
0.0
 20
0.0
 30
0.0
  3
KLON1
  1

  4
KLON1
  0
LINE
  5
4CA
330
4C7
100
AcDbEntity
  8
LC-008-100-D00-0
 62
     7
370
    25
100
AcDbLine
 10
456.406813
 20
287.633079
 30
0.0
 11
456.980087
 21
287.059805
 31
0.0
  0
LINE
  5
4CB
330
4C7
100
AcDbEntity
  8
LC-008-100-D00-0
 62
     7
370
    25
100
AcDbLine
 10
458.099509
 20
285.940383
 30
0.0
 11
459.315527
 21
284.724365
 31
0.0
  0
LINE
  5
4CC
330
4C7
100
AcDbEntity
  8
LC-008-100-D00-0
 62
     7
370
    25
100
AcDbLine
 10
455.205892
 20
286.939727
 30
0.0
 11
459.114522
 21
283.031097
 31
0.0
  0
LINE
  5
4CD
330
4C7
100
AcDbEntity
  8
LC-008-100-D00-0
 62
     7
370
    25
100
AcDbLine
 10
454.004972
 20
286.246375
 30
0.0
 11
457.616396
 21
282.63495
 31
0.0
  0
LINE
  5
4CE
330
4C7
100
AcDbEntity
  8
LC-008-100-D00-0
 62
     7
370
    25
100
AcDbLine
 10
457.878449
 20
282.372897
 30
0.0
 11
458.017837
 21
282.233509
 31
0.0
  0
LINE
  5
4CF
330
4C7
100
AcDbEntity
  8
LC-008-100-D00-0
 62
     7
370
    25
100
AcDbLine
 10
452.913167
 20
285.443907
 30
0.0
 11
455.897408
 21
282.459666
 31
0.0
  0
LINE
  5
4D0
330
4C7
100
AcDbEntity
  8
LC-008-100-D00-0
 62
     7
370
    25
100
AcDbLine
 10
453.236077
 20
283.226724
 30
0.0
 11
453.80717
 21
282.655631
 31
0.0
  0
ENDBLK
  5
4C9
330
4C7
100
AcDbEntity
  8
0
100
AcDbBlockEnd
  0
BLOCK
  5
4F2
330
4F1
100
AcDbEntity
  8
0
100
AcDbBlockBegin
  2
KLON2
 70
     0
 71
     0
 10
0.0
 20
0.0
 30
0.0
  3
KLON2
  1

  4
KLON2
  0
LINE
  5
4F4
330
4F1
100
AcDbEntity
  8
LC-008-100-D00-0
 62
     7
370
    25
100
AcDbLine
 10
456.406813
 20
361.283844
 30
0.0
 11
456.980087
 21
361.857118
 31
0.0
  0
LINE
  5
4F5
330
4F1
100
AcDbEntity
  8
LC-008-100-D00-0
 62
     7
370
    25
100
AcDbLine
 10
458.099509
 20
362.97654
 30
0.0
 11
459.315527
 21
364.192558
 31
0.0
  0
LINE
  5
4F6
330
4F1
100
AcDbEntity
  8
LC-008-100-D00-0
 62
     7
370
    25
100
AcDbLine
 10
455.205892
 20
361.977196
 30
0.0
 11
459.114522
 21
365.885826
 31
0.0
  0
LINE
  5
4F7
330
4F1
100
AcDbEntity
  8
LC-008-100-D00-0
 62
     7
370
    25
100
AcDbLine
 10
454.004972
 20
362.670548
 30
0.0
 11
457.616396
 21
366.281973
 31
0.0
  0
LINE
  5
4F8
330
4F1
100
AcDbEntity
  8
LC-008-100-D00-0
 62
     7
370
    25
100
AcDbLine
 10
457.878449
 20
366.544025
 30
0.0
 11
458.017837
 21
366.683414
 31
0.0
  0
LINE
  5
4F9
330
4F1
100
AcDbEntity
  8
LC-008-100-D00-0
 62
     7
370
    25
100
AcDbLine
 10
452.913167
 20
363.473016
 30
0.0
 11
455.897408
 21
366.457257
 31
0.0
  0
LINE
  5
4FA
330
4F1
100
AcDbEntity
  8
LC-008-100-D00-0
 62
     7
370
    25
100
AcDbLine
 10
453.236077
 20
365.690199
 30
0.0
 11
453.80717
 21
366.261292
 31
0.0
  0
ENDBLK
  5
4F3
330
4F1
100
AcDbEntity
  8
0
100
AcDbBlockEnd
  0
BLOCK
  5
507
330
4FD
100
AcDbEntity
  8
0
100
AcDbBlockBegin
  2
*D30
 70
     1
 71
     0
 10
0.0
 20
0.0
 30
0.0
  3
*D30
  1

  0
LINE
  5
4FE
330
4FD
100
AcDbEntity
  8
LC-005-003-----0
 62
     2
370
    -2
100
AcDbLine
 10
360.608278
 20
254.913087
 30
0.0
 11
360.608278
 21
198.655828
 31
0.0
  0
LINE
  5
4FF
330
4FD
100
AcDbEntity
  8
LC-005-003-----0
 62
     2
370
    -2
100
AcDbLine
 10
532.608185
 20
266.158211
 30
0.0
 11
532.608185
 21
198.655828
 31
0.0
  0
LINE
  5
500
330
4FD
100
AcDbEntity
  8
LC-005-003-----0
 62
     2
370
    -2
100
AcDbLine
 10
388.608278
 20
202.255828
 30
0.0
 11
504.608185
 21
202.255828
 31
0.0
  0
SOLID
  5
501
330
4FD
100
AcDbEntity
  8
LC-005-003-----0
 62
     2
100
AcDbTrace
 10
388.608278
 20
206.922495
 30
0.0
 11
388.608278
 21
197.589161
 31
0.0
 12
360.608278
 22
202.255828
 32
0.0
 13
360.608278
 23
202.255828
 33
0.0
  0
SOLID
  5
502
330
4FD
100
AcDbEntity
  8
LC-005-003-----0
 62
     2
100
AcDbTrace
 10
504.608185
 20
197.589161
 30
0.0
 11
504.608185
 21
206.922495
 31
0.0
 12
532.608185
 22
202.255828
 32
0.0
 13
532.608185
 23
202.255828
 33
0.0
  0
MTEXT
  5
503
330
4FD
100
AcDbEntity
  8
LC-005-003-----0
 62
     2
100
AcDbMText
 10
433.047163
 20
233.055828
 30
0.0
 40
28.0
 41
0.0
 71
     5
 72
     1
  1
\A1;172
  7
LCTX15-400-0-0pDIN-Schrift
 73
     1
 44
1.0
  0
POINT
  5
504
330
4FD
100
AcDbEntity
  8
Defpoints
 62
     0
100
AcDbPoint
 10
360.608278
 20
254.913087
 30
0.0
  0
POINT
  5
505
330
4FD
100
AcDbEntity
  8
Defpoints
 62
     0
100
AcDbPoint
 10
532.608185
 20
266.158211
 30
0.0
  0
POINT
  5
506
330
4FD
100
AcDbEntity
  8
Defpoints
 62
     0
100
AcDbPoint
 10
532.608185
 20
202.255828
 30
0.0
  0
ENDBLK
  5
508
330
4FD
100
AcDbEntity
  8
0
100
AcDbBlockEnd
  0
BLOCK
  5
514
330
50A
100
AcDbEntity
  8
0
100
AcDbBlockBegin
  2
*D31
 70
     1
 71
     0
 10
0.0
 20
0.0
 30
0.0
  3
*D31
  1

  0
LINE
  5
50B
330
50A
100
AcDbEntity
  8
LC-005-003-----0
 62
     2
370
    -2
100
AcDbLine
 10
533.608185
 20
263.458211
 30
0.0
 11
696.315922
 21
263.458211
 31
0.0
  0
LINE
  5
50C
330
50A
100
AcDbEntity
  8
LC-005-003-----0
 62
     2
370
    -2
100
AcDbLine
 10
533.608185
 20
373.458211
 30
0.0
 11
696.315922
 21
373.458211
 31
0.0
  0
LINE
  5
50D
330
50A
100
AcDbEntity
  8
LC-005-003-----0
 62
     2
370
    -2
100
AcDbLine
 10
692.715922
 20
291.458211
 30
0.0
 11
692.715922
 21
345.458211
 31
0.0
  0
SOLID
  5
50E
330
50A
100
AcDbEntity
  8
LC-005-003-----0
 62
     2
100
AcDbTrace
 10
688.049255
 20
291.458211
 30
0.0
 11
697.382588
 21
291.458211
 31
0.0
 12
692.715922
 22
263.458211
 32
0.0
 13
692.715922
 23
263.458211
 33
0.0
  0
SOLID
  5
50F
330
50A
100
AcDbEntity
  8
LC-005-003-----0
 62
     2
100
AcDbTrace
 10
697.382588
 20
345.458211
 30
0.0
 11
688.049255
 21
345.458211
 31
0.0
 12
692.715922
 22
373.458211
 32
0.0
 13
692.715922
 23
373.458211
 33
0.0
  0
MTEXT
  5
510
330
50A
100
AcDbEntity
  8
LC-005-003-----0
 62
     2
100
AcDbMText
 10
723.515314
 20
320.061349
 30
0.0
 40
28.0
 41
0.0
 71
     5
 72
     1
  1
\A1;DN100
  7
LCTX15-400-0-0pDIN-Schrift
 11
6.123031769111886E-17
 21
1.0
 31
0.0
 73
     1
 44
1.0
  0
POINT
  5
511
330
50A
100
AcDbEntity
  8
Defpoints
 62
     0
100
AcDbPoint
 10
533.608185
 20
263.458211
 30
0.0
  0
POINT
  5
512
330
50A
100
AcDbEntity
  8
Defpoints
 62
     0
100
AcDbPoint
 10
533.608185
 20
373.458211
 30
0.0
  0
POINT
  5
513
330
50A
100
AcDbEntity
  8
Defpoints
 62
     0
100
AcDbPoint
 10
692.715922
 20
373.458211
 30
0.0
  0
ENDBLK
  5
515
330
50A
100
AcDbEntity
  8
0
100
AcDbBlockEnd
  0
BLOCK
  5
521
330
517
100
AcDbEntity
  8
0
100
AcDbBlockBegin
  2
*D32
 70
     1
 71
     0
 10
0.0
 20
0.0
 30
0.0
  3
*D32
  1

  0
LINE
  5
518
330
517
100
AcDbEntity
  8
LC-005-003-----0
 62
     2
370
    -2
100
AcDbLine
 10
223.164447
 20
306.365318
 30
0.0
 11
223.164447
 21
198.514384
 31
0.0
  0
LINE
  5
519
330
517
100
AcDbEntity
  8
LC-005-003-----0
 62
     2
370
    -2
100
AcDbLine
 10
360.608386
 20
253.614252
 30
0.0
 11
360.608386
 21
198.514384
 31
0.0
  0
LINE
  5
51A
330
517
100
AcDbEntity
  8
LC-005-003-----0
 62
     2
370
    -2
100
AcDbLine
 10
251.164447
 20
202.114384
 30
0.0
 11
332.608386
 21
202.114384
 31
0.0
  0
SOLID
  5
51B
330
517
100
AcDbEntity
  8
LC-005-003-----0
 62
     2
100
AcDbTrace
 10
251.164447
 20
206.78105
 30
0.0
 11
251.164447
 21
197.447717
 31
0.0
 12
223.164447
 22
202.114384
 32
0.0
 13
223.164447
 23
202.114384
 33
0.0
  0
SOLID
  5
51C
330
517
100
AcDbEntity
  8
LC-005-003-----0
 62
     2
100
AcDbTrace
 10
332.608386
 20
197.447717
 30
0.0
 11
332.608386
 21
206.78105
 31
0.0
 12
360.608386
 22
202.114384
 32
0.0
 13
360.608386
 23
202.114384
 33
0.0
  0
MTEXT
  5
51D
330
517
100
AcDbEntity
  8
LC-005-003-----0
 62
     2
100
AcDbMText
 10
316.363491
 20
232.914384
 30
0.0
 40
28.0
 41
0.0
 71
     5
 72
     1
  1
\A1;138
  7
LCTX15-400-0-0pDIN-Schrift
 73
     1
 44
1.0
  0
POINT
  5
51E
330
517
100
AcDbEntity
  8
Defpoints
 62
     0
100
AcDbPoint
 10
223.164447
 20
306.365318
 30
0.0
  0
POINT
  5
51F
330
517
100
AcDbEntity
  8
Defpoints
 62
     0
100
AcDbPoint
 10
360.608386
 20
253.614252
 30
0.0
  0
POINT
  5
520
330
517
100
AcDbEntity
  8
Defpoints
 62
     0
100
AcDbPoint
 10
360.608386
 20
202.114384
 30
0.0
  0
ENDBLK
  5
522
330
517
100
AcDbEntity
  8
0
100
AcDbBlockEnd
  0
ENDSEC
  0
SECTION
  2
ENTITIES
  0
LINE
  5
31
102
{ACAD_REACTORS
330
525
102
}
330
1F
100
AcDbEntity
  8
LC-001-020-----0
 62
     7
370
    50
100
AcDbLine
 10
291.108404
 20
360.614345
 30
0.0
 11
292.108404
 21
360.614343
 31
0.0
  0
LINE
  5
32
102
{ACAD_REACTORS
330
524
102
}
330
1F
100
AcDbEntity
  8
LC-001-020-----0
 62
     7
370
    50
100
AcDbLine
 10
430.117655
 20
360.610527
 30
0.0
 11
429.117655
 21
360.610534
 31
0.0
  0
ARC
  5
33
102
{ACAD_REACTORS
330
525
102
}
330
1F
100
AcDbEntity
  8
LC-001-020-----0
 62
     7
370
    50
100
AcDbCircle
 10
309.608299
 20
271.11432
 30
0.0
 40
20.00000000000165
100
AcDbArc
 50
179.999905
 51
269.999924
  0
LINE
  5
34
102
{ACAD_REACTORS
330
525
102
}
330
1F
100
AcDbEntity
  8
LC-001-020-----0
 62
     7
370
    50
100
AcDbLine
 10
289.608299
 20
271.114346
 30
0.0
 11
289.608336
 21
309.614848
 31
0.0
  0
LINE
  5
35
102
{ACAD_REACTORS
330
525
102
}
330
1F
100
AcDbEntity
  8
LC-001-020-----0
 62
     7
370
    50
100
AcDbLine
 10
309.608272
 20
251.11432
 30
0.0
 11
411.617104
 21
251.114185
 31
0.0
  0
ARC
  5
36
102
{ACAD_REACTORS
330
525
102
}
330
1F
100
AcDbEntity
  8
LC-001-020-----0
 62
     7
370
    50
100
AcDbCircle
 10
411.61713
 20
271.114185
 30
0.0
 40
20.00000000000078
100
AcDbArc
 50
269.999924
 51
359.999468
  0
ARC
  5
37
102
{ACAD_REACTORS
330
525
102
}
330
1F
100
AcDbEntity
  8
LC-001-020-----0
 62
     7
370
    50
100
AcDbCircle
 10
309.608299
 20
271.11432
 30
0.0
 40
17.50000000000136
100
AcDbArc
 50
179.999905
 51
269.999924
  0
LINE
  5
38
102
{ACAD_REACTORS
330
525
102
}
330
1F
100
AcDbEntity
  8
LC-001-020-----0
 62
     7
370
    50
100
AcDbLine
 10
292.108404
 20
360.614343
 30
0.0
 11
292.108398
 21
356.614848
 31
0.0
  0
LINE
  5
39
102
{ACAD_REACTORS
330
525
102
}
330
1F
100
AcDbEntity
  8
LC-001-020-----0
 62
     7
370
    50
100
AcDbLine
 10
309.608276
 20
253.61432
 30
0.0
 11
400.11755
 21
253.6142
 31
0.0
  0
ARC
  5
3A
102
{ACAD_REACTORS
330
525
102
}
330
1F
100
AcDbEntity
  8
LC-001-020-----0
 62
     7
370
    50
100
AcDbCircle
 10
411.61713
 20
271.114185
 30
0.0
 40
17.50000000000063
100
AcDbArc
 50
269.999924
 51
359.999468
  0
LINE
  5
3B
102
{ACAD_REACTORS
330
525
102
}
330
1F
100
AcDbEntity
  8
LC-001-020-----0
 62
     7
370
    50
100
AcDbLine
 10
402.117639
 20
331.110576
 30
0.0
 11
402.11755
 21
253.610576
 31
0.0
  0
LINE
  5
3C
102
{ACAD_REACTORS
330
525
102
}
330
1F
100
AcDbEntity
  8
LC-001-020-----0
 62
     7
370
    50
100
AcDbLine
 10
400.11755
 20
253.6142
 30
0.0
 11
400.117639
 21
331.1142
 31
0.0
  0
LINE
  5
3D
102
{ACAD_REACTORS
330
525
102
}
330
1F
100
AcDbEntity
  8
LC-001-020-----0
 62
     7
370
    50
100
AcDbLine
 10
400.117639
 20
331.1142
 30
0.0
 11
402.117639
 21
331.114197
 31
0.0
  0
LINE
  5
3E
102
{ACAD_REACTORS
330
525
102
}
330
1F
100
AcDbEntity
  8
LC-001-020-----0
 62
     7
370
    50
100
AcDbLine
 10
400.117639
 20
331.1142
 30
0.0
 11
393.117639
 21
331.114209
 31
0.0
  0
LINE
  5
3F
102
{ACAD_REACTORS
330
525
102
}
330
1F
100
AcDbEntity
  8
LC-001-020-----0
 62
     7
370
    50
100
AcDbLine
 10
393.117639
 20
331.114209
 30
0.0
 11
393.11755
 21
253.614209
 31
0.0
  0
LINE
  5
40
102
{ACAD_REACTORS
330
525
102
}
330
1F
100
AcDbEntity
  8
LC-001-020-----0
 62
     7
370
    50
100
AcDbLine
 10
291.608416
 20
369.614344
 30
0.0
 11
291.608414
 21
368.114344
 31
0.0
  0
LINE
  5
41
102
{ACAD_REACTORS
330
525
102
}
330
1F
100
AcDbEntity
  8
LC-001-020-----0
 62
     7
370
    50
100
AcDbLine
 10
291.608404
 20
361.114344
 30
0.0
 11
311.608404
 21
361.114317
 31
0.0
  0
LINE
  5
42
102
{ACAD_REACTORS
330
525
102
}
330
1F
100
AcDbEntity
  8
LC-001-020-----0
 62
     7
370
    50
100
AcDbLine
 10
296.608414
 20
368.114337
 30
0.0
 11
291.608414
 21
368.114344
 31
0.0
  0
LINE
  5
43
102
{ACAD_REACTORS
330
525
102
}
330
1F
100
AcDbEntity
  8
LC-001-020-----0
 62
     7
370
    50
100
AcDbLine
 10
291.608416
 20
369.614344
 30
0.0
 11
298.108416
 21
369.614335
 31
0.0
  0
LINE
  5
44
102
{ACAD_REACTORS
330
525
102
}
330
1F
100
AcDbEntity
  8
LC-001-020-----0
 62
     7
370
    50
100
AcDbLine
 10
291.608406
 20
362.614344
 30
0.0
 11
291.608404
 21
361.114344
 31
0.0
  0
LINE
  5
45
102
{ACAD_REACTORS
330
525
102
}
330
1F
100
AcDbEntity
  8
LC-001-020-----0
 62
     7
370
    50
100
AcDbLine
 10
298.108416
 20
369.614335
 30
0.0
 11
298.108406
 21
362.610703
 31
0.0
  0
LINE
  5
46
102
{ACAD_REACTORS
330
525
102
}
330
1F
100
AcDbEntity
  8
LC-001-020-----0
 62
     7
370
    50
100
AcDbLine
 10
429.617714
 20
369.610528
 30
0.0
 11
429.617712
 21
368.110528
 31
0.0
  0
LINE
  5
47
102
{ACAD_REACTORS
330
525
102
}
330
1F
100
AcDbEntity
  8
LC-001-020-----0
 62
     7
370
    50
100
AcDbLine
 10
429.617705
 20
362.610528
 30
0.0
 11
424.617705
 21
362.610535
 31
0.0
  0
LINE
  5
48
102
{ACAD_REACTORS
330
525
102
}
330
1F
100
AcDbEntity
  8
LC-001-020-----0
 62
     7
370
    50
100
AcDbLine
 10
424.617705
 20
362.610535
 30
0.0
 11
424.617712
 21
368.110535
 31
0.0
  0
LINE
  5
49
102
{ACAD_REACTORS
330
525
102
}
330
1F
100
AcDbEntity
  8
LC-001-020-----0
 62
     7
370
    50
100
AcDbLine
 10
424.617712
 20
368.110535
 30
0.0
 11
429.617712
 21
368.110528
 31
0.0
  0
LINE
  5
4A
102
{ACAD_REACTORS
330
525
102
}
330
1F
100
AcDbEntity
  8
LC-001-020-----0
 62
     7
370
    50
100
AcDbLine
 10
429.617714
 20
369.610528
 30
0.0
 11
423.117714
 21
369.610537
 31
0.0
  0
LINE
  5
4B
102
{ACAD_REACTORS
330
525
102
}
330
1F
100
AcDbEntity
  8
LC-001-020-----0
 62
     7
370
    50
100
AcDbLine
 10
429.617705
 20
362.610528
 30
0.0
 11
429.617703
 21
361.110528
 31
0.0
  0
LINE
  5
4C
102
{ACAD_REACTORS
330
525
102
}
330
1F
100
AcDbEntity
  8
LC-001-020-----0
 62
     7
370
    50
100
AcDbLine
 10
423.117714
 20
369.610537
 30
0.0
 11
423.117705
 21
362.610537
 31
0.0
  0
LINE
  5
4D
102
{ACAD_REACTORS
330
525
102
}
330
1F
100
AcDbEntity
  8
LC-001-020-----0
 62
     7
370
    50
100
AcDbLine
 10
423.117705
 20
362.610537
 30
0.0
 11
417.117705
 21
362.610545
 31
0.0
  0
LINE
  5
4E
102
{ACAD_REACTORS
330
525
102
}
330
1F
100
AcDbEntity
  8
LC-001-020-----0
 62
     7
370
    50
100
AcDbLine
 10
298.108416
 20
369.614335
 30
0.0
 11
423.117714
 21
369.614169
 31
0.0
  0
CIRCLE
  5
4F
102
{ACAD_REACTORS
330
525
102
}
330
1F
100
AcDbEntity
  8
LC-001-020-----0
 62
     7
370
    50
100
AcDbCircle
 10
427.183887
 20
365.385154
 30
0.0
 40
2.422713426575315
  0
LINE
  5
50
102
{ACAD_REACTORS
330
525
102
}
330
1F
100
AcDbEntity
  8
LC-001-020-----0
 62
     7
370
    50
100
AcDbLine
 10
314.617241
 20
361.114313
 30
0.0
 11
311.608404
 21
361.114317
 31
0.0
  0
LINE
  5
51
102
{ACAD_REACTORS
330
525
102
}
330
1F
100
AcDbEntity
  8
LC-001-020-----0
 62
     7
370
    50
100
AcDbLine
 10
314.617241
 20
361.114313
 30
0.0
 11
314.617137
 21
270.611315
 31
0.0
  0
LINE
  5
52
102
{ACAD_REACTORS
330
525
102
}
330
1F
100
AcDbEntity
  8
LC-001-020-----0
 62
     7
370
    50
100
AcDbLine
 10
369.7264
 20
270.610955
 30
0.0
 11
364.617137
 21
270.610962
 31
0.0
  0
LINE
  5
53
102
{ACAD_REACTORS
330
525
102
}
330
1F
100
AcDbEntity
  8
LC-001-020-----0
 62
     7
370
    50
100
AcDbLine
 10
314.617137
 20
270.611028
 30
0.0
 11
314.617241
 21
361.114313
 31
0.0
  0
LINE
  5
54
102
{ACAD_REACTORS
330
525
102
}
330
1F
100
AcDbEntity
  8
LC-001-020-----0
 62
     7
370
    50
100
AcDbLine
 10
316.117137
 20
270.611026
 30
0.0
 11
316.117243
 21
362.610679
 31
0.0
  0
LINE
  5
55
102
{ACAD_REACTORS
330
525
102
}
330
1F
100
AcDbEntity
  8
LC-001-020-----0
 62
     7
370
    50
100
AcDbLine
 10
378.117705
 20
362.610596
 30
0.0
 11
378.11771
 21
366.610596
 31
0.0
  0
LINE
  5
56
102
{ACAD_REACTORS
330
525
102
}
330
1F
100
AcDbEntity
  8
LC-001-020-----0
 62
     7
370
    50
100
AcDbLine
 10
378.11771
 20
366.610596
 30
0.0
 11
421.11771
 21
366.610539
 31
0.0
  0
LINE
  5
57
102
{ACAD_REACTORS
330
525
102
}
330
1F
100
AcDbEntity
  8
LC-001-020-----0
 62
     7
370
    50
100
AcDbLine
 10
421.11771
 20
366.610539
 30
0.0
 11
421.117705
 21
362.610539
 31
0.0
  0
LINE
  5
58
102
{ACAD_REACTORS
330
525
102
}
330
1F
100
AcDbEntity
  8
LC-001-020-----0
 62
     7
370
    50
100
AcDbLine
 10
376.617702
 20
360.610598
 30
0.0
 11
376.617684
 21
346.994666
 31
0.0
  0
ARC
  5
59
102
{ACAD_REACTORS
330
525
102
}
330
1F
100
AcDbEntity
  8
LC-001-020-----0
 62
     7
370
    50
100
AcDbCircle
 10
378.617702
 20
360.610596
 30
0.0
 40
2.000000000000055
100
AcDbArc
 50
89.999924
 51
179.999924
  0
LINE
  5
5A
102
{ACAD_REACTORS
330
525
102
}
330
1F
100
AcDbEntity
  8
LC-001-020-----0
 62
     7
370
    50
100
AcDbLine
 10
378.617702
 20
362.610596
 30
0.0
 11
316.117243
 21
362.610679
 31
0.0
  0
LINE
  5
5B
102
{ACAD_REACTORS
330
527
102
}
330
1F
100
AcDbEntity
  8
LC-001-020-----0
 62
     7
370
    50
100
AcDbLine
 10
364.617137
 20
270.610962
 30
0.0
 11
378.085606
 21
346.686111
 31
0.0
  0
ARC
  5
5C
102
{ACAD_REACTORS
330
527
102
}
330
1F
100
AcDbEntity
  8
LC-001-020-----0
 62
     7
370
    50
100
AcDbCircle
 10
382.335085
 20
359.610591
 30
0.0
 40
1.500000000000118
100
AcDbArc
 50
89.999905
 51
168.129355
  0
LINE
  5
5D
102
{ACAD_REACTORS
330
525
102
}
330
1F
100
AcDbEntity
  8
LC-001-020-----0
 62
     7
370
    50
100
AcDbLine
 10
369.7264
 20
270.610955
 30
0.0
 11
385.491173
 21
357.610587
 31
0.0
  0
LINE
  5
5E
102
{ACAD_REACTORS
330
525
102
}
330
1F
100
AcDbEntity
  8
LC-001-020-----0
 62
     7
370
    50
100
AcDbLine
 10
325.867167
 20
362.610666
 30
0.0
 11
325.867077
 21
284.447926
 31
0.0
  0
LINE
  5
5F
102
{ACAD_REACTORS
330
525
102
}
330
1F
100
AcDbEntity
  8
LC-001-020-----0
 62
     7
370
    50
100
AcDbLine
 10
363.149215
 20
270.919516
 30
0.0
 11
376.617684
 21
346.994666
 31
0.0
  0
LINE
  5
60
102
{ACAD_REACTORS
330
525
102
}
330
1F
100
AcDbEntity
  8
LC-001-020-----0
 62
     7
370
    50
100
AcDbLine
 10
378.085623
 20
359.610596
 30
0.0
 11
378.085606
 21
346.994664
 31
0.0
  0
ARC
  5
61
102
{ACAD_REACTORS
330
525
102
}
330
1F
100
AcDbEntity
  8
LC-001-020-----0
 62
     7
370
    50
100
AcDbCircle
 10
379.585623
 20
359.610594
 30
0.0
 40
1.500000000000013
100
AcDbArc
 50
89.999924
 51
179.999924
  0
LINE
  5
62
102
{ACAD_REACTORS
330
525
102
}
330
1F
100
AcDbEntity
  8
LC-001-020-----0
 62
     7
370
    50
100
AcDbLine
 10
429.617703
 20
361.110528
 30
0.0
 11
417.117703
 21
361.110545
 31
0.0
  0
LINE
  5
63
102
{ACAD_REACTORS
330
525
102
}
330
1F
100
AcDbEntity
  8
LC-001-020-----0
 62
     7
370
    50
100
AcDbLine
 10
382.117707
 20
364.110591
 30
0.0
 11
382.117701
 21
359.610591
 31
0.0
  0
LINE
  5
64
102
{ACAD_REACTORS
330
525
102
}
330
1F
100
AcDbEntity
  8
LC-001-020-----0
 62
     7
370
    50
100
AcDbLine
 10
417.117701
 20
359.610545
 30
0.0
 11
417.117707
 21
364.110545
 31
0.0
  0
LINE
  5
65
102
{ACAD_REACTORS
330
525
102
}
330
1F
100
AcDbEntity
  8
LC-001-020-----0
 62
     7
370
    50
100
AcDbLine
 10
382.117701
 20
359.610591
 30
0.0
 11
382.117698
 21
357.610591
 31
0.0
  0
LINE
  5
66
102
{ACAD_REACTORS
330
525
102
}
330
1F
100
AcDbEntity
  8
LC-001-020-----0
 62
     7
370
    50
100
AcDbLine
 10
382.117698
 20
357.610591
 30
0.0
 11
417.117698
 21
357.610545
 31
0.0
  0
LINE
  5
67
102
{ACAD_REACTORS
330
525
102
}
330
1F
100
AcDbEntity
  8
LC-001-020-----0
 62
     7
370
    50
100
AcDbLine
 10
417.117698
 20
357.610545
 30
0.0
 11
417.117701
 21
359.610545
 31
0.0
  0
LINE
  5
68
102
{ACAD_REACTORS
330
525
102
}
330
1F
100
AcDbEntity
  8
LC-001-020-----0
 62
     7
370
    50
100
AcDbLine
 10
414.617698
 20
357.610548
 30
0.0
 11
414.617708
 21
364.610548
 31
0.0
  0
LINE
  5
69
102
{ACAD_REACTORS
330
525
102
}
330
1F
100
AcDbEntity
  8
LC-001-020-----0
 62
     7
370
    50
100
AcDbLine
 10
384.617708
 20
364.610518
 30
0.0
 11
384.617698
 21
357.610588
 31
0.0
  0
LINE
  5
6A
102
{ACAD_REACTORS
330
525
102
}
330
1F
100
AcDbEntity
  8
LC-001-020-----0
 62
     7
370
    50
100
AcDbLine
 10
382.335087
 20
361.110591
 30
0.0
 11
379.585625
 21
361.110594
 31
0.0
  0
LINE
  5
6B
102
{ACAD_REACTORS
330
525
102
}
330
1F
100
AcDbEntity
  8
LC-001-020-----0
 62
     7
370
    50
100
AcDbLine
 10
378.117707
 20
364.110596
 30
0.0
 11
382.117707
 21
364.110591
 31
0.0
  0
LINE
  5
6C
102
{ACAD_REACTORS
330
525
102
}
330
1F
100
AcDbEntity
  8
LC-001-020-----0
 62
     7
370
    50
100
AcDbLine
 10
421.117707
 20
364.110539
 30
0.0
 11
417.117707
 21
364.110545
 31
0.0
  0
LINE
  5
6E
102
{ACAD_REACTORS
330
525
102
}
330
1F
100
AcDbEntity
  8
LC-001-020-----0
  6
DASHDOT
 62
     7
370
    25
100
AcDbLine
 10
399.617698
 20
357.610568
 30
0.0
 11
399.61771
 21
366.610568
 31
0.0
  0
ARC
  5
6F
102
{ACAD_REACTORS
330
525
102
}
330
1F
100
AcDbEntity
  8
LC-001-020-----0
 62
     7
370
    50
100
AcDbCircle
 10
399.617742
 20
390.735568
 30
0.0
 40
30.12500000000135
100
AcDbArc
 50
240.137415
 51
299.862454
  0
ARC
  5
70
102
{ACAD_REACTORS
330
525
102
}
330
1F
100
AcDbEntity
  8
LC-001-020-----0
 62
     7
370
    50
100
AcDbCircle
 10
399.617745
 20
392.735568
 30
0.0
 40
30.12500000000196
100
AcDbArc
 50
240.137415
 51
299.862454
  0
INSERT
  5
7F
330
1F
100
AcDbEntity
  8
LC-001-020-----0
 62
     7
370
    25
100
AcDbBlockReference
  2
*X11
 10
0.0
 20
0.0
 30
0.0
  0
INSERT
  5
8D
330
1F
100
AcDbEntity
  8
LC-001-020-----0
 62
     7
370
    25
100
AcDbBlockReference
  2
*X22
 10
0.0
 20
0.0
 30
0.0
  0
LINE
  5
8E
102
{ACAD_REACTORS
330
525
102
}
330
1F
100
AcDbEntity
  8
LC-001-020-----0
 62
     7
370
    50
100
AcDbLine
 10
402.11755
 20
253.614197
 30
0.0
 11
411.617107
 21
253.614185
 31
0.0
  0
LINE
  5
8F
102
{ACAD_REACTORS
330
525
102
}
330
1F
100
AcDbEntity
  8
LC-001-020-----0
 62
     7
370
    50
100
AcDbLine
 10
316.117137
 20
270.611026
 30
0.0
 11
314.617137
 21
270.611028
 31
0.0
  0
LINE
  5
90
102
{ACAD_REACTORS
330
525
102
}
330
1F
100
AcDbEntity
  8
LC-001-020-----0
 62
     7
370
    50
100
AcDbLine
 10
316.117243
 20
362.610679
 30
0.0
 11
298.108406
 21
362.610703
 31
0.0
  0
LINE
  5
91
102
{ACAD_REACTORS
330
525
102
}
330
1F
100
AcDbEntity
  8
LC-001-020-----0
 62
     7
370
    50
100
AcDbLine
 10
291.608406
 20
362.614344
 30
0.0
 11
296.608406
 21
362.614337
 31
0.0
  0
LINE
  5
92
102
{ACAD_REACTORS
330
525
102
}
330
1F
100
AcDbEntity
  8
LC-001-020-----0
 62
     7
370
    50
100
AcDbLine
 10
296.608406
 20
362.614337
 30
0.0
 11
296.608414
 21
368.114337
 31
0.0
  0
LINE
  5
93
102
{ACAD_REACTORS
330
525
102
}
330
1F
100
AcDbEntity
  8
LC-001-020-----0
 62
     7
370
    50
100
AcDbLine
 10
363.084358
 20
270.610964
 30
0.0
 11
316.117137
 21
270.611026
 31
0.0
  0
LINE
  5
95
330
1F
100
AcDbEntity
  8
LC-002-002-----0
 62
     7
370
    50
100
AcDbLine
 10
378.117705
 20
362.610596
 30
0.0
 11
382.117707
 21
362.610596
 31
0.0
  0
LINE
  5
96
330
1F
100
AcDbEntity
  8
LC-002-002-----0
 62
     7
370
    50
100
AcDbLine
 10
363.084358
 20
270.610964
 30
0.0
 11
364.617137
 21
270.610964
 31
0.0
  0
LINE
  5
97
330
1F
100
AcDbEntity
  8
LC-002-002-----0
 62
     7
370
    50
100
AcDbLine
 10
378.085606
 20
346.686111
 30
0.0
 11
380.867163
 21
359.919145
 31
0.0
  0
INSERT
  5
B7
330
1F
100
AcDbEntity
  8
LC-003-005-----0
 62
     7
370
    25
100
AcDbBlockReference
  2
*X33
 10
0.0
 20
0.0
 30
0.0
  0
LINE
  5
B9
330
1F
100
AcDbEntity
  8
LC-004-001-----0
 62
     7
370
    25
100
AcDbLine
 10
430.117655
 20
360.610527
 30
0.0
 11
429.117655
 21
360.610534
 31
0.0
  0
INSERT
  5
C2
330
1F
100
AcDbEntity
  8
LC-003-005-----0
 62
     7
370
    25
100
AcDbBlockReference
  2
*X44
 10
0.0
 20
0.0
 30
0.0
  0
INSERT
  5
DA
330
1F
100
AcDbEntity
  8
LC-003-005-----0
 62
     7
370
    25
100
AcDbBlockReference
  2
*X55
 10
0.0
 20
0.0
 30
0.0
  0
LINE
  5
DB
102
{ACAD_REACTORS
330
529
102
}
330
1F
100
AcDbEntity
  8
LC-002-002-----0
  6
DASHDOT
 62
     7
370
    25
100
AcDbLine
 10
360.608386
 20
251.114252
 30
0.0
 11
360.608386
 21
265.697696
 31
0.0
  0
LINE
  5
DC
102
{ACAD_REACTORS
330
531
102
}
330
1F
100
AcDbEntity
  8
LC-002-002-----0
  6
DASHDOT
 62
     7
370
    25
100
AcDbLine
 10
221.164936
 20
334.614848
 30
0.0
 11
297.364899
 21
334.614848
 31
0.0
  0
LINE
  5
DD
102
{ACAD_REACTORS
330
530
102
}
330
1F
100
AcDbEntity
  8
LC-002-002-----0
 62
     7
370
    50
100
AcDbLine
 10
288.608402
 20
359.614848
 30
0.0
 11
285.364901
 21
359.614848
 31
0.0
  0
LINE
  5
DE
102
{ACAD_REACTORS
330
52F
102
}
330
1F
100
AcDbEntity
  8
LC-002-002-----0
 62
     7
370
    50
100
AcDbLine
 10
289.608336
 20
309.614848
 30
0.0
 11
285.363099
 21
309.614848
 31
0.0
  0
LINE
  5
DF
102
{ACAD_REACTORS
330
52E
102
}
330
1F
100
AcDbEntity
  8
LC-002-002-----0
 62
     7
370
    50
100
AcDbLine
 10
280.168261
 20
306.614848
 30
0.0
 11
239.168261
 21
306.614848
 31
0.0
  0
LINE
  5
E0
102
{ACAD_REACTORS
330
52D
102
}
330
1F
100
AcDbEntity
  8
LC-002-002-----0
 62
     7
370
    50
100
AcDbLine
 10
285.364901
 20
359.614848
 30
0.0
 11
280.170079
 21
362.61408
 31
0.0
  0
LINE
  5
E1
102
{ACAD_REACTORS
330
52C
102
}
330
1F
100
AcDbEntity
  8
LC-002-002-----0
 62
     7
370
    50
100
AcDbLine
 10
280.170079
 20
362.61408
 30
0.0
 11
239.170079
 21
362.614297
 31
0.0
  0
LINE
  5
E2
102
{ACAD_REACTORS
330
52B
102
}
330
1F
100
AcDbEntity
  8
LC-002-002-----0
 62
     7
370
    50
100
AcDbLine
 10
285.363099
 20
309.614052
 30
0.0
 11
280.168261
 21
306.614848
 31
0.0
  0
LINE
  5
E3
102
{ACAD_REACTORS
330
52A
102
}
330
1F
100
AcDbEntity
  8
LC-004-001-----0
 62
     7
370
    50
100
AcDbLine
 10
279.366224
 20
359.614084
 30
0.0
 11
236.363348
 21
359.614312
 31
0.0
  0
LINE
  5
E4
102
{ACAD_REACTORS
330
539
102
}
330
1F
100
AcDbEntity
  8
LC-004-001-----0
 62
     7
370
    50
100
AcDbLine
 10
279.364422
 20
309.614848
 30
0.0
 11
235.168277
 21
309.614848
 31
0.0
  0
LINE
  5
E5
102
{ACAD_REACTORS
330
538
102
}
330
1F
100
AcDbEntity
  8
LC-004-001-----0
 62
     7
370
    50
100
AcDbLine
 10
284.560638
 20
312.614848
 30
0.0
 11
279.364422
 21
309.614848
 31
0.0
  0
LINE
  5
E6
102
{ACAD_REACTORS
330
537
102
}
330
1F
100
AcDbEntity
  8
LC-004-001-----0
 62
     7
370
    50
100
AcDbLine
 10
284.561054
 20
356.614848
 30
0.0
 11
279.366224
 21
359.614084
 31
0.0
  0
LINE
  5
E7
102
{ACAD_REACTORS
330
536
102
}
330
1F
100
AcDbEntity
  8
LC-004-001-----0
 62
     7
370
    50
100
AcDbLine
 10
292.108398
 20
356.614848
 30
0.0
 11
284.561054
 21
356.614848
 31
0.0
  0
LINE
  5
E8
102
{ACAD_REACTORS
330
535
102
}
330
1F
100
AcDbEntity
  8
LC-004-001-----0
 62
     7
370
    50
100
AcDbLine
 10
292.10834
 20
312.614848
 30
0.0
 11
284.560638
 21
312.614848
 31
0.0
  0
LINE
  5
E9
102
{ACAD_REACTORS
330
534
102
}
330
1F
100
AcDbEntity
  8
LC-002-002-----0
 62
     7
370
    50
100
AcDbLine
 10
279.366224
 20
359.614084
 30
0.0
 11
279.366224
 21
335.383726
 31
0.0
  0
LINE
  5
EA
102
{ACAD_REACTORS
330
533
102
}
330
1F
100
AcDbEntity
  8
LC-002-002-----0
 62
     7
370
    50
100
AcDbLine
 10
284.561054
 20
356.614848
 30
0.0
 11
284.561054
 21
312.614848
 31
0.0
  0
LINE
  5
EB
102
{ACAD_REACTORS
330
532
102
}
330
1F
100
AcDbEntity
  8
LC-002-002-----0
 62
     7
370
    50
100
AcDbLine
 10
239.170079
 20
362.61408
 30
0.0
 11
239.170079
 21
364.11408
 31
0.0
  0
LINE
  5
EC
102
{ACAD_REACTORS
330
543
102
}
330
1F
100
AcDbEntity
  8
LC-002-002-----0
 62
     7
370
    50
100
AcDbLine
 10
239.170079
 20
364.11408
 30
0.0
 11
237.670079
 21
364.11408
 31
0.0
  0
LINE
  5
ED
102
{ACAD_REACTORS
330
542
102
}
330
1F
100
AcDbEntity
  8
LC-002-002-----0
 62
     7
370
    50
100
AcDbLine
 10
237.670079
 20
364.11408
 30
0.0
 11
237.670079
 21
365.61408
 31
0.0
  0
LINE
  5
EE
102
{ACAD_REACTORS
330
541
102
}
330
1F
100
AcDbEntity
  8
LC-002-002-----0
 62
     7
370
    50
100
AcDbLine
 10
237.670079
 20
365.61408
 30
0.0
 11
232.670079
 21
365.61408
 31
0.0
  0
LINE
  5
EF
102
{ACAD_REACTORS
330
540
102
}
330
1F
100
AcDbEntity
  8
LC-002-002-----0
 62
     7
370
    50
100
AcDbLine
 10
232.670079
 20
365.61408
 30
0.0
 11
227.170079
 21
365.61408
 31
0.0
  0
LINE
  5
F0
102
{ACAD_REACTORS
330
53F
102
}
330
1F
100
AcDbEntity
  8
LC-002-002-----0
 62
     7
370
    50
100
AcDbLine
 10
235.170079
 20
359.614312
 30
0.0
 11
236.363348
 21
359.614312
 31
0.0
  0
LINE
  5
F1
102
{ACAD_REACTORS
330
53E
102
}
330
1F
100
AcDbEntity
  8
LC-002-002-----0
 62
     7
370
    50
100
AcDbLine
 10
237.668245
 20
303.615073
 30
0.0
 11
232.668245
 21
303.6151
 31
0.0
  0
LINE
  5
F2
102
{ACAD_REACTORS
330
53D
102
}
330
1F
100
AcDbEntity
  8
LC-002-002-----0
 62
     7
370
    50
100
AcDbLine
 10
232.668245
 20
303.6151
 30
0.0
 11
227.177768
 21
303.615129
 31
0.0
  0
LINE
  5
F3
102
{ACAD_REACTORS
330
53C
102
}
330
1F
100
AcDbEntity
  8
LC-002-002-----0
 62
     7
370
    50
100
AcDbLine
 10
239.168253
 20
305.115065
 30
0.0
 11
237.668253
 21
305.115073
 31
0.0
  0
LINE
  5
F4
102
{ACAD_REACTORS
330
54B
102
}
330
1F
100
AcDbEntity
  8
LC-002-002-----0
 62
     7
370
    50
100
AcDbLine
 10
239.168261
 20
306.615065
 30
0.0
 11
239.168253
 21
305.115065
 31
0.0
  0
LINE
  5
F5
102
{ACAD_REACTORS
330
54A
102
}
330
1F
100
AcDbEntity
  8
LC-002-002-----0
 62
     7
370
    50
100
AcDbLine
 10
237.668253
 20
305.115073
 30
0.0
 11
237.668245
 21
303.615073
 31
0.0
  0
LINE
  5
F6
102
{ACAD_REACTORS
330
549
102
}
330
1F
100
AcDbEntity
  8
LC-002-002-----0
 62
     7
370
    50
100
AcDbLine
 10
235.170079
 20
361.61408
 30
0.0
 11
235.170079
 21
359.614312
 31
0.0
  0
ARC
  5
F7
102
{ACAD_REACTORS
330
548
102
}
330
1F
100
AcDbEntity
  8
LC-002-002-----0
 62
     7
370
    50
100
AcDbCircle
 10
233.670079
 20
361.61408
 30
0.0
 40
1.5
100
AcDbArc
 50
0.0
 51
89.999981
  0
LINE
  5
F8
102
{ACAD_REACTORS
330
547
102
}
330
1F
100
AcDbEntity
  8
LC-002-002-----0
 62
     7
370
    50
100
AcDbLine
 10
227.170079
 20
363.11408
 30
0.0
 11
233.670079
 21
363.11408
 31
0.0
  0
LINE
  5
F9
102
{ACAD_REACTORS
330
546
102
}
330
1F
100
AcDbEntity
  8
LC-002-002-----0
 62
     7
370
    50
100
AcDbLine
 10
227.177013
 20
306.115129
 30
0.0
 11
233.668258
 21
306.115094
 31
0.0
  0
ARC
  5
FA
102
{ACAD_REACTORS
330
545
102
}
330
1F
100
AcDbEntity
  8
LC-002-002-----0
 62
     7
370
    50
100
AcDbCircle
 10
233.668266
 20
307.615094
 30
0.0
 40
1.499999999999979
100
AcDbArc
 50
269.999696
 51
359.999754
  0
LINE
  5
FB
102
{ACAD_REACTORS
330
544
102
}
330
1F
100
AcDbEntity
  8
LC-002-002-----0
 62
     7
370
    50
100
AcDbLine
 10
235.168266
 20
307.615086
 30
0.0
 11
235.168277
 21
309.614854
 31
0.0
  0
LINE
  5
FC
102
{ACAD_REACTORS
330
54E
102
}
330
1F
100
AcDbEntity
  8
LC-002-002-----0
 62
     7
370
    50
100
AcDbLine
 10
227.170079
 20
365.61408
 30
0.0
 11
227.170079
 21
360.36408
 31
0.0
  0
LINE
  5
FD
102
{ACAD_REACTORS
330
54D
102
}
330
1F
100
AcDbEntity
  8
LC-002-002-----0
 62
     7
370
    50
100
AcDbLine
 10
227.177768
 20
303.61513
 30
0.0
 11
227.176183
 21
308.864533
 31
0.0
  0
LINE
  5
FE
102
{ACAD_REACTORS
330
54C
102
}
330
1F
100
AcDbEntity
  8
LC-002-002-----0
 62
     7
370
    50
100
AcDbLine
 10
279.366224
 20
335.383726
 30
0.0
 11
279.366224
 21
309.614848
 31
0.0
  0
LINE
  5
FF
102
{ACAD_REACTORS
330
525
102
}
330
1F
100
AcDbEntity
  8
LC-001-020-----0
 62
     7
370
    50
100
AcDbLine
 10
292.10834
 20
312.614848
 30
0.0
 11
292.108299
 21
271.114343
 31
0.0
  0
LINE
  5
100
330
1F
100
AcDbEntity
  8
LC-002-002-----0
 62
     7
370
    50
100
AcDbLine
 10
227.170079
 20
365.61408
 30
0.0
 11
227.170079
 21
366.36408
 31
0.0
  0
LINE
  5
101
330
1F
100
AcDbEntity
  8
LC-002-002-----0
 62
     7
370
    50
100
AcDbLine
 10
227.170079
 20
366.36408
 30
0.0
 11
238.170079
 21
366.36408
 31
0.0
  0
LINE
  5
102
330
1F
100
AcDbEntity
  8
LC-002-002-----0
 62
     7
370
    50
100
AcDbLine
 10
239.170079
 20
366.36408
 30
0.0
 11
239.170079
 21
368.36408
 31
0.0
  0
LINE
  5
103
330
1F
100
AcDbEntity
  8
LC-002-002-----0
 62
     7
370
    50
100
AcDbLine
 10
225.170079
 20
362.86408
 30
0.0
 11
223.170079
 21
362.86408
 31
0.0
  0
LINE
  5
104
330
1F
100
AcDbEntity
  8
LC-002-002-----0
 62
     7
370
    50
100
AcDbLine
 10
223.170079
 20
365.614848
 30
0.0
 11
223.170079
 21
359.614848
 31
0.0
  0
LINE
  5
105
330
1F
100
AcDbEntity
  8
LC-002-002-----0
 62
     7
370
    50
100
AcDbLine
 10
223.170079
 20
360.36408
 30
0.0
 11
227.170079
 21
360.36408
 31
0.0
  0
LINE
  5
106
330
1F
100
AcDbEntity
  8
LC-002-002-----0
 62
     7
370
    50
100
AcDbLine
 10
239.170079
 20
366.36408
 30
0.0
 11
239.170079
 21
365.86408
 31
0.0
  0
LINE
  5
107
330
1F
100
AcDbEntity
  8
LC-002-002-----0
 62
     7
370
    50
100
AcDbLine
 10
238.170079
 20
365.86408
 30
0.0
 11
238.170079
 21
366.36408
 31
0.0
  0
ARC
  5
108
330
1F
100
AcDbEntity
  8
LC-002-002-----0
 62
     7
370
    50
100
AcDbCircle
 10
238.670079
 20
365.86408
 30
0.0
 40
0.5000000000000606
100
AcDbArc
 50
179.999829
 51
359.999981
  0
LINE
  5
109
330
1F
100
AcDbEntity
  8
LC-002-002-----0
 62
     7
370
    50
100
AcDbLine
 10
225.170079
 20
366.36408
 30
0.0
 11
225.170079
 21
362.86408
 31
0.0
  0
ARC
  5
10A
330
1F
100
AcDbEntity
  8
LC-002-002-----0
 62
     7
370
    50
100
AcDbCircle
 10
227.170079
 20
366.36408
 30
0.0
 40
2.000000000000107
100
AcDbArc
 50
89.999981
 51
180.0
  0
LINE
  5
10B
330
1F
100
AcDbEntity
  8
LC-002-002-----0
 62
     7
370
    50
100
AcDbLine
 10
239.170079
 20
368.36408
 30
0.0
 11
227.170079
 21
368.36408
 31
0.0
  0
LINE
  5
10C
102
{ACAD_REACTORS
330
550
102
}
330
1F
100
AcDbEntity
  8
LC-002-002-----0
 62
     7
370
    50
100
AcDbLine
 10
227.163909
 20
303.614536
 30
0.0
 11
227.163762
 21
302.864536
 31
0.0
  0
LINE
  5
10D
102
{ACAD_REACTORS
330
550
102
}
330
1F
100
AcDbEntity
  8
LC-002-002-----0
 62
     7
370
    50
100
AcDbLine
 10
227.163762
 20
302.864536
 30
0.0
 11
238.163762
 21
302.862385
 31
0.0
  0
LINE
  5
10E
102
{ACAD_REACTORS
330
550
102
}
330
1F
100
AcDbEntity
  8
LC-002-002-----0
 62
     7
370
    50
100
AcDbLine
 10
239.163762
 20
302.862189
 30
0.0
 11
239.163371
 21
300.862189
 31
0.0
  0
LINE
  5
10F
102
{ACAD_REACTORS
330
550
102
}
330
1F
100
AcDbEntity
  8
LC-002-002-----0
 62
     7
370
    50
100
AcDbLine
 10
239.163762
 20
302.862189
 30
0.0
 11
239.16386
 21
303.362189
 31
0.0
  0
LINE
  5
110
102
{ACAD_REACTORS
330
550
102
}
330
1F
100
AcDbEntity
  8
LC-002-002-----0
 62
     7
370
    50
100
AcDbLine
 10
238.16386
 20
303.362385
 30
0.0
 11
238.163762
 21
302.862385
 31
0.0
  0
LINE
  5
111
102
{ACAD_REACTORS
330
550
102
}
330
1F
100
AcDbEntity
  8
LC-002-002-----0
 62
     7
370
    50
100
AcDbLine
 10
225.163762
 20
302.864927
 30
0.0
 11
225.164447
 21
306.364927
 31
0.0
  0
ARC
  5
112
102
{ACAD_REACTORS
330
550
102
}
330
1F
100
AcDbEntity
  8
LC-002-002-----0
 62
     7
370
    50
100
AcDbCircle
 10
227.163762
 20
302.864536
 30
0.0
 40
2.000000000000088
100
AcDbArc
 50
179.988796
 51
269.988644
  0
LINE
  5
113
102
{ACAD_REACTORS
330
550
102
}
330
1F
100
AcDbEntity
  8
LC-002-002-----0
 62
     7
370
    50
100
AcDbLine
 10
239.163371
 20
300.862189
 30
0.0
 11
227.163371
 21
300.864536
 31
0.0
  0
LINE
  5
114
102
{ACAD_REACTORS
330
54F
102
}
330
1F
100
AcDbEntity
  8
LC-002-002-----0
 62
     7
370
    50
100
AcDbLine
 10
225.164447
 20
306.364927
 30
0.0
 11
223.164447
 21
306.365318
 31
0.0
  0
LINE
  5
115
102
{ACAD_REACTORS
330
54F
102
}
330
1F
100
AcDbEntity
  8
LC-002-002-----0
 62
     7
370
    50
100
AcDbLine
 10
223.163909
 20
303.614848
 30
0.0
 11
223.165082
 21
309.614848
 31
0.0
  0
LINE
  5
116
102
{ACAD_REACTORS
330
54F
102
}
330
1F
100
AcDbEntity
  8
LC-002-002-----0
 62
     7
370
    50
100
AcDbLine
 10
223.164936
 20
308.865318
 30
0.0
 11
227.164936
 21
308.864535
 31
0.0
  0
ARC
  5
117
330
1F
100
AcDbEntity
  8
LC-002-002-----0
 62
     7
370
    50
100
AcDbCircle
 10
238.66386
 20
303.362287
 30
0.0
 40
0.5000000000000825
100
AcDbArc
 50
359.988777
 51
179.988967
  0
LINE
  5
118
330
1F
100
AcDbEntity
  8
LC-002-002-----0
 62
     7
370
    50
100
AcDbLine
 10
431.617989
 20
286.988831
 30
0.0
 11
495.63118
 21
286.915892
 31
0.0
  0
LINE
  5
119
330
1F
100
AcDbEntity
  8
LC-002-002-----0
 62
     7
370
    50
100
AcDbLine
 10
495.587413
 20
361.837689
 30
0.0
 11
498.608185
 21
361.11581
 31
0.0
  0
LINE
  5
11A
330
1F
100
AcDbEntity
  8
LC-002-002-----0
 62
     7
370
    50
100
AcDbLine
 10
495.63118
 20
286.915892
 30
0.0
 11
498.608185
 21
287.801113
 31
0.0
  0
LINE
  5
11B
330
1F
100
AcDbEntity
  8
LC-003-005-----0
 62
     7
370
    25
100
AcDbLine
 10
223.657637
 20
362.86408
 30
0.0
 11
226.15764
 21
360.36408
 31
0.0
  0
LINE
  5
11C
330
1F
100
AcDbEntity
  8
LC-003-005-----0
 62
     7
370
    25
100
AcDbLine
 10
225.170079
 20
365.594277
 30
0.0
 11
227.170079
 21
363.59428
 31
0.0
  0
LINE
  5
11D
330
1F
100
AcDbEntity
  8
LC-003-005-----0
 62
     7
370
    25
100
AcDbLine
 10
226.699151
 20
368.307846
 30
0.0
 11
228.642919
 21
366.36408
 31
0.0
  0
LINE
  5
11E
330
1F
100
AcDbEntity
  8
LC-003-005-----0
 62
     7
370
    25
100
AcDbLine
 10
230.88556
 20
368.36408
 30
0.0
 11
232.885563
 21
366.36408
 31
0.0
  0
LINE
  5
11F
330
1F
100
AcDbEntity
  8
LC-003-005-----0
 62
     7
370
    25
100
AcDbLine
 10
235.128204
 20
368.36408
 30
0.0
 11
237.128206
 21
366.36408
 31
0.0
  0
LINE
  5
120
330
1F
100
AcDbEntity
  8
LC-003-005-----0
 62
     7
370
    25
100
AcDbLine
 10
223.656609
 20
306.364774
 30
0.0
 11
226.156626
 21
308.864761
 31
0.0
  0
LINE
  5
121
330
1F
100
AcDbEntity
  8
LC-003-005-----0
 62
     7
370
    25
100
AcDbLine
 10
225.169037
 20
303.634568
 30
0.0
 11
227.169048
 21
305.634555
 31
0.0
  0
LINE
  5
122
330
1F
100
AcDbEntity
  8
LC-003-005-----0
 62
     7
370
    25
100
AcDbLine
 10
226.698094
 20
300.920992
 30
0.0
 11
228.641873
 21
302.864748
 31
0.0
  0
LINE
  5
123
330
1F
100
AcDbEntity
  8
LC-003-005-----0
 62
     7
370
    25
100
AcDbLine
 10
230.884503
 20
300.864736
 30
0.0
 11
232.884517
 21
302.864725
 31
0.0
  0
LINE
  5
124
330
1F
100
AcDbEntity
  8
LC-003-005-----0
 62
     7
370
    25
100
AcDbLine
 10
235.127147
 20
300.864713
 30
0.0
 11
237.12716
 21
302.864703
 31
0.0
  0
ARC
  5
125
330
1F
100
AcDbEntity
  8
LC-002-002-----0
 62
     7
370
    50
100
AcDbCircle
 10
229.170079
 20
361.11408
 30
0.0
 40
1.500000000000023
100
AcDbArc
 50
89.999981
 51
270.000117
  0
ARC
  5
126
330
1F
100
AcDbEntity
  8
LC-002-002-----0
 62
     7
370
    50
100
AcDbCircle
 10
233.170079
 20
361.11408
 30
0.0
 40
1.500000000000118
100
AcDbArc
 50
270.000421
 51
89.999981
  0
LINE
  5
127
330
1F
100
AcDbEntity
  8
LC-002-002-----0
 62
     7
370
    50
100
AcDbLine
 10
229.170079
 20
359.61408
 30
0.0
 11
233.170079
 21
359.61408
 31
0.0
  0
LINE
  5
128
330
1F
100
AcDbEntity
  8
LC-002-002-----0
 62
     7
370
    50
100
AcDbLine
 10
229.170079
 20
362.61408
 30
0.0
 11
233.170079
 21
362.61408
 31
0.0
  0
INSERT
  5
12E
330
1F
100
AcDbEntity
  8
LC-003-005-----0
 62
     7
370
    25
100
AcDbBlockReference
  2
*X66
 10
0.0
 20
0.0
 30
0.0
  0
ARC
  5
12F
102
{ACAD_REACTORS
330
552
102
}
330
1F
100
AcDbEntity
  8
LC-002-002-----0
 62
     7
370
    50
100
AcDbCircle
 10
229.169061
 20
308.114745
 30
0.0
 40
1.500000000000194
100
AcDbArc
 50
89.999427
 51
269.999715
  0
ARC
  5
130
102
{ACAD_REACTORS
330
552
102
}
330
1F
100
AcDbEntity
  8
LC-002-002-----0
 62
     7
370
    50
100
AcDbCircle
 10
233.169061
 20
308.114724
 30
0.0
 40
1.500000000000129
100
AcDbArc
 50
269.999715
 51
89.999123
  0
LINE
  5
131
102
{ACAD_REACTORS
330
552
102
}
330
1F
100
AcDbEntity
  8
LC-002-002-----0
 62
     7
370
    50
100
AcDbLine
 10
229.169053
 20
306.614745
 30
0.0
 11
233.169053
 21
306.614724
 31
0.0
  0
INSERT
  5
137
330
1F
100
AcDbEntity
  8
LC-003-005-----0
 62
     7
370
    25
100
AcDbBlockReference
  2
*X77
 10
0.0
 20
0.0
 30
0.0
  0
LINE
  5
138
330
1F
100
AcDbEntity
  8
LC-002-002-----0
 62
     7
370
    50
100
AcDbLine
 10
229.169069
 20
309.614745
 30
0.0
 11
233.169069
 21
309.614724
 31
0.0
  0
DIMENSION
  5
13C
330
1F
100
AcDbEntity
  8
LC-005-003-----0
 62
     7
370
    25
100
AcDbDimension
  2
*D8
 10
358.216212
 20
270.610955
 30
0.0
 11
327.416212
 21
298.399296
 31
0.0
 70
   160
  1
60
 71
     5
 42
60.503254
 53
90.0
  3
LC-DIM-L-0140-02-02
100
AcDbAlignedDimension
 13
393.117639
 23
331.114209
 33
0.0
 14
369.7264
 24
270.610955
 34
0.0
 50
90.0
100
AcDbRotatedDimension
  0
LINE
  5
14C
102
{ACAD_REACTORS
330
525
102
}
330
1F
100
AcDbEntity
  8
LC-001-020-----0
 62
     7
370
    50
100
AcDbLine
 10
325.867077
 20
284.447926
 30
0.0
 11
325.867061
 21
270.611013
 31
0.0
  0
ARC
  5
14D
330
1F
100
AcDbEntity
  8
LC-002-002-----0
 62
     7
370
    50
100
AcDbCircle
 10
289.599203
 20
368.116251
 30
0.0
 40
1.499514000000519
100
AcDbArc
 50
0.000075
 51
90.000075
  0
LINE
  5
14E
330
1F
100
AcDbEntity
  8
LC-002-002-----0
 62
     7
370
    50
100
AcDbLine
 10
279.691769
 20
366.611499
 30
0.0
 11
288.608412
 21
366.611499
 31
0.0
  0
LINE
  5
14F
330
1F
100
AcDbEntity
  8
LC-001-020-----0
 62
     7
370
    50
100
AcDbLine
 10
285.240535
 20
369.610489
 30
0.0
 11
289.599203
 21
369.610517
 31
0.0
  0
ARC
  5
151
330
1F
100
AcDbEntity
  8
LC-006-002-RND-0
 62
     7
370
    50
100
AcDbCircle
 10
285.240535
 20
371.609879
 30
0.0
 40
1.999352000000386
100
AcDbArc
 50
180.0
 51
270.0
  0
LINE
  5
152
102
{ACAD_REACTORS
330
553
102
}
330
1F
100
AcDbEntity
  8
LC-001-020-----0
 62
     7
370
    50
100
AcDbLine
 10
435.975896
 20
369.610489
 30
0.0
 11
431.617228
 21
369.610517
 31
0.0
  0
LINE
  5
153
102
{ACAD_REACTORS
330
553
102
}
330
1F
100
AcDbEntity
  8
LC-001-020-----0
 62
     7
370
    50
100
AcDbLine
 10
430.117704
 20
368.116261
 30
0.0
 11
430.117655
 21
360.610527
 31
0.0
  0
DIMENSION
  5
154
330
1F
100
AcDbEntity
  8
LC-005-003-----0
 62
     7
370
    25
100
AcDbDimension
  2
*D9
 10
117.6
 20
251.11432
 30
0.0
 11
86.8
 21
326.611525
 31
0.0
 70
   160
  1
150
 71
     5
 42
150.994411
 53
90.0
  3
LC-DIM-L-0140-02-02
100
AcDbAlignedDimension
 13
209.943443
 23
402.108731
 33
0.0
 14
308.608272
 24
251.11432
 34
0.0
 50
90.0
100
AcDbRotatedDimension
  0
ARC
  5
161
330
1F
100
AcDbEntity
  8
LC-006-002-RND-0
 62
     7
370
    50
100
AcDbCircle
 10
285.240535
 20
371.609879
 30
0.0
 40
1.999352000000386
100
AcDbArc
 50
180.0
 51
270.0
  0
LINE
  5
162
330
1F
100
AcDbEntity
  8
LC-002-002-----0
 62
     7
370
    50
100
AcDbLine
 10
283.241183
 20
374.886226
 30
0.0
 11
283.241183
 21
371.609879
 31
0.0
  0
ARC
  5
163
330
1F
100
AcDbEntity
  8
LC-002-002-----0
 62
     7
370
    50
100
AcDbCircle
 10
283.244286
 20
376.035477
 30
0.0
 40
1.14925492072274
100
AcDbArc
 50
270.0
 51
90.0
  0
LINE
  5
164
330
1F
100
AcDbEntity
  8
LC-002-002-----0
 62
     7
370
    50
100
AcDbLine
 10
283.241183
 20
378.310867
 30
0.0
 11
283.241183
 21
377.184727
 31
0.0
  0
LINE
  5
165
330
1F
100
AcDbEntity
  8
LC-002-002-----0
 62
     7
370
    50
100
AcDbLine
 10
277.645597
 20
378.310867
 30
0.0
 11
283.241183
 21
378.310867
 31
0.0
  0
ARC
  5
166
330
1F
100
AcDbEntity
  8
LC-006-002-RND-0
 62
     7
370
    50
100
AcDbCircle
 10
277.645597
 20
382.237595
 30
0.0
 40
3.926727328000823
100
AcDbArc
 50
180.0
 51
270.0
  0
ARC
  5
167
330
1F
100
AcDbEntity
  8
LC-006-002-RND-0
 62
     7
370
    50
100
AcDbCircle
 10
279.691769
 20
369.610777
 30
0.0
 40
2.999028000000676
100
AcDbArc
 50
202.352488
 51
270.0
  0
LINE
  5
168
330
1F
100
AcDbEntity
  8
LC-002-002-----0
 62
     7
370
    50
100
AcDbLine
 10
271.403674
 20
380.309548
 30
0.0
 11
276.918083
 21
368.470236
 31
0.0
  0
LINE
  5
169
330
1F
100
AcDbEntity
  8
LC-002-002-----0
 62
     7
370
    50
100
AcDbLine
 10
209.943443
 20
402.108731
 30
0.0
 11
209.943443
 21
405.114108
 31
0.0
  0
LINE
  5
16A
330
1F
100
AcDbEntity
  8
LC-002-002-----0
 62
     7
370
    50
100
AcDbLine
 10
209.943443
 20
405.114108
 30
0.0
 11
249.669431
 21
402.336198
 31
0.0
  0
LINE
  5
16B
330
1F
100
AcDbEntity
  8
LC-002-002-----0
 62
     7
370
    50
100
AcDbLine
 10
209.943443
 20
402.108731
 30
0.0
 11
242.642235
 21
399.82221
 31
0.0
  0
LINE
  5
16C
330
1F
100
AcDbEntity
  8
LC-002-002-----0
 62
     7
370
    50
100
AcDbLine
 10
242.642235
 20
399.82221
 30
0.0
 11
249.669431
 21
397.327236
 31
0.0
  0
ARC
  5
16D
330
1F
100
AcDbEntity
  8
LC-002-002-----0
 62
     7
370
    50
100
AcDbCircle
 10
260.909106
 20
422.816178
 30
0.0
 40
23.36150376404855
100
AcDbArc
 50
241.241457
 51
259.532639
  0
LINE
  5
16E
330
1F
100
AcDbEntity
  8
LC-002-002-----0
 62
     7
370
    50
100
AcDbLine
 10
268.859544
 20
398.957266
 30
0.0
 11
256.664896
 21
399.843443
 31
0.0
  0
LINE
  5
16F
330
1F
100
AcDbEntity
  8
LC-002-002-----0
 62
     7
370
    50
100
AcDbLine
 10
249.666999
 20
397.292466
 30
0.0
 11
265.477189
 21
396.18691
 31
0.0
  0
ARC
  5
170
330
1F
100
AcDbEntity
  8
LC-002-002-----0
 62
     7
370
    50
100
AcDbCircle
 10
265.407477
 20
395.189993
 30
0.0
 40
0.9993521049763463
100
AcDbArc
 50
0.000252
 51
86.000003
  0
LINE
  5
171
330
1F
100
AcDbEntity
  8
LC-002-002-----0
 62
     7
370
    50
100
AcDbLine
 10
266.40683
 20
395.189997
 30
0.0
 11
266.406847
 21
391.334293
 31
0.0
  0
ARC
  5
172
330
1F
100
AcDbEntity
  8
LC-002-002-----0
 62
     7
370
    50
100
AcDbCircle
 10
270.404255
 20
391.334311
 30
0.0
 40
3.997408419905613
100
AcDbArc
 50
180.000252
 51
257.709593
  0
ARC
  5
173
330
1F
100
AcDbEntity
  8
LC-002-002-----0
 62
     7
370
    50
100
AcDbCircle
 10
269.404931
 20
385.393436
 30
0.0
 40
1.998704209952719
100
AcDbArc
 50
0.000267
 51
85.829086
  0
LINE
  5
174
330
1F
100
AcDbEntity
  8
LC-002-002-----0
 62
     7
370
    50
100
AcDbLine
 10
271.403635
 20
385.393445
 30
0.0
 11
271.403674
 21
380.309548
 31
0.0
  0
LINE
  5
175
330
1F
100
AcDbEntity
  8
LC-002-002-----0
 62
     7
370
    50
100
AcDbLine
 10
268.859544
 20
398.957266
 30
0.0
 11
268.859544
 21
391.334293
 31
0.0
  0
ARC
  5
176
330
1F
100
AcDbEntity
  8
LC-006-002-RND-0
 62
     7
370
    50
100
AcDbCircle
 10
269.939394
 20
391.347126
 30
0.0
 40
1.07985001520052
100
AcDbArc
 50
180.0
 51
266.000003
  0
LINE
  5
177
330
1F
100
AcDbEntity
  8
LC-002-002-----0
 62
     7
370
    50
100
AcDbLine
 10
269.864068
 20
390.269907
 30
0.0
 11
272.000926
 21
390.120483
 31
0.0
  0
LINE
  5
178
330
1F
100
AcDbEntity
  8
LC-002-002-----0
 62
     7
370
    50
100
AcDbLine
 10
272.000926
 20
390.120483
 30
0.0
 11
272.000926
 21
396.100041
 31
0.0
  0
LINE
  5
179
330
1F
100
AcDbEntity
  8
LC-002-002-----0
 62
     7
370
    50
100
AcDbLine
 10
273.718869
 20
396.100041
 30
0.0
 11
273.718869
 21
382.237595
 31
0.0
  0
DIMENSION
  5
17A
330
1F
100
AcDbEntity
  8
LC-005-003-----0
 62
     7
370
    25
100
AcDbDimension
  2
*D10
 10
511.272989
 20
470.4
 30
0.0
 11
360.608216
 21
501.2
 31
0.0
 70
   160
  1
%%c300
 71
     5
 42
301.329546
  3
LC-DIM-L-0140-02-02
100
AcDbAlignedDimension
 13
209.943443
 23
405.114108
 33
0.0
 14
511.272989
 24
405.114108
 34
0.0
100
AcDbRotatedDimension
  0
LINE
  5
187
330
1F
100
AcDbEntity
  8
LC-002-002-----0
 62
     7
370
    50
100
AcDbLine
 10
449.812757
 20
380.309548
 30
0.0
 11
444.298348
 21
368.470236
 31
0.0
  0
ARC
  5
188
330
1F
100
AcDbEntity
  8
LC-006-002-RND-0
 62
     7
370
    50
100
AcDbCircle
 10
441.524662
 20
369.610777
 30
0.0
 40
2.999028000000749
100
AcDbArc
 50
270.0
 51
337.647512
  0
ARC
  5
189
330
1F
100
AcDbEntity
  8
LC-006-002-RND-0
 62
     7
370
    50
100
AcDbCircle
 10
435.975896
 20
371.609879
 30
0.0
 40
1.999352000000158
100
AcDbArc
 50
270.0
 51
0.0
  0
LINE
  5
18A
330
1F
100
AcDbEntity
  8
LC-002-002-----0
 62
     7
370
    50
100
AcDbLine
 10
437.975248
 20
374.886226
 30
0.0
 11
437.975248
 21
371.609879
 31
0.0
  0
LINE
  5
18B
330
1F
100
AcDbEntity
  8
LC-002-002-----0
 62
     7
370
    50
100
AcDbLine
 10
441.524662
 20
366.611499
 30
0.0
 11
432.916924
 21
366.611499
 31
0.0
  0
ARC
  5
18C
330
1F
100
AcDbEntity
  8
LC-002-002-----0
 62
     7
370
    50
100
AcDbCircle
 10
431.617228
 20
368.116251
 30
0.0
 40
1.499514000000803
100
AcDbArc
 50
89.999925
 51
179.999925
  0
LINE
  5
18D
330
1F
100
AcDbEntity
  8
LC-002-002-----0
 62
     7
370
    50
100
AcDbLine
 10
447.497562
 20
396.100041
 30
0.0
 11
447.497562
 21
382.237595
 31
0.0
  0
LINE
  5
18E
330
1F
100
AcDbEntity
  8
LC-002-002-----0
 62
     7
370
    50
100
AcDbLine
 10
437.975248
 20
378.310867
 30
0.0
 11
437.975248
 21
377.184727
 31
0.0
  0
ARC
  5
18F
330
1F
100
AcDbEntity
  8
LC-006-002-RND-0
 62
     7
370
    50
100
AcDbCircle
 10
443.570835
 20
382.237595
 30
0.0
 40
3.926727328001221
100
AcDbArc
 50
270.0
 51
0.0
  0
LINE
  5
190
330
1F
100
AcDbEntity
  8
LC-002-002-----0
 62
     7
370
    50
100
AcDbLine
 10
443.570835
 20
378.310867
 30
0.0
 11
437.975248
 21
378.310867
 31
0.0
  0
ARC
  5
191
330
1F
100
AcDbEntity
  8
LC-002-002-----0
 62
     7
370
    50
100
AcDbCircle
 10
437.972145
 20
376.035477
 30
0.0
 40
1.149254920722683
100
AcDbArc
 50
90.0
 51
270.0
  0
LINE
  5
192
330
1F
100
AcDbEntity
  8
LC-002-002-----0
 62
     7
370
    50
100
AcDbLine
 10
447.497562
 20
396.100041
 30
0.0
 11
449.215505
 21
396.100041
 31
0.0
  0
LINE
  5
193
330
1F
100
AcDbEntity
  8
LC-002-002-----0
 62
     7
370
    50
100
AcDbLine
 10
452.356887
 20
398.957266
 30
0.0
 11
452.356887
 21
391.334293
 31
0.0
  0
ARC
  5
194
330
1F
100
AcDbEntity
  8
LC-002-002-----0
 62
     7
370
    50
100
AcDbCircle
 10
460.307326
 20
422.816178
 30
0.0
 40
23.36150376404783
100
AcDbArc
 50
280.467361
 51
298.758543
  0
LINE
  5
195
330
1F
100
AcDbEntity
  8
LC-002-002-----0
 62
     7
370
    50
100
AcDbLine
 10
449.812784
 20
382.809832
 30
0.0
 11
449.81276
 21
381.037029
 31
0.0
  0
LINE
  5
196
330
1F
100
AcDbEntity
  8
LC-002-002-----0
 62
     7
370
    50
100
AcDbLine
 10
471.549432
 20
397.292466
 30
0.0
 11
455.739243
 21
396.18691
 31
0.0
  0
ARC
  5
197
330
1F
100
AcDbEntity
  8
LC-002-002-----0
 62
     7
370
    50
100
AcDbCircle
 10
450.812176
 20
391.334311
 30
0.0
 40
3.99740841990574
100
AcDbArc
 50
282.290407
 51
359.999748
  0
ARC
  5
198
330
1F
100
AcDbEntity
  8
LC-006-002-RND-0
 62
     7
370
    50
100
AcDbCircle
 10
451.277037
 20
391.347126
 30
0.0
 40
1.079850015200164
100
AcDbArc
 50
273.999997
 51
0.0
  0
ARC
  5
199
330
1F
100
AcDbEntity
  8
LC-002-002-----0
 62
     7
370
    50
100
AcDbCircle
 10
455.808954
 20
395.189993
 30
0.0
 40
0.9993521049763168
100
AcDbArc
 50
93.999997
 51
179.999748
  0
LINE
  5
19A
330
1F
100
AcDbEntity
  8
LC-002-002-----0
 62
     7
370
    50
100
AcDbLine
 10
511.272989
 20
405.114108
 30
0.0
 11
471.547001
 21
402.336198
 31
0.0
  0
LINE
  5
19B
330
1F
100
AcDbEntity
  8
LC-002-002-----0
 62
     7
370
    50
100
AcDbLine
 10
454.809602
 20
395.189997
 30
0.0
 11
454.809585
 21
391.334293
 31
0.0
  0
LINE
  5
19C
330
1F
100
AcDbEntity
  8
LC-002-002-----0
 62
     7
370
    50
100
AcDbLine
 10
511.272989
 20
402.108731
 30
0.0
 11
478.574196
 21
399.82221
 31
0.0
  0
ARC
  5
19D
330
1F
100
AcDbEntity
  8
LC-002-002-----0
 62
     7
370
    50
100
AcDbCircle
 10
451.8115
 20
385.393436
 30
0.0
 40
1.99870420995296
100
AcDbArc
 50
94.170914
 51
179.999733
  0
LINE
  5
19E
330
1F
100
AcDbEntity
  8
LC-002-002-----0
 62
     7
370
    50
100
AcDbLine
 10
449.812796
 20
385.393445
 30
0.0
 11
449.812757
 21
380.309548
 31
0.0
  0
LINE
  5
19F
330
1F
100
AcDbEntity
  8
LC-002-002-----0
 62
     7
370
    50
100
AcDbLine
 10
451.352364
 20
390.269907
 30
0.0
 11
449.215505
 21
390.120483
 31
0.0
  0
LINE
  5
1A0
330
1F
100
AcDbEntity
  8
LC-002-002-----0
 62
     7
370
    50
100
AcDbLine
 10
478.574196
 20
399.82221
 30
0.0
 11
471.547001
 21
397.327236
 31
0.0
  0
LINE
  5
1A1
330
1F
100
AcDbEntity
  8
LC-002-002-----0
 62
     7
370
    50
100
AcDbLine
 10
452.356887
 20
398.957266
 30
0.0
 11
464.551536
 21
399.843443
 31
0.0
  0
LINE
  5
1A2
330
1F
100
AcDbEntity
  8
LC-002-002-----0
 62
     7
370
    50
100
AcDbLine
 10
449.215505
 20
390.120483
 30
0.0
 11
449.215505
 21
396.100041
 31
0.0
  0
LINE
  5
1A3
330
1F
100
AcDbEntity
  8
LC-002-002-----0
 62
     7
370
    50
100
AcDbLine
 10
511.272989
 20
402.108731
 30
0.0
 11
511.272989
 21
405.114108
 31
0.0
  0
LINE
  5
1A4
330
1F
100
AcDbEntity
  8
LC-002-002-----0
 62
     7
370
    50
100
AcDbLine
 10
291.098717
 20
368.116253
 30
0.0
 11
291.098717
 21
360.614345
 31
0.0
  0
LINE
  5
1A5
330
1F
100
AcDbEntity
  8
LC-002-002-----0
 62
     7
370
    50
100
AcDbLine
 10
288.608412
 20
366.611499
 30
0.0
 11
288.608412
 21
359.614848
 31
0.0
  0
DIMENSION
  5
1A6
330
1F
100
AcDbEntity
  8
LC-005-003-----0
 62
     7
370
    25
100
AcDbDimension
  2
*D11
 10
156.8
 20
334.614848
 30
0.0
 11
126.0
 21
368.361789
 31
0.0
 70
   160
  1
70
 71
     5
 42
67.493883
 53
90.0
  3
LC-DIM-L-0140-02-02
100
AcDbAlignedDimension
 13
209.943443
 23
402.108731
 33
0.0
 14
220.919971
 24
334.614848
 34
0.0
 50
90.0
100
AcDbRotatedDimension
  0
INSERT
  5
1FE
330
1F
100
AcDbEntity
  8
LC-003-005-----0
 62
     7
370
    25
100
AcDbBlockReference
  2
*X812
 10
0.0
 20
0.0
 30
0.0
  0
INSERT
  5
245
330
1F
100
AcDbEntity
  8
LC-003-005-----0
 62
     7
370
    25
100
AcDbBlockReference
  2
*X913
 10
0.0
 20
0.0
 30
0.0
  0
LINE
  5
246
330
1F
100
AcDbEntity
  8
LC-002-002-----0
 62
     7
370
    50
100
AcDbLine
 10
273.718869
 20
396.100041
 30
0.0
 11
272.000926
 21
396.100041
 31
0.0
  0
LINE
  5
247
330
1F
100
AcDbEntity
  8
LC-002-002-----0
 62
     7
370
    50
100
AcDbLine
 10
209.943443
 20
405.114108
 30
0.0
 11
511.272989
 21
405.114108
 31
0.0
  0
LINE
  5
248
102
{ACAD_REACTORS
330
53B
102
}
330
1F
100
AcDbEntity
  8
LC-002-002-----0
  6
DASHDOT
 62
     7
370
    25
100
AcDbLine
 10
360.608107
 20
265.697696
 30
0.0
 11
360.608293
 21
405.114108
 31
0.0
  0
LINE
  5
249
102
{ACAD_REACTORS
330
53A
102
}
330
1F
100
AcDbEntity
  8
LC-001-020-----0
 62
     7
370
    50
100
AcDbLine
 10
431.617061
 20
271.113999
 30
0.0
 11
431.617166
 21
286.988831
 31
0.0
  0
LINE
  5
24A
102
{ACAD_REACTORS
330
524
102
}
330
1F
100
AcDbEntity
  8
LC-001-020-----0
 62
     7
370
    50
100
AcDbLine
 10
429.117182
 20
289.409933
 30
0.0
 11
429.117061
 21
271.114022
 31
0.0
  0
LINE
  5
24B
330
1F
100
AcDbEntity
  8
LC-002-002-----0
 62
     7
370
    50
100
AcDbLine
 10
498.608185
 20
287.801113
 30
0.0
 11
498.608185
 21
361.11581
 31
0.0
  0
LINE
  5
24C
330
1F
100
AcDbEntity
  8
LC-002-002-----0
 62
     7
370
    50
100
AcDbLine
 10
429.117625
 20
358.836252
 30
0.0
 11
498.608185
 21
358.837743
 31
0.0
  0
LINE
  5
24D
330
1F
100
AcDbEntity
  8
LC-002-002-----0
 62
     7
370
    50
100
AcDbLine
 10
432.916918
 20
361.83632
 30
0.0
 11
495.587413
 21
361.837689
 31
0.0
  0
LINE
  5
24E
330
1F
100
AcDbEntity
  8
LC-002-002-----0
 62
     7
370
    50
100
AcDbLine
 10
432.916918
 20
361.83632
 30
0.0
 11
432.916924
 21
366.611205
 31
0.0
  0
LINE
  5
24F
102
{ACAD_REACTORS
330
524
102
}
330
1F
100
AcDbEntity
  8
LC-001-020-----0
 62
     7
370
    50
100
AcDbLine
 10
429.117655
 20
360.610534
 30
0.0
 11
429.117643
 21
358.836252
 31
0.0
  0
ARC
  5
250
330
1F
100
AcDbEntity
  8
LC-002-002-----0
 62
     7
370
    50
100
AcDbCircle
 10
547.08656
 20
324.121804
 30
0.0
 40
122.9705762242926
100
AcDbArc
 50
163.602547
 51
196.396202
  0
INSERT
  5
290
330
1F
100
AcDbEntity
  8
LC-003-005-----0
 62
     7
370
    25
100
AcDbBlockReference
  2
*X1014
 10
0.0
 20
0.0
 30
0.0
  0
LINE
  5
291
330
1F
100
AcDbEntity
  8
LC-004-001-----0
 62
     7
370
    50
100
AcDbLine
 10
429.116866
 20
289.409933
 30
0.0
 11
498.608185
 21
289.496685
 31
0.0
  0
INSERT
  5
2E6
330
1F
100
AcDbEntity
  8
LC-003-005-----0
 62
     7
370
    25
100
AcDbBlockReference
  2
*X1115
 10
0.0
 20
0.0
 30
0.0
  0
LINE
  5
2E7
330
1F
100
AcDbEntity
  8
LC-002-002-----0
  6
DASHDOT
 62
     7
370
    25
100
AcDbLine
 10
498.608185
 20
324.159684
 30
0.0
 11
493.545289
 21
324.159684
 31
0.0
  0
DIMENSION
  5
2E8
330
1F
100
AcDbEntity
  8
LC-005-003-----0
 62
     7
370
    25
100
AcDbDimension
  2
*D16
 10
581.338325
 20
324.159684
 30
0.0
 11
550.538325
 21
359.37
 31
0.0
 70
   160
  1
80
 71
     5
 42
77.949046
 53
90.0
  3
LC-DIM-L-0140-02-02
100
AcDbAlignedDimension
 13
511.272989
 23
402.108731
 33
0.0
 14
498.608185
 24
324.159684
 34
0.0
 50
90.0
100
AcDbRotatedDimension
  0
DIMENSION
  5
2F5
330
1F
100
AcDbEntity
  8
LC-005-003-----0
 62
     7
370
    25
100
AcDbDimension
  2
*D17
 10
632.753836
 20
286.915892
 30
0.0
 11
601.953836
 21
320.166
 31
0.0
 70
   160
  1
DN70
 71
     5
 42
74.921797
 53
90.0
  3
LC-DIM-L-0140-02-02
100
AcDbAlignedDimension
 13
586.596249
 23
361.837689
 33
0.0
 14
495.63118
 24
286.915892
 34
0.0
 50
90.0
100
AcDbRotatedDimension
  0
LINE
  5
302
330
1F
100
AcDbEntity
  8
LC-002-002-----0
 62
     7
370
    25
100
AcDbLine
 10
577.281687
 20
361.837689
 30
0.0
 11
586.596249
 21
361.837689
 31
0.0
  0
DIMENSION
  5
303
330
1F
100
AcDbEntity
  8
LC-005-003-----0
 62
     7
370
    25
100
AcDbDimension
  2
*D18
 10
196.0
 20
308.865318
 30
0.0
 11
165.2
 21
446.688
 31
0.0
 70
   160
  1
DN50
 71
     5
 42
51.498762
 53
90.0
  3
LC-DIM-L-0140-02-02
100
AcDbAlignedDimension
 13
223.170079
 23
360.36408
 33
0.0
 14
223.164936
 24
308.865318
 34
0.0
 50
90.0
100
AcDbRotatedDimension
  0
LINE
  5
311
330
1F
100
AcDbEntity
  8
LC-002-002-----0
 62
     7
370
    50
100
AcDbLine
 10
283.241183
 20
378.310867
 30
0.0
 11
437.975248
 21
378.310867
 31
0.0
  0
CIRCLE
  5
312
330
1F
100
AcDbEntity
  8
LC-001-020-----0
 62
     7
370
    50
100
AcDbCircle
 10
294.032592
 20
365.385332
 30
0.0
 40
2.422713426575327
  0
INSERT
  5
31A
330
1F
100
AcDbEntity
  8
LC-003-005-----0
 62
     7
370
    25
100
AcDbBlockReference
  2
*X1219
 10
0.0
 20
0.0
 30
0.0
  0
INSERT
  5
328
330
1F
100
AcDbEntity
  8
LC-003-005-----0
 62
     7
370
    25
100
AcDbBlockReference
  2
*X1320
 10
0.0
 20
0.0
 30
0.0
  0
INSERT
  5
336
330
1F
100
AcDbEntity
  8
LC-003-005-----0
 62
     7
370
    25
100
AcDbBlockReference
  2
*X1421
 10
0.0
 20
0.0
 30
0.0
  0
INSERT
  5
368
330
1F
100
AcDbEntity
  8
LC-003-005-----0
 62
     7
370
    25
100
AcDbBlockReference
  2
*X1522
 10
0.0
 20
0.0
 30
0.0
  0
ARC
  5
369
330
1F
100
AcDbEntity
  8
LC-002-002-----0
 62
     7
370
    50
100
AcDbCircle
 10
248.69866
 20
334.614905
 30
0.0
 40
48.66623967793336
100
AcDbArc
 50
333.124075
 51
26.875773
  0
LINE
  5
36A
102
{ACAD_REACTORS
330
551
102
}
330
1F
100
AcDbEntity
  8
LC-002-002-----0
 62
     7
370
    50
100
AcDbLine
 10
452.358305
 20
398.980657
 30
0.0
 11
433.608305
 21
397.669529
 31
0.0
  0
LINE
  5
36B
102
{ACAD_REACTORS
330
551
102
}
330
1F
100
AcDbEntity
  8
LC-002-002-----0
 62
     7
370
    50
100
AcDbLine
 10
271.60852
 20
396.282238
 30
0.0
 11
281.608305
 21
395.582985
 31
0.0
  0
LINE
  5
36C
102
{ACAD_REACTORS
330
551
102
}
330
1F
100
AcDbEntity
  8
LC-002-002-----0
 62
     7
370
    50
100
AcDbLine
 10
452.358305
 20
398.980657
 30
0.0
 11
360.608305
 21
398.980657
 31
0.0
  0
LINE
  5
36D
102
{ACAD_REACTORS
330
551
102
}
330
1F
100
AcDbEntity
  8
LC-002-002-----0
 62
     7
370
    50
100
AcDbLine
 10
429.854965
 20
378.981059
 30
0.0
 11
429.854965
 21
381.981059
 31
0.0
  0
LINE
  5
36E
102
{ACAD_REACTORS
330
551
102
}
330
1F
100
AcDbEntity
  8
LC-002-002-----0
 62
     7
370
    50
100
AcDbLine
 10
424.195584
 20
378.981059
 30
0.0
 11
424.195584
 21
381.981059
 31
0.0
  0
LINE
  5
36F
102
{ACAD_REACTORS
330
551
102
}
330
1F
100
AcDbEntity
  8
LC-002-002-----0
 62
     7
370
    50
100
AcDbLine
 10
417.37616
 20
378.981059
 30
0.0
 11
417.37616
 21
381.981059
 31
0.0
  0
LINE
  5
370
102
{ACAD_REACTORS
330
551
102
}
330
1F
100
AcDbEntity
  8
LC-002-002-----0
 62
     7
370
    50
100
AcDbLine
 10
401.650565
 20
378.981059
 30
0.0
 11
401.650565
 21
381.981059
 31
0.0
  0
LINE
  5
371
102
{ACAD_REACTORS
330
551
102
}
330
1F
100
AcDbEntity
  8
LC-002-002-----0
 62
     7
370
    50
100
AcDbLine
 10
423.426236
 20
397.669529
 30
0.0
 11
422.676236
 21
396.919529
 31
0.0
  0
LINE
  5
372
102
{ACAD_REACTORS
330
551
102
}
330
1F
100
AcDbEntity
  8
LC-002-002-----0
 62
     7
370
    50
100
AcDbLine
 10
422.676236
 20
396.919529
 30
0.0
 11
422.676236
 21
381.981059
 31
0.0
  0
LINE
  5
373
102
{ACAD_REACTORS
330
551
102
}
330
1F
100
AcDbEntity
  8
LC-002-002-----0
 62
     7
370
    50
100
AcDbLine
 10
268.858305
 20
398.980657
 30
0.0
 11
360.608305
 21
398.980657
 31
0.0
  0
LINE
  5
374
102
{ACAD_REACTORS
330
551
102
}
330
1F
100
AcDbEntity
  8
LC-002-002-----0
 62
     7
370
    50
100
AcDbLine
 10
422.676236
 20
396.919529
 30
0.0
 11
428.220544
 21
396.919529
 31
0.0
  0
LINE
  5
375
102
{ACAD_REACTORS
330
551
102
}
330
1F
100
AcDbEntity
  8
LC-002-002-----0
 62
     7
370
    50
100
AcDbLine
 10
428.220544
 20
396.919529
 30
0.0
 11
428.220544
 21
381.981059
 31
0.0
  0
LINE
  5
376
102
{ACAD_REACTORS
330
551
102
}
330
1F
100
AcDbEntity
  8
LC-002-002-----0
 62
     7
370
    50
100
AcDbLine
 10
433.608305
 20
397.669529
 30
0.0
 11
432.858305
 21
396.919529
 31
0.0
  0
LINE
  5
377
102
{ACAD_REACTORS
330
551
102
}
330
1F
100
AcDbEntity
  8
LC-002-002-----0
 62
     7
370
    50
100
AcDbLine
 10
427.874666
 20
397.669529
 30
0.0
 11
428.220544
 21
396.919529
 31
0.0
  0
LINE
  5
378
102
{ACAD_REACTORS
330
551
102
}
330
1F
100
AcDbEntity
  8
LC-002-002-----0
 62
     7
370
    50
100
AcDbLine
 10
404.91801
 20
378.981059
 30
0.0
 11
404.91801
 21
381.981059
 31
0.0
  0
LINE
  5
379
102
{ACAD_REACTORS
330
551
102
}
330
1F
100
AcDbEntity
  8
LC-002-002-----0
 62
     7
370
    50
100
AcDbLine
 10
389.285165
 20
378.981059
 30
0.0
 11
389.285165
 21
381.981059
 31
0.0
  0
LINE
  5
37A
102
{ACAD_REACTORS
330
551
102
}
330
1F
100
AcDbEntity
  8
LC-002-002-----0
 62
     7
370
    50
100
AcDbLine
 10
430.108305
 20
378.981059
 30
0.0
 11
430.108305
 21
381.981059
 31
0.0
  0
LINE
  5
37B
102
{ACAD_REACTORS
330
551
102
}
330
1F
100
AcDbEntity
  8
LC-002-002-----0
 62
     7
370
    50
100
AcDbLine
 10
432.858305
 20
381.981059
 30
0.0
 11
432.858305
 21
396.919529
 31
0.0
  0
LINE
  5
37C
102
{ACAD_REACTORS
330
551
102
}
330
1F
100
AcDbEntity
  8
LC-002-002-----0
 62
     7
370
    50
100
AcDbLine
 10
368.108305
 20
378.981059
 30
0.0
 11
368.108305
 21
381.981059
 31
0.0
  0
LINE
  5
37D
102
{ACAD_REACTORS
330
551
102
}
330
1F
100
AcDbEntity
  8
LC-002-002-----0
 62
     7
370
    50
100
AcDbLine
 10
395.608305
 20
397.669529
 30
0.0
 11
394.858305
 21
396.919529
 31
0.0
  0
LINE
  5
37E
102
{ACAD_REACTORS
330
551
102
}
330
1F
100
AcDbEntity
  8
LC-002-002-----0
 62
     7
370
    50
100
AcDbLine
 10
394.858305
 20
396.919529
 30
0.0
 11
394.858305
 21
381.981059
 31
0.0
  0
LINE
  5
37F
102
{ACAD_REACTORS
330
551
102
}
330
1F
100
AcDbEntity
  8
LC-002-002-----0
 62
     7
370
    50
100
AcDbLine
 10
291.361645
 20
378.981059
 30
0.0
 11
291.361645
 21
381.981059
 31
0.0
  0
LINE
  5
380
102
{ACAD_REACTORS
330
551
102
}
330
1F
100
AcDbEntity
  8
LC-002-002-----0
 62
     7
370
    50
100
AcDbLine
 10
297.021026
 20
378.981059
 30
0.0
 11
297.021026
 21
381.981059
 31
0.0
  0
LINE
  5
381
102
{ACAD_REACTORS
330
551
102
}
330
1F
100
AcDbEntity
  8
LC-002-002-----0
 62
     7
370
    50
100
AcDbLine
 10
401.17627
 20
397.669529
 30
0.0
 11
401.808654
 21
396.919529
 31
0.0
  0
LINE
  5
382
102
{ACAD_REACTORS
330
551
102
}
330
1F
100
AcDbEntity
  8
LC-002-002-----0
 62
     7
370
    50
100
AcDbLine
 10
401.808654
 20
396.919529
 30
0.0
 11
401.808654
 21
381.981059
 31
0.0
  0
LINE
  5
383
102
{ACAD_REACTORS
330
551
102
}
330
1F
100
AcDbEntity
  8
LC-002-002-----0
 62
     7
370
    50
100
AcDbLine
 10
401.808654
 20
396.919529
 30
0.0
 11
394.858305
 21
396.919529
 31
0.0
  0
LINE
  5
384
102
{ACAD_REACTORS
330
551
102
}
330
1F
100
AcDbEntity
  8
LC-002-002-----0
 62
     7
370
    50
100
AcDbLine
 10
303.840451
 20
378.981059
 30
0.0
 11
303.840451
 21
381.981059
 31
0.0
  0
LINE
  5
385
102
{ACAD_REACTORS
330
551
102
}
330
1F
100
AcDbEntity
  8
LC-002-002-----0
 62
     7
370
    50
100
AcDbLine
 10
319.566045
 20
378.981059
 30
0.0
 11
319.566045
 21
381.981059
 31
0.0
  0
LINE
  5
386
102
{ACAD_REACTORS
330
551
102
}
330
1F
100
AcDbEntity
  8
LC-002-002-----0
 62
     7
370
    50
100
AcDbLine
 10
297.790374
 20
397.669529
 30
0.0
 11
298.540374
 21
396.919529
 31
0.0
  0
LINE
  5
387
102
{ACAD_REACTORS
330
551
102
}
330
1F
100
AcDbEntity
  8
LC-002-002-----0
 62
     7
370
    50
100
AcDbLine
 10
298.540374
 20
396.919529
 30
0.0
 11
298.540374
 21
381.981059
 31
0.0
  0
LINE
  5
388
102
{ACAD_REACTORS
330
551
102
}
330
1F
100
AcDbEntity
  8
LC-002-002-----0
 62
     7
370
    50
100
AcDbLine
 10
298.540374
 20
396.919529
 30
0.0
 11
292.996067
 21
396.919529
 31
0.0
  0
LINE
  5
389
102
{ACAD_REACTORS
330
551
102
}
330
1F
100
AcDbEntity
  8
LC-002-002-----0
 62
     7
370
    50
100
AcDbLine
 10
292.996067
 20
396.919529
 30
0.0
 11
292.996067
 21
381.981059
 31
0.0
  0
LINE
  5
38A
102
{ACAD_REACTORS
330
551
102
}
330
1F
100
AcDbEntity
  8
LC-002-002-----0
 62
     7
370
    50
100
AcDbLine
 10
287.608305
 20
397.669529
 30
0.0
 11
288.358305
 21
396.919529
 31
0.0
  0
LINE
  5
38B
102
{ACAD_REACTORS
330
551
102
}
330
1F
100
AcDbEntity
  8
LC-002-002-----0
 62
     7
370
    50
100
AcDbLine
 10
293.341944
 20
397.669529
 30
0.0
 11
292.996067
 21
396.919529
 31
0.0
  0
LINE
  5
38C
102
{ACAD_REACTORS
330
551
102
}
330
1F
100
AcDbEntity
  8
LC-002-002-----0
 62
     7
370
    50
100
AcDbLine
 10
316.2986
 20
378.981059
 30
0.0
 11
316.2986
 21
381.981059
 31
0.0
  0
LINE
  5
38D
102
{ACAD_REACTORS
330
551
102
}
330
1F
100
AcDbEntity
  8
LC-002-002-----0
 62
     7
370
    50
100
AcDbLine
 10
331.931445
 20
378.981059
 30
0.0
 11
331.931445
 21
381.981059
 31
0.0
  0
LINE
  5
38E
102
{ACAD_REACTORS
330
551
102
}
330
1F
100
AcDbEntity
  8
LC-002-002-----0
 62
     7
370
    50
100
AcDbLine
 10
291.108305
 20
378.981059
 30
0.0
 11
291.108305
 21
381.981059
 31
0.0
  0
LINE
  5
38F
102
{ACAD_REACTORS
330
551
102
}
330
1F
100
AcDbEntity
  8
LC-002-002-----0
 62
     7
370
    50
100
AcDbLine
 10
288.358305
 20
381.981059
 30
0.0
 11
288.358305
 21
396.919529
 31
0.0
  0
LINE
  5
390
102
{ACAD_REACTORS
330
551
102
}
330
1F
100
AcDbEntity
  8
LC-002-002-----0
 62
     7
370
    50
100
AcDbLine
 10
353.108305
 20
378.981059
 30
0.0
 11
353.108305
 21
381.981059
 31
0.0
  0
LINE
  5
391
102
{ACAD_REACTORS
330
551
102
}
330
1F
100
AcDbEntity
  8
LC-002-002-----0
 62
     7
370
    50
100
AcDbLine
 10
325.608305
 20
397.669529
 30
0.0
 11
326.358305
 21
396.919529
 31
0.0
  0
LINE
  5
392
102
{ACAD_REACTORS
330
551
102
}
330
1F
100
AcDbEntity
  8
LC-002-002-----0
 62
     7
370
    50
100
AcDbLine
 10
326.358305
 20
396.919529
 30
0.0
 11
326.358305
 21
381.981059
 31
0.0
  0
LINE
  5
393
102
{ACAD_REACTORS
330
551
102
}
330
1F
100
AcDbEntity
  8
LC-002-002-----0
 62
     7
370
    50
100
AcDbLine
 10
320.04034
 20
397.669529
 30
0.0
 11
319.407957
 21
396.919529
 31
0.0
  0
LINE
  5
394
102
{ACAD_REACTORS
330
551
102
}
330
1F
100
AcDbEntity
  8
LC-002-002-----0
 62
     7
370
    50
100
AcDbLine
 10
319.407957
 20
396.919529
 30
0.0
 11
319.407957
 21
381.981059
 31
0.0
  0
LINE
  5
395
102
{ACAD_REACTORS
330
551
102
}
330
1F
100
AcDbEntity
  8
LC-002-002-----0
 62
     7
370
    50
100
AcDbLine
 10
319.407957
 20
396.919529
 30
0.0
 11
326.358305
 21
396.919529
 31
0.0
  0
LINE
  5
396
102
{ACAD_REACTORS
330
551
102
}
330
1F
100
AcDbEntity
  8
LC-002-002-----0
 62
     7
370
    50
100
AcDbLine
 10
357.60889
 20
397.669529
 30
0.0
 11
356.859447
 21
396.919529
 31
0.0
  0
LINE
  5
397
102
{ACAD_REACTORS
330
551
102
}
330
1F
100
AcDbEntity
  8
LC-002-002-----0
 62
     7
370
    50
100
AcDbLine
 10
356.859447
 20
396.919529
 30
0.0
 11
356.859447
 21
381.981059
 31
0.0
  0
LINE
  5
398
102
{ACAD_REACTORS
330
551
102
}
330
1F
100
AcDbEntity
  8
LC-002-002-----0
 62
     7
370
    50
100
AcDbLine
 10
356.859447
 20
396.919529
 30
0.0
 11
360.608305
 21
396.919529
 31
0.0
  0
ARC
  5
399
102
{ACAD_REACTORS
330
551
102
}
330
1F
100
AcDbEntity
  8
LC-006-002-RND-0
 62
     7
370
    50
100
AcDbCircle
 10
438.608305
 20
379.981059
 30
0.0
 40
1.0
100
AcDbArc
 50
270.0
 51
0.0
  0
LINE
  5
39A
102
{ACAD_REACTORS
330
551
102
}
330
1F
100
AcDbEntity
  8
LC-002-002-----0
 62
     7
370
    50
100
AcDbLine
 10
268.858305
 20
398.980657
 30
0.0
 11
269.858305
 21
391.981059
 31
0.0
  0
LINE
  5
39B
102
{ACAD_REACTORS
330
551
102
}
330
1F
100
AcDbEntity
  8
LC-002-002-----0
 62
     7
370
    50
100
AcDbLine
 10
271.03117
 20
391.981059
 30
0.0
 11
269.858305
 21
391.981059
 31
0.0
  0
LINE
  5
39C
102
{ACAD_REACTORS
330
551
102
}
330
1F
100
AcDbEntity
  8
LC-002-002-----0
 62
     7
370
    50
100
AcDbLine
 10
271.60852
 20
392.981059
 30
0.0
 11
271.03117
 21
391.981059
 31
0.0
  0
LINE
  5
39D
102
{ACAD_REACTORS
330
551
102
}
330
1F
100
AcDbEntity
  8
LC-002-002-----0
 62
     7
370
    50
100
AcDbLine
 10
360.608305
 20
381.981059
 30
0.0
 11
353.108305
 21
381.981059
 31
0.0
  0
LINE
  5
39E
102
{ACAD_REACTORS
330
551
102
}
330
1F
100
AcDbEntity
  8
LC-002-002-----0
 62
     7
370
    50
100
AcDbLine
 10
363.607721
 20
397.669529
 30
0.0
 11
364.357164
 21
396.919529
 31
0.0
  0
LINE
  5
39F
102
{ACAD_REACTORS
330
551
102
}
330
1F
100
AcDbEntity
  8
LC-002-002-----0
 62
     7
370
    50
100
AcDbLine
 10
364.357164
 20
396.919529
 30
0.0
 11
364.357164
 21
381.981059
 31
0.0
  0
LINE
  5
3A0
102
{ACAD_REACTORS
330
551
102
}
330
1F
100
AcDbEntity
  8
LC-002-002-----0
 62
     7
370
    50
100
AcDbLine
 10
271.60852
 20
392.981059
 30
0.0
 11
271.60852
 21
396.282238
 31
0.0
  0
LINE
  5
3A1
102
{ACAD_REACTORS
330
551
102
}
330
1F
100
AcDbEntity
  8
LC-002-002-----0
 62
     7
370
    50
100
AcDbLine
 10
364.357164
 20
396.919529
 30
0.0
 11
360.608305
 21
396.919529
 31
0.0
  0
ARC
  5
3A2
102
{ACAD_REACTORS
330
551
102
}
330
1F
100
AcDbEntity
  8
LC-006-002-RND-0
 62
     7
370
    50
100
AcDbCircle
 10
282.608305
 20
379.981059
 30
0.0
 40
1.0
100
AcDbArc
 50
180.0
 51
270.0
  0
LINE
  5
3A3
102
{ACAD_REACTORS
330
551
102
}
330
1F
100
AcDbEntity
  8
LC-002-002-----0
 62
     7
370
    50
100
AcDbLine
 10
282.608305
 20
378.981059
 30
0.0
 11
360.608305
 21
378.981059
 31
0.0
  0
LINE
  5
3A4
102
{ACAD_REACTORS
330
551
102
}
330
1F
100
AcDbEntity
  8
LC-002-002-----0
 62
     7
370
    50
100
AcDbLine
 10
449.60809
 20
392.981059
 30
0.0
 11
450.185441
 21
391.981059
 31
0.0
  0
LINE
  5
3A5
102
{ACAD_REACTORS
330
551
102
}
330
1F
100
AcDbEntity
  8
LC-002-002-----0
 62
     7
370
    50
100
AcDbLine
 10
281.608305
 20
379.981059
 30
0.0
 11
281.608305
 21
395.582985
 31
0.0
  0
LINE
  5
3A6
102
{ACAD_REACTORS
330
551
102
}
330
1F
100
AcDbEntity
  8
LC-002-002-----0
 62
     7
370
    50
100
AcDbLine
 10
360.608305
 20
381.981059
 30
0.0
 11
368.108305
 21
381.981059
 31
0.0
  0
LINE
  5
3A7
102
{ACAD_REACTORS
330
551
102
}
330
1F
100
AcDbEntity
  8
LC-002-002-----0
 62
     7
370
    50
100
AcDbLine
 10
449.60809
 20
392.981059
 30
0.0
 11
449.60809
 21
396.282238
 31
0.0
  0
LINE
  5
3A8
102
{ACAD_REACTORS
330
551
102
}
330
1F
100
AcDbEntity
  8
LC-002-002-----0
 62
     7
370
    50
100
AcDbLine
 10
438.608305
 20
378.981059
 30
0.0
 11
430.108305
 21
378.981059
 31
0.0
  0
LINE
  5
3A9
102
{ACAD_REACTORS
330
551
102
}
330
1F
100
AcDbEntity
  8
LC-002-002-----0
 62
     7
370
    50
100
AcDbLine
 10
439.608305
 20
379.981059
 30
0.0
 11
439.608305
 21
395.582985
 31
0.0
  0
LINE
  5
3AA
102
{ACAD_REACTORS
330
551
102
}
330
1F
100
AcDbEntity
  8
LC-002-002-----0
 62
     7
370
    50
100
AcDbLine
 10
450.185441
 20
391.981059
 30
0.0
 11
451.358305
 21
391.981059
 31
0.0
  0
LINE
  5
3AB
102
{ACAD_REACTORS
330
551
102
}
330
1F
100
AcDbEntity
  8
LC-002-002-----0
 62
     7
370
    50
100
AcDbLine
 10
430.108305
 20
378.981059
 30
0.0
 11
360.608305
 21
378.981059
 31
0.0
  0
LINE
  5
3AC
102
{ACAD_REACTORS
330
551
102
}
330
1F
100
AcDbEntity
  8
LC-002-002-----0
 62
     7
370
    50
100
AcDbLine
 10
430.108305
 20
381.981059
 30
0.0
 11
432.858305
 21
381.981059
 31
0.0
  0
LINE
  5
3AD
102
{ACAD_REACTORS
330
551
102
}
330
1F
100
AcDbEntity
  8
LC-002-002-----0
 62
     7
370
    50
100
AcDbLine
 10
417.37616
 20
381.981059
 30
0.0
 11
430.108305
 21
381.981059
 31
0.0
  0
LINE
  5
3AE
102
{ACAD_REACTORS
330
551
102
}
330
1F
100
AcDbEntity
  8
LC-002-002-----0
 62
     7
370
    50
100
AcDbLine
 10
389.285165
 20
381.981059
 30
0.0
 11
404.91801
 21
381.981059
 31
0.0
  0
LINE
  5
3AF
102
{ACAD_REACTORS
330
551
102
}
330
1F
100
AcDbEntity
  8
LC-002-002-----0
 62
     7
370
    50
100
AcDbLine
 10
331.931445
 20
381.981059
 30
0.0
 11
316.2986
 21
381.981059
 31
0.0
  0
LINE
  5
3B0
102
{ACAD_REACTORS
330
551
102
}
330
1F
100
AcDbEntity
  8
LC-002-002-----0
 62
     7
370
    50
100
AcDbLine
 10
449.60809
 20
396.282238
 30
0.0
 11
439.608305
 21
395.582985
 31
0.0
  0
LINE
  5
3B1
102
{ACAD_REACTORS
330
551
102
}
330
1F
100
AcDbEntity
  8
LC-002-002-----0
 62
     7
370
    50
100
AcDbLine
 10
303.840451
 20
381.981059
 30
0.0
 11
288.358305
 21
381.981059
 31
0.0
  0
LINE
  5
3B2
102
{ACAD_REACTORS
330
551
102
}
330
1F
100
AcDbEntity
  8
LC-002-002-----0
 62
     7
370
    50
100
AcDbLine
 10
433.608305
 20
397.669529
 30
0.0
 11
287.608305
 21
397.669529
 31
0.0
  0
LINE
  5
3B3
102
{ACAD_REACTORS
330
551
102
}
330
1F
100
AcDbEntity
  8
LC-002-002-----0
 62
     7
370
    50
100
AcDbLine
 10
452.358305
 20
398.980657
 30
0.0
 11
451.358305
 21
391.981059
 31
0.0
  0
LINE
  5
3B4
102
{ACAD_REACTORS
330
551
102
}
330
1F
100
AcDbEntity
  8
LC-002-002-----0
 62
     7
370
    50
100
AcDbLine
 10
268.858305
 20
398.980657
 30
0.0
 11
287.608305
 21
397.669529
 31
0.0
  0
INSERT
  5
3C6
102
{ACAD_REACTORS
330
551
102
}
330
1F
100
AcDbEntity
  8
LC-003-005-----0
 62
     7
370
    25
100
AcDbBlockReference
  2
*X1623
 10
0.0
 20
0.0
 30
0.0
  0
INSERT
  5
3DB
102
{ACAD_REACTORS
330
551
102
}
330
1F
100
AcDbEntity
  8
LC-003-005-----0
 62
     7
370
    25
100
AcDbBlockReference
  2
*X1724
 10
0.0
 20
0.0
 30
0.0
  0
DIMENSION
  5
3DC
330
1F
100
AcDbEntity
  8
LC-005-003-----0
 62
     7
370
    25
100
AcDbDimension
  2
*D25
 10
454.809585
 20
431.2
 30
0.0
 11
360.608216
 21
462.0
 31
0.0
 70
   160
  1
%%c190
 71
     5
 42
188.402738
  3
LC-DIM-L-0140-02-02
100
AcDbAlignedDimension
 13
266.406847
 23
391.334293
 33
0.0
 14
454.809585
 24
391.334293
 34
0.0
100
AcDbRotatedDimension
  0
LINE
  5
3E9
330
1F
100
AcDbEntity
  8
LC-002-002-----0
  6
DASHDOT
 62
     7
370
    25
100
AcDbLine
 10
498.608185
 20
324.159684
 30
0.0
 11
424.11599
 21
324.159684
 31
0.0
  0
LINE
  5
3EA
330
1F
100
AcDbEntity
  8
LC-002-002-----0
 62
     7
370
    50
100
AcDbLine
 10
223.164936
 20
365.614848
 30
0.0
 11
221.164936
 21
365.614848
 31
0.0
  0
LINE
  5
3EB
330
1F
100
AcDbEntity
  8
LC-002-002-----0
 62
     7
370
    50
100
AcDbLine
 10
221.164936
 20
365.614848
 30
0.0
 11
221.164936
 21
303.614848
 31
0.0
  0
LINE
  5
3EC
330
1F
100
AcDbEntity
  8
LC-002-002-----0
 62
     7
370
    50
100
AcDbLine
 10
221.164936
 20
303.614848
 30
0.0
 11
223.164936
 21
303.614848
 31
0.0
  0
LINE
  5
3ED
330
1F
100
AcDbEntity
  8
LC-002-002-----0
 62
     7
370
    50
100
AcDbLine
 10
221.164936
 20
311.614848
 30
0.0
 11
245.164936
 21
311.614848
 31
0.0
  0
LINE
  5
3EE
330
1F
100
AcDbEntity
  8
LC-002-002-----0
 62
     7
370
    50
100
AcDbLine
 10
246.164936
 20
312.614848
 30
0.0
 11
246.164936
 21
356.614848
 31
0.0
  0
ARC
  5
3EF
330
1F
100
AcDbEntity
  8
LC-006-002-RND-0
 62
     7
370
    50
100
AcDbCircle
 10
245.164936
 20
356.614848
 30
0.0
 40
1.0
100
AcDbArc
 50
0.0
 51
90.0
  0
LINE
  5
3F0
330
1F
100
AcDbEntity
  8
LC-002-002-----0
 62
     7
370
    50
100
AcDbLine
 10
245.164936
 20
357.614848
 30
0.0
 11
221.164936
 21
357.614848
 31
0.0
  0
LINE
  5
3F1
330
1F
100
AcDbEntity
  8
LC-002-002-----0
 62
     7
370
    50
100
AcDbLine
 10
248.164936
 20
310.418695
 30
0.0
 11
248.164936
 21
358.811
 31
0.0
  0
LINE
  5
3F2
330
1F
100
AcDbEntity
  8
LC-002-002-----0
 62
     7
370
    50
100
AcDbLine
 10
248.164936
 20
358.811
 30
0.0
 11
245.164936
 21
359.614848
 31
0.0
  0
LINE
  5
3F3
330
1F
100
AcDbEntity
  8
LC-002-002-----0
 62
     7
370
    50
100
AcDbLine
 10
248.164936
 20
310.418695
 30
0.0
 11
245.164936
 21
309.614848
 31
0.0
  0
LINE
  5
3F4
330
1F
100
AcDbEntity
  8
LC-002-002-----0
 62
     7
370
    50
100
AcDbLine
 10
223.164936
 20
309.614848
 30
0.0
 11
245.164936
 21
309.614848
 31
0.0
  0
LINE
  5
3F5
330
1F
100
AcDbEntity
  8
LC-002-002-----0
 62
     7
370
    50
100
AcDbLine
 10
245.164936
 20
359.614848
 30
0.0
 11
223.164936
 21
359.614848
 31
0.0
  0
INSERT
  5
420
330
1F
100
AcDbEntity
  8
LC-003-005-----0
 62
     7
370
    25
100
AcDbBlockReference
  2
*X1826
 10
0.0
 20
0.0
 30
0.0
  0
ARC
  5
421
330
1F
100
AcDbEntity
  8
LC-006-002-RND-0
 62
     7
370
    50
100
AcDbCircle
 10
245.164936
 20
312.614848
 30
0.0
 40
1.0
100
AcDbArc
 50
270.0
 51
0.0
  0
LINE
  5
422
102
{ACAD_REACTORS
330
523
102
}
330
1F
100
AcDbEntity
  8
LC-002-002-----0
 62
     7
370
    50
100
AcDbLine
 10
460.108185
 20
263.458211
 30
0.0
 11
528.108185
 21
263.458211
 31
0.0
  0
LINE
  5
423
102
{ACAD_REACTORS
330
523
102
}
330
1F
100
AcDbEntity
  8
LC-002-002-----0
 62
     7
370
    50
100
AcDbLine
 10
461.608185
 20
266.158211
 30
0.0
 11
532.608185
 21
266.158211
 31
0.0
  0
LINE
  5
424
102
{ACAD_REACTORS
330
523
102
}
330
1F
100
AcDbEntity
  8
LC-002-002-----0
 62
     7
370
    50
100
AcDbLine
 10
458.608185
 20
264.958211
 30
0.0
 11
458.608185
 21
279.958211
 31
0.0
  0
LINE
  5
425
102
{ACAD_REACTORS
330
523
102
}
330
1F
100
AcDbEntity
  8
LC-002-002-----0
 62
     7
370
    50
100
AcDbLine
 10
460.108185
 20
373.458211
 30
0.0
 11
528.108185
 21
373.458211
 31
0.0
  0
LINE
  5
426
102
{ACAD_REACTORS
330
523
102
}
330
1F
100
AcDbEntity
  8
LC-002-002-----0
 62
     7
370
    50
100
AcDbLine
 10
532.608185
 20
264.663983
 30
0.0
 11
532.608185
 21
372.25244
 31
0.0
  0
LINE
  5
427
102
{ACAD_REACTORS
330
523
102
}
330
1F
100
AcDbEntity
  8
LC-002-002-----0
 62
     7
370
    50
100
AcDbLine
 10
528.108185
 20
263.458211
 30
0.0
 11
532.608185
 21
264.663983
 31
0.0
  0
LINE
  5
428
102
{ACAD_REACTORS
330
523
102
}
330
1F
100
AcDbEntity
  8
LC-002-002-----0
 62
     7
370
    50
100
AcDbLine
 10
528.108185
 20
373.458211
 30
0.0
 11
532.608185
 21
372.25244
 31
0.0
  0
LINE
  5
429
102
{ACAD_REACTORS
330
523
102
}
330
1F
100
AcDbEntity
  8
LC-002-002-----0
 62
     7
370
    50
100
AcDbLine
 10
461.608185
 20
370.758211
 30
0.0
 11
532.608185
 21
370.758211
 31
0.0
  0
LINE
  5
42A
102
{ACAD_REACTORS
330
523
102
}
330
1F
100
AcDbEntity
  8
LC-002-002-----0
 62
     7
370
    50
100
AcDbLine
 10
461.608185
 20
266.158211
 30
0.0
 11
461.608185
 21
284.758211
 31
0.0
  0
LINE
  5
42B
102
{ACAD_REACTORS
330
523
102
}
330
1F
100
AcDbEntity
  8
LC-002-002-----0
 62
     7
370
    50
100
AcDbLine
 10
443.608185
 20
284.758211
 30
0.0
 11
443.608185
 21
286.758211
 31
0.0
  0
LINE
  5
42C
102
{ACAD_REACTORS
330
523
102
}
330
1F
100
AcDbEntity
  8
LC-002-002-----0
 62
     7
370
    50
100
AcDbLine
 10
451.641197
 20
368.458211
 30
0.0
 11
458.108185
 21
368.458211
 31
0.0
  0
LINE
  5
42D
102
{ACAD_REACTORS
330
523
102
}
330
1F
100
AcDbEntity
  8
LC-002-002-----0
 62
     7
370
    50
100
AcDbLine
 10
451.641197
 20
280.458211
 30
0.0
 11
458.108185
 21
280.458211
 31
0.0
  0
LINE
  5
42E
102
{ACAD_REACTORS
330
523
102
}
330
1F
100
AcDbEntity
  8
LC-002-002-----0
 62
     7
370
    50
100
AcDbLine
 10
495.608185
 20
286.758211
 30
0.0
 11
459.708185
 21
286.758211
 31
0.0
  0
LINE
  5
42F
102
{ACAD_REACTORS
330
523
102
}
330
1F
100
AcDbEntity
  8
LC-002-002-----0
 62
     7
370
    50
100
AcDbLine
 10
495.608185
 20
362.158211
 30
0.0
 11
459.708185
 21
362.158211
 31
0.0
  0
LINE
  5
430
102
{ACAD_REACTORS
330
523
102
}
330
1F
100
AcDbEntity
  8
LC-002-002-----0
 62
     7
370
    50
100
AcDbLine
 10
498.608185
 20
284.758211
 30
0.0
 11
498.608185
 21
364.158211
 31
0.0
  0
LINE
  5
431
102
{ACAD_REACTORS
330
523
102
}
330
1F
100
AcDbEntity
  8
LC-002-002-----0
 62
     7
370
    50
100
AcDbLine
 10
498.608185
 20
284.758211
 30
0.0
 11
461.608185
 21
284.758211
 31
0.0
  0
LINE
  5
432
102
{ACAD_REACTORS
330
523
102
}
330
1F
100
AcDbEntity
  8
LC-002-002-----0
 62
     7
370
    50
100
AcDbLine
 10
498.608185
 20
364.158211
 30
0.0
 11
461.608185
 21
364.158211
 31
0.0
  0
LINE
  5
433
102
{ACAD_REACTORS
330
523
102
}
330
1F
100
AcDbEntity
  8
LC-002-002-----0
 62
     7
370
    50
100
AcDbLine
 10
461.608185
 20
364.158211
 30
0.0
 11
461.608185
 21
370.758211
 31
0.0
  0
LINE
  5
434
102
{ACAD_REACTORS
330
523
102
}
330
1F
100
AcDbEntity
  8
LC-002-002-----0
 62
     7
370
    50
100
AcDbLine
 10
458.608185
 20
368.958211
 30
0.0
 11
458.608185
 21
371.958211
 31
0.0
  0
LINE
  5
435
102
{ACAD_REACTORS
330
523
102
}
330
1F
100
AcDbEntity
  8
LC-002-002-----0
 62
     7
370
    50
100
AcDbLine
 10
446.84919
 20
284.758211
 30
0.0
 11
443.608185
 21
284.758211
 31
0.0
  0
LINE
  5
436
102
{ACAD_REACTORS
330
523
102
}
330
1F
100
AcDbEntity
  8
LC-002-002-----0
 62
     7
370
    50
100
AcDbLine
 10
446.84919
 20
364.158211
 30
0.0
 11
443.608185
 21
364.158211
 31
0.0
  0
LINE
  5
437
102
{ACAD_REACTORS
330
523
102
}
330
1F
100
AcDbEntity
  8
LC-002-002-----0
 62
     7
370
    50
100
AcDbLine
 10
459.708185
 20
282.208211
 30
0.0
 11
451.208185
 21
282.208211
 31
0.0
  0
LINE
  5
438
102
{ACAD_REACTORS
330
523
102
}
330
1F
100
AcDbEntity
  8
LC-002-002-----0
 62
     7
370
    50
100
AcDbLine
 10
459.708185
 20
366.708211
 30
0.0
 11
451.208185
 21
366.708211
 31
0.0
  0
LINE
  5
439
102
{ACAD_REACTORS
330
523
102
}
330
1F
100
AcDbEntity
  8
LC-002-002-----0
 62
     7
370
    50
100
AcDbLine
 10
448.581241
 20
286.758211
 30
0.0
 11
443.608185
 21
286.758211
 31
0.0
  0
LINE
  5
43A
102
{ACAD_REACTORS
330
523
102
}
330
1F
100
AcDbEntity
  8
LC-002-002-----0
 62
     7
370
    50
100
AcDbLine
 10
448.581241
 20
362.158211
 30
0.0
 11
443.608185
 21
362.158211
 31
0.0
  0
LINE
  5
43B
102
{ACAD_REACTORS
330
523
102
}
330
1F
100
AcDbEntity
  8
LC-002-002-----0
 62
     7
370
    50
100
AcDbLine
 10
448.581241
 20
286.758211
 30
0.0
 11
451.208185
 21
282.208211
 31
0.0
  0
LINE
  5
43C
102
{ACAD_REACTORS
330
523
102
}
330
1F
100
AcDbEntity
  8
LC-002-002-----0
 62
     7
370
    50
100
AcDbLine
 10
448.581241
 20
362.158211
 30
0.0
 11
451.208185
 21
366.708211
 31
0.0
  0
LINE
  5
43D
102
{ACAD_REACTORS
330
523
102
}
330
1F
100
AcDbEntity
  8
LC-002-002-----0
 62
     7
370
    50
100
AcDbLine
 10
447.715216
 20
284.258211
 30
0.0
 11
449.043121
 21
281.958211
 31
0.0
  0
LINE
  5
43E
102
{ACAD_REACTORS
330
523
102
}
330
1F
100
AcDbEntity
  8
LC-002-002-----0
 62
     7
370
    50
100
AcDbLine
 10
447.715216
 20
364.658211
 30
0.0
 11
449.043121
 21
366.958211
 31
0.0
  0
LINE
  5
43F
102
{ACAD_REACTORS
330
523
102
}
330
1F
100
AcDbEntity
  8
LC-002-002-----0
 62
     7
370
    50
100
AcDbLine
 10
495.608185
 20
286.758211
 30
0.0
 11
498.608185
 21
287.562059
 31
0.0
  0
LINE
  5
440
102
{ACAD_REACTORS
330
523
102
}
330
1F
100
AcDbEntity
  8
LC-002-002-----0
 62
     7
370
    50
100
AcDbLine
 10
495.608185
 20
362.158211
 30
0.0
 11
498.608185
 21
361.354364
 31
0.0
  0
ARC
  5
441
102
{ACAD_REACTORS
330
523
102
}
330
1F
100
AcDbEntity
  8
LC-006-002-RND-0
 62
     7
370
    50
100
AcDbCircle
 10
458.108185
 20
279.958211
 30
0.0
 40
0.5
100
AcDbArc
 50
0.0
 51
90.0
  0
ARC
  5
442
102
{ACAD_REACTORS
330
523
102
}
330
1F
100
AcDbEntity
  8
LC-006-002-RND-0
 62
     7
370
    50
100
AcDbCircle
 10
458.108185
 20
368.958211
 30
0.0
 40
0.5
100
AcDbArc
 50
270.0
 51
0.0
  0
ARC
  5
443
102
{ACAD_REACTORS
330
523
102
}
330
1F
100
AcDbEntity
  8
LC-006-002-RND-0
 62
     7
370
    50
100
AcDbCircle
 10
446.84919
 20
283.758211
 30
0.0
 40
0.9999999999999836
100
AcDbArc
 50
30.0
 51
90.0
  0
ARC
  5
444
102
{ACAD_REACTORS
330
523
102
}
330
1F
100
AcDbEntity
  8
LC-006-002-RND-0
 62
     7
370
    50
100
AcDbCircle
 10
446.84919
 20
365.158211
 30
0.0
 40
1.0
100
AcDbArc
 50
270.0
 51
330.0
  0
ARC
  5
445
102
{ACAD_REACTORS
330
523
102
}
330
1F
100
AcDbEntity
  8
LC-006-002-RND-0
 62
     7
370
    50
100
AcDbCircle
 10
446.84919
 20
283.758211
 30
0.0
 40
0.9999999999999836
100
AcDbArc
 50
30.0
 51
90.0
  0
ARC
  5
446
102
{ACAD_REACTORS
330
523
102
}
330
1F
100
AcDbEntity
  8
LC-006-002-RND-0
 62
     7
370
    50
100
AcDbCircle
 10
451.641197
 20
283.458211
 30
0.0
 40
2.999999999999979
100
AcDbArc
 50
210.0
 51
270.0
  0
ARC
  5
447
102
{ACAD_REACTORS
330
523
102
}
330
1F
100
AcDbEntity
  8
LC-006-002-RND-0
 62
     7
370
    50
100
AcDbCircle
 10
451.641197
 20
365.458211
 30
0.0
 40
3.0
100
AcDbArc
 50
90.0
 51
150.0
  0
ARC
  5
448
102
{ACAD_REACTORS
330
523
102
}
330
1F
100
AcDbEntity
  8
LC-006-002-RND-0
 62
     7
370
    50
100
AcDbCircle
 10
460.108185
 20
264.958211
 30
0.0
 40
1.5
100
AcDbArc
 50
180.0
 51
270.0
  0
ARC
  5
449
102
{ACAD_REACTORS
330
523
102
}
330
1F
100
AcDbEntity
  8
LC-006-002-RND-0
 62
     7
370
    50
100
AcDbCircle
 10
460.108185
 20
371.958211
 30
0.0
 40
1.5
100
AcDbArc
 50
90.0
 51
180.0
  0
LINE
  5
44A
102
{ACAD_REACTORS
330
523
102
}
330
1F
100
AcDbEntity
  8
LC-002-002-----0
 62
     7
370
    50
100
AcDbLine
 10
459.708185
 20
282.208211
 30
0.0
 11
459.708185
 21
286.758211
 31
0.0
  0
LINE
  5
44D
102
{ACAD_REACTORS
330
523
102
}
330
1F
100
AcDbEntity
  8
LC-007-006-MLN-0
 62
     7
370
    25
100
AcDbLine
 10
542.608185
 20
318.458211
 30
0.0
 11
488.608185
 21
318.458211
 31
0.0
  0
INSERT
  5
4A1
102
{ACAD_REACTORS
330
523
102
}
330
1F
100
AcDbEntity
  8
LC-003-005-----0
 62
     7
370
    25
100
AcDbBlockReference
  2
*X1927
 10
0.0
 20
0.0
 30
0.0
  0
LINE
  5
4A2
102
{ACAD_REACTORS
330
523
102
}
330
1F
100
AcDbEntity
  8
LC-002-002-----0
 62
     7
370
    25
100
AcDbLine
 10
449.043121
 20
366.958211
 30
0.0
 11
449.909147
 21
368.458211
 31
0.0
  0
LINE
  5
4A3
102
{ACAD_REACTORS
330
523
102
}
330
1F
100
AcDbEntity
  8
LC-002-002-----0
 62
     7
370
    25
100
AcDbLine
 10
447.42654
 20
364.158211
 30
0.0
 11
446.84919
 21
364.158211
 31
0.0
  0
LINE
  5
4A4
102
{ACAD_REACTORS
330
523
102
}
330
1F
100
AcDbEntity
  8
LC-002-002-----0
 62
     7
370
    25
100
AcDbLine
 10
447.42654
 20
364.158211
 30
0.0
 11
447.715216
 21
364.658211
 31
0.0
  0
LINE
  5
4A5
102
{ACAD_REACTORS
330
523
102
}
330
1F
100
AcDbEntity
  8
LC-002-002-----0
 62
     7
370
    50
100
AcDbLine
 10
443.608185
 20
362.158211
 30
0.0
 11
443.608185
 21
364.158211
 31
0.0
  0
LINE
  5
4A6
102
{ACAD_REACTORS
330
523
102
}
330
1F
100
AcDbEntity
  8
LC-002-002-----0
 62
     7
370
    50
100
AcDbLine
 10
459.708185
 20
362.158211
 30
0.0
 11
459.708185
 21
366.708211
 31
0.0
  0
LINE
  5
4A8
102
{ACAD_REACTORS
330
526
102
}
330
1F
100
AcDbEntity
  8
LC-008-100-D00-0
 62
     7
370
    50
100
AcDbLine
 10
456.561089
 20
287.72215
 30
0.0
 11
453.519648
 21
285.966173
 31
0.0
  0
ARC
  5
4A9
102
{ACAD_REACTORS
330
526
102
}
330
1F
100
AcDbEntity
  8
LC-008-100-D00-0
 62
     7
370
    50
100
AcDbCircle
 10
453.999902
 20
284.795207
 30
0.0
 40
1.265625000000096
100
AcDbArc
 50
112.300266
 51
192.300266
  0
LINE
  5
4AA
102
{ACAD_REACTORS
330
526
102
}
330
1F
100
AcDbEntity
  8
LC-008-100-D00-0
 62
     7
370
    50
100
AcDbLine
 10
452.76333
 20
284.525584
 30
0.0
 11
453.269606
 21
283.134604
 31
0.0
  0
ARC
  5
4AB
102
{ACAD_REACTORS
330
526
102
}
330
1F
100
AcDbEntity
  8
LC-008-100-D00-0
 62
     7
370
    50
100
AcDbCircle
 10
453.983185
 20
283.394325
 30
0.0
 40
0.7593750000000842
100
AcDbArc
 50
200.0
 51
270.0
  0
LINE
  5
4AC
102
{ACAD_REACTORS
330
526
102
}
330
1F
100
AcDbEntity
  8
LC-008-100-D00-0
 62
     7
370
    50
100
AcDbLine
 10
453.983185
 20
282.63495
 30
0.0
 11
454.209366
 21
282.63495
 31
0.0
  0
LINE
  5
4AD
102
{ACAD_REACTORS
330
526
102
}
330
1F
100
AcDbEntity
  8
LC-008-100-D00-0
 62
     7
370
    50
100
AcDbLine
 10
454.209366
 20
282.63495
 30
0.0
 11
454.427867
 21
282.178096
 31
0.0
  0
ARC
  5
4AE
102
{ACAD_REACTORS
330
526
102
}
330
1F
100
AcDbEntity
  8
LC-008-100-D00-0
 62
     7
370
    50
100
AcDbCircle
 10
454.504679
 20
282.214832
 30
0.0
 40
0.085144671124813
100
AcDbArc
 50
205.560506
 51
334.439494
  0
LINE
  5
4AF
102
{ACAD_REACTORS
330
526
102
}
330
1F
100
AcDbEntity
  8
LC-008-100-D00-0
 62
     7
370
    50
100
AcDbLine
 10
454.58149
 20
282.178096
 30
0.0
 11
454.799991
 21
282.63495
 31
0.0
  0
LINE
  5
4B0
102
{ACAD_REACTORS
330
526
102
}
330
1F
100
AcDbEntity
  8
LC-008-100-D00-0
 62
     7
370
    50
100
AcDbLine
 10
454.799991
 20
282.63495
 30
0.0
 11
455.390616
 21
282.63495
 31
0.0
  0
LINE
  5
4B1
102
{ACAD_REACTORS
330
526
102
}
330
1F
100
AcDbEntity
  8
LC-008-100-D00-0
 62
     7
370
    50
100
AcDbLine
 10
455.390616
 20
282.63495
 30
0.0
 11
455.609812
 21
282.176644
 31
0.0
  0
ARC
  5
4B2
102
{ACAD_REACTORS
330
526
102
}
330
1F
100
AcDbEntity
  8
LC-008-100-D00-0
 62
     7
370
    50
100
AcDbCircle
 10
455.685929
 20
282.213049
 30
0.0
 40
0.0843749999999566
100
AcDbArc
 50
205.560506
 51
334.439494
  0
LINE
  5
4B3
102
{ACAD_REACTORS
330
526
102
}
330
1F
100
AcDbEntity
  8
LC-008-100-D00-0
 62
     7
370
    50
100
AcDbLine
 10
455.762046
 20
282.176644
 30
0.0
 11
455.981241
 21
282.63495
 31
0.0
  0
LINE
  5
4B4
102
{ACAD_REACTORS
330
526
102
}
330
1F
100
AcDbEntity
  8
LC-008-100-D00-0
 62
     7
370
    50
100
AcDbLine
 10
455.981241
 20
282.63495
 30
0.0
 11
456.571866
 21
282.63495
 31
0.0
  0
LINE
  5
4B5
102
{ACAD_REACTORS
330
526
102
}
330
1F
100
AcDbEntity
  8
LC-008-100-D00-0
 62
     7
370
    50
100
AcDbLine
 10
456.571866
 20
282.63495
 30
0.0
 11
456.791062
 21
282.176644
 31
0.0
  0
ARC
  5
4B6
102
{ACAD_REACTORS
330
526
102
}
330
1F
100
AcDbEntity
  8
LC-008-100-D00-0
 62
     7
370
    50
100
AcDbCircle
 10
456.867179
 20
282.213049
 30
0.0
 40
0.0843750000000636
100
AcDbArc
 50
205.560506
 51
334.439494
  0
LINE
  5
4B7
102
{ACAD_REACTORS
330
526
102
}
330
1F
100
AcDbEntity
  8
LC-008-100-D00-0
 62
     7
370
    50
100
AcDbLine
 10
456.943296
 20
282.176644
 30
0.0
 11
457.162491
 21
282.63495
 31
0.0
  0
LINE
  5
4B8
102
{ACAD_REACTORS
330
526
102
}
330
1F
100
AcDbEntity
  8
LC-008-100-D00-0
 62
     7
370
    50
100
AcDbLine
 10
457.162491
 20
282.63495
 30
0.0
 11
457.753116
 21
282.63495
 31
0.0
  0
LINE
  5
4B9
102
{ACAD_REACTORS
330
526
102
}
330
1F
100
AcDbEntity
  8
LC-008-100-D00-0
 62
     7
370
    50
100
AcDbLine
 10
457.753116
 20
282.63495
 30
0.0
 11
457.92316
 21
282.279413
 31
0.0
  0
ARC
  5
4BA
102
{ACAD_REACTORS
330
526
102
}
330
1F
100
AcDbEntity
  8
LC-008-100-D00-0
 62
     7
370
    50
100
AcDbCircle
 10
457.999277
 20
282.315818
 30
0.0
 40
0.0843750000000369
100
AcDbArc
 50
205.560506
 51
334.439494
  0
LINE
  5
4BB
102
{ACAD_REACTORS
330
526
102
}
330
1F
100
AcDbEntity
  8
LC-008-100-D00-0
 62
     7
370
    50
100
AcDbLine
 10
458.075394
 20
282.279413
 30
0.0
 11
458.245438
 21
282.63495
 31
0.0
  0
LINE
  5
4BC
102
{ACAD_REACTORS
330
526
102
}
330
1F
100
AcDbEntity
  8
LC-008-100-D00-0
 62
     7
370
    50
100
AcDbLine
 10
458.245438
 20
282.63495
 30
0.0
 11
458.447652
 21
282.63495
 31
0.0
  0
ARC
  5
4BD
102
{ACAD_REACTORS
330
526
102
}
330
1F
100
AcDbEntity
  8
LC-008-100-D00-0
 62
     7
370
    50
100
AcDbCircle
 10
458.447652
 20
283.394325
 30
0.0
 40
0.7593750000000341
100
AcDbArc
 50
270.0
 51
350.0
  0
LINE
  5
4BE
102
{ACAD_REACTORS
330
526
102
}
330
1F
100
AcDbEntity
  8
LC-008-100-D00-0
 62
     7
370
    50
100
AcDbLine
 10
459.19549
 20
283.262461
 30
0.0
 11
459.315527
 21
283.943226
 31
0.0
  0
LINE
  5
4BF
102
{ACAD_REACTORS
330
526
102
}
330
1F
100
AcDbEntity
  8
LC-008-100-D00-0
 62
     7
370
    50
100
AcDbLine
 10
459.315527
 20
283.943226
 30
0.0
 11
459.315527
 21
285.752583
 31
0.0
  0
ARC
  5
4C0
102
{ACAD_REACTORS
330
526
102
}
330
1F
100
AcDbEntity
  8
LC-008-100-D00-0
 62
     7
370
    50
100
AcDbCircle
 10
458.978027
 20
285.752583
 30
0.0
 40
0.337500000000091
100
AcDbArc
 50
0.0
 51
100.0
  0
LINE
  5
4C1
102
{ACAD_REACTORS
330
526
102
}
330
1F
100
AcDbEntity
  8
LC-008-100-D00-0
 62
     7
370
    50
100
AcDbLine
 10
458.919421
 20
286.084955
 30
0.0
 11
457.354045
 21
285.808937
 31
0.0
  0
ARC
  5
4C2
102
{ACAD_REACTORS
330
526
102
}
330
1F
100
AcDbEntity
  8
LC-008-100-D00-0
 62
     7
370
    50
100
AcDbCircle
 10
457.322511
 20
286.06009
 30
0.0
 40
0.2531250000000184
100
AcDbArc
 50
200.0
 51
277.156323
  0
LINE
  5
4C3
102
{ACAD_REACTORS
330
526
102
}
330
1F
100
AcDbEntity
  8
LC-008-100-D00-0
 62
     7
370
    50
100
AcDbLine
 10
457.084651
 20
285.973516
 30
0.0
 11
456.883552
 21
286.526033
 31
0.0
  0
ARC
  5
4C4
102
{ACAD_REACTORS
330
526
102
}
330
1F
100
AcDbEntity
  8
LC-008-100-D00-0
 62
     7
370
    50
100
AcDbCircle
 10
457.121411
 20
286.612607
 30
0.0
 40
0.2531250000000031
100
AcDbArc
 50
169.758785
 51
200.0
  0
LINE
  5
4C5
102
{ACAD_REACTORS
330
526
102
}
330
1F
100
AcDbEntity
  8
LC-008-100-D00-0
 62
     7
370
    50
100
AcDbLine
 10
456.872319
 20
286.657611
 30
0.0
 11
457.055839
 21
287.342515
 31
0.0
  0
ARC
  5
4C6
102
{ACAD_REACTORS
330
526
102
}
330
1F
100
AcDbEntity
  8
LC-008-100-D00-0
 62
     7
370
    50
100
AcDbCircle
 10
456.729839
 20
287.429866
 30
0.0
 40
0.3375000000001763
100
AcDbArc
 50
345.0
 51
120.0
  0
INSERT
  5
4D1
102
{ACAD_REACTORS
330
526
102
}
330
1F
100
AcDbEntity
  8
LC-008-100-D00-0
 62
     7
370
    25
100
AcDbBlockReference
  2
KLON1
 10
0.0
 20
0.0
 30
0.0
  0
LINE
  5
4D2
102
{ACAD_REACTORS
330
528
102
}
330
1F
100
AcDbEntity
  8
LC-008-100-D00-0
 62
     7
370
    50
100
AcDbLine
 10
456.561089
 20
361.194773
 30
0.0
 11
453.519648
 21
362.95075
 31
0.0
  0
ARC
  5
4D3
102
{ACAD_REACTORS
330
528
102
}
330
1F
100
AcDbEntity
  8
LC-008-100-D00-0
 62
     7
370
    50
100
AcDbCircle
 10
453.999902
 20
364.121716
 30
0.0
 40
1.265625000000102
100
AcDbArc
 50
167.699734
 51
247.699734
  0
LINE
  5
4D4
102
{ACAD_REACTORS
330
528
102
}
330
1F
100
AcDbEntity
  8
LC-008-100-D00-0
 62
     7
370
    50
100
AcDbLine
 10
452.76333
 20
364.391339
 30
0.0
 11
453.269606
 21
365.782319
 31
0.0
  0
ARC
  5
4D5
102
{ACAD_REACTORS
330
528
102
}
330
1F
100
AcDbEntity
  8
LC-008-100-D00-0
 62
     7
370
    50
100
AcDbCircle
 10
453.983185
 20
365.522598
 30
0.0
 40
0.759375000000091
100
AcDbArc
 50
90.0
 51
160.0
  0
LINE
  5
4D6
102
{ACAD_REACTORS
330
528
102
}
330
1F
100
AcDbEntity
  8
LC-008-100-D00-0
 62
     7
370
    50
100
AcDbLine
 10
453.983185
 20
366.281973
 30
0.0
 11
454.209366
 21
366.281973
 31
0.0
  0
LINE
  5
4D7
102
{ACAD_REACTORS
330
528
102
}
330
1F
100
AcDbEntity
  8
LC-008-100-D00-0
 62
     7
370
    50
100
AcDbLine
 10
454.209366
 20
366.281973
 30
0.0
 11
454.427867
 21
366.738827
 31
0.0
  0
ARC
  5
4D8
102
{ACAD_REACTORS
330
528
102
}
330
1F
100
AcDbEntity
  8
LC-008-100-D00-0
 62
     7
370
    50
100
AcDbCircle
 10
454.504679
 20
366.70209
 30
0.0
 40
0.085144671124813
100
AcDbArc
 50
25.560506
 51
154.439494
  0
LINE
  5
4D9
102
{ACAD_REACTORS
330
528
102
}
330
1F
100
AcDbEntity
  8
LC-008-100-D00-0
 62
     7
370
    50
100
AcDbLine
 10
454.58149
 20
366.738827
 30
0.0
 11
454.799991
 21
366.281973
 31
0.0
  0
LINE
  5
4DA
102
{ACAD_REACTORS
330
528
102
}
330
1F
100
AcDbEntity
  8
LC-008-100-D00-0
 62
     7
370
    50
100
AcDbLine
 10
454.799991
 20
366.281973
 30
0.0
 11
455.390616
 21
366.281973
 31
0.0
  0
LINE
  5
4DB
102
{ACAD_REACTORS
330
528
102
}
330
1F
100
AcDbEntity
  8
LC-008-100-D00-0
 62
     7
370
    50
100
AcDbLine
 10
455.390616
 20
366.281973
 30
0.0
 11
455.609812
 21
366.740279
 31
0.0
  0
ARC
  5
4DC
102
{ACAD_REACTORS
330
528
102
}
330
1F
100
AcDbEntity
  8
LC-008-100-D00-0
 62
     7
370
    50
100
AcDbCircle
 10
455.685929
 20
366.703874
 30
0.0
 40
0.0843749999999833
100
AcDbArc
 50
25.560506
 51
154.439494
  0
LINE
  5
4DD
102
{ACAD_REACTORS
330
528
102
}
330
1F
100
AcDbEntity
  8
LC-008-100-D00-0
 62
     7
370
    50
100
AcDbLine
 10
455.762046
 20
366.740279
 30
0.0
 11
455.981241
 21
366.281973
 31
0.0
  0
LINE
  5
4DE
102
{ACAD_REACTORS
330
528
102
}
330
1F
100
AcDbEntity
  8
LC-008-100-D00-0
 62
     7
370
    50
100
AcDbLine
 10
455.981241
 20
366.281973
 30
0.0
 11
456.571866
 21
366.281973
 31
0.0
  0
LINE
  5
4DF
102
{ACAD_REACTORS
330
528
102
}
330
1F
100
AcDbEntity
  8
LC-008-100-D00-0
 62
     7
370
    50
100
AcDbLine
 10
456.571866
 20
366.281973
 30
0.0
 11
456.791062
 21
366.740279
 31
0.0
  0
ARC
  5
4E0
102
{ACAD_REACTORS
330
528
102
}
330
1F
100
AcDbEntity
  8
LC-008-100-D00-0
 62
     7
370
    50
100
AcDbCircle
 10
456.867179
 20
366.703874
 30
0.0
 40
0.0843750000000324
100
AcDbArc
 50
25.560506
 51
154.439494
  0
LINE
  5
4E1
102
{ACAD_REACTORS
330
528
102
}
330
1F
100
AcDbEntity
  8
LC-008-100-D00-0
 62
     7
370
    50
100
AcDbLine
 10
456.943296
 20
366.740279
 30
0.0
 11
457.162491
 21
366.281973
 31
0.0
  0
LINE
  5
4E2
102
{ACAD_REACTORS
330
528
102
}
330
1F
100
AcDbEntity
  8
LC-008-100-D00-0
 62
     7
370
    50
100
AcDbLine
 10
457.162491
 20
366.281973
 30
0.0
 11
457.753116
 21
366.281973
 31
0.0
  0
LINE
  5
4E3
102
{ACAD_REACTORS
330
528
102
}
330
1F
100
AcDbEntity
  8
LC-008-100-D00-0
 62
     7
370
    50
100
AcDbLine
 10
457.753116
 20
366.281973
 30
0.0
 11
457.92316
 21
366.63751
 31
0.0
  0
ARC
  5
4E4
102
{ACAD_REACTORS
330
528
102
}
330
1F
100
AcDbEntity
  8
LC-008-100-D00-0
 62
     7
370
    50
100
AcDbCircle
 10
457.999277
 20
366.601105
 30
0.0
 40
0.0843750000000324
100
AcDbArc
 50
25.560506
 51
154.439494
  0
LINE
  5
4E5
102
{ACAD_REACTORS
330
528
102
}
330
1F
100
AcDbEntity
  8
LC-008-100-D00-0
 62
     7
370
    50
100
AcDbLine
 10
458.075394
 20
366.63751
 30
0.0
 11
458.245438
 21
366.281973
 31
0.0
  0
LINE
  5
4E6
102
{ACAD_REACTORS
330
528
102
}
330
1F
100
AcDbEntity
  8
LC-008-100-D00-0
 62
     7
370
    50
100
AcDbLine
 10
458.245438
 20
366.281973
 30
0.0
 11
458.447652
 21
366.281973
 31
0.0
  0
ARC
  5
4E7
102
{ACAD_REACTORS
330
528
102
}
330
1F
100
AcDbEntity
  8
LC-008-100-D00-0
 62
     7
370
    50
100
AcDbCircle
 10
458.447652
 20
365.522598
 30
0.0
 40
0.75937500000002
100
AcDbArc
 50
10.0
 51
90.0
  0
LINE
  5
4E8
102
{ACAD_REACTORS
330
528
102
}
330
1F
100
AcDbEntity
  8
LC-008-100-D00-0
 62
     7
370
    50
100
AcDbLine
 10
459.19549
 20
365.654462
 30
0.0
 11
459.315527
 21
364.973697
 31
0.0
  0
LINE
  5
4E9
102
{ACAD_REACTORS
330
528
102
}
330
1F
100
AcDbEntity
  8
LC-008-100-D00-0
 62
     7
370
    50
100
AcDbLine
 10
459.315527
 20
364.973697
 30
0.0
 11
459.315527
 21
363.16434
 31
0.0
  0
ARC
  5
4EA
102
{ACAD_REACTORS
330
528
102
}
330
1F
100
AcDbEntity
  8
LC-008-100-D00-0
 62
     7
370
    50
100
AcDbCircle
 10
458.978027
 20
363.16434
 30
0.0
 40
0.3375000000000777
100
AcDbArc
 50
260.0
 51
0.0
  0
LINE
  5
4EB
102
{ACAD_REACTORS
330
528
102
}
330
1F
100
AcDbEntity
  8
LC-008-100-D00-0
 62
     7
370
    50
100
AcDbLine
 10
458.919421
 20
362.831968
 30
0.0
 11
457.354045
 21
363.107986
 31
0.0
  0
ARC
  5
4EC
102
{ACAD_REACTORS
330
528
102
}
330
1F
100
AcDbEntity
  8
LC-008-100-D00-0
 62
     7
370
    50
100
AcDbCircle
 10
457.322511
 20
362.856833
 30
0.0
 40
0.2531250000000273
100
AcDbArc
 50
82.843677
 51
160.0
  0
LINE
  5
4ED
102
{ACAD_REACTORS
330
528
102
}
330
1F
100
AcDbEntity
  8
LC-008-100-D00-0
 62
     7
370
    50
100
AcDbLine
 10
457.084651
 20
362.943407
 30
0.0
 11
456.883552
 21
362.390889
 31
0.0
  0
ARC
  5
4EE
102
{ACAD_REACTORS
330
528
102
}
330
1F
100
AcDbEntity
  8
LC-008-100-D00-0
 62
     7
370
    50
100
AcDbCircle
 10
457.121411
 20
362.304316
 30
0.0
 40
0.2531249999999795
100
AcDbArc
 50
160.0
 51
190.241215
  0
LINE
  5
4EF
102
{ACAD_REACTORS
330
528
102
}
330
1F
100
AcDbEntity
  8
LC-008-100-D00-0
 62
     7
370
    50
100
AcDbLine
 10
456.872319
 20
362.259312
 30
0.0
 11
457.055839
 21
361.574408
 31
0.0
  0
ARC
  5
4F0
102
{ACAD_REACTORS
330
528
102
}
330
1F
100
AcDbEntity
  8
LC-008-100-D00-0
 62
     7
370
    50
100
AcDbCircle
 10
456.729839
 20
361.487057
 30
0.0
 40
0.3375000000001713
100
AcDbArc
 50
240.0
 51
15.0
  0
INSERT
  5
4FB
102
{ACAD_REACTORS
330
528
102
}
330
1F
100
AcDbEntity
  8
LC-008-100-D00-0
 62
     7
370
    25
100
AcDbBlockReference
  2
KLON2
 10
0.0
 20
0.0
 30
0.0
  0
DIMENSION
  5
4FC
330
1F
100
AcDbEntity
  8
LC-005-003-----0
 62
     7
370
    25
100
AcDbDimension
  2
*D30
 10
532.608185
 20
202.255828
 30
0.0
 11
433.047163
 21
233.055828
 31
0.0
 70
   160
 71
     5
 42
171.999906
  3
LC-DIM-L-0140-02-02
100
AcDbAlignedDimension
 13
360.608278
 23
254.913087
 33
0.0
 14
532.608185
 24
266.158211
 34
0.0
100
AcDbRotatedDimension
  0
DIMENSION
  5
509
330
1F
100
AcDbEntity
  8
LC-005-003-----0
 62
     7
370
    25
100
AcDbDimension
  2
*D31
 10
692.715922
 20
373.458211
 30
0.0
 11
723.515314
 21
320.061349
 31
0.0
 70
   160
  1
DN100
 71
     5
 42
110.0
 53
90.0
  3
LC-DIM-L-0140-02-02
100
AcDbAlignedDimension
 13
533.608185
 23
263.458211
 33
0.0
 14
533.608185
 24
373.458211
 34
0.0
 50
90.0
100
AcDbRotatedDimension
  0
DIMENSION
  5
516
330
1F
100
AcDbEntity
  8
LC-005-003-----0
 62
     7
370
    25
100
AcDbDimension
  2
*D32
 10
360.608386
 20
202.114384
 30
0.0
 11
316.363491
 21
232.914384
 31
0.0
 70
   160
  1
138
 71
     5
 42
137.443939
  3
LC-DIM-L-0140-02-02
100
AcDbAlignedDimension
 13
223.164447
 23
306.365318
 33
0.0
 14
360.608386
 24
253.614252
 34
0.0
100
AcDbRotatedDimension
  0
ENDSEC
  0
SECTION
  2
OBJECTS
  0
DICTIONARY
  5
C
330
0
100
AcDbDictionary
281
     1
  3
ACAD_GROUP
350
D
  3
ACAD_LAYOUT
350
1A
  3
ACAD_MLINESTYLE
350
17
  3
ACAD_PLOTSETTINGS
350
19
  3
ACAD_PLOTSTYLENAME
350
E
  0
DICTIONARY
  5
D
102
{ACAD_REACTORS
330
C
102
}
330
C
100
AcDbDictionary
281
     1
  3
LCGROUP11
350
525
  3
LCGROUP111
350
529
  3
LCGROUP113
350
531
  3
LCGROUP115
350
530
  3
LCGROUP117
350
52F
  3
LCGROUP119
350
52E
  3
LCGROUP121
350
52D
  3
LCGROUP123
350
52C
  3
LCGROUP125
350
52B
  3
LCGROUP127
350
52A
  3
LCGROUP129
350
539
  3
LCGROUP13
350
524
  3
LCGROUP131
350
538
  3
LCGROUP133
350
537
  3
LCGROUP135
350
536
  3
LCGROUP137
350
535
  3
LCGROUP139
350
534
  3
LCGROUP141
350
533
  3
LCGROUP143
350
532
  3
LCGROUP145
350
543
  3
LCGROUP147
350
542
  3
LCGROUP149
350
541
  3
LCGROUP151
350
540
  3
LCGROUP153
350
53F
  3
LCGROUP155
350
53E
  3
LCGROUP157
350
53D
  3
LCGROUP159
350
53C
  3
LCGROUP161
350
54B
  3
LCGROUP163
350
54A
  3
LCGROUP165
350
549
  3
LCGROUP167
350
548
  3
LCGROUP169
350
547
  3
LCGROUP171
350
546
  3
LCGROUP173
350
545
  3
LCGROUP175
350
544
  3
LCGROUP179
350
54E
  3
LCGROUP181
350
54D
  3
LCGROUP183
350
54C
  3
LCGROUP198
350
550
  3
LCGROUP207
350
54F
  3
LCGROUP245
350
552
  3
LCGROUP258
350
553
  3
LCGROUP421
350
53B
  3
LCGROUP424
350
53A
  3
LCGROUP515
350
551
  3
LCGROUP548
350
523
  3
LCGROUP56
350
527
  3
LCGROUP597
350
526
  3
LCGROUP631
350
528
  0
DICTIONARY
  5
1A
102
{ACAD_REACTORS
330
C
102
}
330
C
100
AcDbDictionary
281
     1
  3
Layout1
350
1E
  3
Layout2
350
26
  3
Model
350
22
  0
DICTIONARY
  5
17
102
{ACAD_REACTORS
330
C
102
}
330
C
100
AcDbDictionary
281
     1
  3
Standard
350
18
  0
DICTIONARY
  5
19
102
{ACAD_REACTORS
330
C
102
}
330
C
100
AcDbDictionary
281
     1
  0
ACDBDICTIONARYWDFLT
  5
E
102
{ACAD_REACTORS
330
C
102
}
330
C
100
AcDbDictionary
281
     1
  3
Normal
350
F
100
AcDbDictionaryWithDefault
340
F
  0
GROUP
  5
525
102
{ACAD_REACTORS
330
D
102
}
330
D
100
AcDbGroup
300
GRP11
 70
     1
 71
     1
340
31
340
33
340
34
340
35
340
36
340
37
340
38
340
39
340
3A
340
3B
340
3C
340
3D
340
3E
340
3F
340
40
340
41
340
42
340
43
340
44
340
45
340
46
340
47
340
48
340
49
340
4A
340
4B
340
4C
340
4D
340
4E
340
4F
340
50
340
51
340
52
340
53
340
54
340
55
340
56
340
57
340
58
340
59
340
5A
340
5D
340
5E
340
5F
340
60
340
61
340
62
340
63
340
64
340
65
340
66
340
67
340
68
340
69
340
6A
340
6B
340
6C
340
6E
340
6F
340
70
340
8E
340
8F
340
90
340
91
340
92
340
93
340
FF
340
14C
  0
GROUP
  5
529
102
{ACAD_REACTORS
330
D
102
}
330
D
100
AcDbGroup
300
GRP111
 70
     1
 71
     1
340
DB
  0
GROUP
  5
531
102
{ACAD_REACTORS
330
D
102
}
330
D
100
AcDbGroup
300
GRP113
 70
     1
 71
     1
340
DC
  0
GROUP
  5
530
102
{ACAD_REACTORS
330
D
102
}
330
D
100
AcDbGroup
300
GRP115
 70
     1
 71
     1
340
DD
  0
GROUP
  5
52F
102
{ACAD_REACTORS
330
D
102
}
330
D
100
AcDbGroup
300
GRP117
 70
     1
 71
     1
340
DE
  0
GROUP
  5
52E
102
{ACAD_REACTORS
330
D
102
}
330
D
100
AcDbGroup
300
GRP119
 70
     1
 71
     1
340
DF
  0
GROUP
  5
52D
102
{ACAD_REACTORS
330
D
102
}
330
D
100
AcDbGroup
300
GRP121
 70
     1
 71
     1
340
E0
  0
GROUP
  5
52C
102
{ACAD_REACTORS
330
D
102
}
330
D
100
AcDbGroup
300
GRP123
 70
     1
 71
     1
340
E1
  0
GROUP
  5
52B
102
{ACAD_REACTORS
330
D
102
}
330
D
100
AcDbGroup
300
GRP125
 70
     1
 71
     1
340
E2
  0
GROUP
  5
52A
102
{ACAD_REACTORS
330
D
102
}
330
D
100
AcDbGroup
300
GRP127
 70
     1
 71
     1
340
E3
  0
GROUP
  5
539
102
{ACAD_REACTORS
330
D
102
}
330
D
100
AcDbGroup
300
GRP129
 70
     1
 71
     1
340
E4
  0
GROUP
  5
524
102
{ACAD_REACTORS
330
D
102
}
330
D
100
AcDbGroup
300
GRP13
 70
     1
 71
     1
340
32
340
24A
340
24F
  0
GROUP
  5
538
102
{ACAD_REACTORS
330
D
102
}
330
D
100
AcDbGroup
300
GRP131
 70
     1
 71
     1
340
E5
  0
GROUP
  5
537
102
{ACAD_REACTORS
330
D
102
}
330
D
100
AcDbGroup
300
GRP133
 70
     1
 71
     1
340
E6
  0
GROUP
  5
536
102
{ACAD_REACTORS
330
D
102
}
330
D
100
AcDbGroup
300
GRP135
 70
     1
 71
     1
340
E7
  0
GROUP
  5
535
102
{ACAD_REACTORS
330
D
102
}
330
D
100
AcDbGroup
300
GRP137
 70
     1
 71
     1
340
E8
  0
GROUP
  5
534
102
{ACAD_REACTORS
330
D
102
}
330
D
100
AcDbGroup
300
GRP139
 70
     1
 71
     1
340
E9
  0
GROUP
  5
533
102
{ACAD_REACTORS
330
D
102
}
330
D
100
AcDbGroup
300
GRP141
 70
     1
 71
     1
340
EA
  0
GROUP
  5
532
102
{ACAD_REACTORS
330
D
102
}
330
D
100
AcDbGroup
300
GRP143
 70
     1
 71
     1
340
EB
  0
GROUP
  5
543
102
{ACAD_REACTORS
330
D
102
}
330
D
100
AcDbGroup
300
GRP145
 70
     1
 71
     1
340
EC
  0
GROUP
  5
542
102
{ACAD_REACTORS
330
D
102
}
330
D
100
AcDbGroup
300
GRP147
 70
     1
 71
     1
340
ED
  0
GROUP
  5
541
102
{ACAD_REACTORS
330
D
102
}
330
D
100
AcDbGroup
300
GRP149
 70
     1
 71
     1
340
EE
  0
GROUP
  5
540
102
{ACAD_REACTORS
330
D
102
}
330
D
100
AcDbGroup
300
GRP151
 70
     1
 71
     1
340
EF
  0
GROUP
  5
53F
102
{ACAD_REACTORS
330
D
102
}
330
D
100
AcDbGroup
300
GRP153
 70
     1
 71
     1
340
F0
  0
GROUP
  5
53E
102
{ACAD_REACTORS
330
D
102
}
330
D
100
AcDbGroup
300
GRP155
 70
     1
 71
     1
340
F1
  0
GROUP
  5
53D
102
{ACAD_REACTORS
330
D
102
}
330
D
100
AcDbGroup
300
GRP157
 70
     1
 71
     1
340
F2
  0
GROUP
  5
53C
102
{ACAD_REACTORS
330
D
102
}
330
D
100
AcDbGroup
300
GRP159
 70
     1
 71
     1
340
F3
  0
GROUP
  5
54B
102
{ACAD_REACTORS
330
D
102
}
330
D
100
AcDbGroup
300
GRP161
 70
     1
 71
     1
340
F4
  0
GROUP
  5
54A
102
{ACAD_REACTORS
330
D
102
}
330
D
100
AcDbGroup
300
GRP163
 70
     1
 71
     1
340
F5
  0
GROUP
  5
549
102
{ACAD_REACTORS
330
D
102
}
330
D
100
AcDbGroup
300
GRP165
 70
     1
 71
     1
340
F6
  0
GROUP
  5
548
102
{ACAD_REACTORS
330
D
102
}
330
D
100
AcDbGroup
300
GRP167
 70
     1
 71
     1
340
F7
  0
GROUP
  5
547
102
{ACAD_REACTORS
330
D
102
}
330
D
100
AcDbGroup
300
GRP169
 70
     1
 71
     1
340
F8
  0
GROUP
  5
546
102
{ACAD_REACTORS
330
D
102
}
330
D
100
AcDbGroup
300
GRP171
 70
     1
 71
     1
340
F9
  0
GROUP
  5
545
102
{ACAD_REACTORS
330
D
102
}
330
D
100
AcDbGroup
300
GRP173
 70
     1
 71
     1
340
FA
  0
GROUP
  5
544
102
{ACAD_REACTORS
330
D
102
}
330
D
100
AcDbGroup
300
GRP175
 70
     1
 71
     1
340
FB
  0
GROUP
  5
54E
102
{ACAD_REACTORS
330
D
102
}
330
D
100
AcDbGroup
300
GRP179
 70
     1
 71
     1
340
FC
  0
GROUP
  5
54D
102
{ACAD_REACTORS
330
D
102
}
330
D
100
AcDbGroup
300
GRP181
 70
     1
 71
     1
340
FD
  0
GROUP
  5
54C
102
{ACAD_REACTORS
330
D
102
}
330
D
100
AcDbGroup
300
GRP183
 70
     1
 71
     1
340
FE
  0
GROUP
  5
550
102
{ACAD_REACTORS
330
D
102
}
330
D
100
AcDbGroup
300
GRP198
 70
     1
 71
     1
340
10C
340
10D
340
10E
340
10F
340
110
340
111
340
112
340
113
  0
GROUP
  5
54F
102
{ACAD_REACTORS
330
D
102
}
330
D
100
AcDbGroup
300
GRP207
 70
     1
 71
     1
340
114
340
115
340
116
  0
GROUP
  5
552
102
{ACAD_REACTORS
330
D
102
}
330
D
100
AcDbGroup
300
GRP245
 70
     1
 71
     1
340
12F
340
130
340
131
  0
GROUP
  5
553
102
{ACAD_REACTORS
330
D
102
}
330
D
100
AcDbGroup
300
GRP258
 70
     1
 71
     1
340
152
340
153
  0
GROUP
  5
53B
102
{ACAD_REACTORS
330
D
102
}
330
D
100
AcDbGroup
300
GRP421
 70
     1
 71
     1
340
248
  0
GROUP
  5
53A
102
{ACAD_REACTORS
330
D
102
}
330
D
100
AcDbGroup
300
GRP424
 70
     1
 71
     1
340
249
  0
GROUP
  5
551
102
{ACAD_REACTORS
330
D
102
}
330
D
100
AcDbGroup
300
GRP515
 70
     1
 71
     1
340
36A
340
36B
340
36C
340
36D
340
36E
340
36F
340
370
340
371
340
372
340
373
340
374
340
375
340
376
340
377
340
378
340
379
340
37A
340
37B
340
37C
340
37D
340
37E
340
37F
340
380
340
381
340
382
340
383
340
384
340
385
340
386
340
387
340
388
340
389
340
38A
340
38B
340
38C
340
38D
340
38E
340
38F
340
390
340
391
340
392
340
393
340
394
340
395
340
396
340
397
340
398
340
399
340
39A
340
39B
340
39C
340
39D
340
39E
340
39F
340
3A0
340
3A1
340
3A2
340
3A3
340
3A4
340
3A5
340
3A6
340
3A7
340
3A8
340
3A9
340
3AA
340
3AB
340
3AC
340
3AD
340
3AE
340
3AF
340
3B0
340
3B1
340
3B2
340
3B3
340
3B4
340
3C6
340
3DB
  0
GROUP
  5
523
102
{ACAD_REACTORS
330
D
102
}
330
D
100
AcDbGroup
300
Adapter
 70
     1
 71
     1
340
422
340
423
340
424
340
425
340
426
340
427
340
428
340
429
340
42A
340
42B
340
42C
340
42D
340
42E
340
42F
340
430
340
431
340
432
340
433
340
434
340
435
340
436
340
437
340
438
340
439
340
43A
340
43B
340
43C
340
43D
340
43E
340
43F
340
440
340
441
340
442
340
443
340
444
340
445
340
446
340
447
340
448
340
449
340
44A
340
44D
340
4A1
340
4A2
340
4A3
340
4A4
340
4A5
340
4A6
  0
GROUP
  5
527
102
{ACAD_REACTORS
330
D
102
}
330
D
100
AcDbGroup
300
GRP56
 70
     1
 71
     1
340
5B
340
5C
  0
GROUP
  5
526
102
{ACAD_REACTORS
330
D
102
}
330
D
100
AcDbGroup
300
Dichtung
 70
     1
 71
     1
340
4A8
340
4A9
340
4AA
340
4AB
340
4AC
340
4AD
340
4AE
340
4AF
340
4B0
340
4B1
340
4B2
340
4B3
340
4B4
340
4B5
340
4B6
340
4B7
340
4B8
340
4B9
340
4BA
340
4BB
340
4BC
340
4BD
340
4BE
340
4BF
340
4C0
340
4C1
340
4C2
340
4C3
340
4C4
340
4C5
340
4C6
340
4D1
  0
GROUP
  5
528
102
{ACAD_REACTORS
330
D
102
}
330
D
100
AcDbGroup
300
Dichtung
 70
     1
 71
     1
340
4D2
340
4D3
340
4D4
340
4D5
340
4D6
340
4D7
340
4D8
340
4D9
340
4DA
340
4DB
340
4DC
340
4DD
340
4DE
340
4DF
340
4E0
340
4E1
340
4E2
340
4E3
340
4E4
340
4E5
340
4E6
340
4E7
340
4E8
340
4E9
340
4EA
340
4EB
340
4EC
340
4ED
340
4EE
340
4EF
340
4F0
340
4FB
  0
LAYOUT
  5
1E
102
{ACAD_REACTORS
330
1A
102
}
330
1A
100
AcDbPlotSettings
  1

  2

  4

  6

 40
0.0
 41
0.0
 42
0.0
 43
0.0
 44
0.0
 45
0.0
 46
0.0
 47
0.0
 48
0.0
 49
0.0
140
0.0
141
0.0
142
1.0
143
1.0
 70
   688
 72
     0
 73
     0
 74
     5
  7

 75
    16
147
1.0
148
0.0
149
0.0
100
AcDbLayout
  1
Layout1
 70
     1
 71
     1
 10
0.0
 20
0.0
 11
840.0
 21
594.0
 12
0.0
 22
0.0
 32
0.0
 14
0.0
 24
0.0
 34
0.0
 15
840.0
 25
594.0
 35
0.0
146
0.0
 13
0.0
 23
0.0
 33
0.0
 16
1.0
 26
0.0
 36
0.0
 17
0.0
 27
1.0
 37
0.0
 76
     0
330
1B
  0
LAYOUT
  5
26
102
{ACAD_REACTORS
330
1A
102
}
330
1A
100
AcDbPlotSettings
  1

  2

  4

  6

 40
0.0
 41
0.0
 42
0.0
 43
0.0
 44
0.0
 45
0.0
 46
0.0
 47
0.0
 48
0.0
 49
0.0
140
0.0
141
0.0
142
1.0
143
1.0
 70
   688
 72
     0
 73
     0
 74
     5
  7

 75
    16
147
1.0
148
0.0
149
0.0
100
AcDbLayout
  1
Layout2
 70
     1
 71
     2
 10
0.0
 20
0.0
 11
0.0
 21
0.0
 12
0.0
 22
0.0
 32
0.0
 14
0.0
 24
0.0
 34
0.0
 15
0.0
 25
0.0
 35
0.0
146
0.0
 13
0.0
 23
0.0
 33
0.0
 16
1.0
 26
0.0
 36
0.0
 17
0.0
 27
1.0
 37
0.0
 76
     0
330
23
  0
LAYOUT
  5
22
102
{ACAD_REACTORS
330
1A
102
}
330
1A
100
AcDbPlotSettings
  1

  2

  4

  6

 40
0.0
 41
0.0
 42
0.0
 43
0.0
 44
0.0
 45
0.0
 46
0.0
 47
0.0
 48
0.0
 49
0.0
140
0.0
141
0.0
142
1.0
143
1.0
 70
  1776
 72
     0
 73
     0
 74
     0
  7

 75
     0
147
1.0
148
0.0
149
0.0
100
AcDbLayout
  1
Model
 70
     1
 71
     0
 10
0.0
 20
0.0
 11
840.0
 21
594.0
 12
0.0
 22
0.0
 32
0.0
 14
0.0
 24
0.0
 34
0.0
 15
840.0
 25
594.0
 35
0.0
146
0.0
 13
0.0
 23
0.0
 33
0.0
 16
1.0
 26
0.0
 36
0.0
 17
0.0
 27
1.0
 37
0.0
 76
     0
330
1F
  0
MLINESTYLE
  5
18
102
{ACAD_REACTORS
330
17
102
}
330
17
100
AcDbMlineStyle
  2
Standard
 70
     0
  3

 62
   256
 51
90.0
 52
90.0
 71
     2
 49
0.5
 62
   256
  6
BYLAYER
 49
-0.5
 62
   256
  6
BYLAYER
  0
ACDBPLACEHOLDER
  5
F
102
{ACAD_REACTORS
330
E
102
}
330
E
  0
ENDSEC
  0
EOF
