  0
SECTION
  2
HEADER
  9
$ACADVER
  1
AC1009
  9
$DWGCODEPAGE
  3
dos850
  9
$INSBASE
 10
0.0
 20
0.0
 30
0.0
  9
$EXTMIN
 10
0.0
 20
0.0
 30
0.0
  9
$EXTMAX
 10
840.0
 20
594.0
 30
0.0
  9
$LIMMIN
 10
0.0
 20
0.0
  9
$LIMMAX
 10
840.0
 20
594.0
  9
$ORTHOMODE
 70
     0
  9
$REGENMODE
 70
     1
  9
$FILLMODE
 70
     1
  9
$QTEXTMODE
 70
     0
  9
$MIRRTEXT
 70
     1
  9
$DRAGMODE
 70
     2
  9
$LTSCALE
 40
2.0
  9
$OSMODE
 70
     0
  9
$ATTMODE
 70
     1
  9
$TEXTSIZE
 40
0.2
  9
$TRACEWID
 40
0.05
  9
$TEXTSTYLE
  7
STANDARD
  9
$CLAYER
  8
0
  9
$CELTYPE
  6
BYBLOCK
  9
$CECOLOR
 62
     7
  9
$DIMSCALE
 40
2.0
  9
$DIMASZ
 40
3.5
  9
$DIMEXO
 40
0.0625
  9
$DIMDLI
 40
0.38
  9
$DIMRND
 40
0.0
  9
$DIMDLE
 40
0.0
  9
$DIMEXE
 40
0.18
  9
$DIMTP
 40
0.0
  9
$DIMTM
 40
0.0
  9
$DIMTXT
 40
3.5
  9
$DIMCEN
 40
0.09
  9
$DIMTSZ
 40
0.0
  9
$DIMTOL
 70
     0
  9
$DIMLIM
 70
     0
  9
$DIMTIH
 70
     1
  9
$DIMTOH
 70
     1
  9
$DIMSE1
 70
     0
  9
$DIMSE2
 70
     0
  9
$DIMTAD
 70
     1
  9
$DIMZIN
 70
     0
  9
$DIMBLK
  1

  9
$DIMASO
 70
     1
  9
$DIMSHO
 70
     1
  9
$DIMPOST
  1

  9
$DIMAPOST
  1

  9
$DIMALT
 70
     0
  9
$DIMALTD
 70
     2
  9
$DIMALTF
 40
25.4
  9
$DIMLFAC
 40
1.0
  9
$DIMTOFL
 70
     0
  9
$DIMTVP
 40
0.0
  9
$DIMTIX
 70
     0
  9
$DIMSOXD
 70
     0
  9
$DIMSAH
 70
     0
  9
$DIMBLK1
  1

  9
$DIMBLK2
  1

  9
$DIMSTYLE
  2
STANDARD
  9
$DIMCLRD
 70
     0
  9
$DIMCLRE
 70
     0
  9
$DIMCLRT
 70
     0
  9
$DIMTFAC
 40
1.0
  9
$DIMGAP
 40
0.09
  9
$LUNITS
 70
     2
  9
$LUPREC
 70
     6
  9
$AXISMODE
 70
     0
  9
$AXISUNIT
 10
0.0
 20
0.0
  9
$SKETCHINC
 40
0.1
  9
$FILLETRAD
 40
0.0
  9
$AUNITS
 70
     0
  9
$AUPREC
 70
     0
  9
$MENU
  1
acad
  9
$ELEVATION
 40
0.0
  9
$PELEVATION
 40
0.0
  9
$THICKNESS
 40
0.0
  9
$LIMCHECK
 70
     0
  9
$BLIPMODE
 70
     1
  9
$CHAMFERA
 40
0.0
  9
$CHAMFERB
 40
0.0
  9
$SKPOLY
 70
     0
  9
$TDCREATE
 40
0.000000000
  9
$TDUPDATE
 40
0.000000000
  9
$TDINDWG
 40
0.0000000000
  9
$TDUSRTIMER
 40
0.0000000000
  9
$USRTIMER
 70
     1
  9
$ANGBASE
 50
0.0
  9
$ANGDIR
 70
     0
  9
$PDMODE
 70
     0
  9
$PDSIZE
 40
0.0
  9
$PLINEWID
 40
0.0
  9
$COORDS
 70
     0
  9
$SPLFRAME
 70
     0
  9
$SPLINETYPE
 70
     6
  9
$SPLINESEGS
 70
     8
  9
$ATTDIA
 70
     0
  9
$ATTREQ
 70
     1
  9
$HANDLING
 70
     1
  9
$HANDSEED
  5
41E
  9
$SURFTAB1
 70
     6
  9
$SURFTAB2
 70
     6
  9
$SURFTYPE
 70
     6
  9
$SURFU
 70
     6
  9
$SURFV
 70
     6
  9
$UCSNAME
  2

  9
$UCSORG
 10
0.0
 20
0.0
 30
0.0
  9
$UCSXDIR
 10
1.0
 20
0.0
 30
0.0
  9
$UCSYDIR
 10
0.0
 20
1.0
 30
0.0
  9
$PUCSNAME
  2

  9
$PUCSORG
 10
0.0
 20
0.0
 30
0.0
  9
$PUCSXDIR
 10
1.0
 20
0.0
 30
0.0
  9
$PUCSYDIR
 10
0.0
 20
1.0
 30
0.0
  9
$USERI1
 70
     0
  9
$USERI2
 70
     0
  9
$USERI3
 70
     0
  9
$USERI4
 70
     0
  9
$USERI5
 70
     0
  9
$USERR1
 40
0.0
  9
$USERR2
 40
0.0
  9
$USERR3
 40
0.0
  9
$USERR4
 40
0.0
  9
$USERR5
 40
0.0
  9
$WORLDVIEW
 70
     1
  9
$SHADEDGE
 70
     3
  9
$SHADEDIF
 70
    70
  9
$TILEMODE
 70
     1
  9
$MAXACTVP
 70
    16
  9
$PINSBASE
 10
0.0
 20
0.0
 30
0.0
  9
$PLIMCHECK
 70
     0
  9
$PEXTMIN
 10
0.0
 20
0.0
 30
0.0
  9
$PEXTMAX
 10
840.0
 20
594.0
 30
0.0
  9
$PLIMMIN
 10
0.0
 20
0.0
  9
$PLIMMAX
 10
840.0
 20
594.0
  9
$UNITMODE
 70
     0
  9
$VISRETAIN
 70
     0
  9
$PLINEGEN
 70
     1
  9
$PSLTSCALE
 70
     0
  9
$TREEDEPTH
 70
  3020
  0
ENDSEC
  0
SECTION
  2
TABLES
  0
TABLE
  2
VPORT
 70
     1
  0
VPORT
  2
*ACTIVE
 70
     0
 10
0.0
 20
0.0
 11
1.0
 21
1.0
 12
420.0
 22
297.0
 13
0.0
 23
0.0
 14
1.0
 24
1.0
 15
0.0
 25
0.0
 16
0.0
 26
0.0
 36
1.0
 17
0.0
 27
0.0
 37
0.0
 40
594.0
 41
1.604229
 42
50.0
 43
0.0
 44
0.0
 50
0.0
 51
0.0
 71
     0
 72
   100
 73
     1
 74
     1
 75
     0
 76
     0
 77
     0
 78
     0
  0
ENDTAB
  0
TABLE
  2
LTYPE
 70
     2
  0
LTYPE
  2
CONTINUOUS
 70
    64
  3
Solid line
 72
    65
 73
     0
 40
0.0
  0
LTYPE
  2
DASHDOT
 70
    64
  3
LC-Solid line
 72
    65
 73
     4
 40
4.0
 49
2.0
 49
-0.9
 49
0.2
 49
-0.9
  0
ENDTAB
  0
TABLE
  2
LAYER
 70
    12
  0
LAYER
  2
0
 70
     0
 62
     7
  6
CONTINUOUS
  0
LAYER
  2
LC-INFO-1-2-MM-A3-0
 70
     1
 62
   255
  6
BYBLOCK
  0
LAYER
  2
LC-3D-HIDDEN
 70
     0
 62
     9
  6
BYBLOCK
  0
LAYER
  2
LC-CUT-HIDDEN
 70
     0
 62
     9
  6
BYBLOCK
  0
LAYER
  2
LC-VIEWPORT
 70
     0
 62
     7
  6
BYBLOCK
  0
LAYER
  2
LC-001-020-----0
 70
     0
 62
     1
  6
BYBLOCK
  0
LAYER
  2
LC-002-002-----0
 70
     0
 62
     1
  6
BYBLOCK
  0
LAYER
  2
LC-003-005-----0
 70
     0
 62
     2
  6
BYBLOCK
  0
LAYER
  2
LC-004-003-MTH-0
 70
     0
 62
     2
  6
BYBLOCK
  0
LAYER
  2
LC-005-003-MTG-0
 70
     0
 62
     2
  6
BYBLOCK
  0
LAYER
  2
LC-006-003-----0
 70
     0
 62
     2
  6
BYBLOCK
  0
LAYER
  2
LC-007-002-RND-0
 70
     0
 62
     1
  6
BYBLOCK
  0
ENDTAB
  0
TABLE
  2
STYLE
 70
     3
  0
STYLE
  2
STANDARD
 70
     0
 40
0.0
 41
1.0
 50
0.0
 71
     0
 42
0.0
  3
txt
  4

  0
STYLE
  2
LCTX15-400-0-0-ARIAL
 70
    64
 40
3.5
 41
1.0
 50
0.0
 71
     0
 42
0.0
  3
Arial
  4

  0
STYLE
  2
LCTX15-400-0-0-DIN-SCHRIF2
 70
    64
 40
0.0
 41
1.0
 50
1.5
 71
     0
 42
3.5
  3
STANDARD
  4

  0
ENDTAB
  0
TABLE
  2
VIEW
 70
     0
  0
ENDTAB
  0
TABLE
  2
UCS
 70
     0
  0
ENDTAB
  0
TABLE
  2
APPID
 70
     1
  0
APPID
  2
ACAD
 70
     0
  0
ENDTAB
  0
TABLE
  2
DIMSTYLE
 70
     2
  0
DIMSTYLE
  2
STANDARD
 70
     0
  3

  4

  5

  6

  7

 40
1.0
 41
0.18
 42
0.0625
 43
0.38
 44
0.18
 45
0.0
 46
0.0
 47
0.0
 48
0.0
 71
     0
 72
     0
 73
     1
 74
     1
 75
     0
 76
     0
 77
     0
 78
     0
140
0.18
141
0.09
142
0.0
143
25.4
144
1.0
145
0.0
146
1.0
147
0.09
170
     0
171
     2
172
     0
173
     0
174
     0
175
     0
176
     0
177
     0
178
     0
  0
DIMSTYLE
  2
LC-DIM-L-0140-02-02
 70
     0
  3

  4

  5

  6

  7

 40
2.0
 41
3.5
 42
0.0
 43
7.5
 44
1.8
 45
0.0
 46
0.0
 47
0.0
 48
0.0
 71
     0
 72
     0
 73
     0
 74
     0
 75
     0
 76
     0
 77
     1
 78
     8
140
14.0
141
0.0
142
0.0
143
25.4
144
1.0
145
0.0
146
0.71
147
1.5
170
     0
171
     2
172
     0
173
     0
174
     0
175
     0
176
     2
177
     2
178
     2
  0
ENDTAB
  0
ENDSEC
  0
SECTION
  2
BLOCKS
  0
BLOCK
  8
0
  5
26
  2
*X0
 70
    65
 10
311.860917
 20
300.428257
 30
0.0
  3
*X0
  0
LINE
  8
LC-001-020-----0
 62
     2
  5
27
 10
341.614719
 20
303.430525
 30
0.0
 11
341.985878
 21
303.801683
 31
0.0
  0
LINE
  8
LC-001-020-----0
 62
     2
  5
28
 10
337.679222
 20
303.737671
 30
0.0
 11
339.474646
 21
305.533092
 31
0.0
  0
LINE
  8
LC-001-020-----0
 62
     2
  5
29
 10
334.161115
 20
304.462206
 30
0.0
 11
335.77447
 21
306.075559
 31
0.0
  0
LINE
  8
LC-001-020-----0
 62
     2
  5
2A
 10
325.884518
 20
300.428259
 30
0.0
 11
326.985875
 21
301.529614
 31
0.0
  0
LINE
  8
LC-001-020-----0
 62
     2
  5
2B
 10
330.970622
 20
305.514356
 30
0.0
 11
332.437713
 21
306.981444
 31
0.0
  0
LINE
  8
LC-001-020-----0
 62
     2
  5
2C
 10
324.485877
 20
303.272257
 30
0.0
 11
326.98588
 21
305.772257
 31
0.0
  0
LINE
  8
LC-001-020-----0
 62
     2
  5
2D
 10
328.055965
 20
306.84234
 30
0.0
 11
329.397935
 21
308.184309
 31
0.0
  0
LINE
  8
LC-001-020-----0
 62
     2
  5
2E
 10
323.899243
 20
306.928261
 30
0.0
 11
326.399243
 21
309.428258
 31
0.0
  0
LINE
  8
LC-001-020-----0
 62
     2
  5
2F
 10
320.485883
 20
307.757544
 30
0.0
 11
322.156605
 21
309.428264
 31
0.0
  0
ENDBLK
  8
0
  5
30
  0
BLOCK
  8
0
  5
33
  2
*X1
 70
    65
 10
311.860917
 20
300.428214
 30
0.0
  3
*X1
  0
LINE
  8
LC-001-020-----0
 62
     2
  5
34
 10
356.985875
 20
301.831109
 30
0.0
 11
359.485878
 21
304.331109
 31
0.0
  0
LINE
  8
LC-001-020-----0
 62
     2
  5
35
 10
362.082984
 20
306.928211
 30
0.0
 11
363.485884
 21
308.331109
 31
0.0
  0
LINE
  8
LC-001-020-----0
 62
     2
  5
36
 10
356.985881
 20
306.073753
 30
0.0
 11
360.340346
 21
309.428213
 31
0.0
  0
LINE
  8
LC-001-020-----0
 62
     2
  5
37
 10
351.710463
 20
305.04098
 30
0.0
 11
355.103774
 21
308.434286
 31
0.0
  0
LINE
  8
LC-001-020-----0
 62
     2
  5
38
 10
346.143327
 20
303.716489
 30
0.0
 11
348.587257
 21
306.160416
 31
0.0
  0
LINE
  8
LC-001-020-----0
 62
     2
  5
39
 10
341.985878
 20
303.801683
 30
0.0
 11
343.658926
 21
305.474729
 31
0.0
  0
ENDBLK
  8
0
  5
3A
  0
BLOCK
  8
0
  5
9B
  2
*X2
 70
    65
 10
233.476583
 20
303.83201
 30
0.0
  3
*X2
  0
LINE
  8
LC-003-005-----0
  6
BYBLOCK
 62
     2
  5
9D
 10
238.112841
 20
304.580879
 30
0.0
 11
238.227714
 21
304.695752
 31
0.0
  0
LINE
  8
LC-003-005-----0
 62
     2
  5
9E
 10
235.962472
 20
303.844722
 30
0.0
 11
238.976582
 21
306.858833
 31
0.0
  0
LINE
  8
LC-003-005-----0
 62
     2
  5
9F
 10
234.884995
 20
304.18146
 30
0.0
 11
238.976581
 21
308.273046
 31
0.0
  0
LINE
  8
LC-003-005-----0
 62
     2
  5
A0
 10
234.112543
 20
304.823222
 30
0.0
 11
238.723555
 21
309.434234
 31
0.0
  0
LINE
  8
LC-003-005-----0
 62
     2
  5
A1
 10
233.610233
 20
305.735125
 30
0.0
 11
238.136083
 21
310.260974
 31
0.0
  0
LINE
  8
LC-003-005-----0
 62
     2
  5
A2
 10
233.476584
 20
307.015689
 30
0.0
 11
237.282219
 21
310.821325
 31
0.0
  0
LINE
  8
LC-003-005-----0
 62
     2
  5
A3
 10
233.480798
 20
308.434117
 30
0.0
 11
236.074478
 21
311.027797
 31
0.0
  0
ENDBLK
  8
0
  5
A4
  0
BLOCK
  8
0
  5
B6
  2
*X3
 70
    65
 10
366.97653
 20
303.83201
 30
0.0
  3
*X3
  0
LINE
  8
LC-003-005-----0
 62
     2
  5
B7
 10
370.378434
 20
303.910396
 30
0.0
 11
372.398144
 21
305.930107
 31
0.0
  0
LINE
  8
LC-003-005-----0
 62
     2
  5
B8
 10
368.987107
 20
303.933284
 30
0.0
 11
372.476527
 21
307.422704
 31
0.0
  0
LINE
  8
LC-003-005-----0
 62
     2
  5
B9
 10
368.045353
 20
304.405743
 30
0.0
 11
372.429264
 21
308.789653
 31
0.0
  0
LINE
  8
LC-003-005-----0
 62
     2
  5
BA
 10
367.37751
 20
305.152114
 30
0.0
 11
372.021908
 21
309.796511
 31
0.0
  0
LINE
  8
LC-003-005-----0
 62
     2
  5
BB
 10
367.004184
 20
306.193001
 30
0.0
 11
371.328444
 21
310.517261
 31
0.0
  0
LINE
  8
LC-003-005-----0
 62
     2
  5
BC
 10
366.976531
 20
307.579562
 30
0.0
 11
370.355971
 21
310.959002
 31
0.0
  0
LINE
  8
LC-003-005-----0
 62
     2
  5
BD
 10
367.10948
 20
309.126724
 30
0.0
 11
368.881814
 21
310.899058
 31
0.0
  0
ENDBLK
  8
0
  5
BE
  0
BLOCK
  8
0
  5
109
  2
*X4
 70
    65
 10
233.976556
 20
363.829197
 30
0.0
  3
*X4
  0
LINE
  8
LC-003-005-----0
 62
     2
  5
10A
 10
242.20683
 20
363.829197
 30
0.0
 11
243.690788
 21
365.313154
 31
0.0
  0
LINE
  8
LC-003-005-----0
 62
     2
  5
10B
 10
239.613489
 20
364.064282
 30
0.0
 11
241.091218
 21
365.542011
 31
0.0
  0
LINE
  8
LC-003-005-----0
 62
     2
  5
10C
 10
237.618426
 20
364.897647
 30
0.0
 11
238.86912
 21
366.14834
 31
0.0
  0
LINE
  8
LC-003-005-----0
 62
     2
  5
10D
 10
236.047285
 20
366.154933
 30
0.0
 11
237.249816
 21
367.357464
 31
0.0
  0
LINE
  8
LC-003-005-----0
 62
     2
  5
10E
 10
234.86058
 20
367.796655
 30
0.0
 11
236.13443
 21
369.070505
 31
0.0
  0
LINE
  8
LC-003-005-----0
 62
     2
  5
10F
 10
234.117505
 20
369.882007
 30
0.0
 11
235.676556
 21
371.441058
 31
0.0
  0
LINE
  8
LC-003-005-----0
 62
     2
  5
110
 10
233.976556
 20
372.569486
 30
0.0
 11
235.676556
 21
374.269486
 31
0.0
  0
LINE
  8
LC-003-005-----0
 62
     2
  5
111
 10
233.976556
 20
375.397913
 30
0.0
 11
235.676556
 21
377.097913
 31
0.0
  0
LINE
  8
LC-003-005-----0
 62
     2
  5
112
 10
233.976556
 20
378.22634
 30
0.0
 11
235.676556
 21
379.92634
 31
0.0
  0
LINE
  8
LC-003-005-----0
 62
     2
  5
113
 10
233.976556
 20
381.054767
 30
0.0
 11
235.676556
 21
382.754767
 31
0.0
  0
LINE
  8
LC-003-005-----0
 62
     2
  5
114
 10
233.976556
 20
383.883194
 30
0.0
 11
235.676556
 21
385.583194
 31
0.0
  0
LINE
  8
LC-003-005-----0
 62
     2
  5
115
 10
233.976556
 20
386.711621
 30
0.0
 11
235.676556
 21
388.411621
 31
0.0
  0
LINE
  8
LC-003-005-----0
 62
     2
  5
116
 10
233.976556
 20
389.540048
 30
0.0
 11
235.676556
 21
391.240048
 31
0.0
  0
LINE
  8
LC-003-005-----0
 62
     2
  5
117
 10
233.976556
 20
392.368475
 30
0.0
 11
234.437278
 21
392.829197
 31
0.0
  0
ENDBLK
  8
0
  5
118
  0
BLOCK
  8
0
  5
11B
  2
*X5
 70
    65
 10
251.365856
 20
363.829197
 30
0.0
  3
*X5
  0
LINE
  8
LC-003-005-----0
 62
     2
  5
11C
 10
253.520539
 20
363.829197
 30
0.0
 11
254.758973
 21
365.067631
 31
0.0
  0
LINE
  8
LC-003-005-----0
 62
     2
  5
11D
 10
251.365856
 20
364.502941
 30
0.0
 11
252.392112
 21
365.529197
 31
0.0
  0
ENDBLK
  8
0
  5
11E
  0
BLOCK
  8
0
  5
121
  2
*X6
 70
    65
 10
263.608342
 20
363.829197
 30
0.0
  3
*X6
  0
LINE
  8
LC-003-005-----0
 62
     2
  5
122
 10
267.662674
 20
363.829197
 30
0.0
 11
267.741128
 21
363.907651
 31
0.0
  0
LINE
  8
LC-003-005-----0
 62
     2
  5
123
 10
264.834247
 20
363.829197
 30
0.0
 11
266.534247
 21
365.529197
 31
0.0
  0
LINE
  8
LC-003-005-----0
 62
     2
  5
124
 10
263.608342
 20
365.431719
 30
0.0
 11
263.70582
 21
365.529197
 31
0.0
  0
ENDBLK
  8
0
  5
125
  0
BLOCK
  8
0
  5
128
  2
*X7
 70
    65
 10
274.976556
 20
363.829197
 30
0.0
  3
*X7
  0
LINE
  8
LC-003-005-----0
 62
     2
  5
129
 10
281.80481
 20
363.829197
 30
0.0
 11
283.976556
 21
366.000943
 31
0.0
  0
LINE
  8
LC-003-005-----0
 62
     2
  5
12A
 10
278.976383
 20
363.829197
 30
0.0
 11
283.976556
 21
368.82937
 31
0.0
  0
LINE
  8
LC-003-005-----0
 62
     2
  5
12B
 10
276.147956
 20
363.829197
 30
0.0
 11
277.847956
 21
365.529197
 31
0.0
  0
LINE
  8
LC-003-005-----0
 62
     2
  5
12C
 10
280.976556
 20
368.657797
 30
0.0
 11
283.976556
 21
371.657797
 31
0.0
  0
LINE
  8
LC-003-005-----0
 62
     2
  5
12D
 10
280.976556
 20
371.486224
 30
0.0
 11
283.976556
 21
374.486224
 31
0.0
  0
LINE
  8
LC-003-005-----0
 62
     2
  5
12E
 10
280.976556
 20
374.314652
 30
0.0
 11
283.976556
 21
377.314652
 31
0.0
  0
LINE
  8
LC-003-005-----0
 62
     2
  5
12F
 10
280.976556
 20
377.143079
 30
0.0
 11
283.976556
 21
380.143079
 31
0.0
  0
LINE
  8
LC-003-005-----0
 62
     2
  5
130
 10
280.976556
 20
379.971506
 30
0.0
 11
283.976556
 21
382.971506
 31
0.0
  0
LINE
  8
LC-003-005-----0
 62
     2
  5
131
 10
280.976556
 20
382.799933
 30
0.0
 11
283.00582
 21
384.829197
 31
0.0
  0
ENDBLK
  8
0
  5
132
  0
BLOCK
  8
0
  5
135
  2
*X8
 70
    65
 10
356.976556
 20
363.829197
 30
0.0
  3
*X8
  0
LINE
  8
LC-003-005-----0
 62
     2
  5
136
 10
367.150472
 20
364.322045
 30
0.0
 11
371.483708
 21
368.655281
 31
0.0
  0
LINE
  8
LC-003-005-----0
 62
     2
  5
137
 10
363.829197
 20
363.829197
 30
0.0
 11
365.648918
 21
365.648918
 31
0.0
  0
LINE
  8
LC-003-005-----0
 62
     2
  5
138
 10
370.156835
 20
370.156835
 30
0.0
 11
371.976556
 21
371.976556
 31
0.0
  0
LINE
  8
LC-003-005-----0
 62
     2
  5
139
 10
362.262325
 20
365.090752
 30
0.0
 11
362.700769
 21
365.529197
 31
0.0
  0
LINE
  8
LC-003-005-----0
 62
     2
  5
13A
 10
370.276556
 20
373.104984
 30
0.0
 11
371.976556
 21
374.804984
 31
0.0
  0
LINE
  8
LC-003-005-----0
 62
     2
  5
13B
 10
370.276556
 20
375.933411
 30
0.0
 11
371.976556
 21
377.633411
 31
0.0
  0
LINE
  8
LC-003-005-----0
 62
     2
  5
13C
 10
370.276556
 20
378.761838
 30
0.0
 11
371.976556
 21
380.461838
 31
0.0
  0
LINE
  8
LC-003-005-----0
 62
     2
  5
13D
 10
370.276556
 20
381.590265
 30
0.0
 11
371.976556
 21
383.290265
 31
0.0
  0
LINE
  8
LC-003-005-----0
 62
     2
  5
13E
 10
370.276556
 20
384.418692
 30
0.0
 11
371.976556
 21
386.118692
 31
0.0
  0
LINE
  8
LC-003-005-----0
 62
     2
  5
13F
 10
370.276556
 20
387.247119
 30
0.0
 11
371.976556
 21
388.947119
 31
0.0
  0
LINE
  8
LC-003-005-----0
 62
     2
  5
140
 10
370.276556
 20
390.075546
 30
0.0
 11
371.976556
 21
391.775546
 31
0.0
  0
ENDBLK
  8
0
  5
141
  0
BLOCK
  8
0
  5
144
  2
*X9
 70
    65
 10
351.19414
 20
363.829197
 30
0.0
  3
*X9
  0
LINE
  8
LC-003-005-----0
 62
     2
  5
145
 10
352.515488
 20
363.829197
 30
0.0
 11
354.215488
 21
365.529197
 31
0.0
  0
LINE
  8
LC-003-005-----0
 62
     2
  5
146
 10
351.19414
 20
365.336275
 30
0.0
 11
351.387061
 21
365.529197
 31
0.0
  0
ENDBLK
  8
0
  5
147
  0
BLOCK
  8
0
  5
14A
  2
*X10
 70
    65
 10
338.211985
 20
363.829197
 30
0.0
  3
*X10
  0
LINE
  8
LC-003-005-----0
 62
     2
  5
14B
 10
341.20178
 20
363.829197
 30
0.0
 11
342.344771
 21
364.972188
 31
0.0
  0
LINE
  8
LC-003-005-----0
 62
     2
  5
14C
 10
338.373352
 20
363.829197
 30
0.0
 11
340.073352
 21
365.529197
 31
0.0
  0
ENDBLK
  8
0
  5
14D
  0
BLOCK
  8
0
  5
150
  2
*X11
 70
    65
 10
321.976556
 20
363.829197
 30
0.0
  3
*X11
  0
LINE
  8
LC-003-005-----0
 62
     2
  5
151
 10
329.888071
 20
363.829197
 30
0.0
 11
330.476556
 21
364.417682
 31
0.0
  0
LINE
  8
LC-003-005-----0
 62
     2
  5
152
 10
327.059644
 20
363.829197
 30
0.0
 11
328.759644
 21
365.529197
 31
0.0
  0
LINE
  8
LC-003-005-----0
 62
     2
  5
153
 10
324.231217
 20
363.829197
 30
0.0
 11
326.386967
 21
365.984947
 31
0.0
  0
LINE
  8
LC-003-005-----0
 62
     2
  5
154
 10
321.976556
 20
364.402963
 30
0.0
 11
325.136452
 21
367.562859
 31
0.0
  0
LINE
  8
LC-003-005-----0
 62
     2
  5
155
 10
321.976556
 20
367.23139
 30
0.0
 11
324.976556
 21
370.23139
 31
0.0
  0
LINE
  8
LC-003-005-----0
 62
     2
  5
156
 10
321.976556
 20
370.059818
 30
0.0
 11
324.976556
 21
373.059818
 31
0.0
  0
LINE
  8
LC-003-005-----0
 62
     2
  5
157
 10
321.976556
 20
372.888245
 30
0.0
 11
324.976556
 21
375.888245
 31
0.0
  0
LINE
  8
LC-003-005-----0
 62
     2
  5
158
 10
321.976556
 20
375.716672
 30
0.0
 11
324.976556
 21
378.716672
 31
0.0
  0
LINE
  8
LC-003-005-----0
 62
     2
  5
159
 10
321.976556
 20
378.545099
 30
0.0
 11
324.976556
 21
381.545099
 31
0.0
  0
LINE
  8
LC-003-005-----0
 62
     2
  5
15A
 10
321.976556
 20
381.373526
 30
0.0
 11
324.976556
 21
384.373526
 31
0.0
  0
LINE
  8
LC-003-005-----0
 62
     2
  5
15B
 10
321.976556
 20
384.201953
 30
0.0
 11
322.6038
 21
384.829197
 31
0.0
  0
ENDBLK
  8
0
  5
15C
  0
BLOCK
  8
0
  5
160
  2
*D12
 70
    65
 10
0.0
 20
0.0
 30
0.0
  3
*D12
  0
LINE
  8
LC-004-003-MTH-0
  6
BYBLOCK
 62
     2
  5
162
 10
228.976556
 20
403.229197
 30
0.0
 11
228.915814
 21
448.308858
 31
0.0
  0
LINE
  8
LC-004-003-MTH-0
 62
     2
  5
163
 10
377.923469
 20
403.429894
 30
0.0
 11
377.862726
 21
448.509555
 31
0.0
  0
LINE
  8
LC-005-003-MTG-0
  6
BYBLOCK
 62
     2
  5
165
 10
228.938451
 20
431.508873
 30
0.0
 11
377.885363
 21
431.70957
 31
0.0
  0
LINE
  8
LC-006-003-----0
  6
BYBLOCK
 62
     2
  5
167
 10
256.693958
 20
435.201009
 30
0.0
 11
228.938451
 21
431.508873
 31
0.0
  0
LINE
  8
LC-006-003-----0
 62
     2
  5
168
 10
228.938451
 20
431.508873
 30
0.0
 11
256.703807
 21
427.891549
 31
0.0
  0
LINE
  8
LC-006-003-----0
 62
     2
  5
169
 10
256.703807
 20
427.891549
 30
0.0
 11
256.693958
 21
435.201009
 31
0.0
  0
LINE
  8
LC-006-003-----0
 62
     2
  5
16A
 10
256.757519
 20
434.250863
 30
0.0
 11
236.218445
 21
431.518682
 31
0.0
  0
LINE
  8
LC-006-003-----0
 62
     2
  5
16B
 10
236.218445
 20
431.518682
 30
0.0
 11
256.764808
 21
428.841862
 31
0.0
  0
LINE
  8
LC-006-003-----0
 62
     2
  5
16C
 10
256.821081
 20
433.300717
 30
0.0
 11
243.498438
 21
431.528492
 31
0.0
  0
LINE
  8
LC-006-003-----0
 62
     2
  5
16D
 10
243.498438
 20
431.528492
 30
0.0
 11
256.825809
 21
429.792176
 31
0.0
  0
LINE
  8
LC-006-003-----0
 62
     2
  5
16E
 10
256.884643
 20
432.350571
 30
0.0
 11
250.778431
 21
431.538301
 31
0.0
  0
LINE
  8
LC-006-003-----0
 62
     2
  5
16F
 10
250.778431
 20
431.538301
 30
0.0
 11
256.88681
 21
430.74249
 31
0.0
  0
LINE
  8
LC-006-003-----0
 62
     2
  5
170
 10
350.129857
 20
428.017435
 30
0.0
 11
377.885363
 21
431.70957
 31
0.0
  0
LINE
  8
LC-006-003-----0
 62
     2
  5
171
 10
377.885363
 20
431.70957
 30
0.0
 11
350.120008
 21
435.326895
 31
0.0
  0
LINE
  8
LC-006-003-----0
 62
     2
  5
172
 10
350.120008
 20
435.326895
 30
0.0
 11
350.129857
 21
428.017435
 31
0.0
  0
LINE
  8
LC-006-003-----0
 62
     2
  5
173
 10
350.066295
 20
428.967581
 30
0.0
 11
370.60537
 21
431.699761
 31
0.0
  0
LINE
  8
LC-006-003-----0
 62
     2
  5
174
 10
370.60537
 20
431.699761
 30
0.0
 11
350.059007
 21
434.376581
 31
0.0
  0
LINE
  8
LC-006-003-----0
 62
     2
  5
175
 10
350.002733
 20
429.917727
 30
0.0
 11
363.325376
 21
431.689952
 31
0.0
  0
LINE
  8
LC-006-003-----0
 62
     2
  5
176
 10
363.325376
 20
431.689952
 30
0.0
 11
349.998006
 21
433.426267
 31
0.0
  0
LINE
  8
LC-006-003-----0
 62
     2
  5
177
 10
349.939172
 20
430.867872
 30
0.0
 11
356.045383
 21
431.680142
 31
0.0
  0
LINE
  8
LC-006-003-----0
 62
     2
  5
178
 10
356.045383
 20
431.680142
 30
0.0
 11
349.937005
 21
432.475954
 31
0.0
  0
TEXT
  8
LC-006-003-----0
 62
     7
  5
179
 10
281.12154
 20
439.406748
 30
0.0
 40
28.0
  1
150
 50
0.077203
 41
0.9
 51
15.0
  7
LCTX15-400-0-0-ARIAL
 72
     1
 11
307.749516
 21
439.442627
 31
0.0
  0
ENDBLK
  8
0
  5
17A
  0
BLOCK
  8
0
  5
182
  2
*D13
 70
    65
 10
0.0
 20
0.0
 30
0.0
  3
*D13
  0
LINE
  8
LC-004-003-MTH-0
 62
     2
  5
183
 10
250.976443
 20
195.431982
 30
0.0
 11
140.0
 21
195.431982
 31
0.0
  0
LINE
  8
LC-004-003-MTH-0
 62
     2
  5
184
 10
220.476556
 20
305.932014
 30
0.0
 11
140.0
 21
305.932014
 31
0.0
  0
LINE
  8
LC-005-003-MTG-0
 62
     2
  5
185
 10
156.8
 20
195.431982
 30
0.0
 11
156.8
 21
305.932014
 31
0.0
  0
LINE
  8
LC-006-003-----0
 62
     2
  5
186
 10
153.145267
 20
223.192438
 30
0.0
 11
156.8
 21
195.431982
 31
0.0
  0
LINE
  8
LC-006-003-----0
 62
     2
  5
187
 10
156.8
 20
195.431982
 30
0.0
 11
160.454733
 21
223.192438
 31
0.0
  0
LINE
  8
LC-006-003-----0
 62
     2
  5
188
 10
160.454733
 20
223.192438
 30
0.0
 11
153.145267
 21
223.192438
 31
0.0
  0
LINE
  8
LC-006-003-----0
 62
     2
  5
189
 10
154.095497
 20
223.254719
 30
0.0
 11
156.8
 21
202.711982
 31
0.0
  0
LINE
  8
LC-006-003-----0
 62
     2
  5
18A
 10
156.8
 20
202.711982
 30
0.0
 11
159.504503
 21
223.254719
 31
0.0
  0
LINE
  8
LC-006-003-----0
 62
     2
  5
18B
 10
155.045728
 20
223.317001
 30
0.0
 11
156.8
 21
209.991982
 31
0.0
  0
LINE
  8
LC-006-003-----0
 62
     2
  5
18C
 10
156.8
 20
209.991982
 30
0.0
 11
158.554272
 21
223.317001
 31
0.0
  0
LINE
  8
LC-006-003-----0
 62
     2
  5
18D
 10
155.995959
 20
223.379282
 30
0.0
 11
156.8
 21
217.271982
 31
0.0
  0
LINE
  8
LC-006-003-----0
 62
     2
  5
18E
 10
156.8
 20
217.271982
 30
0.0
 11
157.604041
 21
223.379282
 31
0.0
  0
LINE
  8
LC-006-003-----0
 62
     2
  5
18F
 10
160.454733
 20
278.171558
 30
0.0
 11
156.8
 21
305.932014
 31
0.0
  0
LINE
  8
LC-006-003-----0
 62
     2
  5
190
 10
156.8
 20
305.932014
 30
0.0
 11
153.145267
 21
278.171558
 31
0.0
  0
LINE
  8
LC-006-003-----0
 62
     2
  5
191
 10
153.145267
 20
278.171558
 30
0.0
 11
160.454733
 21
278.171558
 31
0.0
  0
LINE
  8
LC-006-003-----0
 62
     2
  5
192
 10
159.504503
 20
278.109277
 30
0.0
 11
156.8
 21
298.652014
 31
0.0
  0
LINE
  8
LC-006-003-----0
 62
     2
  5
193
 10
156.8
 20
298.652014
 30
0.0
 11
154.095497
 21
278.109277
 31
0.0
  0
LINE
  8
LC-006-003-----0
 62
     2
  5
194
 10
158.554272
 20
278.046995
 30
0.0
 11
156.8
 21
291.372014
 31
0.0
  0
LINE
  8
LC-006-003-----0
 62
     2
  5
195
 10
156.8
 20
291.372014
 30
0.0
 11
155.045728
 21
278.046995
 31
0.0
  0
LINE
  8
LC-006-003-----0
 62
     2
  5
196
 10
157.604041
 20
277.984714
 30
0.0
 11
156.8
 21
284.092014
 31
0.0
  0
LINE
  8
LC-006-003-----0
 62
     2
  5
197
 10
156.8
 20
284.092014
 30
0.0
 11
155.995959
 21
277.984714
 31
0.0
  0
TEXT
  8
LC-006-003-----0
 62
     7
  5
198
 10
148.972446
 20
228.402158
 30
0.0
 40
28.0
  1
110
 50
90.0
 41
0.9
 51
15.0
  7
LCTX15-400-0-0-ARIAL
 72
     1
 11
148.972446
 21
255.030158
 31
0.0
  0
ENDBLK
  8
0
  5
199
  0
BLOCK
  8
0
  5
19C
  2
*D14
 70
    65
 10
0.0
 20
0.0
 30
0.0
  3
*D14
  0
LINE
  8
LC-004-003-MTH-0
 62
     2
  5
19D
 10
385.476775
 20
308.432197
 30
0.0
 11
456.8
 21
308.432197
 31
0.0
  0
LINE
  8
LC-004-003-MTH-0
 62
     2
  5
19E
 10
377.923469
 20
403.429894
 30
0.0
 11
456.8
 21
403.429894
 31
0.0
  0
LINE
  8
LC-005-003-MTG-0
 62
     2
  5
19F
 10
440.0
 20
308.432197
 30
0.0
 11
440.0
 21
403.429894
 31
0.0
  0
LINE
  8
LC-006-003-----0
 62
     2
  5
1A0
 10
436.345267
 20
336.192653
 30
0.0
 11
440.0
 21
308.432197
 31
0.0
  0
LINE
  8
LC-006-003-----0
 62
     2
  5
1A1
 10
440.0
 20
308.432197
 30
0.0
 11
443.654733
 21
336.192653
 31
0.0
  0
LINE
  8
LC-006-003-----0
 62
     2
  5
1A2
 10
443.654733
 20
336.192653
 30
0.0
 11
436.345267
 21
336.192653
 31
0.0
  0
LINE
  8
LC-006-003-----0
 62
     2
  5
1A3
 10
437.295497
 20
336.254935
 30
0.0
 11
440.0
 21
315.712197
 31
0.0
  0
LINE
  8
LC-006-003-----0
 62
     2
  5
1A4
 10
440.0
 20
315.712197
 30
0.0
 11
442.704503
 21
336.254935
 31
0.0
  0
LINE
  8
LC-006-003-----0
 62
     2
  5
1A5
 10
438.245728
 20
336.317216
 30
0.0
 11
440.0
 21
322.992197
 31
0.0
  0
LINE
  8
LC-006-003-----0
 62
     2
  5
1A6
 10
440.0
 20
322.992197
 30
0.0
 11
441.754272
 21
336.317216
 31
0.0
  0
LINE
  8
LC-006-003-----0
 62
     2
  5
1A7
 10
439.195959
 20
336.379498
 30
0.0
 11
440.0
 21
330.272197
 31
0.0
  0
LINE
  8
LC-006-003-----0
 62
     2
  5
1A8
 10
440.0
 20
330.272197
 30
0.0
 11
440.804041
 21
336.379498
 31
0.0
  0
LINE
  8
LC-006-003-----0
 62
     2
  5
1A9
 10
443.654733
 20
375.669438
 30
0.0
 11
440.0
 21
403.429894
 31
0.0
  0
LINE
  8
LC-006-003-----0
 62
     2
  5
1AA
 10
440.0
 20
403.429894
 30
0.0
 11
436.345267
 21
375.669438
 31
0.0
  0
LINE
  8
LC-006-003-----0
 62
     2
  5
1AB
 10
436.345267
 20
375.669438
 30
0.0
 11
443.654733
 21
375.669438
 31
0.0
  0
LINE
  8
LC-006-003-----0
 62
     2
  5
1AC
 10
442.704503
 20
375.607157
 30
0.0
 11
440.0
 21
396.149894
 31
0.0
  0
LINE
  8
LC-006-003-----0
 62
     2
  5
1AD
 10
440.0
 20
396.149894
 30
0.0
 11
437.295497
 21
375.607157
 31
0.0
  0
LINE
  8
LC-006-003-----0
 62
     2
  5
1AE
 10
441.754272
 20
375.544875
 30
0.0
 11
440.0
 21
388.869894
 31
0.0
  0
LINE
  8
LC-006-003-----0
 62
     2
  5
1AF
 10
440.0
 20
388.869894
 30
0.0
 11
438.245728
 21
375.544875
 31
0.0
  0
LINE
  8
LC-006-003-----0
 62
     2
  5
1B0
 10
440.804041
 20
375.482594
 30
0.0
 11
440.0
 21
381.589894
 31
0.0
  0
LINE
  8
LC-006-003-----0
 62
     2
  5
1B1
 10
440.0
 20
381.589894
 30
0.0
 11
439.195959
 21
375.482594
 31
0.0
  0
TEXT
  8
LC-006-003-----0
 62
     7
  5
1B2
 10
432.172446
 20
328.471206
 30
0.0
 40
28.0
  1
45-95
 50
90.0
 41
0.7
 51
15.0
  7
LCTX15-400-0-0-ARIAL
 72
     1
 11
432.172446
 21
360.279206
 31
0.0
  0
ENDBLK
  8
0
  5
1B3
  0
BLOCK
  8
0
  5
1C0
  2
*X15
 70
    65
 10
302.976556
 20
195.431845
 30
0.0
  3
*X15
  0
LINE
  8
LC-003-005-----0
 62
     2
  5
1C1
 10
446.603755
 20
225.986439
 30
0.0
 11
449.306036
 21
228.68872
 31
0.0
  0
LINE
  8
LC-003-005-----0
 62
     2
  5
1C2
 10
443.57364
 20
225.784751
 30
0.0
 11
446.618459
 21
228.82957
 31
0.0
  0
LINE
  8
LC-003-005-----0
 62
     2
  5
1C3
 10
440.886063
 20
225.925601
 30
0.0
 11
443.930882
 21
228.97042
 31
0.0
  0
LINE
  8
LC-003-005-----0
 62
     2
  5
1C4
 10
438.198485
 20
226.066451
 30
0.0
 11
441.243305
 21
229.11127
 31
0.0
  0
LINE
  8
LC-003-005-----0
 62
     2
  5
1C5
 10
435.510908
 20
226.207301
 30
0.0
 11
438.555727
 21
229.25212
 31
0.0
  0
LINE
  8
LC-003-005-----0
 62
     2
  5
1C6
 10
432.823331
 20
226.348151
 30
0.0
 11
435.86815
 21
229.39297
 31
0.0
  0
LINE
  8
LC-003-005-----0
 62
     2
  5
1C7
 10
430.135754
 20
226.489001
 30
0.0
 11
433.180573
 21
229.53382
 31
0.0
  0
LINE
  8
LC-003-005-----0
 62
     2
  5
1C8
 10
427.448177
 20
226.629851
 30
0.0
 11
430.492996
 21
229.67467
 31
0.0
  0
LINE
  8
LC-003-005-----0
 62
     2
  5
1C9
 10
424.760599
 20
226.770701
 30
0.0
 11
427.805419
 21
229.81552
 31
0.0
  0
LINE
  8
LC-003-005-----0
 62
     2
  5
1CA
 10
422.073022
 20
226.911551
 30
0.0
 11
425.117842
 21
229.95637
 31
0.0
  0
LINE
  8
LC-003-005-----0
 62
     2
  5
1CB
 10
419.385445
 20
227.052401
 30
0.0
 11
422.430264
 21
230.09722
 31
0.0
  0
LINE
  8
LC-003-005-----0
 62
     2
  5
1CC
 10
416.697868
 20
227.193251
 30
0.0
 11
419.742687
 21
230.23807
 31
0.0
  0
LINE
  8
LC-003-005-----0
 62
     2
  5
1CD
 10
414.010291
 20
227.334101
 30
0.0
 11
417.05511
 21
230.37892
 31
0.0
  0
LINE
  8
LC-003-005-----0
 62
     2
  5
1CE
 10
411.322714
 20
227.474951
 30
0.0
 11
414.367533
 21
230.51977
 31
0.0
  0
LINE
  8
LC-003-005-----0
 62
     2
  5
1CF
 10
408.635136
 20
227.6158
 30
0.0
 11
411.679956
 21
230.66062
 31
0.0
  0
LINE
  8
LC-003-005-----0
 62
     2
  5
1D0
 10
405.947559
 20
227.75665
 30
0.0
 11
408.992379
 21
230.80147
 31
0.0
  0
LINE
  8
LC-003-005-----0
 62
     2
  5
1D1
 10
403.259982
 20
227.8975
 30
0.0
 11
406.304801
 21
230.94232
 31
0.0
  0
LINE
  8
LC-003-005-----0
 62
     2
  5
1D2
 10
400.572405
 20
228.03835
 30
0.0
 11
403.617224
 21
231.08317
 31
0.0
  0
LINE
  8
LC-003-005-----0
 62
     2
  5
1D3
 10
397.884828
 20
228.1792
 30
0.0
 11
400.929647
 21
231.22402
 31
0.0
  0
LINE
  8
LC-003-005-----0
 62
     2
  5
1D4
 10
365.005182
 20
198.127982
 30
0.0
 11
372.280643
 21
205.403443
 31
0.0
  0
LINE
  8
LC-003-005-----0
 62
     2
  5
1D5
 10
395.197251
 20
228.32005
 30
0.0
 11
398.24207
 21
231.36487
 31
0.0
  0
LINE
  8
LC-003-005-----0
 62
     2
  5
1D6
 10
360.165617
 20
196.116844
 30
0.0
 11
365.49315
 21
201.444377
 31
0.0
  0
LINE
  8
LC-003-005-----0
 62
     2
  5
1D7
 10
368.964248
 20
204.915475
 30
0.0
 11
374.291781
 21
210.243008
 31
0.0
  0
LINE
  8
LC-003-005-----0
 62
     2
  5
1D8
 10
392.509673
 20
228.4609
 30
0.0
 11
395.554493
 21
231.505719
 31
0.0
  0
LINE
  8
LC-003-005-----0
 62
     2
  5
1D9
 10
356.729268
 20
195.508922
 30
0.0
 11
359.842369
 21
198.622023
 31
0.0
  0
LINE
  8
LC-003-005-----0
 62
     2
  5
1DA
 10
371.786602
 20
210.566256
 30
0.0
 11
374.899703
 21
213.679357
 31
0.0
  0
LINE
  8
LC-003-005-----0
 62
     2
  5
1DB
 10
389.822096
 20
228.60175
 30
0.0
 11
392.866916
 21
231.646569
 31
0.0
  0
LINE
  8
LC-003-005-----0
 62
     2
  5
1DC
 10
353.823765
 20
195.431846
 30
0.0
 11
356.380283
 21
197.988364
 31
0.0
  0
LINE
  8
LC-003-005-----0
 62
     2
  5
1DD
 10
372.420261
 20
214.028342
 30
0.0
 11
374.976643
 21
216.584724
 31
0.0
  0
LINE
  8
LC-003-005-----0
 62
     2
  5
1DE
 10
387.134519
 20
228.7426
 30
0.0
 11
390.179338
 21
231.787419
 31
0.0
  0
LINE
  8
LC-003-005-----0
 62
     2
  5
1DF
 10
350.995342
 20
195.43185
 30
0.0
 11
353.495339
 21
197.931847
 31
0.0
  0
LINE
  8
LC-003-005-----0
 62
     2
  5
1E0
 10
372.476643
 20
216.913151
 30
0.0
 11
374.976643
 21
219.413151
 31
0.0
  0
LINE
  8
LC-003-005-----0
 62
     2
  5
1E1
 10
384.446942
 20
228.88345
 30
0.0
 11
387.491761
 21
231.928269
 31
0.0
  0
LINE
  8
LC-003-005-----0
 62
     2
  5
1E2
 10
348.166919
 20
195.431854
 30
0.0
 11
350.666915
 21
197.931851
 31
0.0
  0
LINE
  8
LC-003-005-----0
 62
     2
  5
1E3
 10
372.476643
 20
219.741579
 30
0.0
 11
374.976643
 21
222.241579
 31
0.0
  0
LINE
  8
LC-003-005-----0
 62
     2
  5
1E4
 10
381.759365
 20
229.0243
 30
0.0
 11
384.804184
 21
232.069119
 31
0.0
  0
LINE
  8
LC-003-005-----0
 62
     2
  5
1E5
 10
345.338495
 20
195.431858
 30
0.0
 11
347.838492
 21
197.931854
 31
0.0
  0
LINE
  8
LC-003-005-----0
 62
     2
  5
1E6
 10
372.476643
 20
222.570006
 30
0.0
 11
374.976643
 21
225.070006
 31
0.0
  0
LINE
  8
LC-003-005-----0
 62
     2
  5
1E7
 10
379.071788
 20
229.16515
 30
0.0
 11
382.116607
 21
232.209969
 31
0.0
  0
LINE
  8
LC-003-005-----0
 62
     2
  5
1E8
 10
342.510072
 20
195.431861
 30
0.0
 11
345.010069
 21
197.931858
 31
0.0
  0
LINE
  8
LC-003-005-----0
 62
     2
  5
1E9
 10
372.476643
 20
225.398433
 30
0.0
 11
374.976643
 21
227.898433
 31
0.0
  0
LINE
  8
LC-003-005-----0
 62
     2
  5
1EA
 10
376.38421
 20
229.306
 30
0.0
 11
379.42903
 21
232.350819
 31
0.0
  0
LINE
  8
LC-003-005-----0
 62
     2
  5
1EB
 10
339.681649
 20
195.431865
 30
0.0
 11
342.181645
 21
197.931862
 31
0.0
  0
LINE
  8
LC-003-005-----0
 62
     2
  5
1EC
 10
342.485722
 20
198.235938
 30
0.0
 11
344.485724
 21
200.235941
 31
0.0
  0
LINE
  8
LC-003-005-----0
 62
     2
  5
1ED
 10
372.476643
 20
228.22686
 30
0.0
 11
376.741452
 21
232.491669
 31
0.0
  0
LINE
  8
LC-003-005-----0
 62
     2
  5
1EE
 10
336.853225
 20
195.431869
 30
0.0
 11
339.353222
 21
197.931866
 31
0.0
  0
LINE
  8
LC-003-005-----0
 62
     2
  5
1EF
 10
342.485725
 20
201.064369
 30
0.0
 11
344.485727
 21
203.064371
 31
0.0
  0
LINE
  8
LC-003-005-----0
 62
     2
  5
1F0
 10
372.476643
 20
231.055287
 30
0.0
 11
374.053875
 21
232.632519
 31
0.0
  0
LINE
  8
LC-003-005-----0
 62
     2
  5
1F1
 10
334.024802
 20
195.431873
 30
0.0
 11
336.524799
 21
197.931869
 31
0.0
  0
LINE
  8
LC-003-005-----0
 62
     2
  5
1F2
 10
342.485728
 20
203.892799
 30
0.0
 11
344.48573
 21
205.892801
 31
0.0
  0
LINE
  8
LC-003-005-----0
 62
     2
  5
1F3
 10
331.196378
 20
195.431876
 30
0.0
 11
333.696375
 21
197.931873
 31
0.0
  0
LINE
  8
LC-003-005-----0
 62
     2
  5
1F4
 10
342.485731
 20
206.721229
 30
0.0
 11
344.485734
 21
208.721232
 31
0.0
  0
LINE
  8
LC-003-005-----0
 62
     2
  5
1F5
 10
328.367955
 20
195.43188
 30
0.0
 11
330.867952
 21
197.931877
 31
0.0
  0
LINE
  8
LC-003-005-----0
 62
     2
  5
1F6
 10
342.485735
 20
209.54966
 30
0.0
 11
344.485737
 21
211.549662
 31
0.0
  0
LINE
  8
LC-003-005-----0
 62
     2
  5
1F7
 10
325.539532
 20
195.431884
 30
0.0
 11
328.039528
 21
197.931881
 31
0.0
  0
LINE
  8
LC-003-005-----0
 62
     2
  5
1F8
 10
342.485738
 20
212.37809
 30
0.0
 11
344.48574
 21
214.378092
 31
0.0
  0
LINE
  8
LC-003-005-----0
 62
     2
  5
1F9
 10
322.711108
 20
195.431888
 30
0.0
 11
325.211105
 21
197.931884
 31
0.0
  0
LINE
  8
LC-003-005-----0
 62
     2
  5
1FA
 10
342.485741
 20
215.20652
 30
0.0
 11
344.485743
 21
217.206523
 31
0.0
  0
LINE
  8
LC-003-005-----0
 62
     2
  5
1FB
 10
319.882685
 20
195.431891
 30
0.0
 11
322.382682
 21
197.931888
 31
0.0
  0
LINE
  8
LC-003-005-----0
 62
     2
  5
1FC
 10
342.485744
 20
218.034951
 30
0.0
 11
344.485747
 21
220.034953
 31
0.0
  0
LINE
  8
LC-003-005-----0
 62
     2
  5
1FD
 10
317.054262
 20
195.431895
 30
0.0
 11
319.554258
 21
197.931892
 31
0.0
  0
LINE
  8
LC-003-005-----0
 62
     2
  5
1FE
 10
342.485748
 20
220.863381
 30
0.0
 11
344.48575
 21
222.863383
 31
0.0
  0
LINE
  8
LC-003-005-----0
 62
     2
  5
1FF
 10
314.225838
 20
195.431899
 30
0.0
 11
316.725835
 21
197.931896
 31
0.0
  0
LINE
  8
LC-003-005-----0
 62
     2
  5
200
 10
342.485751
 20
223.691812
 30
0.0
 11
344.485753
 21
225.691814
 31
0.0
  0
LINE
  8
LC-003-005-----0
 62
     2
  5
201
 10
311.397415
 20
195.431903
 30
0.0
 11
313.897412
 21
197.931899
 31
0.0
  0
LINE
  8
LC-003-005-----0
 62
     2
  5
202
 10
342.485754
 20
226.520242
 30
0.0
 11
344.485756
 21
228.520244
 31
0.0
  0
LINE
  8
LC-003-005-----0
 62
     2
  5
203
 10
308.568991
 20
195.431907
 30
0.0
 11
311.068988
 21
197.931903
 31
0.0
  0
LINE
  8
LC-003-005-----0
 62
     2
  5
204
 10
342.485757
 20
229.348672
 30
0.0
 11
344.48576
 21
231.348675
 31
0.0
  0
LINE
  8
LC-003-005-----0
 62
     2
  5
205
 10
305.740568
 20
195.43191
 30
0.0
 11
308.240565
 21
197.931907
 31
0.0
  0
LINE
  8
LC-003-005-----0
 62
     2
  5
206
 10
342.485761
 20
232.177103
 30
0.0
 11
344.485763
 21
234.177105
 31
0.0
  0
LINE
  8
LC-003-005-----0
 62
     2
  5
207
 10
302.976556
 20
195.496326
 30
0.0
 11
305.412141
 21
197.931911
 31
0.0
  0
LINE
  8
LC-003-005-----0
 62
     2
  5
208
 10
342.485764
 20
235.005533
 30
0.0
 11
344.485766
 21
237.005535
 31
0.0
  0
LINE
  8
LC-003-005-----0
 62
     2
  5
209
 10
342.485767
 20
237.833963
 30
0.0
 11
344.485769
 21
239.833966
 31
0.0
  0
LINE
  8
LC-003-005-----0
 62
     2
  5
20A
 10
342.48577
 20
240.662394
 30
0.0
 11
344.485773
 21
242.662396
 31
0.0
  0
LINE
  8
LC-003-005-----0
 62
     2
  5
20B
 10
342.485773
 20
243.490824
 30
0.0
 11
344.485776
 21
245.490826
 31
0.0
  0
LINE
  8
LC-003-005-----0
 62
     2
  5
20C
 10
342.485777
 20
246.319254
 30
0.0
 11
344.485779
 21
248.319257
 31
0.0
  0
LINE
  8
LC-003-005-----0
 62
     2
  5
20D
 10
342.48578
 20
249.147685
 30
0.0
 11
344.485782
 21
251.147687
 31
0.0
  0
LINE
  8
LC-003-005-----0
 62
     2
  5
20E
 10
342.485783
 20
251.976115
 30
0.0
 11
344.485786
 21
253.976118
 31
0.0
  0
LINE
  8
LC-003-005-----0
 62
     2
  5
20F
 10
342.485786
 20
254.804546
 30
0.0
 11
344.485789
 21
256.804548
 31
0.0
  0
LINE
  8
LC-003-005-----0
 62
     2
  5
210
 10
342.48579
 20
257.632976
 30
0.0
 11
344.485792
 21
259.632978
 31
0.0
  0
LINE
  8
LC-003-005-----0
 62
     2
  5
211
 10
342.485793
 20
260.461406
 30
0.0
 11
344.485795
 21
262.461409
 31
0.0
  0
LINE
  8
LC-003-005-----0
 62
     2
  5
212
 10
342.485796
 20
263.289837
 30
0.0
 11
344.485798
 21
265.289839
 31
0.0
  0
LINE
  8
LC-003-005-----0
 62
     2
  5
213
 10
342.485799
 20
266.118267
 30
0.0
 11
344.485802
 21
268.118269
 31
0.0
  0
LINE
  8
LC-003-005-----0
 62
     2
  5
214
 10
342.485803
 20
268.946697
 30
0.0
 11
344.485805
 21
270.9467
 31
0.0
  0
LINE
  8
LC-003-005-----0
 62
     2
  5
215
 10
342.485806
 20
271.775128
 30
0.0
 11
344.485808
 21
273.77513
 31
0.0
  0
LINE
  8
LC-003-005-----0
 62
     2
  5
216
 10
342.485809
 20
274.603558
 30
0.0
 11
343.314111
 21
275.43186
 31
0.0
  0
ENDBLK
  8
0
  5
217
  0
BLOCK
  8
0
  5
21B
  2
*D16
 70
    65
 10
0.0
 20
0.0
 30
0.0
  3
*D16
  0
LINE
  8
LC-004-003-MTH-0
 62
     2
  5
21C
 10
445.243235
 20
225.697251
 30
0.0
 11
499.547747
 21
222.851272
 31
0.0
  0
LINE
  8
LC-004-003-MTH-0
 62
     2
  5
21D
 10
449.168431
 20
300.594466
 30
0.0
 11
503.472944
 21
297.748488
 31
0.0
  0
LINE
  8
LC-006-003-----0
 62
     2
  5
21E
 10
484.967626
 20
195.816831
 30
0.0
 11
482.770771
 21
223.730516
 31
0.0
  0
LINE
  8
LC-006-003-----0
 62
     2
  5
21F
 10
482.770771
 20
223.730516
 30
0.0
 11
477.668176
 21
196.199379
 31
0.0
  0
LINE
  8
LC-006-003-----0
 62
     2
  5
220
 10
477.668176
 20
196.199379
 30
0.0
 11
484.967626
 21
195.816831
 31
0.0
  0
LINE
  8
LC-006-003-----0
 62
     2
  5
221
 10
484.015438
 20
195.804366
 30
0.0
 11
482.389765
 21
216.460493
 31
0.0
  0
LINE
  8
LC-006-003-----0
 62
     2
  5
222
 10
482.389765
 20
216.460493
 30
0.0
 11
478.613845
 21
196.087452
 31
0.0
  0
LINE
  8
LC-006-003-----0
 62
     2
  5
223
 10
483.06325
 20
195.791902
 30
0.0
 11
482.00876
 21
209.19047
 31
0.0
  0
LINE
  8
LC-006-003-----0
 62
     2
  5
224
 10
482.00876
 20
209.19047
 30
0.0
 11
479.559514
 21
195.975525
 31
0.0
  0
LINE
  8
LC-006-003-----0
 62
     2
  5
225
 10
482.111062
 20
195.779437
 30
0.0
 11
481.627754
 21
201.920447
 31
0.0
  0
LINE
  8
LC-006-003-----0
 62
     2
  5
226
 10
481.627754
 20
201.920447
 30
0.0
 11
480.505183
 21
195.863597
 31
0.0
  0
LINE
  8
LC-006-003-----0
 62
     2
  5
227
 10
484.499113
 20
326.541417
 30
0.0
 11
486.695968
 21
298.627732
 31
0.0
  0
LINE
  8
LC-006-003-----0
 62
     2
  5
228
 10
486.695968
 20
298.627732
 30
0.0
 11
491.798563
 21
326.158869
 31
0.0
  0
LINE
  8
LC-006-003-----0
 62
     2
  5
229
 10
491.798563
 20
326.158869
 30
0.0
 11
484.499113
 21
326.541417
 31
0.0
  0
LINE
  8
LC-006-003-----0
 62
     2
  5
22A
 10
485.451301
 20
326.553882
 30
0.0
 11
487.076974
 21
305.897755
 31
0.0
  0
LINE
  8
LC-006-003-----0
 62
     2
  5
22B
 10
487.076974
 20
305.897755
 30
0.0
 11
490.852894
 21
326.270796
 31
0.0
  0
LINE
  8
LC-006-003-----0
 62
     2
  5
22C
 10
486.403489
 20
326.566347
 30
0.0
 11
487.457979
 21
313.167778
 31
0.0
  0
LINE
  8
LC-006-003-----0
 62
     2
  5
22D
 10
487.457979
 20
313.167778
 30
0.0
 11
489.907225
 21
326.382724
 31
0.0
  0
LINE
  8
LC-006-003-----0
 62
     2
  5
22E
 10
487.355677
 20
326.578811
 30
0.0
 11
487.838985
 21
320.437801
 31
0.0
  0
LINE
  8
LC-006-003-----0
 62
     2
  5
22F
 10
487.838985
 20
320.437801
 30
0.0
 11
488.961556
 21
326.494651
 31
0.0
  0
LINE
  8
LC-005-003-MTG-0
 62
     2
  5
230
 10
480.719202
 20
184.584239
 30
0.0
 11
493.606826
 21
430.494764
 31
0.0
  0
TEXT
  8
LC-006-003-----0
 62
     7
  5
231
 10
481.158276
 20
342.525873
 30
0.0
 40
28.0
  1
DN70
 50
87.0
 41
0.9
 51
15.0
  7
LCTX15-400-0-0-ARIAL
  0
ENDBLK
  8
0
  5
232
  0
BLOCK
  8
0
  5
244
  2
*X17
 70
    65
 10
233.976386
 20
393.729035
 30
0.0
  3
*X17
  0
LINE
  8
LC-003-005-----0
 62
     2
  5
245
 10
240.994391
 20
393.729035
 30
0.0
 11
242.976386
 21
395.711027
 31
0.0
  0
LINE
  8
LC-003-005-----0
 62
     2
  5
246
 10
245.994398
 20
398.729035
 30
0.0
 11
247.476386
 21
400.211022
 31
0.0
  0
LINE
  8
LC-003-005-----0
 62
     2
  5
247
 10
236.751748
 20
393.729035
 30
0.0
 11
246.25176
 21
403.229035
 31
0.0
  0
LINE
  8
LC-003-005-----0
 62
     2
  5
248
 10
235.976386
 20
397.196313
 30
0.0
 11
242.009117
 21
403.229035
 31
0.0
  0
LINE
  8
LC-003-005-----0
 62
     2
  5
249
 10
234.766469
 20
400.229035
 30
0.0
 11
237.766473
 21
403.229035
 31
0.0
  0
ENDBLK
  8
0
  5
24A
  0
BLOCK
  8
0
  5
24E
  2
*X18
 70
    65
 10
108.750358
 20
389.229146
 30
0.0
  3
*X18
  0
LINE
  8
LC-003-005-----0
 62
     2
  5
24F
 10
300.154648
 20
389.249645
 30
0.0
 11
302.976556
 21
392.07155
 31
0.0
  0
LINE
  8
LC-003-005-----0
 62
     2
  5
250
 10
296.016255
 20
389.353896
 30
0.0
 11
302.976556
 21
396.314188
 31
0.0
  0
LINE
  8
LC-003-005-----0
 62
     2
  5
251
 10
294.976556
 20
392.556836
 30
0.0
 11
302.976556
 21
400.556825
 31
0.0
  0
LINE
  8
LC-003-005-----0
 62
     2
  5
252
 10
294.976556
 20
396.799474
 30
0.0
 11
301.406126
 21
403.229035
 31
0.0
  0
LINE
  8
LC-003-005-----0
 62
     2
  5
253
 10
294.976556
 20
401.042112
 30
0.0
 11
297.163482
 21
403.229035
 31
0.0
  0
ENDBLK
  8
0
  5
254
  0
BLOCK
  8
0
  5
25A
  2
*X19
 70
    65
 10
108.750358
 20
389.229146
 30
0.0
  3
*X19
  0
LINE
  8
LC-003-005-----0
 62
     2
  5
25B
 10
308.703902
 20
389.313612
 30
0.0
 11
310.976799
 21
391.586506
 31
0.0
  0
LINE
  8
LC-003-005-----0
 62
     2
  5
25C
 10
304.381877
 20
389.234231
 30
0.0
 11
310.976802
 21
395.829147
 31
0.0
  0
LINE
  8
LC-003-005-----0
 62
     2
  5
25D
 10
302.976556
 20
392.07155
 30
0.0
 11
310.976805
 21
400.071788
 31
0.0
  0
LINE
  8
LC-003-005-----0
 62
     2
  5
25E
 10
302.976556
 20
396.314188
 30
0.0
 11
309.891519
 21
403.229141
 31
0.0
  0
LINE
  8
LC-003-005-----0
 62
     2
  5
25F
 10
302.976556
 20
400.556825
 30
0.0
 11
305.648878
 21
403.229144
 31
0.0
  0
ENDBLK
  8
0
  5
260
  0
BLOCK
  8
0
  5
26D
  2
*X20
 70
    65
 10
358.476974
 20
393.729198
 30
0.0
  3
*X20
  0
LINE
  8
LC-003-005-----0
 62
     2
  5
26E
 10
368.27386
 20
393.729199
 30
0.0
 11
369.976972
 21
395.432308
 31
0.0
  0
LINE
  8
LC-003-005-----0
 62
     2
  5
26F
 10
364.03122
 20
393.729202
 30
0.0
 11
369.976975
 21
399.674949
 31
0.0
  0
LINE
  8
LC-003-005-----0
 62
     2
  5
270
 10
370.531224
 20
400.229198
 30
0.0
 11
371.976976
 21
401.674948
 31
0.0
  0
LINE
  8
LC-003-005-----0
 62
     2
  5
271
 10
362.976973
 20
396.917594
 30
0.0
 11
369.288489
 21
403.229102
 31
0.0
  0
LINE
  8
LC-003-005-----0
 62
     2
  5
272
 10
360.545942
 20
398.729204
 30
0.0
 11
365.045849
 21
403.229105
 31
0.0
  0
LINE
  8
LC-003-005-----0
 62
     2
  5
273
 10
358.476975
 20
400.902879
 30
0.0
 11
360.803208
 21
403.229108
 31
0.0
  0
ENDBLK
  8
0
  5
274
  0
BLOCK
  8
0
  5
279
  2
*X21
 70
    65
 10
220.476556
 20
195.431913
 30
0.0
  3
*X21
  0
LINE
  8
LC-003-005-----0
 62
     2
  5
27A
 10
302.912144
 20
195.431913
 30
0.0
 11
302.976556
 21
195.496326
 31
0.0
  0
LINE
  8
LC-003-005-----0
 62
     2
  5
27B
 10
300.083721
 20
195.431917
 30
0.0
 11
302.583718
 21
197.931914
 31
0.0
  0
LINE
  8
LC-003-005-----0
 62
     2
  5
27C
 10
297.255297
 20
195.431921
 30
0.0
 11
299.755295
 21
197.931918
 31
0.0
  0
LINE
  8
LC-003-005-----0
 62
     2
  5
27D
 10
294.426874
 20
195.431925
 30
0.0
 11
296.926871
 21
197.931922
 31
0.0
  0
LINE
  8
LC-003-005-----0
 62
     2
  5
27E
 10
291.59845
 20
195.431928
 30
0.0
 11
294.098448
 21
197.931925
 31
0.0
  0
LINE
  8
LC-003-005-----0
 62
     2
  5
27F
 10
288.770027
 20
195.431932
 30
0.0
 11
291.270024
 21
197.931929
 31
0.0
  0
LINE
  8
LC-003-005-----0
 62
     2
  5
280
 10
285.941604
 20
195.431936
 30
0.0
 11
288.441601
 21
197.931933
 31
0.0
  0
LINE
  8
LC-003-005-----0
 62
     2
  5
281
 10
283.11318
 20
195.431939
 30
0.0
 11
285.613177
 21
197.931937
 31
0.0
  0
LINE
  8
LC-003-005-----0
 62
     2
  5
282
 10
280.284757
 20
195.431943
 30
0.0
 11
282.784754
 21
197.93194
 31
0.0
  0
LINE
  8
LC-003-005-----0
 62
     2
  5
283
 10
277.456333
 20
195.431947
 30
0.0
 11
279.95633
 21
197.931944
 31
0.0
  0
LINE
  8
LC-003-005-----0
 62
     2
  5
284
 10
274.62791
 20
195.431951
 30
0.0
 11
277.127907
 21
197.931948
 31
0.0
  0
LINE
  8
LC-003-005-----0
 62
     2
  5
285
 10
271.799487
 20
195.431954
 30
0.0
 11
274.299484
 21
197.931951
 31
0.0
  0
LINE
  8
LC-003-005-----0
 62
     2
  5
286
 10
268.971063
 20
195.431958
 30
0.0
 11
271.47106
 21
197.931955
 31
0.0
  0
LINE
  8
LC-003-005-----0
 62
     2
  5
287
 10
266.14264
 20
195.431962
 30
0.0
 11
268.642637
 21
197.931959
 31
0.0
  0
LINE
  8
LC-003-005-----0
 62
     2
  5
288
 10
263.314216
 20
195.431965
 30
0.0
 11
265.814213
 21
197.931962
 31
0.0
  0
LINE
  8
LC-003-005-----0
 62
     2
  5
289
 10
260.485793
 20
195.431969
 30
0.0
 11
262.98579
 21
197.931966
 31
0.0
  0
LINE
  8
LC-003-005-----0
 62
     2
  5
28A
 10
257.65737
 20
195.431973
 30
0.0
 11
260.157366
 21
197.93197
 31
0.0
  0
LINE
  8
LC-003-005-----0
 62
     2
  5
28B
 10
254.828946
 20
195.431977
 30
0.0
 11
257.328943
 21
197.931973
 31
0.0
  0
LINE
  8
LC-003-005-----0
 62
     2
  5
28C
 10
252.000523
 20
195.43198
 30
0.0
 11
254.50052
 21
197.931977
 31
0.0
  0
LINE
  8
LC-003-005-----0
 62
     2
  5
28D
 10
249.247013
 20
195.506897
 30
0.0
 11
251.672096
 21
197.931981
 31
0.0
  0
LINE
  8
LC-003-005-----0
 62
     2
  5
28E
 10
246.787316
 20
195.875627
 30
0.0
 11
248.960209
 21
198.048521
 31
0.0
  0
LINE
  8
LC-003-005-----0
 62
     2
  5
28F
 10
244.569311
 20
196.48605
 30
0.0
 11
246.57722
 21
198.493959
 31
0.0
  0
LINE
  8
LC-003-005-----0
 62
     2
  5
290
 10
242.549049
 20
197.294215
 30
0.0
 11
244.449538
 21
199.194704
 31
0.0
  0
LINE
  8
LC-003-005-----0
 62
     2
  5
291
 10
240.700294
 20
198.273887
 30
0.0
 11
242.531101
 21
200.104694
 31
0.0
  0
LINE
  8
LC-003-005-----0
 62
     2
  5
292
 10
239.007062
 20
199.409083
 30
0.0
 11
240.795951
 21
201.197971
 31
0.0
  0
LINE
  8
LC-003-005-----0
 62
     2
  5
293
 10
237.460138
 20
200.690585
 30
0.0
 11
239.229803
 21
202.46025
 31
0.0
  0
LINE
  8
LC-003-005-----0
 62
     2
  5
294
 10
236.055394
 20
202.114268
 30
0.0
 11
237.826416
 21
203.88529
 31
0.0
  0
LINE
  8
LC-003-005-----0
 62
     2
  5
295
 10
234.793119
 20
203.680421
 30
0.0
 11
236.586224
 21
205.473526
 31
0.0
  0
LINE
  8
LC-003-005-----0
 62
     2
  5
296
 10
233.678065
 20
205.393794
 30
0.0
 11
235.516428
 21
207.232157
 31
0.0
  0
LINE
  8
LC-003-005-----0
 62
     2
  5
297
 10
232.720228
 20
207.264384
 30
0.0
 11
234.632598
 21
209.176754
 31
0.0
  0
LINE
  8
LC-003-005-----0
 62
     2
  5
298
 10
231.936705
 20
209.309288
 30
0.0
 11
233.962731
 21
211.335314
 31
0.0
  0
LINE
  8
LC-003-005-----0
 62
     2
  5
299
 10
231.355537
 20
211.556547
 30
0.0
 11
233.556741
 21
213.757751
 31
0.0
  0
LINE
  8
LC-003-005-----0
 62
     2
  5
29A
 10
231.024033
 20
214.053471
 30
0.0
 11
233.476471
 21
216.505908
 31
0.0
  0
LINE
  8
LC-003-005-----0
 62
     2
  5
29B
 10
230.976471
 20
216.834336
 30
0.0
 11
233.476474
 21
219.334339
 31
0.0
  0
LINE
  8
LC-003-005-----0
 62
     2
  5
29C
 10
230.976475
 20
219.662766
 30
0.0
 11
233.476478
 21
222.162769
 31
0.0
  0
LINE
  8
LC-003-005-----0
 62
     2
  5
29D
 10
230.976478
 20
222.491197
 30
0.0
 11
233.476481
 21
224.9912
 31
0.0
  0
LINE
  8
LC-003-005-----0
 62
     2
  5
29E
 10
230.976482
 20
225.319628
 30
0.0
 11
233.476485
 21
227.819631
 31
0.0
  0
LINE
  8
LC-003-005-----0
 62
     2
  5
29F
 10
230.976485
 20
228.148058
 30
0.0
 11
233.476488
 21
230.648061
 31
0.0
  0
LINE
  8
LC-003-005-----0
 62
     2
  5
2A0
 10
230.976489
 20
230.976489
 30
0.0
 11
233.476492
 21
233.476492
 31
0.0
  0
LINE
  8
LC-003-005-----0
 62
     2
  5
2A1
 10
230.976492
 20
233.804919
 30
0.0
 11
233.476495
 21
236.304923
 31
0.0
  0
LINE
  8
LC-003-005-----0
 62
     2
  5
2A2
 10
230.976496
 20
236.63335
 30
0.0
 11
233.476499
 21
239.133353
 31
0.0
  0
LINE
  8
LC-003-005-----0
 62
     2
  5
2A3
 10
230.976499
 20
239.461781
 30
0.0
 11
233.476503
 21
241.961784
 31
0.0
  0
LINE
  8
LC-003-005-----0
 62
     2
  5
2A4
 10
230.976503
 20
242.290211
 30
0.0
 11
233.476506
 21
244.790215
 31
0.0
  0
LINE
  8
LC-003-005-----0
 62
     2
  5
2A5
 10
230.976506
 20
245.118642
 30
0.0
 11
233.47651
 21
247.618645
 31
0.0
  0
LINE
  8
LC-003-005-----0
 62
     2
  5
2A6
 10
230.97651
 20
247.947073
 30
0.0
 11
233.476513
 21
250.447076
 31
0.0
  0
LINE
  8
LC-003-005-----0
 62
     2
  5
2A7
 10
230.976513
 20
250.775503
 30
0.0
 11
233.476517
 21
253.275506
 31
0.0
  0
LINE
  8
LC-003-005-----0
 62
     2
  5
2A8
 10
230.976517
 20
253.603934
 30
0.0
 11
233.47652
 21
256.103937
 31
0.0
  0
LINE
  8
LC-003-005-----0
 62
     2
  5
2A9
 10
230.97652
 20
256.432365
 30
0.0
 11
233.476524
 21
258.932368
 31
0.0
  0
LINE
  8
LC-003-005-----0
 62
     2
  5
2AA
 10
230.976524
 20
259.260795
 30
0.0
 11
233.476527
 21
261.760798
 31
0.0
  0
LINE
  8
LC-003-005-----0
 62
     2
  5
2AB
 10
230.976527
 20
262.089226
 30
0.0
 11
233.476531
 21
264.589229
 31
0.0
  0
LINE
  8
LC-003-005-----0
 62
     2
  5
2AC
 10
230.976531
 20
264.917656
 30
0.0
 11
233.476534
 21
267.41766
 31
0.0
  0
LINE
  8
LC-003-005-----0
 62
     2
  5
2AD
 10
230.976534
 20
267.746087
 30
0.0
 11
233.476538
 21
270.24609
 31
0.0
  0
LINE
  8
LC-003-005-----0
 62
     2
  5
2AE
 10
230.976538
 20
270.574518
 30
0.0
 11
233.476541
 21
273.074521
 31
0.0
  0
LINE
  8
LC-003-005-----0
 62
     2
  5
2AF
 10
230.976541
 20
273.402948
 30
0.0
 11
233.476545
 21
275.902951
 31
0.0
  0
LINE
  8
LC-003-005-----0
 62
     2
  5
2B0
 10
230.976545
 20
276.231379
 30
0.0
 11
233.476548
 21
278.731382
 31
0.0
  0
LINE
  8
LC-003-005-----0
 62
     2
  5
2B1
 10
230.976548
 20
279.05981
 30
0.0
 11
233.476552
 21
281.559813
 31
0.0
  0
LINE
  8
LC-003-005-----0
 62
     2
  5
2B2
 10
230.976552
 20
281.88824
 30
0.0
 11
233.476555
 21
284.388243
 31
0.0
  0
LINE
  8
LC-003-005-----0
 62
     2
  5
2B3
 10
230.976555
 20
284.716671
 30
0.0
 11
233.476559
 21
287.216674
 31
0.0
  0
LINE
  8
LC-003-005-----0
 62
     2
  5
2B4
 10
230.976559
 20
287.545101
 30
0.0
 11
233.476562
 21
290.045105
 31
0.0
  0
LINE
  8
LC-003-005-----0
 62
     2
  5
2B5
 10
230.976562
 20
290.373532
 30
0.0
 11
233.476566
 21
292.873535
 31
0.0
  0
LINE
  8
LC-003-005-----0
 62
     2
  5
2B6
 10
230.976566
 20
293.201963
 30
0.0
 11
233.476569
 21
295.701966
 31
0.0
  0
LINE
  8
LC-003-005-----0
 62
     2
  5
2B7
 10
230.976569
 20
296.030393
 30
0.0
 11
233.476573
 21
298.530396
 31
0.0
  0
LINE
  8
LC-003-005-----0
 62
     2
  5
2B8
 10
230.976573
 20
298.858824
 30
0.0
 11
233.476576
 21
301.358827
 31
0.0
  0
LINE
  8
LC-003-005-----0
 62
     2
  5
2B9
 10
230.976576
 20
301.687255
 30
0.0
 11
233.47658
 21
304.187258
 31
0.0
  0
LINE
  8
LC-003-005-----0
 62
     2
  5
2BA
 10
230.97658
 20
304.515685
 30
0.0
 11
233.476584
 21
307.015689
 31
0.0
  0
LINE
  8
LC-003-005-----0
 62
     2
  5
2BB
 10
229.564482
 20
305.932014
 30
0.0
 11
233.476589
 21
309.844122
 31
0.0
  0
LINE
  8
LC-003-005-----0
 62
     2
  5
2BC
 10
226.736055
 20
305.932014
 30
0.0
 11
233.236055
 21
312.432014
 31
0.0
  0
LINE
  8
LC-003-005-----0
 62
     2
  5
2BD
 10
223.907627
 20
305.932014
 30
0.0
 11
226.407627
 21
308.432014
 31
0.0
  0
LINE
  8
LC-003-005-----0
 62
     2
  5
2BE
 10
227.476556
 20
309.500943
 30
0.0
 11
230.47659
 21
312.500977
 31
0.0
  0
LINE
  8
LC-003-005-----0
 62
     2
  5
2BF
 10
221.0792
 20
305.932014
 30
0.0
 11
223.5792
 21
308.432014
 31
0.0
  0
LINE
  8
LC-003-005-----0
 62
     2
  5
2C0
 10
227.476556
 20
312.32937
 30
0.0
 11
230.476594
 21
315.329408
 31
0.0
  0
LINE
  8
LC-003-005-----0
 62
     2
  5
2C1
 10
220.476556
 20
308.157797
 30
0.0
 11
220.750773
 21
308.432014
 31
0.0
  0
LINE
  8
LC-003-005-----0
 62
     2
  5
2C2
 10
227.476556
 20
315.157797
 30
0.0
 11
230.476598
 21
318.157839
 31
0.0
  0
LINE
  8
LC-003-005-----0
 62
     2
  5
2C3
 10
227.476556
 20
317.986224
 30
0.0
 11
230.476602
 21
320.98627
 31
0.0
  0
LINE
  8
LC-003-005-----0
 62
     2
  5
2C4
 10
227.476556
 20
320.814652
 30
0.0
 11
230.476605
 21
323.814701
 31
0.0
  0
LINE
  8
LC-003-005-----0
 62
     2
  5
2C5
 10
227.476556
 20
323.643079
 30
0.0
 11
230.476609
 21
326.643131
 31
0.0
  0
LINE
  8
LC-003-005-----0
 62
     2
  5
2C6
 10
227.476556
 20
326.471506
 30
0.0
 11
230.476613
 21
329.471562
 31
0.0
  0
LINE
  8
LC-003-005-----0
 62
     2
  5
2C7
 10
227.476556
 20
329.299933
 30
0.0
 11
230.476617
 21
332.299993
 31
0.0
  0
LINE
  8
LC-003-005-----0
 62
     2
  5
2C8
 10
227.476556
 20
332.12836
 30
0.0
 11
230.47662
 21
335.128424
 31
0.0
  0
LINE
  8
LC-003-005-----0
 62
     2
  5
2C9
 10
227.476556
 20
334.956787
 30
0.0
 11
229.951783
 21
337.432014
 31
0.0
  0
ENDBLK
  8
0
  5
2CA
  0
BLOCK
  8
0
  5
2CD
  2
*X22
 70
    65
 10
372.485832
 20
297.16334
 30
0.0
  3
*X22
  0
LINE
  8
LC-003-005-----0
 62
     2
  5
2CE
 10
452.765075
 20
297.201583
 30
0.0
 11
453.537262
 21
297.97377
 31
0.0
  0
LINE
  8
LC-003-005-----0
 62
     2
  5
2CF
 10
450.077498
 20
297.342433
 30
0.0
 11
452.309074
 21
299.57401
 31
0.0
  0
LINE
  8
LC-003-005-----0
 62
     2
  5
2D0
 10
447.38992
 20
297.483283
 30
0.0
 11
450.174283
 21
300.267645
 31
0.0
  0
LINE
  8
LC-003-005-----0
 62
     2
  5
2D1
 10
444.702343
 20
297.624133
 30
0.0
 11
447.747162
 21
300.668952
 31
0.0
  0
LINE
  8
LC-003-005-----0
 62
     2
  5
2D2
 10
442.014766
 20
297.764983
 30
0.0
 11
445.059585
 21
300.809802
 31
0.0
  0
LINE
  8
LC-003-005-----0
 62
     2
  5
2D3
 10
439.327189
 20
297.905833
 30
0.0
 11
442.372008
 21
300.950652
 31
0.0
  0
LINE
  8
LC-003-005-----0
 62
     2
  5
2D4
 10
436.639612
 20
298.046683
 30
0.0
 11
439.684431
 21
301.091502
 31
0.0
  0
LINE
  8
LC-003-005-----0
 62
     2
  5
2D5
 10
433.952034
 20
298.187533
 30
0.0
 11
436.996854
 21
301.232352
 31
0.0
  0
LINE
  8
LC-003-005-----0
 62
     2
  5
2D6
 10
431.264457
 20
298.328382
 30
0.0
 11
434.309277
 21
301.373202
 31
0.0
  0
LINE
  8
LC-003-005-----0
 62
     2
  5
2D7
 10
428.57688
 20
298.469232
 30
0.0
 11
431.621699
 21
301.514052
 31
0.0
  0
LINE
  8
LC-003-005-----0
 62
     2
  5
2D8
 10
425.889303
 20
298.610082
 30
0.0
 11
428.934122
 21
301.654902
 31
0.0
  0
LINE
  8
LC-003-005-----0
 62
     2
  5
2D9
 10
423.201726
 20
298.750932
 30
0.0
 11
426.246545
 21
301.795752
 31
0.0
  0
LINE
  8
LC-003-005-----0
 62
     2
  5
2DA
 10
420.514149
 20
298.891782
 30
0.0
 11
423.558968
 21
301.936602
 31
0.0
  0
LINE
  8
LC-003-005-----0
 62
     2
  5
2DB
 10
417.826571
 20
299.032632
 30
0.0
 11
420.871391
 21
302.077452
 31
0.0
  0
LINE
  8
LC-003-005-----0
 62
     2
  5
2DC
 10
415.138994
 20
299.173482
 30
0.0
 11
418.183814
 21
302.218301
 31
0.0
  0
LINE
  8
LC-003-005-----0
 62
     2
  5
2DD
 10
412.451417
 20
299.314332
 30
0.0
 11
415.496236
 21
302.359151
 31
0.0
  0
LINE
  8
LC-003-005-----0
 62
     2
  5
2DE
 10
409.76384
 20
299.455182
 30
0.0
 11
412.808659
 21
302.500001
 31
0.0
  0
LINE
  8
LC-003-005-----0
 62
     2
  5
2DF
 10
407.076263
 20
299.596032
 30
0.0
 11
410.121082
 21
302.640851
 31
0.0
  0
LINE
  8
LC-003-005-----0
 62
     2
  5
2E0
 10
404.388686
 20
299.736882
 30
0.0
 11
407.433505
 21
302.781701
 31
0.0
  0
LINE
  8
LC-003-005-----0
 62
     2
  5
2E1
 10
401.701108
 20
299.877732
 30
0.0
 11
404.745928
 21
302.922551
 31
0.0
  0
LINE
  8
LC-003-005-----0
 62
     2
  5
2E2
 10
399.013531
 20
300.018582
 30
0.0
 11
402.058351
 21
303.063401
 31
0.0
  0
LINE
  8
LC-003-005-----0
 62
     2
  5
2E3
 10
396.325954
 20
300.159432
 30
0.0
 11
399.370773
 21
303.204251
 31
0.0
  0
LINE
  8
LC-003-005-----0
 62
     2
  5
2E4
 10
393.638377
 20
300.300282
 30
0.0
 11
396.683196
 21
303.345101
 31
0.0
  0
LINE
  8
LC-003-005-----0
 62
     2
  5
2E5
 10
390.9508
 20
300.441132
 30
0.0
 11
393.995619
 21
303.485951
 31
0.0
  0
LINE
  8
LC-003-005-----0
 62
     2
  5
2E6
 10
388.263223
 20
300.581982
 30
0.0
 11
391.308042
 21
303.626801
 31
0.0
  0
LINE
  8
LC-003-005-----0
 62
     2
  5
2E7
 10
385.575645
 20
300.722832
 30
0.0
 11
388.620465
 21
303.767651
 31
0.0
  0
LINE
  8
LC-003-005-----0
 62
     2
  5
2E8
 10
382.888068
 20
300.863682
 30
0.0
 11
385.932887
 21
303.908501
 31
0.0
  0
LINE
  8
LC-003-005-----0
 62
     2
  5
2E9
 10
380.200491
 20
301.004532
 30
0.0
 11
383.24531
 21
304.049351
 31
0.0
  0
LINE
  8
LC-003-005-----0
 62
     2
  5
2EA
 10
385.128157
 20
305.932197
 30
0.0
 11
385.476774
 21
306.280814
 31
0.0
  0
LINE
  8
LC-003-005-----0
 62
     2
  5
2EB
 10
377.512914
 20
301.145381
 30
0.0
 11
380.557733
 21
304.190201
 31
0.0
  0
LINE
  8
LC-003-005-----0
 62
     2
  5
2EC
 10
382.299732
 20
305.932199
 30
0.0
 11
384.79973
 21
308.432198
 31
0.0
  0
LINE
  8
LC-003-005-----0
 62
     2
  5
2ED
 10
374.825337
 20
301.286231
 30
0.0
 11
377.870156
 21
304.331051
 31
0.0
  0
LINE
  8
LC-003-005-----0
 62
     2
  5
2EE
 10
379.471306
 20
305.932201
 30
0.0
 11
381.971305
 21
308.432199
 31
0.0
  0
LINE
  8
LC-003-005-----0
 62
     2
  5
2EF
 10
372.485834
 20
301.775156
 30
0.0
 11
375.182579
 21
304.471901
 31
0.0
  0
LINE
  8
LC-003-005-----0
 62
     2
  5
2F0
 10
376.642881
 20
305.932203
 30
0.0
 11
379.142879
 21
308.432201
 31
0.0
  0
LINE
  8
LC-003-005-----0
 62
     2
  5
2F1
 10
372.485853
 20
304.603602
 30
0.0
 11
378.476777
 21
310.594526
 31
0.0
  0
LINE
  8
LC-003-005-----0
 62
     2
  5
2F2
 10
372.485872
 20
307.432048
 30
0.0
 11
378.476778
 21
313.422955
 31
0.0
  0
LINE
  8
LC-003-005-----0
 62
     2
  5
2F3
 10
372.485891
 20
310.260494
 30
0.0
 11
374.657411
 21
312.432014
 31
0.0
  0
LINE
  8
LC-003-005-----0
 62
     2
  5
2F4
 10
375.485885
 20
313.260488
 30
0.0
 11
378.47678
 21
316.251384
 31
0.0
  0
LINE
  8
LC-003-005-----0
 62
     2
  5
2F5
 10
375.485885
 20
316.088915
 30
0.0
 11
378.476782
 21
319.079812
 31
0.0
  0
LINE
  8
LC-003-005-----0
 62
     2
  5
2F6
 10
375.485885
 20
318.917343
 30
0.0
 11
378.476784
 21
321.908241
 31
0.0
  0
LINE
  8
LC-003-005-----0
 62
     2
  5
2F7
 10
375.485885
 20
321.74577
 30
0.0
 11
378.476786
 21
324.73667
 31
0.0
  0
LINE
  8
LC-003-005-----0
 62
     2
  5
2F8
 10
375.485885
 20
324.574197
 30
0.0
 11
378.476788
 21
327.565099
 31
0.0
  0
LINE
  8
LC-003-005-----0
 62
     2
  5
2F9
 10
375.485885
 20
327.402624
 30
0.0
 11
378.47679
 21
330.393528
 31
0.0
  0
LINE
  8
LC-003-005-----0
 62
     2
  5
2FA
 10
375.485885
 20
330.231051
 30
0.0
 11
378.476791
 21
333.221957
 31
0.0
  0
LINE
  8
LC-003-005-----0
 62
     2
  5
2FB
 10
375.485885
 20
333.059478
 30
0.0
 11
378.476793
 21
336.050386
 31
0.0
  0
LINE
  8
LC-003-005-----0
 62
     2
  5
2FC
 10
375.485885
 20
335.887905
 30
0.0
 11
377.029994
 21
337.432014
 31
0.0
  0
ENDBLK
  8
0
  5
2FD
  0
BLOCK
  8
0
  5
300
  2
*X23
 70
    65
 10
233.976577
 20
215.431981
 30
0.0
  3
*X23
  0
LINE
  8
LC-003-005-----0
 62
     2
  5
301
 10
258.485417
 20
304.371581
 30
0.0
 11
258.024993
 21
304.832005
 31
0.0
  0
LINE
  8
LC-003-005-----0
 62
     2
  5
302
 10
258.485414
 20
301.543157
 30
0.0
 11
255.196566
 21
304.832005
 31
0.0
  0
LINE
  8
LC-003-005-----0
 62
     2
  5
303
 10
258.48541
 20
298.714733
 30
0.0
 11
256.985412
 21
300.214732
 31
0.0
  0
LINE
  8
LC-003-005-----0
 62
     2
  5
304
 10
254.768158
 20
302.431986
 30
0.0
 11
252.368139
 21
304.832005
 31
0.0
  0
LINE
  8
LC-003-005-----0
 62
     2
  5
305
 10
258.485407
 20
295.886309
 30
0.0
 11
256.985409
 21
297.386308
 31
0.0
  0
LINE
  8
LC-003-005-----0
 62
     2
  5
306
 10
251.939727
 20
302.43199
 30
0.0
 11
249.539712
 21
304.832005
 31
0.0
  0
LINE
  8
LC-003-005-----0
 62
     2
  5
307
 10
258.485404
 20
293.057886
 30
0.0
 11
256.985405
 21
294.557884
 31
0.0
  0
LINE
  8
LC-003-005-----0
 62
     2
  5
308
 10
249.111296
 20
302.431993
 30
0.0
 11
246.711285
 21
304.832005
 31
0.0
  0
LINE
  8
LC-003-005-----0
 62
     2
  5
309
 10
240.476589
 20
311.066701
 30
0.0
 11
239.111283
 21
312.432007
 31
0.0
  0
LINE
  8
LC-003-005-----0
 62
     2
  5
30A
 10
258.485401
 20
290.229462
 30
0.0
 11
256.985402
 21
291.72946
 31
0.0
  0
LINE
  8
LC-003-005-----0
 62
     2
  5
30B
 10
246.282865
 20
302.431997
 30
0.0
 11
243.882857
 21
304.832005
 31
0.0
  0
LINE
  8
LC-003-005-----0
 62
     2
  5
30C
 10
240.476585
 20
308.238277
 30
0.0
 11
238.976587
 21
309.738275
 31
0.0
  0
LINE
  8
LC-003-005-----0
 62
     2
  5
30D
 10
237.682854
 20
311.032009
 30
0.0
 11
236.282852
 21
312.43201
 31
0.0
  0
LINE
  8
LC-003-005-----0
 62
     2
  5
30E
 10
258.485397
 20
287.401038
 30
0.0
 11
256.985399
 21
288.901036
 31
0.0
  0
LINE
  8
LC-003-005-----0
 62
     2
  5
30F
 10
243.454434
 20
302.432001
 30
0.0
 11
241.05443
 21
304.832005
 31
0.0
  0
LINE
  8
LC-003-005-----0
 62
     2
  5
310
 10
240.476581
 20
305.409854
 30
0.0
 11
238.976583
 21
306.909852
 31
0.0
  0
LINE
  8
LC-003-005-----0
 62
     2
  5
311
 10
234.854423
 20
311.032012
 30
0.0
 11
233.97659
 21
311.909845
 31
0.0
  0
LINE
  8
LC-003-005-----0
 62
     2
  5
312
 10
258.485394
 20
284.572614
 30
0.0
 11
256.985396
 21
286.072612
 31
0.0
  0
LINE
  8
LC-003-005-----0
 62
     2
  5
313
 10
240.626003
 20
302.432005
 30
0.0
 11
238.976579
 21
304.081429
 31
0.0
  0
LINE
  8
LC-003-005-----0
 62
     2
  5
314
 10
258.485391
 20
281.74419
 30
0.0
 11
256.985392
 21
283.244189
 31
0.0
  0
LINE
  8
LC-003-005-----0
 62
     2
  5
315
 10
237.797572
 20
302.432008
 30
0.0
 11
236.397571
 21
303.83201
 31
0.0
  0
LINE
  8
LC-003-005-----0
 62
     2
  5
316
 10
258.485387
 20
278.915766
 30
0.0
 11
256.985389
 21
280.415765
 31
0.0
  0
LINE
  8
LC-003-005-----0
 62
     2
  5
317
 10
234.969142
 20
302.432012
 30
0.0
 11
233.976578
 21
303.424575
 31
0.0
  0
LINE
  8
LC-003-005-----0
 62
     2
  5
318
 10
258.485384
 20
276.087342
 30
0.0
 11
256.985386
 21
277.587341
 31
0.0
  0
LINE
  8
LC-003-005-----0
 62
     2
  5
319
 10
258.485381
 20
273.258919
 30
0.0
 11
256.985382
 21
274.758917
 31
0.0
  0
LINE
  8
LC-003-005-----0
 62
     2
  5
31A
 10
258.485378
 20
270.430495
 30
0.0
 11
256.985379
 21
271.930493
 31
0.0
  0
LINE
  8
LC-003-005-----0
 62
     2
  5
31B
 10
258.485374
 20
267.602071
 30
0.0
 11
256.985376
 21
269.102069
 31
0.0
  0
LINE
  8
LC-003-005-----0
 62
     2
  5
31C
 10
258.485371
 20
264.773647
 30
0.0
 11
256.985373
 21
266.273645
 31
0.0
  0
LINE
  8
LC-003-005-----0
 62
     2
  5
31D
 10
258.485368
 20
261.945223
 30
0.0
 11
256.985369
 21
263.445221
 31
0.0
  0
LINE
  8
LC-003-005-----0
 62
     2
  5
31E
 10
258.485365
 20
259.116799
 30
0.0
 11
256.985366
 21
260.616798
 31
0.0
  0
LINE
  8
LC-003-005-----0
 62
     2
  5
31F
 10
258.485361
 20
256.288375
 30
0.0
 11
256.985363
 21
257.788374
 31
0.0
  0
LINE
  8
LC-003-005-----0
 62
     2
  5
320
 10
258.485358
 20
253.459951
 30
0.0
 11
256.98536
 21
254.95995
 31
0.0
  0
LINE
  8
LC-003-005-----0
 62
     2
  5
321
 10
258.485355
 20
250.631528
 30
0.0
 11
256.985356
 21
252.131526
 31
0.0
  0
LINE
  8
LC-003-005-----0
 62
     2
  5
322
 10
258.485352
 20
247.803104
 30
0.0
 11
256.985353
 21
249.303102
 31
0.0
  0
LINE
  8
LC-003-005-----0
 62
     2
  5
323
 10
258.485348
 20
244.97468
 30
0.0
 11
256.98535
 21
246.474678
 31
0.0
  0
LINE
  8
LC-003-005-----0
 62
     2
  5
324
 10
258.485345
 20
242.146256
 30
0.0
 11
256.985347
 21
243.646254
 31
0.0
  0
LINE
  8
LC-003-005-----0
 62
     2
  5
325
 10
258.485342
 20
239.317832
 30
0.0
 11
256.985343
 21
240.817831
 31
0.0
  0
LINE
  8
LC-003-005-----0
 62
     2
  5
326
 10
258.485339
 20
236.489408
 30
0.0
 11
256.98534
 21
237.989407
 31
0.0
  0
LINE
  8
LC-003-005-----0
 62
     2
  5
327
 10
258.485335
 20
233.660984
 30
0.0
 11
256.985337
 21
235.160983
 31
0.0
  0
LINE
  8
LC-003-005-----0
 62
     2
  5
328
 10
258.485332
 20
230.832561
 30
0.0
 11
256.985334
 21
232.332559
 31
0.0
  0
LINE
  8
LC-003-005-----0
 62
     2
  5
329
 10
258.485329
 20
228.004137
 30
0.0
 11
256.98533
 21
229.504135
 31
0.0
  0
LINE
  8
LC-003-005-----0
 62
     2
  5
32A
 10
258.485325
 20
225.175713
 30
0.0
 11
256.985327
 21
226.675711
 31
0.0
  0
LINE
  8
LC-003-005-----0
 62
     2
  5
32B
 10
258.485322
 20
222.347289
 30
0.0
 11
256.985324
 21
223.847287
 31
0.0
  0
LINE
  8
LC-003-005-----0
 62
     2
  5
32C
 10
258.485319
 20
219.518865
 30
0.0
 11
256.985321
 21
221.018863
 31
0.0
  0
LINE
  8
LC-003-005-----0
 62
     2
  5
32D
 10
258.485316
 20
216.690441
 30
0.0
 11
256.985317
 21
218.19044
 31
0.0
  0
ENDBLK
  8
0
  5
32E
  0
BLOCK
  8
0
  5
331
  2
*X24
 70
    65
 10
305.922991
 20
215.431916
 30
0.0
  3
*X24
  0
LINE
  8
LC-003-005-----0
 62
     2
  5
332
 10
324.485877
 20
303.424945
 30
0.0
 11
323.078817
 21
304.832005
 31
0.0
  0
LINE
  8
LC-003-005-----0
 62
     2
  5
333
 10
321.762624
 20
303.319771
 30
0.0
 11
320.353123
 21
304.729271
 31
0.0
  0
LINE
  8
LC-003-005-----0
 62
     2
  5
334
 10
320.453798
 20
301.80017
 30
0.0
 11
319.025555
 21
303.228412
 31
0.0
  0
LINE
  8
LC-003-005-----0
 62
     2
  5
335
 10
320.453794
 20
298.971746
 30
0.0
 11
318.985874
 21
300.439666
 31
0.0
  0
LINE
  8
LC-003-005-----0
 62
     2
  5
336
 10
320.45379
 20
296.143323
 30
0.0
 11
318.98587
 21
297.611243
 31
0.0
  0
LINE
  8
LC-003-005-----0
 62
     2
  5
337
 10
320.453787
 20
293.314899
 30
0.0
 11
318.985866
 21
294.78282
 31
0.0
  0
LINE
  8
LC-003-005-----0
 62
     2
  5
338
 10
320.453783
 20
290.486476
 30
0.0
 11
318.985863
 21
291.954396
 31
0.0
  0
LINE
  8
LC-003-005-----0
 62
     2
  5
339
 10
320.265845
 20
287.845987
 30
0.0
 11
318.972307
 21
289.139525
 31
0.0
  0
LINE
  8
LC-003-005-----0
 62
     2
  5
33A
 10
319.840415
 20
285.44299
 30
0.0
 11
318.546876
 21
286.736529
 31
0.0
  0
LINE
  8
LC-003-005-----0
 62
     2
  5
33B
 10
319.414984
 20
283.039993
 30
0.0
 11
318.121446
 21
284.333532
 31
0.0
  0
LINE
  8
LC-003-005-----0
 62
     2
  5
33C
 10
318.989554
 20
280.636997
 30
0.0
 11
317.696015
 21
281.930535
 31
0.0
  0
LINE
  8
LC-003-005-----0
 62
     2
  5
33D
 10
318.564123
 20
278.234
 30
0.0
 11
317.270585
 21
279.527539
 31
0.0
  0
LINE
  8
LC-003-005-----0
 62
     2
  5
33E
 10
318.138693
 20
275.831003
 30
0.0
 11
316.845154
 21
277.124542
 31
0.0
  0
LINE
  8
LC-003-005-----0
 62
     2
  5
33F
 10
317.713262
 20
273.428007
 30
0.0
 11
316.419724
 21
274.721545
 31
0.0
  0
LINE
  8
LC-003-005-----0
 62
     2
  5
340
 10
317.287832
 20
271.02501
 30
0.0
 11
315.994293
 21
272.318549
 31
0.0
  0
LINE
  8
LC-003-005-----0
 62
     2
  5
341
 10
316.862401
 20
268.622013
 30
0.0
 11
315.568863
 21
269.915552
 31
0.0
  0
LINE
  8
LC-003-005-----0
 62
     2
  5
342
 10
316.436971
 20
266.219017
 30
0.0
 11
315.143432
 21
267.512555
 31
0.0
  0
LINE
  8
LC-003-005-----0
 62
     2
  5
343
 10
316.011541
 20
263.81602
 30
0.0
 11
314.718002
 21
265.109559
 31
0.0
  0
LINE
  8
LC-003-005-----0
 62
     2
  5
344
 10
315.58611
 20
261.413023
 30
0.0
 11
314.292572
 21
262.706562
 31
0.0
  0
LINE
  8
LC-003-005-----0
 62
     2
  5
345
 10
315.16068
 20
259.010027
 30
0.0
 11
313.867141
 21
260.303565
 31
0.0
  0
LINE
  8
LC-003-005-----0
 62
     2
  5
346
 10
314.735249
 20
256.60703
 30
0.0
 11
313.441711
 21
257.900569
 31
0.0
  0
LINE
  8
LC-003-005-----0
 62
     2
  5
347
 10
314.309819
 20
254.204033
 30
0.0
 11
313.01628
 21
255.497572
 31
0.0
  0
LINE
  8
LC-003-005-----0
 62
     2
  5
348
 10
313.884388
 20
251.801037
 30
0.0
 11
312.59085
 21
253.094575
 31
0.0
  0
LINE
  8
LC-003-005-----0
 62
     2
  5
349
 10
313.458958
 20
249.39804
 30
0.0
 11
312.165419
 21
250.691579
 31
0.0
  0
LINE
  8
LC-003-005-----0
 62
     2
  5
34A
 10
313.033527
 20
246.995043
 30
0.0
 11
311.739989
 21
248.288582
 31
0.0
  0
LINE
  8
LC-003-005-----0
 62
     2
  5
34B
 10
312.608097
 20
244.592047
 30
0.0
 11
311.314558
 21
245.885585
 31
0.0
  0
LINE
  8
LC-003-005-----0
 62
     2
  5
34C
 10
312.182666
 20
242.18905
 30
0.0
 11
310.889128
 21
243.482589
 31
0.0
  0
LINE
  8
LC-003-005-----0
 62
     2
  5
34D
 10
311.757236
 20
239.786053
 30
0.0
 11
310.463697
 21
241.079592
 31
0.0
  0
LINE
  8
LC-003-005-----0
 62
     2
  5
34E
 10
311.331805
 20
237.383057
 30
0.0
 11
310.038267
 21
238.676595
 31
0.0
  0
LINE
  8
LC-003-005-----0
 62
     2
  5
34F
 10
310.906375
 20
234.98006
 30
0.0
 11
309.612837
 21
236.273599
 31
0.0
  0
LINE
  8
LC-003-005-----0
 62
     2
  5
350
 10
310.480945
 20
232.577063
 30
0.0
 11
309.187406
 21
233.870602
 31
0.0
  0
LINE
  8
LC-003-005-----0
 62
     2
  5
351
 10
310.055514
 20
230.174067
 30
0.0
 11
308.761976
 21
231.467605
 31
0.0
  0
LINE
  8
LC-003-005-----0
 62
     2
  5
352
 10
309.630084
 20
227.77107
 30
0.0
 11
308.336545
 21
229.064609
 31
0.0
  0
LINE
  8
LC-003-005-----0
 62
     2
  5
353
 10
309.204653
 20
225.368073
 30
0.0
 11
307.911115
 21
226.661612
 31
0.0
  0
LINE
  8
LC-003-005-----0
 62
     2
  5
354
 10
308.779223
 20
222.965077
 30
0.0
 11
307.485684
 21
224.258615
 31
0.0
  0
LINE
  8
LC-003-005-----0
 62
     2
  5
355
 10
308.353792
 20
220.56208
 30
0.0
 11
307.060254
 21
221.855619
 31
0.0
  0
LINE
  8
LC-003-005-----0
 62
     2
  5
356
 10
307.928362
 20
218.159083
 30
0.0
 11
306.634823
 21
219.452622
 31
0.0
  0
LINE
  8
LC-003-005-----0
 62
     2
  5
357
 10
307.502931
 20
215.756087
 30
0.0
 11
306.209393
 21
217.049625
 31
0.0
  0
ENDBLK
  8
0
  5
358
  0
BLOCK
  8
0
  5
35B
  2
*X25
 70
    65
 10
359.485876
 20
302.431997
 30
0.0
  3
*X25
  0
LINE
  8
LC-003-005-----0
 62
     2
  5
35C
 10
370.618925
 20
311.032012
 30
0.0
 11
369.222736
 21
312.428201
 31
0.0
  0
LINE
  8
LC-003-005-----0
 62
     2
  5
35D
 10
367.790502
 20
311.032008
 30
0.0
 11
366.394305
 21
312.428205
 31
0.0
  0
LINE
  8
LC-003-005-----0
 62
     2
  5
35E
 10
366.976527
 20
309.017556
 30
0.0
 11
365.485887
 21
310.508196
 31
0.0
  0
LINE
  8
LC-003-005-----0
 62
     2
  5
35F
 10
370.733644
 20
302.432012
 30
0.0
 11
369.333646
 21
303.83201
 31
0.0
  0
LINE
  8
LC-003-005-----0
 62
     2
  5
360
 10
366.976531
 20
306.189125
 30
0.0
 11
365.485883
 21
307.679773
 31
0.0
  0
LINE
  8
LC-003-005-----0
 62
     2
  5
361
 10
367.905221
 20
302.432008
 30
0.0
 11
365.485879
 21
304.85135
 31
0.0
  0
LINE
  8
LC-003-005-----0
 62
     2
  5
362
 10
365.076797
 20
302.432004
 30
0.0
 11
362.676959
 21
304.831843
 31
0.0
  0
LINE
  8
LC-003-005-----0
 62
     2
  5
363
 10
362.248374
 20
302.432001
 30
0.0
 11
359.848528
 21
304.831846
 31
0.0
  0
ENDBLK
  8
0
  5
364
  0
BLOCK
  8
0
  5
367
  2
*D26
 70
    65
 10
0.0
 20
0.0
 30
0.0
  3
*D26
  0
LINE
  8
LC-004-003-MTH-0
 62
     2
  5
368
 10
256.985314
 20
215.431983
 30
0.0
 11
183.2
 21
215.431983
 31
0.0
  0
LINE
  8
LC-004-003-MTH-0
 62
     2
  5
369
 10
335.48581
 20
275.431871
 30
0.0
 11
183.2
 21
275.431871
 31
0.0
  0
LINE
  8
LC-006-003-----0
 62
     2
  5
36A
 10
203.654733
 20
187.671527
 30
0.0
 11
200.0
 21
215.431983
 31
0.0
  0
LINE
  8
LC-006-003-----0
 62
     2
  5
36B
 10
200.0
 20
215.431983
 30
0.0
 11
196.345267
 21
187.671527
 31
0.0
  0
LINE
  8
LC-006-003-----0
 62
     2
  5
36C
 10
196.345267
 20
187.671527
 30
0.0
 11
203.654733
 21
187.671527
 31
0.0
  0
LINE
  8
LC-006-003-----0
 62
     2
  5
36D
 10
202.704503
 20
187.609245
 30
0.0
 11
200.0
 21
208.151983
 31
0.0
  0
LINE
  8
LC-006-003-----0
 62
     2
  5
36E
 10
200.0
 20
208.151983
 30
0.0
 11
197.295497
 21
187.609245
 31
0.0
  0
LINE
  8
LC-006-003-----0
 62
     2
  5
36F
 10
201.754272
 20
187.546964
 30
0.0
 11
200.0
 21
200.871983
 31
0.0
  0
LINE
  8
LC-006-003-----0
 62
     2
  5
370
 10
200.0
 20
200.871983
 30
0.0
 11
198.245728
 21
187.546964
 31
0.0
  0
LINE
  8
LC-006-003-----0
 62
     2
  5
371
 10
200.804041
 20
187.484683
 30
0.0
 11
200.0
 21
193.591983
 31
0.0
  0
LINE
  8
LC-006-003-----0
 62
     2
  5
372
 10
200.0
 20
193.591983
 30
0.0
 11
199.195959
 21
187.484683
 31
0.0
  0
LINE
  8
LC-006-003-----0
 62
     2
  5
373
 10
196.345267
 20
303.192327
 30
0.0
 11
200.0
 21
275.431871
 31
0.0
  0
LINE
  8
LC-006-003-----0
 62
     2
  5
374
 10
200.0
 20
275.431871
 30
0.0
 11
203.654733
 21
303.192327
 31
0.0
  0
LINE
  8
LC-006-003-----0
 62
     2
  5
375
 10
203.654733
 20
303.192327
 30
0.0
 11
196.345267
 21
303.192327
 31
0.0
  0
LINE
  8
LC-006-003-----0
 62
     2
  5
376
 10
197.295497
 20
303.254608
 30
0.0
 11
200.0
 21
282.711871
 31
0.0
  0
LINE
  8
LC-006-003-----0
 62
     2
  5
377
 10
200.0
 20
282.711871
 30
0.0
 11
202.704503
 21
303.254608
 31
0.0
  0
LINE
  8
LC-006-003-----0
 62
     2
  5
378
 10
198.245728
 20
303.31689
 30
0.0
 11
200.0
 21
289.991871
 31
0.0
  0
LINE
  8
LC-006-003-----0
 62
     2
  5
379
 10
200.0
 20
289.991871
 30
0.0
 11
201.754272
 21
303.31689
 31
0.0
  0
LINE
  8
LC-006-003-----0
 62
     2
  5
37A
 10
199.195959
 20
303.379171
 30
0.0
 11
200.0
 21
297.271871
 31
0.0
  0
LINE
  8
LC-006-003-----0
 62
     2
  5
37B
 10
200.0
 20
297.271871
 30
0.0
 11
200.804041
 21
303.379171
 31
0.0
  0
LINE
  8
LC-005-003-MTG-0
 62
     2
  5
37C
 10
200.0
 20
176.231983
 30
0.0
 11
200.0
 21
314.631871
 31
0.0
  0
TEXT
  8
LC-006-003-----0
 62
     7
  5
37D
 10
192.172446
 20
231.981162
 30
0.0
 40
28.0
  1
60
 50
90.0
 41
0.9
 51
15.0
  7
LCTX15-400-0-0-ARIAL
 72
     1
 11
192.172446
 21
249.733162
 31
0.0
  0
ENDBLK
  8
0
  5
37E
  0
BLOCK
  8
0
  5
3C0
  2
*X27
 70
    65
 10
228.976556
 20
313.229197
 30
0.0
  3
*X27
  0
LINE
  8
LC-003-005-----0
 62
     2
  5
3C1
 10
231.20481
 20
313.229197
 30
0.0
 11
232.997371
 21
315.021758
 31
0.0
  0
LINE
  8
LC-003-005-----0
 62
     2
  5
3C2
 10
230.476556
 20
315.32937
 30
0.0
 11
233.023286
 21
317.8761
 31
0.0
  0
LINE
  8
LC-003-005-----0
 62
     2
  5
3C3
 10
230.476556
 20
318.157797
 30
0.0
 11
233.049201
 21
320.730442
 31
0.0
  0
LINE
  8
LC-003-005-----0
 62
     2
  5
3C4
 10
230.476556
 20
320.986224
 30
0.0
 11
233.075116
 21
323.584784
 31
0.0
  0
LINE
  8
LC-003-005-----0
 62
     2
  5
3C5
 10
230.476556
 20
323.814652
 30
0.0
 11
233.101031
 21
326.439126
 31
0.0
  0
LINE
  8
LC-003-005-----0
 62
     2
  5
3C6
 10
230.476556
 20
326.643079
 30
0.0
 11
233.126945
 21
329.293468
 31
0.0
  0
LINE
  8
LC-003-005-----0
 62
     2
  5
3C7
 10
230.476556
 20
329.471506
 30
0.0
 11
233.15286
 21
332.14781
 31
0.0
  0
LINE
  8
LC-003-005-----0
 62
     2
  5
3C8
 10
230.476556
 20
332.299933
 30
0.0
 11
233.178775
 21
335.002152
 31
0.0
  0
LINE
  8
LC-003-005-----0
 62
     2
  5
3C9
 10
230.476556
 20
335.12836
 30
0.0
 11
233.20469
 21
337.856494
 31
0.0
  0
LINE
  8
LC-003-005-----0
 62
     2
  5
3CA
 10
230.476556
 20
337.956787
 30
0.0
 11
233.230605
 21
340.710836
 31
0.0
  0
LINE
  8
LC-003-005-----0
 62
     2
  5
3CB
 10
230.476556
 20
340.785214
 30
0.0
 11
233.25652
 21
343.565178
 31
0.0
  0
LINE
  8
LC-003-005-----0
 62
     2
  5
3CC
 10
230.476556
 20
343.613641
 30
0.0
 11
233.282435
 21
346.41952
 31
0.0
  0
LINE
  8
LC-003-005-----0
 62
     2
  5
3CD
 10
230.476556
 20
346.442069
 30
0.0
 11
233.30835
 21
349.273862
 31
0.0
  0
LINE
  8
LC-003-005-----0
 62
     2
  5
3CE
 10
230.476556
 20
349.270496
 30
0.0
 11
233.334265
 21
352.128204
 31
0.0
  0
LINE
  8
LC-003-005-----0
 62
     2
  5
3CF
 10
230.476556
 20
352.098923
 30
0.0
 11
233.36018
 21
354.982546
 31
0.0
  0
LINE
  8
LC-003-005-----0
 62
     2
  5
3D0
 10
230.476556
 20
354.92735
 30
0.0
 11
233.386095
 21
357.836888
 31
0.0
  0
LINE
  8
LC-003-005-----0
 62
     2
  5
3D1
 10
230.476556
 20
357.755777
 30
0.0
 11
233.412009
 21
360.69123
 31
0.0
  0
LINE
  8
LC-003-005-----0
 62
     2
  5
3D2
 10
230.476556
 20
360.584204
 30
0.0
 11
233.437924
 21
363.545572
 31
0.0
  0
LINE
  8
LC-003-005-----0
 62
     2
  5
3D3
 10
230.476556
 20
363.412631
 30
0.0
 11
233.463839
 21
366.399914
 31
0.0
  0
LINE
  8
LC-003-005-----0
 62
     2
  5
3D4
 10
230.476556
 20
366.241058
 30
0.0
 11
233.489754
 21
369.254256
 31
0.0
  0
LINE
  8
LC-003-005-----0
 62
     2
  5
3D5
 10
230.476556
 20
369.069486
 30
0.0
 11
233.515669
 21
372.108598
 31
0.0
  0
LINE
  8
LC-003-005-----0
 62
     2
  5
3D6
 10
230.476556
 20
371.897913
 30
0.0
 11
233.541584
 21
374.96294
 31
0.0
  0
LINE
  8
LC-003-005-----0
 62
     2
  5
3D7
 10
230.476556
 20
374.72634
 30
0.0
 11
233.567499
 21
377.817282
 31
0.0
  0
LINE
  8
LC-003-005-----0
 62
     2
  5
3D8
 10
230.476556
 20
377.554767
 30
0.0
 11
233.593414
 21
380.671624
 31
0.0
  0
LINE
  8
LC-003-005-----0
 62
     2
  5
3D9
 10
230.476556
 20
380.383194
 30
0.0
 11
233.619329
 21
383.525966
 31
0.0
  0
LINE
  8
LC-003-005-----0
 62
     2
  5
3DA
 10
230.476556
 20
383.211621
 30
0.0
 11
233.645244
 21
386.380308
 31
0.0
  0
LINE
  8
LC-003-005-----0
 62
     2
  5
3DB
 10
230.476556
 20
386.040048
 30
0.0
 11
233.671159
 21
389.23465
 31
0.0
  0
LINE
  8
LC-003-005-----0
 62
     2
  5
3DC
 10
230.476556
 20
388.868475
 30
0.0
 11
232.976556
 21
391.368475
 31
0.0
  0
LINE
  8
LC-003-005-----0
 62
     2
  5
3DD
 10
228.976556
 20
390.196903
 30
0.0
 11
232.976556
 21
394.196903
 31
0.0
  0
LINE
  8
LC-003-005-----0
 62
     2
  5
3DE
 10
228.976556
 20
393.02533
 30
0.0
 11
232.976556
 21
397.02533
 31
0.0
  0
LINE
  8
LC-003-005-----0
 62
     2
  5
3DF
 10
228.976556
 20
395.853757
 30
0.0
 11
232.976556
 21
399.853757
 31
0.0
  0
LINE
  8
LC-003-005-----0
 62
     2
  5
3E0
 10
228.976556
 20
398.682184
 30
0.0
 11
232.976556
 21
402.682184
 31
0.0
  0
LINE
  8
LC-003-005-----0
 62
     2
  5
3E1
 10
228.976556
 20
401.510611
 30
0.0
 11
230.695142
 21
403.229197
 31
0.0
  0
ENDBLK
  8
0
  5
3E2
  0
BLOCK
  8
0
  5
3E9
  2
*X28
 70
    65
 10
372.276556
 20
313.229197
 30
0.0
  3
*X28
  0
LINE
  8
LC-003-005-----0
 62
     2
  5
3EA
 10
372.968905
 20
313.571936
 30
0.0
 11
375.476556
 21
316.079587
 31
0.0
  0
LINE
  8
LC-003-005-----0
 62
     2
  5
3EB
 10
372.943457
 20
316.374914
 30
0.0
 11
375.476556
 21
318.908014
 31
0.0
  0
LINE
  8
LC-003-005-----0
 62
     2
  5
3EC
 10
372.918008
 20
319.177893
 30
0.0
 11
375.476556
 21
321.736441
 31
0.0
  0
LINE
  8
LC-003-005-----0
 62
     2
  5
3ED
 10
372.892559
 20
321.980871
 30
0.0
 11
375.476556
 21
324.564868
 31
0.0
  0
LINE
  8
LC-003-005-----0
 62
     2
  5
3EE
 10
372.867111
 20
324.78385
 30
0.0
 11
375.476556
 21
327.393295
 31
0.0
  0
LINE
  8
LC-003-005-----0
 62
     2
  5
3EF
 10
372.841662
 20
327.586828
 30
0.0
 11
375.476556
 21
330.221722
 31
0.0
  0
LINE
  8
LC-003-005-----0
 62
     2
  5
3F0
 10
372.816214
 20
330.389807
 30
0.0
 11
375.476556
 21
333.05015
 31
0.0
  0
LINE
  8
LC-003-005-----0
 62
     2
  5
3F1
 10
372.790765
 20
333.192785
 30
0.0
 11
375.476556
 21
335.878577
 31
0.0
  0
LINE
  8
LC-003-005-----0
 62
     2
  5
3F2
 10
372.765317
 20
335.995764
 30
0.0
 11
375.476556
 21
338.707004
 31
0.0
  0
LINE
  8
LC-003-005-----0
 62
     2
  5
3F3
 10
372.739868
 20
338.798742
 30
0.0
 11
375.476556
 21
341.535431
 31
0.0
  0
LINE
  8
LC-003-005-----0
 62
     2
  5
3F4
 10
372.714419
 20
341.601721
 30
0.0
 11
375.476556
 21
344.363858
 31
0.0
  0
LINE
  8
LC-003-005-----0
 62
     2
  5
3F5
 10
372.688971
 20
344.4047
 30
0.0
 11
375.476556
 21
347.192285
 31
0.0
  0
LINE
  8
LC-003-005-----0
 62
     2
  5
3F6
 10
372.663522
 20
347.207678
 30
0.0
 11
375.476556
 21
350.020712
 31
0.0
  0
LINE
  8
LC-003-005-----0
 62
     2
  5
3F7
 10
372.638074
 20
350.010657
 30
0.0
 11
375.476556
 21
352.849139
 31
0.0
  0
LINE
  8
LC-003-005-----0
 62
     2
  5
3F8
 10
372.612625
 20
352.813635
 30
0.0
 11
375.476556
 21
355.677567
 31
0.0
  0
LINE
  8
LC-003-005-----0
 62
     2
  5
3F9
 10
372.587177
 20
355.616614
 30
0.0
 11
375.476556
 21
358.505994
 31
0.0
  0
LINE
  8
LC-003-005-----0
 62
     2
  5
3FA
 10
372.561728
 20
358.419592
 30
0.0
 11
375.476556
 21
361.334421
 31
0.0
  0
LINE
  8
LC-003-005-----0
 62
     2
  5
3FB
 10
372.536279
 20
361.222571
 30
0.0
 11
375.476556
 21
364.162848
 31
0.0
  0
LINE
  8
LC-003-005-----0
 62
     2
  5
3FC
 10
372.510831
 20
364.025549
 30
0.0
 11
375.476556
 21
366.991275
 31
0.0
  0
LINE
  8
LC-003-005-----0
 62
     2
  5
3FD
 10
372.485382
 20
366.828528
 30
0.0
 11
375.476556
 21
369.819702
 31
0.0
  0
LINE
  8
LC-003-005-----0
 62
     2
  5
3FE
 10
372.459934
 20
369.631507
 30
0.0
 11
375.476556
 21
372.648129
 31
0.0
  0
LINE
  8
LC-003-005-----0
 62
     2
  5
3FF
 10
372.434485
 20
372.434485
 30
0.0
 11
375.476556
 21
375.476556
 31
0.0
  0
LINE
  8
LC-003-005-----0
 62
     2
  5
400
 10
372.409037
 20
375.237464
 30
0.0
 11
375.476556
 21
378.304984
 31
0.0
  0
LINE
  8
LC-003-005-----0
 62
     2
  5
401
 10
372.383588
 20
378.040442
 30
0.0
 11
375.476556
 21
381.133411
 31
0.0
  0
LINE
  8
LC-003-005-----0
 62
     2
  5
402
 10
372.358139
 20
380.843421
 30
0.0
 11
375.476556
 21
383.961838
 31
0.0
  0
LINE
  8
LC-003-005-----0
 62
     2
  5
403
 10
372.332691
 20
383.646399
 30
0.0
 11
375.476556
 21
386.790265
 31
0.0
  0
LINE
  8
LC-003-005-----0
 62
     2
  5
404
 10
372.307242
 20
386.449378
 30
0.0
 11
376.976556
 21
391.118692
 31
0.0
  0
LINE
  8
LC-003-005-----0
 62
     2
  5
405
 10
372.281794
 20
389.252356
 30
0.0
 11
372.858634
 21
389.829197
 31
0.0
  0
LINE
  8
LC-003-005-----0
 62
     2
  5
406
 10
372.976556
 20
389.947119
 30
0.0
 11
376.976556
 21
393.947119
 31
0.0
  0
LINE
  8
LC-003-005-----0
 62
     2
  5
407
 10
372.976556
 20
392.775546
 30
0.0
 11
376.976556
 21
396.775546
 31
0.0
  0
LINE
  8
LC-003-005-----0
 62
     2
  5
408
 10
372.976556
 20
395.603973
 30
0.0
 11
376.976556
 21
399.603973
 31
0.0
  0
LINE
  8
LC-003-005-----0
 62
     2
  5
409
 10
372.976556
 20
398.432401
 30
0.0
 11
376.976556
 21
402.432401
 31
0.0
  0
LINE
  8
LC-003-005-----0
 62
     2
  5
40A
 10
372.976556
 20
401.260828
 30
0.0
 11
374.944925
 21
403.229197
 31
0.0
  0
ENDBLK
  8
0
  5
40B
  0
ENDSEC
  0
SECTION
  2
ENTITIES
  0
VIEWPORT
  8
LC-VIEWPORT
  5
40D
 67
     1
 68
     1
 10
420.0
 20
297.0
 30
0.0
 40
840.0
 41
594.0
 69
     1
1001
ACAD
1000
MVIEW
1002
{
1070
    16
1010
0.0
1020
0.0
1030
0.0
1010
0.0
1020
0.0
1030
1.0
1040
0.0
1040
594.0
1040
420.0
1040
297.0
1040
50.0
1040
0.0
1040
0.0
1070
     0
1070
   100
1070
     1
1070
     1
1070
     0
1070
     0
1070
     0
1070
     0
1040
0.0
1040
0.0
1040
0.0
1040
1.0
1040
1.0
1040
0.0
1040
0.0
1070
     0
1002
{
1002
}
1002
}
  0
ARC
  8
LC-001-020-----0
  6
BYBLOCK
 62
     1
  5
24
 10
324.70326
 20
301.831999
 30
0.0
 40
1.5
 50
98.332729
 51
168.129355
  0
INSERT
  8
LC-001-020-----0
 62
     2
  5
31
  2
*X0
 10
311.860917
 20
300.428257
 30
0.0
  0
INSERT
  8
LC-001-020-----0
 62
     2
  5
3B
  2
*X1
 10
311.860917
 20
300.428214
 30
0.0
  0
LINE
  8
LC-002-002-----0
  6
BYBLOCK
 62
     1
  5
3D
 10
320.48588
 20
304.832005
 30
0.0
 11
324.485882
 21
304.832005
 31
0.0
  0
LINE
  8
LC-002-002-----0
 62
     1
  5
3E
 10
320.45378
 20
288.907516
 30
0.0
 11
323.235337
 21
302.14055
 31
0.0
  0
LINE
  8
LC-002-002-----0
 62
     1
  5
3F
 10
227.476556
 20
337.432014
 30
0.0
 11
227.476556
 21
308.432014
 31
0.0
  0
LINE
  8
LC-002-002-----0
 62
     1
  5
40
 10
227.476556
 20
308.432014
 30
0.0
 11
220.476556
 21
308.432014
 31
0.0
  0
LINE
  8
LC-002-002-----0
 62
     1
  5
41
 10
220.476556
 20
308.432014
 30
0.0
 11
220.476556
 21
305.932014
 31
0.0
  0
LINE
  8
LC-002-002-----0
 62
     1
  5
42
 10
220.476556
 20
305.932014
 30
0.0
 11
230.97658
 21
305.932014
 31
0.0
  0
LINE
  8
LC-002-002-----0
 62
     1
  5
43
 10
230.97658
 20
305.932014
 30
0.0
 11
230.97658
 21
304.932853
 31
0.0
  0
LINE
  8
LC-002-002-----0
 62
     1
  5
44
 10
609.517467
 20
328.864946
 30
0.0
 11
541.517467
 21
328.864946
 31
0.0
  0
LINE
  8
LC-002-002-----0
 62
     1
  5
45
 10
541.517467
 20
328.864946
 30
0.0
 11
541.517467
 21
192.864946
 31
0.0
  0
LINE
  8
LC-002-002-----0
 62
     1
  5
46
 10
541.517467
 20
192.864946
 30
0.0
 11
609.517467
 21
192.864946
 31
0.0
  0
LINE
  8
LC-002-002-----0
 62
     1
  5
47
 10
602.517467
 20
265.864946
 30
0.0
 11
555.017467
 21
265.864946
 31
0.0
  0
LINE
  8
LC-002-002-----0
 62
     1
  5
48
 10
555.017467
 20
265.864946
 30
0.0
 11
555.017467
 21
275.864946
 31
0.0
  0
LINE
  8
LC-002-002-----0
 62
     1
  5
49
 10
555.017467
 20
275.864946
 30
0.0
 11
602.517467
 21
275.864946
 31
0.0
  0
LINE
  8
LC-002-002-----0
 62
     1
  5
4A
 10
602.517467
 20
275.864946
 30
0.0
 11
602.517467
 21
265.864946
 31
0.0
  0
LINE
  8
LC-002-002-----0
 62
     1
  5
4B
 10
555.017467
 20
285.864946
 30
0.0
 11
602.517467
 21
285.864946
 31
0.0
  0
LINE
  8
LC-002-002-----0
 62
     1
  5
4C
 10
602.517467
 20
285.864946
 30
0.0
 11
602.517467
 21
295.864946
 31
0.0
  0
LINE
  8
LC-002-002-----0
 62
     1
  5
4D
 10
602.517467
 20
295.864946
 30
0.0
 11
555.017467
 21
295.864946
 31
0.0
  0
LINE
  8
LC-002-002-----0
 62
     1
  5
4E
 10
555.017467
 20
295.864946
 30
0.0
 11
555.017467
 21
285.864946
 31
0.0
  0
LINE
  8
LC-002-002-----0
 62
     1
  5
4F
 10
555.017467
 20
305.864946
 30
0.0
 11
602.517467
 21
305.864946
 31
0.0
  0
LINE
  8
LC-002-002-----0
 62
     1
  5
50
 10
602.517467
 20
305.864946
 30
0.0
 11
602.517467
 21
315.864946
 31
0.0
  0
LINE
  8
LC-002-002-----0
 62
     1
  5
51
 10
602.517467
 20
315.864946
 30
0.0
 11
555.017467
 21
315.864946
 31
0.0
  0
LINE
  8
LC-002-002-----0
 62
     1
  5
52
 10
555.017467
 20
315.864946
 30
0.0
 11
555.017467
 21
305.864946
 31
0.0
  0
LINE
  8
LC-002-002-----0
 62
     1
  5
53
 10
602.517467
 20
255.863555
 30
0.0
 11
555.016372
 21
255.863807
 31
0.0
  0
LINE
  8
LC-002-002-----0
 62
     1
  5
54
 10
555.016372
 20
255.863807
 30
0.0
 11
555.016319
 21
245.863807
 31
0.0
  0
LINE
  8
LC-002-002-----0
 62
     1
  5
55
 10
555.016319
 20
245.863807
 30
0.0
 11
591.350243
 21
245.863614
 31
0.0
  0
LINE
  8
LC-002-002-----0
 62
     1
  5
56
 10
555.016266
 20
235.863807
 30
0.0
 11
588.068502
 21
235.863631
 31
0.0
  0
LINE
  8
LC-002-002-----0
 62
     1
  5
57
 10
555.016213
 20
225.863807
 30
0.0
 11
555.016266
 21
235.863807
 31
0.0
  0
LINE
  8
LC-002-002-----0
 62
     1
  5
58
 10
555.01616
 20
215.863807
 30
0.0
 11
588.016107
 21
215.863632
 31
0.0
  0
LINE
  8
LC-002-002-----0
 62
     1
  5
59
 10
555.016107
 20
205.863807
 30
0.0
 11
555.01616
 21
215.863807
 31
0.0
  0
LINE
  8
LC-002-002-----0
 62
     1
  5
5A
 10
609.517642
 20
328.865122
 30
0.0
 11
677.517642
 21
328.865078
 31
0.0
  0
LINE
  8
LC-002-002-----0
 62
     1
  5
5B
 10
677.517642
 20
328.865078
 30
0.0
 11
677.517554
 21
192.865078
 31
0.0
  0
LINE
  8
LC-002-002-----0
 62
     1
  5
5C
 10
677.517554
 20
192.865078
 30
0.0
 11
609.517554
 21
192.865122
 31
0.0
  0
LINE
  8
LC-002-002-----0
 62
     1
  5
5D
 10
616.517601
 20
265.865118
 30
0.0
 11
664.017601
 21
265.865087
 31
0.0
  0
LINE
  8
LC-002-002-----0
 62
     1
  5
5E
 10
664.017601
 20
265.865087
 30
0.0
 11
664.017608
 21
275.865087
 31
0.0
  0
LINE
  8
LC-002-002-----0
 62
     1
  5
5F
 10
664.017608
 20
275.865087
 30
0.0
 11
616.517608
 21
275.865118
 31
0.0
  0
LINE
  8
LC-002-002-----0
 62
     1
  5
60
 10
616.517608
 20
275.865118
 30
0.0
 11
616.517601
 21
265.865118
 31
0.0
  0
LINE
  8
LC-002-002-----0
 62
     1
  5
61
 10
664.017614
 20
285.865087
 30
0.0
 11
616.517614
 21
285.865118
 31
0.0
  0
LINE
  8
LC-002-002-----0
 62
     1
  5
62
 10
616.517614
 20
285.865118
 30
0.0
 11
616.517621
 21
295.865118
 31
0.0
  0
LINE
  8
LC-002-002-----0
 62
     1
  5
63
 10
616.517621
 20
295.865118
 30
0.0
 11
664.017621
 21
295.865087
 31
0.0
  0
LINE
  8
LC-002-002-----0
 62
     1
  5
64
 10
664.017621
 20
295.865087
 30
0.0
 11
664.017614
 21
285.865087
 31
0.0
  0
LINE
  8
LC-002-002-----0
 62
     1
  5
65
 10
664.017627
 20
305.865087
 30
0.0
 11
616.517627
 21
305.865118
 31
0.0
  0
LINE
  8
LC-002-002-----0
 62
     1
  5
66
 10
616.517627
 20
305.865118
 30
0.0
 11
616.517634
 21
315.865118
 31
0.0
  0
LINE
  8
LC-002-002-----0
 62
     1
  5
67
 10
616.517634
 20
315.865118
 30
0.0
 11
664.017634
 21
315.865087
 31
0.0
  0
LINE
  8
LC-002-002-----0
 62
     1
  5
68
 10
664.017634
 20
315.865087
 30
0.0
 11
664.017627
 21
305.865087
 31
0.0
  0
LINE
  8
LC-002-002-----0
 62
     1
  5
69
 10
616.517595
 20
255.863726
 30
0.0
 11
664.018689
 21
255.863947
 31
0.0
  0
LINE
  8
LC-002-002-----0
 62
     1
  5
6A
 10
664.018689
 20
255.863947
 30
0.0
 11
664.018735
 21
245.863947
 31
0.0
  0
LINE
  8
LC-002-002-----0
 62
     1
  5
6B
 10
664.018735
 20
245.863947
 30
0.0
 11
638.841756
 21
245.86383
 31
0.0
  0
LINE
  8
LC-002-002-----0
 62
     1
  5
6C
 10
664.018782
 20
235.863947
 30
0.0
 11
640.980359
 21
235.86384
 31
0.0
  0
LINE
  8
LC-002-002-----0
 62
     1
  5
6D
 10
616.518828
 20
225.863726
 30
0.0
 11
641.016107
 21
225.86384
 31
0.0
  0
LINE
  8
LC-002-002-----0
 62
     1
  5
6E
 10
664.018828
 20
225.863947
 30
0.0
 11
664.018782
 21
235.863947
 31
0.0
  0
LINE
  8
LC-002-002-----0
 62
     1
  5
6F
 10
664.018875
 20
215.863947
 30
0.0
 11
641.016107
 21
215.86384
 31
0.0
  0
LINE
  8
LC-002-002-----0
 62
     1
  5
70
 10
616.518921
 20
205.863726
 30
0.0
 11
641.016107
 21
205.86384
 31
0.0
  0
LINE
  8
LC-002-002-----0
 62
     1
  5
71
 10
664.018921
 20
205.863947
 30
0.0
 11
664.018875
 21
215.863947
 31
0.0
  0
LINE
  8
LC-002-002-----0
 62
     1
  5
72
 10
588.016107
 20
205.863632
 30
0.0
 11
555.016107
 21
205.863807
 31
0.0
  0
LINE
  8
LC-002-002-----0
 62
     1
  5
73
 10
641.016107
 20
205.86384
 30
0.0
 11
664.018921
 21
205.863947
 31
0.0
  0
LINE
  8
LC-002-002-----0
 62
     1
  5
74
 10
641.016107
 20
215.86384
 30
0.0
 11
616.518875
 21
215.863726
 31
0.0
  0
LINE
  8
LC-002-002-----0
 62
     1
  5
75
 10
588.016107
 20
215.863632
 30
0.0
 11
602.517467
 21
215.863555
 31
0.0
  0
LINE
  8
LC-002-002-----0
 62
     1
  5
76
 10
591.317148
 20
225.863614
 30
0.0
 11
555.016213
 21
225.863807
 31
0.0
  0
LINE
  8
LC-002-002-----0
 62
     1
  5
77
 10
588.068502
 20
235.863631
 30
0.0
 11
602.517467
 21
235.863555
 31
0.0
  0
LINE
  8
LC-002-002-----0
 62
     1
  5
78
 10
640.980359
 20
235.86384
 30
0.0
 11
616.518782
 21
235.863726
 31
0.0
  0
LINE
  8
LC-002-002-----0
 62
     1
  5
79
 10
641.016107
 20
225.86384
 30
0.0
 11
664.018828
 21
225.863947
 31
0.0
  0
LINE
  8
LC-002-002-----0
 62
     1
  5
7A
 10
638.841756
 20
245.86383
 30
0.0
 11
616.518735
 21
245.863726
 31
0.0
  0
LINE
  8
LC-002-002-----0
 62
     1
  5
7B
 10
591.350243
 20
245.863614
 30
0.0
 11
602.517467
 21
245.863555
 31
0.0
  0
LINE
  8
LC-002-002-----0
 62
     1
  5
7C
 10
602.517467
 20
205.863555
 30
0.0
 11
588.016107
 21
205.863632
 31
0.0
  0
LINE
  8
LC-002-002-----0
 62
     1
  5
7D
 10
602.517467
 20
225.863555
 30
0.0
 11
588.016107
 21
225.863632
 31
0.0
  0
LINE
  8
LC-002-002-----0
 62
     1
  5
7E
 10
602.517467
 20
255.863555
 30
0.0
 11
602.517467
 21
245.863555
 31
0.0
  0
LINE
  8
LC-002-002-----0
 62
     1
  5
7F
 10
602.517467
 20
215.863555
 30
0.0
 11
602.517467
 21
205.863555
 31
0.0
  0
LINE
  8
LC-002-002-----0
 62
     1
  5
80
 10
616.517595
 20
255.863726
 30
0.0
 11
616.517588
 21
245.863726
 31
0.0
  0
LINE
  8
LC-002-002-----0
 62
     1
  5
81
 10
616.517582
 20
235.863726
 30
0.0
 11
616.517575
 21
225.863726
 31
0.0
  0
LINE
  8
LC-002-002-----0
 62
     1
  5
82
 10
616.517569
 20
215.863726
 30
0.0
 11
616.517562
 21
205.863726
 31
0.0
  0
LINE
  8
LC-002-002-----0
 62
     1
  5
83
 10
602.517467
 20
225.863555
 30
0.0
 11
602.517467
 21
235.863555
 31
0.0
  0
ARC
  8
LC-002-002-----0
 62
     1
  5
84
 10
609.517467
 20
260.864946
 30
0.0
 40
82.5
 50
245.380279
 51
294.619721
  0
ARC
  8
LC-002-002-----0
 62
     1
  5
85
 10
609.517467
 20
260.864946
 30
0.0
 40
77.0
 50
167.161182
 51
193.086958
  0
ARC
  8
LC-002-002-----0
 62
     1
  5
86
 10
609.517467
 20
260.864946
 30
0.0
 40
77.0
 50
76.913188
 51
103.086812
  0
ARC
  8
LC-002-002-----0
 62
     1
  5
87
 10
609.517467
 20
260.864946
 30
0.0
 40
77.0
 50
346.913042
 51
13.086883
  0
ARC
  8
LC-002-002-----0
 62
     1
  5
88
 10
609.517467
 20
260.864946
 30
0.0
 40
77.0
 50
254.892811
 51
283.086812
  0
ARC
  8
LC-002-002-----0
 62
     1
  5
89
 10
609.517467
 20
260.864946
 30
0.0
 40
82.5
 50
335.380204
 51
24.619721
  0
ARC
  8
LC-002-002-----0
 62
     1
  5
8A
 10
609.517467
 20
260.864946
 30
0.0
 40
82.5
 50
155.380279
 51
204.619796
  0
ARC
  8
LC-002-002-----0
 62
     1
  5
8B
 10
609.517467
 20
260.864946
 30
0.0
 40
82.5
 50
65.380279
 51
114.619721
  0
LINE
  8
LC-002-002-----0
  6
DASHDOT
 62
     2
  5
8D
 10
677.517598
 20
260.864946
 30
0.0
 11
760.017467
 21
260.864946
 31
0.0
  0
LINE
  8
LC-002-002-----0
 62
     1
  5
8E
 10
230.476602
 20
337.432014
 30
0.0
 11
227.476556
 21
337.432014
 31
0.0
  0
LINE
  8
LC-002-002-----0
 62
     1
  5
8F
 10
233.476586
 20
312.432014
 30
0.0
 11
230.47659
 21
312.432014
 31
0.0
  0
LINE
  8
LC-002-002-----0
 62
     1
  5
90
 10
375.485885
 20
337.432014
 30
0.0
 11
378.476556
 21
337.432014
 31
0.0
  0
LINE
  8
LC-002-002-----0
 62
     1
  5
91
 10
375.485885
 20
312.432014
 30
0.0
 11
375.485885
 21
337.432014
 31
0.0
  0
LINE
  8
LC-002-002-----0
 62
     1
  5
92
 10
372.485905
 20
312.432014
 30
0.0
 11
375.476523
 21
312.432014
 31
0.0
  0
LINE
  8
LC-002-002-----0
 62
     1
  5
93
 10
233.97659
 20
302.432013
 30
0.0
 11
256.985414
 21
302.431983
 31
0.0
  0
LINE
  8
LC-002-002-----0
 62
     1
  5
94
 10
233.97659
 20
303.832013
 30
0.0
 11
238.976579
 21
303.832007
 31
0.0
  0
ARC
  8
LC-002-002-----0
 62
     1
  5
95
 10
236.226585
 20
308.28201
 30
0.0
 40
2.749996
 50
0.0
 51
180.0
  0
ARC
  8
LC-002-002-----0
 62
     1
  5
96
 10
236.226583
 20
306.58201
 30
0.0
 40
2.75
 50
180.0
 51
0.0
  0
LINE
  8
LC-002-002-----0
 62
     1
  5
97
 10
233.476583
 20
306.58201
 30
0.0
 11
233.476589
 21
308.282014
 31
0.0
  0
LINE
  8
LC-002-002-----0
 62
     1
  5
98
 10
238.976583
 20
306.58201
 30
0.0
 11
238.976585
 21
308.28201
 31
0.0
  0
LINE
  8
LC-002-002-----0
 62
     1
  5
99
 10
233.97659
 20
311.032013
 30
0.0
 11
238.976589
 21
311.032007
 31
0.0
  0
INSERT
  8
LC-003-005-----0
 62
     2
  5
A5
  2
*X2
 10
233.476583
 20
303.83201
 30
0.0
  0
LINE
  8
LC-002-002-----0
 62
     1
  5
A6
 10
238.976585
 20
308.28201
 30
0.0
 11
238.976589
 21
311.032007
 31
0.0
  0
LINE
  8
LC-002-002-----0
 62
     1
  5
A7
 10
385.476774
 20
305.932197
 30
0.0
 11
374.985862
 21
305.932204
 31
0.0
  0
LINE
  8
LC-002-002-----0
 62
     1
  5
A8
 10
378.476775
 20
308.432202
 30
0.0
 11
385.476775
 21
308.432197
 31
0.0
  0
LINE
  8
LC-002-002-----0
 62
     1
  5
A9
 10
385.476775
 20
308.432197
 30
0.0
 11
385.476774
 21
305.932197
 31
0.0
  0
LINE
  8
LC-002-002-----0
 62
     1
  5
AA
 10
378.476794
 20
337.432014
 30
0.0
 11
378.476775
 21
308.432202
 31
0.0
  0
LINE
  8
LC-001-020-----0
 62
     1
  5
AB
 10
371.976523
 20
312.432013
 30
0.0
 11
371.976524
 21
311.032013
 31
0.0
  0
LINE
  8
LC-002-002-----0
 62
     1
  5
AC
 10
371.976523
 20
311.032013
 30
0.0
 11
366.976524
 21
311.032007
 31
0.0
  0
LINE
  8
LC-002-002-----0
 62
     1
  5
AD
 10
366.976528
 20
308.28201
 30
0.0
 11
366.976524
 21
311.032007
 31
0.0
  0
LINE
  8
LC-001-020-----0
 62
     1
  5
AE
 10
366.976534
 20
303.832007
 30
0.0
 11
366.97653
 21
306.582007
 31
0.0
  0
LINE
  8
LC-002-002-----0
 62
     1
  5
AF
 10
371.976523
 20
303.832013
 30
0.0
 11
366.976534
 21
303.832007
 31
0.0
  0
LINE
  8
LC-001-020-----0
 62
     1
  5
B0
 10
371.976534
 20
303.832013
 30
0.0
 11
371.976536
 21
302.432013
 31
0.0
  0
ARC
  8
LC-002-002-----0
 62
     1
  5
B1
 10
369.726528
 20
308.28201
 30
0.0
 40
2.749996
 50
0.0
 51
180.0
  0
LINE
  8
LC-002-002-----0
 62
     1
  5
B2
 10
372.47653
 20
306.58201
 30
0.0
 11
372.476524
 21
308.282014
 31
0.0
  0
LINE
  8
LC-002-002-----0
 62
     1
  5
B3
 10
366.97653
 20
306.58201
 30
0.0
 11
366.976528
 21
308.28201
 31
0.0
  0
ARC
  8
LC-002-002-----0
 62
     1
  5
B4
 10
369.72653
 20
306.58201
 30
0.0
 40
2.75
 50
180.0
 51
0.0
  0
INSERT
  8
LC-003-005-----0
 62
     2
  5
BF
  2
*X3
 10
366.97653
 20
303.83201
 30
0.0
  0
LINE
  8
LC-002-002-----0
 62
     1
  5
C0
 10
359.485879
 20
304.831847
 30
0.0
 11
365.485889
 21
304.831839
 31
0.0
  0
LINE
  8
LC-002-002-----0
 62
     1
  5
C1
 10
371.976523
 20
302.432013
 30
0.0
 11
359.485876
 21
302.431997
 31
0.0
  0
LINE
  8
LC-002-002-----0
 62
     1
  5
C2
 10
240.47658
 20
304.832005
 30
0.0
 11
320.48588
 21
304.832005
 31
0.0
  0
LINE
  8
LC-001-020-----0
 62
     1
  5
C3
 10
307.44554
 20
215.431916
 30
0.0
 11
320.453781
 21
288.90752
 31
0.0
  0
LINE
  8
LC-001-020-----0
 62
     1
  5
C4
 10
312.45758
 20
215.431909
 30
0.0
 11
327.859348
 21
300.428256
 31
0.0
  0
LINE
  8
LC-001-020-----0
 62
     1
  5
C5
 10
233.97659
 20
312.432013
 30
0.0
 11
233.976589
 21
311.032013
 31
0.0
  0
LINE
  8
LC-001-020-----0
 62
     1
  5
C6
 10
233.97659
 20
312.432013
 30
0.0
 11
240.47659
 21
312.432005
 31
0.0
  0
LINE
  8
LC-001-020-----0
 62
     1
  5
C7
 10
320.485885
 20
309.428266
 30
0.0
 11
363.485885
 21
309.428209
 31
0.0
  0
LINE
  8
LC-001-020-----0
 62
     1
  5
C8
 10
365.485889
 20
312.428206
 30
0.0
 11
365.485879
 21
304.831839
 31
0.0
  0
LINE
  8
LC-001-020-----0
 62
     1
  5
C9
 10
318.985877
 20
302.832007
 30
0.0
 11
318.985859
 21
289.216074
 31
0.0
  0
ARC
  8
LC-001-020-----0
 62
     1
  5
CA
 10
320.985877
 20
302.832004
 30
0.0
 40
2.0
 50
90.0
 51
180.0
  0
LINE
  8
LC-001-020-----0
 62
     1
  5
CB
 10
268.235341
 20
304.831968
 30
0.0
 11
268.235308
 21
275.893613
 31
0.0
  0
LINE
  8
LC-001-020-----0
 62
     1
  5
CC
 10
305.922991
 20
215.431918
 30
0.0
 11
318.985859
 21
289.216074
 31
0.0
  0
LINE
  8
LC-001-020-----0
 62
     1
  5
CD
 10
256.985314
 20
215.431983
 30
0.0
 11
256.985414
 21
302.431983
 31
0.0
  0
LINE
  8
LC-001-020-----0
 62
     1
  5
CE
 10
268.235308
 20
275.893613
 30
0.0
 11
268.235238
 21
215.431968
 31
0.0
  0
ARC
  8
LC-001-020-----0
 62
     1
  5
CF
 10
321.953798
 20
301.832003
 30
0.0
 40
1.5
 50
90.0
 51
180.0
  0
LINE
  8
LC-001-020-----0
 62
     1
  5
D0
 10
238.976579
 20
303.832007
 30
0.0
 11
238.976583
 21
306.582007
 31
0.0
  0
LINE
  8
LC-001-020-----0
 62
     1
  5
D1
 10
324.485882
 20
306.928261
 30
0.0
 11
324.485876
 21
302.428261
 31
0.0
  0
LINE
  8
LC-001-020-----0
 62
     1
  5
D2
 10
359.485876
 20
302.428214
 30
0.0
 11
359.485882
 21
306.928214
 31
0.0
  0
LINE
  8
LC-001-020-----0
 62
     1
  5
D3
 10
324.485876
 20
302.428261
 30
0.0
 11
324.485873
 21
300.428261
 31
0.0
  0
LINE
  8
LC-001-020-----0
 62
     1
  5
D4
 10
324.485873
 20
300.428261
 30
0.0
 11
359.485873
 21
300.428214
 31
0.0
  0
LINE
  8
LC-001-020-----0
 62
     1
  5
D5
 10
359.485873
 20
300.428214
 30
0.0
 11
359.485876
 21
302.428214
 31
0.0
  0
LINE
  8
LC-001-020-----0
 62
     1
  5
D6
 10
356.985873
 20
300.428218
 30
0.0
 11
356.985882
 21
307.428218
 31
0.0
  0
LINE
  8
LC-001-020-----0
 62
     1
  5
D7
 10
326.985882
 20
307.428188
 30
0.0
 11
326.985873
 21
300.428257
 31
0.0
  0
LINE
  8
LC-001-020-----0
 62
     1
  5
D8
 10
324.485878
 20
303.332
 30
0.0
 11
321.9538
 21
303.332003
 31
0.0
  0
LINE
  8
LC-001-020-----0
 62
     1
  5
D9
 10
320.485882
 20
306.928266
 30
0.0
 11
324.485882
 21
306.928261
 31
0.0
  0
LINE
  8
LC-001-020-----0
 62
     1
  5
DA
 10
363.485882
 20
306.928209
 30
0.0
 11
359.485882
 21
306.928214
 31
0.0
  0
LINE
  8
LC-001-020-----0
  6
DASHDOT
 62
     2
  5
DB
 10
341.985873
 20
300.428237
 30
0.0
 11
341.985885
 21
309.428237
 31
0.0
  0
ARC
  8
LC-001-020-----0
 62
     1
  5
DC
 10
341.985917
 20
333.553237
 30
0.0
 40
30.125
 50
240.137415
 51
299.862454
  0
ARC
  8
LC-001-020-----0
 62
     1
  5
DD
 10
341.98592
 20
335.553237
 30
0.0
 40
30.125
 50
240.137415
 51
299.862454
  0
LINE
  8
LC-001-020-----0
 62
     1
  5
DE
 10
240.47659
 20
312.432005
 30
0.0
 11
240.47658
 21
304.832005
 31
0.0
  0
LINE
  8
LC-001-020-----0
 62
     1
  5
DF
 10
240.47659
 20
312.432005
 30
0.0
 11
365.485889
 21
312.431839
 31
0.0
  0
LINE
  8
LC-001-020-----0
 62
     1
  5
E0
 10
233.976579
 20
303.832013
 30
0.0
 11
233.976577
 21
302.432013
 31
0.0
  0
LINE
  8
LC-001-020-----0
 62
     1
  5
E1
 10
371.985889
 20
312.428198
 30
0.0
 11
365.485889
 21
312.428206
 31
0.0
  0
LINE
  8
LC-001-020-----0
 62
     1
  5
E2
 10
230.97658
 20
304.932853
 30
0.0
 11
230.976462
 21
215.431982
 31
0.0
  0
ARC
  8
LC-001-020-----0
 62
     1
  5
E3
 10
250.97647
 20
215.431982
 30
0.0
 40
20.0
 50
179.999905
 51
270.0
  0
LINE
  8
LC-001-020-----0
 62
     1
  5
E4
 10
250.976443
 20
195.431983
 30
0.0
 11
302.976556
 21
195.431914
 31
0.0
  0
ARC
  8
LC-001-020-----0
 62
     1
  5
E5
 10
250.97647
 20
215.431982
 30
0.0
 40
17.5
 50
180.0
 51
270.0
  0
LINE
  8
LC-001-020-----0
 62
     1
  5
E6
 10
250.976446
 20
197.931983
 30
0.0
 11
302.976556
 21
197.931914
 31
0.0
  0
LINE
  8
LC-001-020-----0
 62
     1
  5
E7
 10
230.476624
 20
337.432014
 30
0.0
 11
230.47659
 21
312.432014
 31
0.0
  0
LINE
  8
LC-001-020-----0
 62
     1
  5
E8
 10
344.48581
 20
275.428238
 30
0.0
 11
344.485721
 21
197.928238
 31
0.0
  0
LINE
  8
LC-001-020-----0
 62
     1
  5
E9
 10
342.485721
 20
197.931862
 30
0.0
 11
342.48581
 21
275.431862
 31
0.0
  0
LINE
  8
LC-001-020-----0
 62
     1
  5
EA
 10
342.48581
 20
275.431862
 30
0.0
 11
344.48581
 21
275.431859
 31
0.0
  0
LINE
  8
LC-001-020-----0
 62
     1
  5
EB
 10
342.48581
 20
275.431862
 30
0.0
 11
335.48581
 21
275.431871
 31
0.0
  0
LINE
  8
LC-001-020-----0
 62
     1
  5
EC
 10
363.485885
 20
309.428209
 30
0.0
 11
363.485879
 21
304.831842
 31
0.0
  0
LINE
  8
LC-001-020-----0
 62
     1
  5
ED
 10
233.476583
 20
306.58201
 30
0.0
 11
233.476462
 21
215.431982
 31
0.0
  0
LINE
  8
LC-001-020-----0
 62
     1
  5
EE
 10
335.48581
 20
275.431871
 30
0.0
 11
335.485721
 21
197.931871
 31
0.0
  0
LINE
  8
LC-001-020-----0
 62
     1
  5
EF
 10
233.47659
 20
312.432014
 30
0.0
 11
233.476585
 21
308.282014
 31
0.0
  0
LINE
  8
LC-001-020-----0
 62
     1
  5
F0
 10
258.485314
 20
215.431981
 30
0.0
 11
258.485417
 21
304.831981
 31
0.0
  0
LINE
  8
LC-002-002-----0
 62
     1
  5
F1
 10
256.985314
 20
215.431983
 30
0.0
 11
312.45758
 21
215.431909
 31
0.0
  0
LINE
  8
LC-001-020-----0
 62
     1
  5
F2
 10
320.453798
 20
301.832005
 30
0.0
 11
320.453781
 21
288.90752
 31
0.0
  0
LINE
  8
LC-001-020-----0
 62
     1
  5
F3
 10
320.485879
 20
304.832005
 30
0.0
 11
320.485885
 21
309.428266
 31
0.0
  0
LINE
  8
LC-001-020-----0
 62
     1
  5
F4
 10
374.985862
 20
305.932204
 30
0.0
 11
374.985852
 21
304.482211
 31
0.0
  0
LINE
  8
LC-002-002-----0
 62
     1
  5
F5
 10
372.485832
 20
301.40884
 30
0.0
 11
453.494789
 21
297.16334
 31
0.0
  0
LINE
  8
LC-001-020-----0
 62
     1
  5
F6
 10
372.485905
 20
312.432014
 30
0.0
 11
372.485832
 21
301.40884
 31
0.0
  0
LINE
  8
LC-001-020-----0
 62
     1
  5
F7
 10
302.976556
 20
197.931914
 30
0.0
 11
342.485721
 21
197.931862
 31
0.0
  0
LINE
  8
LC-002-002-----0
 62
     1
  5
F8
 10
374.985852
 20
304.482211
 30
0.0
 11
449.168431
 21
300.594466
 31
0.0
  0
LINE
  8
LC-002-002-----0
 62
     1
  5
F9
 10
449.168431
 20
300.594466
 30
0.0
 11
453.599159
 21
299.154836
 31
0.0
  0
ARC
  8
LC-001-020-----0
 62
     1
  5
FA
 10
354.976643
 20
215.431982
 30
0.0
 40
20.0
 50
270.0
 51
0.000095
  0
ARC
  8
LC-001-020-----0
 62
     1
  5
FB
 10
354.976643
 20
215.431982
 30
0.0
 40
17.5
 50
270.0
 51
0.0
  0
LINE
  8
LC-002-002-----0
 62
     1
  5
FC
 10
453.599159
 20
299.154836
 30
0.0
 11
449.904543
 21
228.657354
 31
0.0
  0
LINE
  8
LC-001-020-----0
 62
     1
  5
FD
 10
344.485721
 20
197.931859
 30
0.0
 11
354.976667
 21
197.931845
 31
0.0
  0
LINE
  8
LC-002-002-----0
 62
     1
  5
FE
 10
374.976643
 20
229.379767
 30
0.0
 11
445.243235
 21
225.697251
 31
0.0
  0
LINE
  8
LC-002-002-----0
 62
     1
  5
FF
 10
374.976643
 20
215.431982
 30
0.0
 11
374.976643
 21
229.379767
 31
0.0
  0
LINE
  8
LC-002-002-----0
  6
DASHDOT
 62
     2
  5
100
 10
302.976556
 20
195.431914
 30
0.0
 11
302.976556
 21
197.931914
 31
0.0
  0
LINE
  8
LC-002-002-----0
 62
     1
  5
101
 10
372.276556
 20
389.829197
 30
0.0
 11
372.976556
 21
389.829197
 31
0.0
  0
LINE
  8
LC-002-002-----0
 62
     1
  5
102
 10
243.690788
 20
365.529197
 30
0.0
 11
254.758973
 21
365.529197
 31
0.0
  0
LINE
  8
LC-002-002-----0
 62
     1
  5
103
 10
243.690788
 20
363.829197
 30
0.0
 11
254.758973
 21
363.829197
 31
0.0
  0
LINE
  8
LC-002-002-----0
 62
     1
  5
104
 10
254.758973
 20
365.529197
 30
0.0
 11
267.741128
 21
365.529197
 31
0.0
  0
LINE
  8
LC-002-002-----0
 62
     1
  5
105
 10
254.758973
 20
363.829197
 30
0.0
 11
267.741128
 21
363.829197
 31
0.0
  0
LINE
  8
LC-002-002-----0
 62
     1
  5
106
 10
267.741128
 20
365.529197
 30
0.0
 11
277.976556
 21
365.529197
 31
0.0
  0
LINE
  8
LC-002-002-----0
 62
     1
  5
107
 10
267.741128
 20
363.829197
 30
0.0
 11
283.976556
 21
363.829197
 31
0.0
  0
INSERT
  8
LC-003-005-----0
 62
     2
  5
119
  2
*X4
 10
233.976556
 20
363.829197
 30
0.0
  0
INSERT
  8
LC-003-005-----0
 62
     2
  5
11F
  2
*X5
 10
251.365856
 20
363.829197
 30
0.0
  0
INSERT
  8
LC-003-005-----0
 62
     2
  5
126
  2
*X6
 10
263.608342
 20
363.829197
 30
0.0
  0
INSERT
  8
LC-003-005-----0
 62
     2
  5
133
  2
*X7
 10
274.976556
 20
363.829197
 30
0.0
  0
INSERT
  8
LC-003-005-----0
 62
     2
  5
142
  2
*X8
 10
356.976556
 20
363.829197
 30
0.0
  0
INSERT
  8
LC-003-005-----0
 62
     2
  5
148
  2
*X9
 10
351.19414
 20
363.829197
 30
0.0
  0
INSERT
  8
LC-003-005-----0
 62
     2
  5
14E
  2
*X10
 10
338.211985
 20
363.829197
 30
0.0
  0
INSERT
  8
LC-003-005-----0
 62
     2
  5
15D
  2
*X11
 10
321.976556
 20
363.829197
 30
0.0
  0
LINE
  8
LC-002-002-----0
 62
     1
  5
15E
 10
265.754291
 20
392.829197
 30
0.0
 11
233.976556
 21
392.829197
 31
0.0
  0
DIMENSION
  8
LC-006-003-----0
 62
     2
  5
17D
  2
*D12
 10
303.411907
 20
431.609222
 30
0.0
 11
303.411907
 21
431.609222
 31
0.0
 70
     1
  1
150
 13
228.976556
 23
403.229197
 33
0.0
 14
377.923469
 24
403.429894
 34
0.0
  3
LC-DIM-L-0140-02-02
  0
LINE
  8
LC-002-002-----0
 62
     2
  5
17E
 10
260.620378
 20
442.53
 30
0.0
 11
275.620378
 21
442.53
 31
0.0
  0
LINE
  8
LC-002-002-----0
 62
     2
  5
17F
 10
260.620378
 20
457.53
 30
0.0
 11
260.620378
 21
442.53
 31
0.0
  0
LINE
  8
LC-002-002-----0
 62
     1
  5
180
 10
372.476643
 20
215.432011
 30
0.0
 11
372.476643
 21
232.715178
 31
0.0
  0
DIMENSION
  8
LC-006-003-----0
 62
     2
  5
19A
  2
*D13
 10
156.8
 20
250.681998
 30
0.0
 11
156.8
 21
250.681998
 31
0.0
  1
110
 13
220.476556
 23
305.932014
 33
0.0
 14
250.976443
 24
195.431982
 34
0.0
 50
90.0
  3
LC-DIM-L-0140-02-02
  0
DIMENSION
  8
LC-006-003-----0
 62
     2
  5
1B4
  2
*D14
 10
440.0
 20
355.931046
 30
0.0
 11
440.0
 21
355.931046
 31
0.0
  1
45-95
 13
385.476775
 23
308.432197
 33
0.0
 14
377.923469
 24
403.429894
 34
0.0
 50
90.0
  3
LC-DIM-L-0140-02-02
  0
LINE
  8
LC-002-002-----0
  6
DASHDOT
 62
     2
  5
1B5
 10
367.777484
 20
267.308522
 30
0.0
 11
447.205833
 21
263.145859
 31
0.0
  0
LINE
  8
LC-002-002-----0
 62
     1
  5
1B6
 10
445.243235
 20
225.697251
 30
0.0
 11
449.800173
 21
226.665858
 31
0.0
  0
LINE
  8
LC-002-002-----0
 62
     1
  5
1B7
 10
372.476643
 20
232.715178
 30
0.0
 11
449.904543
 21
228.657354
 31
0.0
  0
LINE
  8
LC-002-002-----0
 62
     1
  5
1B8
 10
684.517623
 20
298.364946
 30
0.0
 11
755.517467
 21
298.364946
 31
0.0
  0
LINE
  8
LC-002-002-----0
 62
     1
  5
1B9
 10
684.517573
 20
223.364946
 30
0.0
 11
755.517467
 21
223.364946
 31
0.0
  0
LINE
  8
LC-002-002-----0
 62
     1
  5
1BA
 10
760.017467
 20
224.570718
 30
0.0
 11
760.017467
 21
297.159175
 31
0.0
  0
ARC
  8
LC-002-002-----0
 62
     1
  5
1BB
 10
495.522399
 20
267.045551
 30
0.0
 40
127.745186
 50
164.395308
 51
195.589364
  0
LINE
  8
LC-002-002-----0
 62
     1
  5
1BC
 10
449.904543
 20
228.657354
 30
0.0
 11
449.800173
 21
226.665858
 31
0.0
  0
LINE
  8
LC-001-020-----0
 62
     1
  5
1BD
 10
302.976556
 20
195.431914
 30
0.0
 11
354.97667
 21
195.431845
 31
0.0
  0
LINE
  8
LC-002-002-----0
  6
DASHDOT
 62
     2
  5
1BE
 10
302.976556
 20
197.931914
 30
0.0
 11
302.976556
 21
403.429939
 31
0.0
  0
INSERT
  8
LC-003-005-----0
 62
     2
  5
218
  2
*X15
 10
302.976556
 20
195.431845
 30
0.0
  0
LINE
  8
LC-002-002-----0
 62
     1
  5
219
 10
233.976386
 20
403.229035
 30
0.0
 11
233.976386
 21
400.229035
 31
0.0
  0
DIMENSION
  8
LC-006-003-----0
 62
     2
  5
233
  2
*D16
 10
484.733369
 20
261.179124
 30
0.0
 11
484.733369
 21
261.179124
 31
0.0
 70
     1
  1
DN70
 13
449.168431
 23
300.594466
 33
0.0
 14
445.243235
 24
225.697251
 34
0.0
  3
LC-DIM-L-0140-02-02
  0
LINE
  8
LC-002-002-----0
 62
     1
  5
234
 10
233.976386
 20
400.229035
 30
0.0
 11
235.976386
 21
400.229035
 31
0.0
  0
LINE
  8
LC-002-002-----0
 62
     1
  5
235
 10
609.517642
 20
330.865122
 30
0.0
 11
679.517644
 21
330.865076
 31
0.0
  0
LINE
  8
LC-002-002-----0
 62
     1
  5
236
 10
235.976386
 20
400.229035
 30
0.0
 11
235.976386
 21
393.729035
 31
0.0
  0
LINE
  8
LC-002-002-----0
 62
     1
  5
237
 10
609.517642
 20
335.865122
 30
0.0
 11
684.517647
 21
335.865073
 31
0.0
  0
LINE
  8
LC-002-002-----0
 62
     1
  5
238
 10
235.976386
 20
393.729035
 30
0.0
 11
242.976386
 21
393.729035
 31
0.0
  0
LINE
  8
LC-002-002-----0
 62
     1
  5
239
 10
679.517644
 20
330.865076
 30
0.0
 11
679.517552
 21
190.864816
 31
0.0
  0
LINE
  8
LC-002-002-----0
 62
     1
  5
23A
 10
242.976386
 20
393.729035
 30
0.0
 11
242.976386
 21
398.729035
 31
0.0
  0
LINE
  8
LC-002-002-----0
 62
     1
  5
23B
 10
684.517647
 20
335.865073
 30
0.0
 11
684.517549
 21
185.864819
 31
0.0
  0
LINE
  8
LC-002-002-----0
 62
     1
  5
23C
 10
242.976386
 20
398.729035
 30
0.0
 11
247.476386
 21
398.729035
 31
0.0
  0
LINE
  8
LC-002-002-----0
 62
     1
  5
23D
 10
609.517291
 20
335.865122
 30
0.0
 11
534.517286
 21
335.865073
 31
0.0
  0
LINE
  8
LC-002-002-----0
 62
     1
  5
23E
 10
247.476387
 20
398.729035
 30
0.0
 11
247.476387
 21
403.229146
 31
0.0
  0
LINE
  8
LC-002-002-----0
 62
     1
  5
23F
 10
294.976556
 20
403.229146
 30
0.0
 11
294.976556
 21
389.393967
 31
0.0
  0
LINE
  8
LC-002-002-----0
 62
     1
  5
240
 10
609.517291
 20
330.865122
 30
0.0
 11
539.517289
 21
330.865076
 31
0.0
  0
ARC
  8
LC-002-002-----0
 62
     1
  5
241
 10
302.976422
 20
583.45521
 30
0.0
 40
194.226064
 50
252.045821
 51
287.994195
  0
LINE
  8
LC-002-002-----0
 62
     1
  5
242
 10
534.517286
 20
335.865073
 30
0.0
 11
534.517384
 21
185.864819
 31
0.0
  0
INSERT
  8
LC-003-005-----0
 62
     2
  5
24B
  2
*X17
 10
233.976386
 20
393.729035
 30
0.0
  0
LINE
  8
LC-002-002-----0
 62
     1
  5
24C
 10
539.517289
 20
330.865076
 30
0.0
 11
539.517381
 21
190.864816
 31
0.0
  0
INSERT
  8
LC-003-005-----0
 62
     2
  5
255
  2
*X18
 10
108.750358
 20
389.229146
 30
0.0
  0
LINE
  8
LC-002-002-----0
 62
     1
  5
256
 10
609.517642
 20
185.86477
 30
0.0
 11
684.517647
 21
185.864819
 31
0.0
  0
LINE
  8
LC-002-002-----0
 62
     1
  5
257
 10
310.976807
 20
403.229347
 30
0.0
 11
310.976798
 21
389.393988
 31
0.0
  0
LINE
  8
LC-002-002-----0
 62
     1
  5
258
 10
609.517642
 20
190.86477
 30
0.0
 11
679.517644
 21
190.864816
 31
0.0
  0
INSERT
  8
LC-003-005-----0
 62
     2
  5
261
  2
*X19
 10
108.750358
 20
389.229146
 30
0.0
  0
LINE
  8
LC-002-002-----0
 62
     1
  5
262
 10
609.517291
 20
185.86477
 30
0.0
 11
534.517286
 21
185.864819
 31
0.0
  0
LINE
  8
LC-002-002-----0
 62
     1
  5
263
 10
358.476974
 20
398.729205
 30
0.0
 11
358.476977
 21
403.229205
 31
0.0
  0
LINE
  8
LC-002-002-----0
 62
     1
  5
264
 10
609.517291
 20
190.86477
 30
0.0
 11
539.517289
 21
190.864816
 31
0.0
  0
LINE
  8
LC-002-002-----0
 62
     1
  5
265
 10
362.976974
 20
398.729202
 30
0.0
 11
358.476974
 21
398.729205
 31
0.0
  0
LINE
  8
LC-002-002-----0
 62
     2
  5
266
 10
260.620378
 20
457.53
 30
0.0
 11
275.620378
 21
457.53
 31
0.0
  0
LINE
  8
LC-002-002-----0
 62
     1
  5
267
 10
362.976971
 20
393.729202
 30
0.0
 11
362.976974
 21
398.729202
 31
0.0
  0
LINE
  8
LC-002-002-----0
 62
     2
  5
268
 10
275.620378
 20
457.53
 30
0.0
 11
275.620378
 21
442.53
 31
0.0
  0
LINE
  8
LC-002-002-----0
 62
     1
  5
269
 10
369.976975
 20
400.229198
 30
0.0
 11
369.976971
 21
393.729198
 31
0.0
  0
LINE
  8
LC-002-002-----0
 62
     1
  5
26A
 10
371.976975
 20
400.229197
 30
0.0
 11
369.976975
 21
400.229198
 31
0.0
  0
LINE
  8
LC-002-002-----0
 62
     1
  5
26B
 10
371.976977
 20
403.229197
 30
0.0
 11
371.976975
 21
400.229197
 31
0.0
  0
INSERT
  8
LC-003-005-----0
 62
     2
  5
275
  2
*X20
 10
358.476974
 20
393.729198
 30
0.0
  0
LINE
  8
LC-002-002-----0
 62
     1
  5
276
 10
369.976971
 20
393.729198
 30
0.0
 11
362.976971
 21
393.729202
 31
0.0
  0
LINE
  8
LC-002-002-----0
 62
     1
  5
277
 10
233.976386
 20
403.229146
 30
0.0
 11
371.976977
 21
403.229146
 31
0.0
  0
INSERT
  8
LC-003-005-----0
 62
     2
  5
2CB
  2
*X21
 10
220.476556
 20
195.431913
 30
0.0
  0
INSERT
  8
LC-003-005-----0
 62
     2
  5
2FE
  2
*X22
 10
372.485832
 20
297.16334
 30
0.0
  0
INSERT
  8
LC-003-005-----0
 62
     2
  5
32F
  2
*X23
 10
233.976577
 20
215.431981
 30
0.0
  0
INSERT
  8
LC-003-005-----0
 62
     2
  5
359
  2
*X24
 10
305.922991
 20
215.431916
 30
0.0
  0
INSERT
  8
LC-003-005-----0
 62
     2
  5
365
  2
*X25
 10
359.485876
 20
302.431997
 30
0.0
  0
DIMENSION
  8
LC-006-003-----0
 62
     2
  5
37F
  2
*D26
 10
200.0
 20
245.385002
 30
0.0
 11
200.0
 21
245.385002
 31
0.0
 13
335.48581
 23
275.431871
 33
0.0
 14
256.985314
 24
215.431983
 34
0.0
 50
90.0
  3
LC-DIM-L-0140-02-02
  0
LINE
  8
LC-002-002-----0
 62
     1
  5
380
 10
755.517467
 20
223.364946
 30
0.0
 11
755.517467
 21
298.364946
 31
0.0
  0
LINE
  8
LC-002-002-----0
 62
     1
  5
381
 10
755.517467
 20
298.364946
 30
0.0
 11
760.017467
 21
297.159175
 31
0.0
  0
LINE
  8
LC-002-002-----0
 62
     1
  5
382
 10
755.517467
 20
223.364946
 30
0.0
 11
760.017467
 21
224.570718
 31
0.0
  0
LINE
  8
LC-002-002-----0
 62
     1
  5
383
 10
371.976556
 20
392.829197
 30
0.0
 11
340.198554
 21
392.829197
 31
0.0
  0
LINE
  8
LC-002-002-----0
 62
     1
  5
384
 10
321.976556
 20
382.829197
 30
0.0
 11
283.976556
 21
382.829197
 31
0.0
  0
LINE
  8
LC-002-002-----0
 62
     1
  5
385
 10
282.976556
 20
386.829197
 30
0.0
 11
322.976556
 21
386.829197
 31
0.0
  0
ARC
  8
LC-007-002-RND-0
  6
BYBLOCK
 62
     1
  5
387
 10
277.976556
 20
368.529197
 30
0.0
 40
3.0
 50
270.0
 51
0.0
  0
ARC
  8
LC-007-002-RND-0
 62
     1
  5
388
 10
322.976556
 20
384.829197
 30
0.0
 40
2.0
 50
0.0
 51
90.0
  0
LINE
  8
LC-002-002-----0
 62
     1
  5
389
 10
233.976556
 20
371.329197
 30
0.0
 11
233.976556
 21
392.829197
 31
0.0
  0
LINE
  8
LC-002-002-----0
 62
     1
  5
38A
 10
235.676556
 20
371.329197
 30
0.0
 11
235.676556
 21
392.829197
 31
0.0
  0
LINE
  8
LC-002-002-----0
 62
     1
  5
38B
 10
241.476556
 20
365.529197
 30
0.0
 11
243.690788
 21
365.529197
 31
0.0
  0
ARC
  8
LC-007-002-RND-0
 62
     1
  5
38C
 10
241.476556
 20
371.329197
 30
0.0
 40
5.8
 50
180.0
 51
270.0
  0
LINE
  8
LC-002-002-----0
 62
     1
  5
38D
 10
232.976556
 20
389.829197
 30
0.0
 11
232.976556
 21
403.229197
 31
0.0
  0
ARC
  8
LC-007-002-RND-0
 62
     1
  5
38E
 10
327.976556
 20
368.529197
 30
0.0
 40
3.0
 50
180.0
 51
270.0
  0
LINE
  8
LC-002-002-----0
 62
     1
  5
38F
 10
371.976556
 20
371.329197
 30
0.0
 11
371.976556
 21
392.829197
 31
0.0
  0
LINE
  8
LC-002-002-----0
 62
     1
  5
390
 10
241.476556
 20
363.829197
 30
0.0
 11
243.690788
 21
363.829197
 31
0.0
  0
ARC
  8
LC-007-002-RND-0
 62
     1
  5
391
 10
241.476556
 20
371.329197
 30
0.0
 40
7.5
 50
180.0
 51
270.0
  0
LINE
  8
LC-002-002-----0
 62
     1
  5
392
 10
370.276556
 20
371.329197
 30
0.0
 11
370.276556
 21
392.829197
 31
0.0
  0
LINE
  8
LC-002-002-----0
 62
     1
  5
393
 10
364.476556
 20
365.529197
 30
0.0
 11
362.262325
 21
365.529197
 31
0.0
  0
ARC
  8
LC-007-002-RND-0
 62
     1
  5
394
 10
364.476556
 20
371.329197
 30
0.0
 40
5.8
 50
270.0
 51
0.0
  0
LINE
  8
LC-002-002-----0
 62
     1
  5
395
 10
321.976556
 20
384.829197
 30
0.0
 11
324.976556
 21
384.829197
 31
0.0
  0
LINE
  8
LC-002-002-----0
 62
     1
  5
396
 10
364.476556
 20
363.829197
 30
0.0
 11
362.262325
 21
363.829197
 31
0.0
  0
LINE
  8
LC-002-002-----0
 62
     1
  5
397
 10
275.476556
 20
363.829197
 30
0.0
 11
275.476556
 21
365.529197
 31
0.0
  0
ARC
  8
LC-007-002-RND-0
 62
     1
  5
398
 10
364.476556
 20
371.329197
 30
0.0
 40
7.5
 50
270.0
 51
0.0
  0
LINE
  8
LC-002-002-----0
 62
     1
  5
399
 10
321.976556
 20
384.829197
 30
0.0
 11
321.976556
 21
363.829197
 31
0.0
  0
LINE
  8
LC-002-002-----0
 62
     1
  5
39A
 10
283.976556
 20
384.829197
 30
0.0
 11
280.976556
 21
384.829197
 31
0.0
  0
LINE
  8
LC-002-002-----0
 62
     1
  5
39B
 10
280.976556
 20
384.829197
 30
0.0
 11
280.976556
 21
368.529197
 31
0.0
  0
LINE
  8
LC-002-002-----0
 62
     1
  5
39C
 10
283.976556
 20
384.829197
 30
0.0
 11
283.976556
 21
363.829197
 31
0.0
  0
LINE
  8
LC-002-002-----0
 62
     1
  5
39D
 10
362.262325
 20
363.829197
 30
0.0
 11
321.976556
 21
363.829197
 31
0.0
  0
LINE
  8
LC-002-002-----0
 62
     1
  5
39E
 10
243.690788
 20
363.829197
 30
0.0
 11
243.690788
 21
365.529197
 31
0.0
  0
LINE
  8
LC-002-002-----0
 62
     1
  5
39F
 10
251.365856
 20
363.829197
 30
0.0
 11
251.365856
 21
365.529197
 31
0.0
  0
LINE
  8
LC-002-002-----0
 62
     1
  5
3A0
 10
235.676556
 20
392.829197
 30
0.0
 11
234.476556
 21
392.829197
 31
0.0
  0
LINE
  8
LC-002-002-----0
 62
     1
  5
3A1
 10
372.976556
 20
389.829197
 30
0.0
 11
372.976556
 21
403.229197
 31
0.0
  0
LINE
  8
LC-002-002-----0
 62
     1
  5
3A2
 10
230.476556
 20
389.229197
 30
0.0
 11
230.476556
 21
315.229197
 31
0.0
  0
LINE
  8
LC-002-002-----0
 62
     1
  5
3A3
 10
228.976556
 20
389.229197
 30
0.0
 11
228.976556
 21
403.229197
 31
0.0
  0
LINE
  8
LC-002-002-----0
 62
     1
  5
3A4
 10
228.976556
 20
389.229197
 30
0.0
 11
230.476556
 21
389.229197
 31
0.0
  0
LINE
  8
LC-002-002-----0
 62
     1
  5
3A5
 10
230.476556
 20
315.229197
 30
0.0
 11
231.012455
 21
313.229197
 31
0.0
  0
LINE
  8
LC-002-002-----0
 62
     1
  5
3A6
 10
228.976556
 20
403.229197
 30
0.0
 11
232.976556
 21
403.229197
 31
0.0
  0
LINE
  8
LC-002-002-----0
 62
     1
  5
3A7
 10
231.012455
 20
313.229197
 30
0.0
 11
232.476556
 21
313.229197
 31
0.0
  0
LINE
  8
LC-002-002-----0
 62
     1
  5
3A8
 10
232.476556
 20
313.229197
 30
0.0
 11
373.476556
 21
313.229197
 31
0.0
  0
LINE
  8
LC-002-002-----0
 62
     1
  5
3A9
 10
254.758973
 20
363.829197
 30
0.0
 11
254.758973
 21
365.529197
 31
0.0
  0
LINE
  8
LC-002-002-----0
 62
     1
  5
3AA
 10
263.608342
 20
363.829197
 30
0.0
 11
263.608342
 21
365.529197
 31
0.0
  0
LINE
  8
LC-002-002-----0
 62
     1
  5
3AB
 10
267.741128
 20
363.829197
 30
0.0
 11
267.741128
 21
365.529197
 31
0.0
  0
LINE
  8
LC-002-002-----0
 62
     1
  5
3AC
 10
321.976556
 20
384.829197
 30
0.0
 11
324.976556
 21
384.829197
 31
0.0
  0
LINE
  8
LC-002-002-----0
 62
     1
  5
3AD
 10
324.976556
 20
384.829197
 30
0.0
 11
324.976556
 21
368.529197
 31
0.0
  0
LINE
  8
LC-002-002-----0
 62
     1
  5
3AE
 10
321.976556
 20
384.829197
 30
0.0
 11
321.976556
 21
363.829197
 31
0.0
  0
LINE
  8
LC-002-002-----0
 62
     1
  5
3AF
 10
330.476556
 20
363.829197
 30
0.0
 11
330.476556
 21
365.529197
 31
0.0
  0
LINE
  8
LC-002-002-----0
 62
     1
  5
3B0
 10
338.211985
 20
363.829197
 30
0.0
 11
338.211985
 21
365.529197
 31
0.0
  0
LINE
  8
LC-002-002-----0
 62
     1
  5
3B1
 10
342.344771
 20
363.829197
 30
0.0
 11
342.344771
 21
365.529197
 31
0.0
  0
LINE
  8
LC-002-002-----0
 62
     1
  5
3B2
 10
351.19414
 20
363.829197
 30
0.0
 11
351.19414
 21
365.529197
 31
0.0
  0
LINE
  8
LC-002-002-----0
 62
     1
  5
3B3
 10
354.587257
 20
363.829197
 30
0.0
 11
354.587257
 21
365.529197
 31
0.0
  0
LINE
  8
LC-002-002-----0
 62
     1
  5
3B4
 10
362.262325
 20
363.829197
 30
0.0
 11
362.262325
 21
365.529197
 31
0.0
  0
LINE
  8
LC-002-002-----0
 62
     1
  5
3B5
 10
362.262325
 20
365.529197
 30
0.0
 11
327.976556
 21
365.529197
 31
0.0
  0
ARC
  8
LC-007-002-RND-0
 62
     1
  5
3B6
 10
282.976556
 20
384.829197
 30
0.0
 40
2.0
 50
90.0
 51
180.0
  0
LINE
  8
LC-002-002-----0
 62
     1
  5
3B7
 10
283.976556
 20
363.829197
 30
0.0
 11
321.976556
 21
363.829197
 31
0.0
  0
LINE
  8
LC-002-002-----0
 62
     1
  5
3B8
 10
375.476556
 20
389.229197
 30
0.0
 11
375.476556
 21
315.229197
 31
0.0
  0
LINE
  8
LC-002-002-----0
 62
     1
  5
3B9
 10
376.976556
 20
389.229197
 30
0.0
 11
376.976556
 21
403.229197
 31
0.0
  0
LINE
  8
LC-002-002-----0
 62
     1
  5
3BA
 10
376.976556
 20
389.229197
 30
0.0
 11
375.476556
 21
389.229197
 31
0.0
  0
LINE
  8
LC-002-002-----0
 62
     1
  5
3BB
 10
375.476556
 20
315.229197
 30
0.0
 11
374.940658
 21
313.229197
 31
0.0
  0
LINE
  8
LC-002-002-----0
 62
     1
  5
3BC
 10
376.976556
 20
403.229197
 30
0.0
 11
372.976556
 21
403.229197
 31
0.0
  0
LINE
  8
LC-002-002-----0
 62
     1
  5
3BD
 10
374.940658
 20
313.229197
 30
0.0
 11
373.476556
 21
313.229197
 31
0.0
  0
LINE
  8
LC-002-002-----0
 62
     1
  5
3BE
 10
372.972017
 20
313.229197
 30
0.0
 11
372.276556
 21
389.829197
 31
0.0
  0
INSERT
  8
LC-003-005-----0
 62
     2
  5
3E3
  2
*X27
 10
228.976556
 20
313.229197
 30
0.0
  0
LINE
  8
LC-002-002-----0
 62
     1
  5
3E4
 10
232.976556
 20
392.829197
 30
0.0
 11
233.976556
 21
392.829197
 31
0.0
  0
LINE
  8
LC-002-002-----0
 62
     1
  5
3E5
 10
232.976556
 20
389.829197
 30
0.0
 11
233.676556
 21
389.829197
 31
0.0
  0
LINE
  8
LC-002-002-----0
 62
     1
  5
3E6
 10
232.981096
 20
313.229197
 30
0.0
 11
233.676556
 21
389.829197
 31
0.0
  0
LINE
  8
LC-002-002-----0
 62
     1
  5
3E7
 10
372.976556
 20
392.829197
 30
0.0
 11
371.976556
 21
392.829197
 31
0.0
  0
INSERT
  8
LC-003-005-----0
 62
     2
  5
40C
  2
*X28
 10
372.276556
 20
313.229197
 30
0.0
  0
ENDSEC
  0
EOF
