  0
SECTION
  2
HEADER
  9
$ACADVER
  1
AC1009
  9
$INSBASE
 10
0.0
 20
0.0
 30
0.0
  9
$EXTMIN
 10
0.0
 20
0.0
 30
0.0
  9
$EXTMAX
 10
840.0
 20
594.0
 30
0.0
  9
$LIMMIN
 10
0.0
 20
0.0
  9
$LIMMAX
 10
840.0
 20
594.0
  9
$ORTHOMODE
 70
     0
  9
$REGENMODE
 70
     1
  9
$FILLMODE
 70
     1
  9
$QTEXTMODE
 70
     0
  9
$MIRRTEXT
 70
     1
  9
$DRAGMODE
 70
     2
  9
$LTSCALE
 40
2.0
  9
$OSMODE
 70
     0
  9
$ATTMODE
 70
     1
  9
$TEXTSIZE
 40
0.2
  9
$TRACEWID
 40
0.05
  9
$TEXTSTYLE
  7
STANDARD
  9
$CLAYER
  8
0
  9
$CELTYPE
  6
BYLAYER
  9
$CECOLOR
 62
     7
  9
$DIMSCALE
 40
2.0
  9
$DIMASZ
 40
3.5
  9
$DIMEXO
 40
0.0625
  9
$DIMDLI
 40
0.38
  9
$DIMRND
 40
0.0
  9
$DIMDLE
 40
0.0
  9
$DIMEXE
 40
0.18
  9
$DIMTP
 40
0.0
  9
$DIMTM
 40
0.0
  9
$DIMTXT
 40
3.5
  9
$DIMCEN
 40
0.09
  9
$DIMTSZ
 40
0.0
  9
$DIMTOL
 70
     0
  9
$DIMLIM
 70
     0
  9
$DIMTIH
 70
     1
  9
$DIMTOH
 70
     1
  9
$DIMSE1
 70
     0
  9
$DIMSE2
 70
     0
  9
$DIMTAD
 70
     1
  9
$DIMZIN
 70
     0
  9
$DIMBLK
  1

  9
$DIMASO
 70
     1
  9
$DIMSHO
 70
     1
  9
$DIMPOST
  1

  9
$DIMAPOST
  1

  9
$DIMALT
 70
     0
  9
$DIMALTD
 70
     2
  9
$DIMALTF
 40
25.4
  9
$DIMLFAC
 40
1.0
  9
$DIMTOFL
 70
     0
  9
$DIMTVP
 40
0.0
  9
$DIMTIX
 70
     0
  9
$DIMSOXD
 70
     0
  9
$DIMSAH
 70
     0
  9
$DIMBLK1
  1

  9
$DIMBLK2
  1

  9
$DIMSTYLE
  2
STANDARD
  9
$DIMCLRD
 70
     0
  9
$DIMCLRE
 70
     0
  9
$DIMCLRT
 70
     0
  9
$DIMTFAC
 40
1.0
  9
$DIMGAP
 40
0.09
  9
$LUNITS
 70
     2
  9
$LUPREC
 70
     2
  9
$AXISMODE
 70
     0
  9
$AXISUNIT
 10
0.0
 20
0.0
  9
$SKETCHINC
 40
0.1
  9
$FILLETRAD
 40
0.0
  9
$AUNITS
 70
     0
  9
$AUPREC
 70
     0
  9
$MENU
  1
acad
  9
$ELEVATION
 40
0.0
  9
$PELEVATION
 40
0.0
  9
$THICKNESS
 40
0.0
  9
$LIMCHECK
 70
     0
  9
$BLIPMODE
 70
     1
  9
$CHAMFERA
 40
0.0
  9
$CHAMFERB
 40
0.0
  9
$SKPOLY
 70
     0
  9
$TDCREATE
 40
0.000000000
  9
$TDUPDATE
 40
0.000000000
  9
$TDINDWG
 40
0.0000000000
  9
$TDUSRTIMER
 40
0.0000000000
  9
$USRTIMER
 70
     1
  9
$ANGBASE
 50
0.0
  9
$ANGDIR
 70
     0
  9
$PDMODE
 70
     0
  9
$PDSIZE
 40
0.0
  9
$PLINEWID
 40
0.0
  9
$COORDS
 70
     0
  9
$SPLFRAME
 70
     0
  9
$SPLINETYPE
 70
     6
  9
$SPLINESEGS
 70
     8
  9
$ATTDIA
 70
     0
  9
$ATTREQ
 70
     1
  9
$HANDLING
 70
     1
  9
$HANDSEED
  5
A39
  9
$SURFTAB1
 70
     6
  9
$SURFTAB2
 70
     6
  9
$SURFTYPE
 70
     6
  9
$SURFU
 70
     6
  9
$SURFV
 70
     6
  9
$UCSNAME
  2

  9
$UCSORG
 10
0.0
 20
0.0
 30
0.0
  9
$UCSXDIR
 10
1.0
 20
0.0
 30
0.0
  9
$UCSYDIR
 10
0.0
 20
1.0
 30
0.0
  9
$PUCSNAME
  2

  9
$PUCSORG
 10
0.0
 20
0.0
 30
0.0
  9
$PUCSXDIR
 10
1.0
 20
0.0
 30
0.0
  9
$PUCSYDIR
 10
0.0
 20
1.0
 30
0.0
  9
$USERI1
 70
     0
  9
$USERI2
 70
     0
  9
$USERI3
 70
     0
  9
$USERI4
 70
     0
  9
$USERI5
 70
     0
  9
$USERR1
 40
0.0
  9
$USERR2
 40
0.0
  9
$USERR3
 40
0.0
  9
$USERR4
 40
0.0
  9
$USERR5
 40
0.0
  9
$WORLDVIEW
 70
     1
  9
$SHADEDGE
 70
     3
  9
$SHADEDIF
 70
    70
  9
$TILEMODE
 70
     1
  9
$MAXACTVP
 70
    16
  9
$PINSBASE
 10
0.0
 20
0.0
 30
0.0
  9
$PLIMCHECK
 70
     0
  9
$PEXTMIN
 10
1.000000E+20
 20
1.000000E+20
 30
1.000000E+20
  9
$PEXTMAX
 10
-1.000000E+20
 20
-1.000000E+20
 30
-1.000000E+20
  9
$PLIMMIN
 10
0.0
 20
0.0
  9
$PLIMMAX
 10
840.0
 20
594.0
  9
$UNITMODE
 70
     0
  9
$VISRETAIN
 70
     0
  9
$PLINEGEN
 70
     1
  9
$PSLTSCALE
 70
     0
  9
$TREEDEPTH
 70
  3020
  9
$DWGCODEPAGE
  3
dos850
  0
ENDSEC
  0
SECTION
  2
TABLES
  0
TABLE
  2
VPORT
 70
     1
  0
VPORT
  2
*ACTIVE
 70
     0
 10
0.0
 20
0.0
 11
1.0
 21
1.0
 12
420.0
 22
297.0
 13
0.0
 23
0.0
 14
1.0
 24
1.0
 15
0.0
 25
0.0
 16
0.0
 26
0.0
 36
1.0
 17
0.0
 27
0.0
 37
0.0
 40
594.0
 41
1.604229
 42
50.0
 43
0.0
 44
0.0
 50
0.0
 51
0.0
 71
     0
 72
   100
 73
     1
 74
     1
 75
     0
 76
     0
 77
     0
 78
     0
  0
ENDTAB
  0
TABLE
  2
LTYPE
 70
     3
  0
LTYPE
  2
CONTINUOUS
 70
    64
  3
Solid line
 72
    65
 73
     0
 40
0.0
  0
LTYPE
  2
DASHED
 70
    64
  3
__ __ __ __ __
 72
    65
 73
     2
 40
6.25
 49
5.0
 49
-1.25
  0
LTYPE
  2
DASHDOT
 70
    64
  3
__ . __ . __ . __ . __
 72
    65
 73
     4
 40
7.5
 49
5.0
 49
-1.25
 49
0.0
 49
-1.25
  0
ENDTAB
  0
TABLE
  2
LAYER
 70
    18
  0
LAYER
  2
0
 70
     0
 62
     7
  6
CONTINUOUS
  0
LAYER
  2
LC-INFO-1-2-MM-A3-0
 70
     1
 62
    -1
  6
CONTINUOUS
  0
LAYER
  2
LC-006-005-----0
 70
     0
 62
     2
  6
CONTINUOUS
  0
LAYER
  2
LC-014-003-MTH-0
 70
     0
 62
     2
  6
CONTINUOUS
  0
LAYER
  2
LC-013-003-----0
 70
     0
 62
     2
  6
CONTINUOUS
  0
LAYER
  2
LC-015-003-MTG-0
 70
     0
 62
     2
  6
CONTINUOUS
  0
LAYER
  2
LC-002-000-----0
 70
     0
 62
     7
  6
CONTINUOUS
  0
LAYER
  2
LC-011-000-----0
 70
     0
 62
     7
  6
CONTINUOUS
  0
LAYER
  2
LC-001-205-----0
 70
     0
 62
     1
  6
CONTINUOUS
  0
LAYER
  2
LC-003-002-----0
 70
     0
 62
     1
  6
CONTINUOUS
  0
LAYER
  2
LC-004-205-RND-0
 70
     0
 62
     1
  6
CONTINUOUS
  0
LAYER
  2
LC-005-002-RND-0
 70
     0
 62
     1
  6
CONTINUOUS
  0
LAYER
  2
LC-007-209-----0
 70
     0
 62
     2
  6
DASHED
  0
LAYER
  2
LC-008-208-----0
 70
     0
 62
     2
  6
DASHED
  0
LAYER
  2
LC-009-207-----0
 70
     0
 62
     1
  6
CONTINUOUS
  0
LAYER
  2
LC-010-207-RND-0
 70
     0
 62
     1
  6
CONTINUOUS
  0
LAYER
  2
LC-012-206-----0
 70
     0
 62
     1
  6
CONTINUOUS
  0
LAYER
  2
LC-000
 70
     0
 62
     7
  6
CONTINUOUS
  0
ENDTAB
  0
TABLE
  2
STYLE
 70
     4
  0
STYLE
  2
STANDARD
 70
     0
 40
0.0
 41
1.0
 50
0.0
 71
     0
 42
0.0
  3
txt
  4

  0
STYLE
  2
LC-STANDARD
 70
    64
 40
0.0
 41
1.0
 50
0.0
 71
     0
 42
3.5
  3
MONOTXT
  4

  0
STYLE
  2
LC-TXTSTYLE-150-400-0-0-A2
 70
    64
 40
0.0
 41
1.0
 50
15.0
 71
     0
 42
3.5
  3
MONOTXT
  4

  0
STYLE
  2
LC-TXTSTYLE-150-400-0-0-D3
 70
    64
 40
0.0
 41
1.0
 50
15.0
 71
     0
 42
3.5
  3
LC-STANDARD
  4

  0
ENDTAB
  0
TABLE
  2
VIEW
 70
     0
  0
ENDTAB
  0
TABLE
  2
UCS
 70
     0
  0
ENDTAB
  0
TABLE
  2
APPID
 70
     1
  0
APPID
  2
ACAD
 70
     0
  0
ENDTAB
  0
TABLE
  2
DIMSTYLE
 70
     4
  0
DIMSTYLE
  2
STANDARD
 70
     0
  3

  4

  5

  6

  7

 40
1.0
 41
0.18
 42
0.0625
 43
0.38
 44
0.18
 45
0.0
 46
0.0
 47
0.0
 48
0.0
 71
     0
 72
     0
 73
     1
 74
     1
 75
     0
 76
     0
 77
     0
 78
     0
140
0.18
141
0.09
142
0.0
143
25.4
144
1.0
145
0.0
146
1.0
147
0.09
170
     0
171
     2
172
     0
173
     0
174
     0
175
     0
176
     0
177
     0
178
     0
  0
DIMSTYLE
  2
LC-STANDARD
 70
     0
  3

  4

  5

  6

  7

 40
1.0
 41
3.5
 42
0.0
 43
7.5
 44
1.8
 45
0.0
 46
0.0
 47
0.0
 48
0.0
 71
     0
 72
     0
 73
     0
 74
     0
 75
     0
 76
     0
 77
     1
 78
     8
140
3.5
141
0.0
142
0.0
143
25.4
144
1.0
145
0.0
146
0.71
147
1.5
170
     0
171
     2
172
     1
173
     0
174
     0
175
     0
176
     0
177
     0
178
     3
  0
DIMSTYLE
  2
LC-DIM-L-0140-02-02
 70
     0
  3

  4

  5

  6

  7

 40
2.0
 41
3.5
 42
0.0
 43
7.5
 44
1.8
 45
0.0
 46
0.0
 47
0.0
 48
0.0
 71
     0
 72
     0
 73
     0
 74
     0
 75
     0
 76
     0
 77
     1
 78
     8
140
14.0
141
0.0
142
0.0
143
25.4
144
1.0
145
0.0
146
0.71
147
1.5
170
     0
171
     2
172
     0
173
     0
174
     0
175
     0
176
     2
177
     2
178
     8
  0
DIMSTYLE
  2
LC-DIM-W-0140-02-02
 70
     0
  3

  4

  5

  6

  7

 40
2.0
 41
3.5
 42
0.0
 43
7.5
 44
1.8
 45
0.0
 46
0.0
 47
0.0
 48
0.0
 71
     0
 72
     0
 73
     0
 74
     0
 75
     0
 76
     0
 77
     1
 78
     8
140
14.0
141
0.0
142
0.0
143
25.4
144
1.0
145
0.0
146
0.71
147
1.5
170
     0
171
     2
172
     0
173
     0
174
     0
175
     0
176
     2
177
     2
178
     8
  0
ENDTAB
  0
ENDSEC
  0
SECTION
  2
BLOCKS
  0
BLOCK
  8
0
  5
24
  2
BLK1
 70
    64
 10
0.0
 20
0.0
 30
0.0
  3
BLK1
  0
ENDBLK
  8
0
  5
25
  0
BLOCK
  8
0
  5
27
  2
*X1
 70
    65
 10
227.477793
 20
388.224788
 30
0.0
  3
*X1
  0
LINE
  8
LC-006-005-----0
  6
CONTINUOUS
  5
29
 10
227.520759
 20
390.490568
 30
0.0
 11
229.743573
 21
388.267754
 31
0.0
  0
LINE
  8
LC-006-005-----0
  6
CONTINUOUS
  5
2A
 10
227.609596
 20
391.815945
 30
0.0
 11
231.200753
 21
388.224788
 31
0.0
  0
LINE
  8
LC-006-005-----0
  6
CONTINUOUS
  5
2B
 10
228.110317
 20
392.729437
 30
0.0
 11
232.614966
 21
388.224788
 31
0.0
  0
LINE
  8
LC-006-005-----0
  6
CONTINUOUS
  5
2C
 10
228.881349
 20
393.372618
 30
0.0
 11
233.936334
 21
388.317633
 31
0.0
  0
LINE
  8
LC-006-005-----0
  6
CONTINUOUS
  5
2D
 10
229.95678
 20
393.711401
 30
0.0
 11
234.886691
 21
388.78149
 31
0.0
  0
LINE
  8
LC-006-005-----0
  6
CONTINUOUS
  5
2E
 10
231.357607
 20
393.724788
 30
0.0
 11
235.561831
 21
389.520564
 31
0.0
  0
LINE
  8
LC-006-005-----0
  6
CONTINUOUS
  5
2F
 10
232.77182
 20
393.724788
 30
0.0
 11
235.945032
 21
390.551576
 31
0.0
  0
LINE
  8
LC-006-005-----0
  6
CONTINUOUS
  5
30
 10
234.495836
 20
393.414985
 30
0.0
 11
235.66799
 21
392.242831
 31
0.0
  0
ENDBLK
  8
0
  5
31
  0
BLOCK
  8
0
  5
33
  2
*X2
 70
    65
 10
227.477793
 20
333.724788
 30
0.0
  3
*X2
  0
LINE
  8
LC-006-005-----0
  6
CONTINUOUS
  5
34
 10
228.01496
 20
334.842038
 30
0.0
 11
228.595043
 21
334.261955
 31
0.0
  0
LINE
  8
LC-006-005-----0
  6
CONTINUOUS
  5
35
 10
227.494425
 20
336.776786
 30
0.0
 11
230.546424
 21
333.724788
 31
0.0
  0
LINE
  8
LC-006-005-----0
  6
CONTINUOUS
  5
36
 10
227.842356
 20
337.843069
 30
0.0
 11
231.960637
 21
333.724788
 31
0.0
  0
LINE
  8
LC-006-005-----0
  6
CONTINUOUS
  5
37
 10
228.491939
 20
338.607699
 30
0.0
 11
233.371114
 21
333.728525
 31
0.0
  0
LINE
  8
LC-006-005-----0
  6
CONTINUOUS
  5
38
 10
229.412651
 20
339.101201
 30
0.0
 11
234.484909
 21
334.028943
 31
0.0
  0
LINE
  8
LC-006-005-----0
  6
CONTINUOUS
  5
39
 10
230.703278
 20
339.224788
 30
0.0
 11
235.281808
 21
334.646258
 31
0.0
  0
LINE
  8
LC-006-005-----0
  6
CONTINUOUS
  5
3A
 10
232.117492
 20
339.224788
 30
0.0
 11
235.810905
 21
335.531374
 31
0.0
  0
LINE
  8
LC-006-005-----0
  6
CONTINUOUS
  5
3B
 10
233.550733
 20
339.20576
 30
0.0
 11
235.958765
 21
336.797728
 31
0.0
  0
ENDBLK
  8
0
  5
3C
  0
BLOCK
  8
0
  5
3E
  2
*X3
 70
    65
 10
420.952424
 20
388.615137
 30
0.0
  3
*X3
  0
LINE
  8
LC-006-005-----0
  6
CONTINUOUS
  5
3F
 10
420.952424
 20
388.826262
 30
0.0
 11
421.163549
 21
388.615137
 31
0.0
  0
LINE
  8
LC-006-005-----0
  6
CONTINUOUS
  5
40
 10
420.952424
 20
389.109105
 30
0.0
 11
421.446391
 21
388.615137
 31
0.0
  0
LINE
  8
LC-006-005-----0
  6
CONTINUOUS
  5
41
 10
420.952424
 20
389.391948
 30
0.0
 11
421.729234
 21
388.615137
 31
0.0
  0
LINE
  8
LC-006-005-----0
  6
CONTINUOUS
  5
42
 10
420.952424
 20
389.67479
 30
0.0
 11
422.012077
 21
388.615137
 31
0.0
  0
LINE
  8
LC-006-005-----0
  6
CONTINUOUS
  5
43
 10
421.104919
 20
389.805137
 30
0.0
 11
422.294919
 21
388.615137
 31
0.0
  0
LINE
  8
LC-006-005-----0
  6
CONTINUOUS
  5
44
 10
421.387762
 20
389.805137
 30
0.0
 11
422.577762
 21
388.615137
 31
0.0
  0
LINE
  8
LC-006-005-----0
  6
CONTINUOUS
  5
45
 10
421.670605
 20
389.805137
 30
0.0
 11
422.860605
 21
388.615137
 31
0.0
  0
LINE
  8
LC-006-005-----0
  6
CONTINUOUS
  5
46
 10
421.953448
 20
389.805137
 30
0.0
 11
423.143448
 21
388.615137
 31
0.0
  0
LINE
  8
LC-006-005-----0
  6
CONTINUOUS
  5
47
 10
422.23629
 20
389.805137
 30
0.0
 11
423.42629
 21
388.615137
 31
0.0
  0
LINE
  8
LC-006-005-----0
  6
CONTINUOUS
  5
48
 10
422.519133
 20
389.805137
 30
0.0
 11
423.709133
 21
388.615137
 31
0.0
  0
LINE
  8
LC-006-005-----0
  6
CONTINUOUS
  5
49
 10
422.801976
 20
389.805137
 30
0.0
 11
423.991976
 21
388.615137
 31
0.0
  0
LINE
  8
LC-006-005-----0
  6
CONTINUOUS
  5
4A
 10
423.084818
 20
389.805137
 30
0.0
 11
424.274818
 21
388.615137
 31
0.0
  0
LINE
  8
LC-006-005-----0
  6
CONTINUOUS
  5
4B
 10
423.367661
 20
389.805137
 30
0.0
 11
424.557661
 21
388.615137
 31
0.0
  0
LINE
  8
LC-006-005-----0
  6
CONTINUOUS
  5
4C
 10
423.650504
 20
389.805137
 30
0.0
 11
424.840504
 21
388.615137
 31
0.0
  0
LINE
  8
LC-006-005-----0
  6
CONTINUOUS
  5
4D
 10
423.933347
 20
389.805137
 30
0.0
 11
425.102424
 21
388.63606
 31
0.0
  0
LINE
  8
LC-006-005-----0
  6
CONTINUOUS
  5
4E
 10
424.216189
 20
389.805137
 30
0.0
 11
425.102424
 21
388.918903
 31
0.0
  0
LINE
  8
LC-006-005-----0
  6
CONTINUOUS
  5
4F
 10
424.499032
 20
389.805137
 30
0.0
 11
425.102424
 21
389.201746
 31
0.0
  0
LINE
  8
LC-006-005-----0
  6
CONTINUOUS
  5
50
 10
424.781875
 20
389.805137
 30
0.0
 11
425.102424
 21
389.484588
 31
0.0
  0
LINE
  8
LC-006-005-----0
  6
CONTINUOUS
  5
51
 10
425.064717
 20
389.805137
 30
0.0
 11
425.102424
 21
389.767431
 31
0.0
  0
ENDBLK
  8
0
  5
52
  0
BLOCK
  8
0
  5
54
  2
*X4
 70
    65
 10
459.802424
 20
388.615137
 30
0.0
  3
*X4
  0
LINE
  8
LC-006-005-----0
  6
CONTINUOUS
  5
55
 10
459.802424
 20
388.725714
 30
0.0
 11
459.913
 21
388.615137
 31
0.0
  0
LINE
  8
LC-006-005-----0
  6
CONTINUOUS
  5
56
 10
459.802424
 20
389.008557
 30
0.0
 11
460.195843
 21
388.615137
 31
0.0
  0
LINE
  8
LC-006-005-----0
  6
CONTINUOUS
  5
57
 10
459.802424
 20
389.291399
 30
0.0
 11
460.478686
 21
388.615137
 31
0.0
  0
LINE
  8
LC-006-005-----0
  6
CONTINUOUS
  5
58
 10
459.802424
 20
389.574242
 30
0.0
 11
460.761528
 21
388.615137
 31
0.0
  0
LINE
  8
LC-006-005-----0
  6
CONTINUOUS
  5
59
 10
459.854371
 20
389.805137
 30
0.0
 11
461.044371
 21
388.615137
 31
0.0
  0
LINE
  8
LC-006-005-----0
  6
CONTINUOUS
  5
5A
 10
460.137214
 20
389.805137
 30
0.0
 11
461.327214
 21
388.615137
 31
0.0
  0
LINE
  8
LC-006-005-----0
  6
CONTINUOUS
  5
5B
 10
460.420057
 20
389.805137
 30
0.0
 11
461.610057
 21
388.615137
 31
0.0
  0
LINE
  8
LC-006-005-----0
  6
CONTINUOUS
  5
5C
 10
460.702899
 20
389.805137
 30
0.0
 11
461.892899
 21
388.615137
 31
0.0
  0
LINE
  8
LC-006-005-----0
  6
CONTINUOUS
  5
5D
 10
460.985742
 20
389.805137
 30
0.0
 11
462.175742
 21
388.615137
 31
0.0
  0
LINE
  8
LC-006-005-----0
  6
CONTINUOUS
  5
5E
 10
461.268585
 20
389.805137
 30
0.0
 11
462.458585
 21
388.615137
 31
0.0
  0
LINE
  8
LC-006-005-----0
  6
CONTINUOUS
  5
5F
 10
461.551427
 20
389.805137
 30
0.0
 11
462.741427
 21
388.615137
 31
0.0
  0
LINE
  8
LC-006-005-----0
  6
CONTINUOUS
  5
60
 10
461.83427
 20
389.805137
 30
0.0
 11
463.02427
 21
388.615137
 31
0.0
  0
LINE
  8
LC-006-005-----0
  6
CONTINUOUS
  5
61
 10
462.117113
 20
389.805137
 30
0.0
 11
463.307113
 21
388.615137
 31
0.0
  0
LINE
  8
LC-006-005-----0
  6
CONTINUOUS
  5
62
 10
462.399956
 20
389.805137
 30
0.0
 11
463.589956
 21
388.615137
 31
0.0
  0
LINE
  8
LC-006-005-----0
  6
CONTINUOUS
  5
63
 10
462.682798
 20
389.805137
 30
0.0
 11
463.872798
 21
388.615137
 31
0.0
  0
LINE
  8
LC-006-005-----0
  6
CONTINUOUS
  5
64
 10
462.965641
 20
389.805137
 30
0.0
 11
463.952424
 21
388.818355
 31
0.0
  0
LINE
  8
LC-006-005-----0
  6
CONTINUOUS
  5
65
 10
463.248484
 20
389.805137
 30
0.0
 11
463.952424
 21
389.101197
 31
0.0
  0
LINE
  8
LC-006-005-----0
  6
CONTINUOUS
  5
66
 10
463.531326
 20
389.805137
 30
0.0
 11
463.952424
 21
389.38404
 31
0.0
  0
LINE
  8
LC-006-005-----0
  6
CONTINUOUS
  5
67
 10
463.814169
 20
389.805137
 30
0.0
 11
463.952424
 21
389.666883
 31
0.0
  0
ENDBLK
  8
0
  5
68
  0
BLOCK
  8
0
  5
6A
  2
BLK2
 70
    64
 10
0.0
 20
0.0
 30
0.0
  3
BLK2
  0
ENDBLK
  8
0
  5
6B
  0
BLOCK
  8
0
  5
6D
  2
*X6
 70
    65
 10
480.03485
 20
362.972069
 30
0.0
  3
*X6
  0
LINE
  8
LC-006-005-----0
  6
CONTINUOUS
  5
6E
 10
480.035458
 20
365.664253
 30
0.0
 11
482.727033
 21
362.972677
 31
0.0
  0
LINE
  8
LC-006-005-----0
  6
CONTINUOUS
  5
6F
 10
480.03485
 20
367.079074
 30
0.0
 11
483.90388
 21
363.210044
 31
0.0
  0
LINE
  8
LC-006-005-----0
  6
CONTINUOUS
  5
70
 10
480.102012
 20
368.426125
 30
0.0
 11
484.739974
 21
363.788164
 31
0.0
  0
LINE
  8
LC-006-005-----0
  6
CONTINUOUS
  5
71
 10
480.536623
 20
369.405728
 30
0.0
 11
485.309811
 21
364.63254
 31
0.0
  0
LINE
  8
LC-006-005-----0
  6
CONTINUOUS
  5
72
 10
481.251596
 20
370.104969
 30
0.0
 11
485.53485
 21
365.821715
 31
0.0
  0
LINE
  8
LC-006-005-----0
  6
CONTINUOUS
  5
73
 10
482.25102
 20
370.519758
 30
0.0
 11
485.53485
 21
367.235928
 31
0.0
  0
LINE
  8
LC-006-005-----0
  6
CONTINUOUS
  5
74
 10
483.811916
 20
370.373076
 30
0.0
 11
485.335857
 21
368.849135
 31
0.0
  0
ENDBLK
  8
0
  5
75
  0
BLOCK
  8
0
  5
77
  2
*X7
 70
    65
 10
394.492424
 20
383.305137
 30
0.0
  3
*X7
  0
LINE
  8
LC-006-005-----0
  6
CONTINUOUS
  5
78
 10
422.552424
 20
383.549307
 30
0.0
 11
422.796593
 21
383.305137
 31
0.0
  0
LINE
  8
LC-006-005-----0
  6
CONTINUOUS
  5
79
 10
422.552424
 20
386.377734
 30
0.0
 11
425.625021
 21
383.305137
 31
0.0
  0
LINE
  8
LC-006-005-----0
  6
CONTINUOUS
  5
7A
 10
420.952424
 20
390.806161
 30
0.0
 11
421.953448
 21
389.805137
 31
0.0
  0
LINE
  8
LC-006-005-----0
  6
CONTINUOUS
  5
7B
 10
425.102424
 20
386.656161
 30
0.0
 11
427.102424
 21
384.656161
 31
0.0
  0
LINE
  8
LC-006-005-----0
  6
CONTINUOUS
  5
7C
 10
421.781875
 20
392.805137
 30
0.0
 11
424.781875
 21
389.805137
 31
0.0
  0
LINE
  8
LC-006-005-----0
  6
CONTINUOUS
  5
7D
 10
425.102424
 20
389.484588
 30
0.0
 11
427.102424
 21
387.484588
 31
0.0
  0
LINE
  8
LC-006-005-----0
  6
CONTINUOUS
  5
7E
 10
424.610302
 20
392.805137
 30
0.0
 11
427.102424
 21
390.313015
 31
0.0
  0
LINE
  8
LC-006-005-----0
  6
CONTINUOUS
  5
7F
 10
427.617932
 20
392.625935
 30
0.0
 11
430.580122
 21
389.663744
 31
0.0
  0
LINE
  8
LC-006-005-----0
  6
CONTINUOUS
  5
80
 10
431.60854
 20
391.463753
 30
0.0
 11
434.182938
 21
388.889356
 31
0.0
  0
LINE
  8
LC-006-005-----0
  6
CONTINUOUS
  5
81
 10
435.150756
 20
390.749965
 30
0.0
 11
437.470189
 21
388.430532
 31
0.0
  0
LINE
  8
LC-006-005-----0
  6
CONTINUOUS
  5
82
 10
438.382278
 20
390.34687
 30
0.0
 11
440.51912
 21
388.210027
 31
0.0
  0
LINE
  8
LC-006-005-----0
  6
CONTINUOUS
  5
83
 10
441.378722
 20
390.178853
 30
0.0
 11
442.452424
 21
389.105151
 31
0.0
  0
ENDBLK
  8
0
  5
84
  0
BLOCK
  8
0
  5
86
  2
*X8
 70
    65
 10
394.492424
 20
383.305137
 30
0.0
  3
*X8
  0
LINE
  8
LC-006-005-----0
  6
CONTINUOUS
  5
87
 10
442.452424
 20
389.105151
 30
0.0
 11
443.377605
 21
388.179969
 31
0.0
  0
LINE
  8
LC-006-005-----0
  6
CONTINUOUS
  5
88
 10
444.186952
 20
390.19905
 30
0.0
 11
446.077741
 21
388.308261
 31
0.0
  0
LINE
  8
LC-006-005-----0
  6
CONTINUOUS
  5
89
 10
446.838385
 20
390.376044
 30
0.0
 11
448.642268
 21
388.572161
 31
0.0
  0
LINE
  8
LC-006-005-----0
  6
CONTINUOUS
  5
8A
 10
449.355266
 20
390.68759
 30
0.0
 11
451.087961
 21
388.954895
 31
0.0
  0
LINE
  8
LC-006-005-----0
  6
CONTINUOUS
  5
8B
 10
451.753988
 20
391.117295
 30
0.0
 11
453.427577
 21
389.443706
 31
0.0
  0
LINE
  8
LC-006-005-----0
  6
CONTINUOUS
  5
8C
 10
457.802424
 20
385.06886
 30
0.0
 11
459.566146
 21
383.305137
 31
0.0
  0
LINE
  8
LC-006-005-----0
  6
CONTINUOUS
  5
8D
 10
454.047003
 20
391.652707
 30
0.0
 11
455.671047
 21
390.028663
 31
0.0
  0
LINE
  8
LC-006-005-----0
  6
CONTINUOUS
  5
8E
 10
457.802424
 20
387.897287
 30
0.0
 11
462.352424
 21
383.347287
 31
0.0
  0
LINE
  8
LC-006-005-----0
  6
CONTINUOUS
  5
8F
 10
456.243982
 20
392.284156
 30
0.0
 11
459.802424
 21
388.725714
 31
0.0
  0
LINE
  8
LC-006-005-----0
  6
CONTINUOUS
  5
90
 10
461.91909
 20
386.609047
 30
0.0
 11
462.352424
 21
386.175714
 31
0.0
  0
LINE
  8
LC-006-005-----0
  6
CONTINUOUS
  5
91
 10
458.551427
 20
392.805137
 30
0.0
 11
461.551427
 21
389.805137
 31
0.0
  0
LINE
  8
LC-006-005-----0
  6
CONTINUOUS
  5
92
 10
461.379855
 20
392.805137
 30
0.0
 11
463.952424
 21
390.232568
 31
0.0
  0
ENDBLK
  8
0
  5
93
  0
BLOCK
  8
0
  5
95
  2
*X9
 70
    65
 10
357.554723
 20
311.742768
 30
0.0
  3
*X9
  0
LINE
  8
LC-006-005-----0
  6
CONTINUOUS
  5
96
 10
360.354548
 20
312.271287
 30
0.0
 11
361.354541
 21
313.27128
 31
0.0
  0
LINE
  8
LC-006-005-----0
  6
CONTINUOUS
  5
97
 10
360.35455
 20
315.099716
 30
0.0
 11
361.354543
 21
316.099709
 31
0.0
  0
LINE
  8
LC-006-005-----0
  6
CONTINUOUS
  5
98
 10
360.354552
 20
317.928145
 30
0.0
 11
361.354544
 21
318.928138
 31
0.0
  0
LINE
  8
LC-006-005-----0
  6
CONTINUOUS
  5
99
 10
360.354553
 20
320.756574
 30
0.0
 11
361.354546
 21
321.756567
 31
0.0
  0
LINE
  8
LC-006-005-----0
  6
CONTINUOUS
  5
9A
 10
360.354555
 20
323.585003
 30
0.0
 11
361.354548
 21
324.584996
 31
0.0
  0
LINE
  8
LC-006-005-----0
  6
CONTINUOUS
  5
9B
 10
360.354557
 20
326.413432
 30
0.0
 11
361.35455
 21
327.413425
 31
0.0
  0
LINE
  8
LC-006-005-----0
  6
CONTINUOUS
  5
9C
 10
360.354559
 20
329.241861
 30
0.0
 11
361.354553
 21
330.241854
 31
0.0
  0
LINE
  8
LC-006-005-----0
  6
CONTINUOUS
  5
9D
 10
360.354561
 20
332.07029
 30
0.0
 11
361.354555
 21
333.070284
 31
0.0
  0
LINE
  8
LC-006-005-----0
  6
CONTINUOUS
  5
9E
 10
360.354563
 20
334.898719
 30
0.0
 11
361.354558
 21
335.898714
 31
0.0
  0
LINE
  8
LC-006-005-----0
  6
CONTINUOUS
  5
9F
 10
360.354565
 20
337.727148
 30
0.0
 11
361.35456
 21
338.727143
 31
0.0
  0
LINE
  8
LC-006-005-----0
  6
CONTINUOUS
  5
A0
 10
360.354566
 20
340.555577
 30
0.0
 11
361.354563
 21
341.555573
 31
0.0
  0
LINE
  8
LC-006-005-----0
  6
CONTINUOUS
  5
A1
 10
360.354568
 20
343.384006
 30
0.0
 11
361.354565
 21
344.384002
 31
0.0
  0
LINE
  8
LC-006-005-----0
  6
CONTINUOUS
  5
A2
 10
360.35457
 20
346.212434
 30
0.0
 11
361.354568
 21
347.212432
 31
0.0
  0
LINE
  8
LC-006-005-----0
  6
CONTINUOUS
  5
A3
 10
360.354572
 20
349.040863
 30
0.0
 11
361.35457
 21
350.040862
 31
0.0
  0
LINE
  8
LC-006-005-----0
  6
CONTINUOUS
  5
A4
 10
360.354574
 20
351.869292
 30
0.0
 11
361.354573
 21
352.869291
 31
0.0
  0
LINE
  8
LC-006-005-----0
  6
CONTINUOUS
  5
A5
 10
360.354576
 20
354.697721
 30
0.0
 11
361.354575
 21
355.697721
 31
0.0
  0
LINE
  8
LC-006-005-----0
  6
CONTINUOUS
  5
A6
 10
360.354578
 20
357.52615
 30
0.0
 11
361.354578
 21
358.52615
 31
0.0
  0
LINE
  8
LC-006-005-----0
  6
CONTINUOUS
  5
A7
 10
360.354579
 20
360.354579
 30
0.0
 11
361.362863
 21
361.362863
 31
0.0
  0
LINE
  8
LC-006-005-----0
  6
CONTINUOUS
  5
A8
 10
361.763947
 20
361.763947
 30
0.0
 11
364.66893
 21
364.66893
 31
0.0
  0
LINE
  8
LC-006-005-----0
  6
CONTINUOUS
  5
A9
 10
358.94209
 20
361.770517
 30
0.0
 11
360.143802
 21
362.97223
 31
0.0
  0
LINE
  8
LC-006-005-----0
  6
CONTINUOUS
  5
AA
 10
362.65504
 20
365.483467
 30
0.0
 11
364.66328
 21
367.491707
 31
0.0
  0
LINE
  8
LC-006-005-----0
  6
CONTINUOUS
  5
AB
 10
362.654733
 20
368.311588
 30
0.0
 11
364.657631
 21
370.314485
 31
0.0
  0
LINE
  8
LC-006-005-----0
  6
CONTINUOUS
  5
AC
 10
362.086948
 20
370.57223
 30
0.0
 11
363.286948
 21
371.77223
 31
0.0
  0
LINE
  8
LC-006-005-----0
  6
CONTINUOUS
  5
AD
 10
359.258521
 20
370.57223
 30
0.0
 11
360.458521
 21
371.77223
 31
0.0
  0
LINE
  8
LC-006-005-----0
  6
CONTINUOUS
  5
AE
 10
357.554724
 20
371.696859
 30
0.0
 11
357.630094
 21
371.77223
 31
0.0
  0
ENDBLK
  8
0
  5
AF
  0
BLOCK
  8
0
  5
B1
  2
*X10
 70
    65
 10
407.184248
 20
311.742768
 30
0.0
  3
*X10
  0
LINE
  8
LC-006-005-----0
  6
CONTINUOUS
  5
B2
 10
407.90929
 20
311.742768
 30
0.0
 11
409.34735
 21
313.180827
 31
0.0
  0
LINE
  8
LC-006-005-----0
  6
CONTINUOUS
  5
B3
 10
407.432785
 20
314.09469
 30
0.0
 11
409.681558
 21
316.343463
 31
0.0
  0
LINE
  8
LC-006-005-----0
  6
CONTINUOUS
  5
B4
 10
407.766993
 20
317.257325
 30
0.0
 11
410.015766
 21
319.506098
 31
0.0
  0
LINE
  8
LC-006-005-----0
  6
CONTINUOUS
  5
B5
 10
408.101201
 20
320.41996
 30
0.0
 11
410.349974
 21
322.668733
 31
0.0
  0
LINE
  8
LC-006-005-----0
  6
CONTINUOUS
  5
B6
 10
408.435409
 20
323.582596
 30
0.0
 11
410.684182
 21
325.831368
 31
0.0
  0
LINE
  8
LC-006-005-----0
  6
CONTINUOUS
  5
B7
 10
408.769618
 20
326.745231
 30
0.0
 11
411.01839
 21
328.994004
 31
0.0
  0
LINE
  8
LC-006-005-----0
  6
CONTINUOUS
  5
B8
 10
409.103826
 20
329.907866
 30
0.0
 11
411.352598
 21
332.156639
 31
0.0
  0
LINE
  8
LC-006-005-----0
  6
CONTINUOUS
  5
B9
 10
409.438034
 20
333.070501
 30
0.0
 11
411.686806
 21
335.319274
 31
0.0
  0
LINE
  8
LC-006-005-----0
  6
CONTINUOUS
  5
BA
 10
409.772242
 20
336.233137
 30
0.0
 11
412.021015
 21
338.481909
 31
0.0
  0
LINE
  8
LC-006-005-----0
  6
CONTINUOUS
  5
BB
 10
410.10645
 20
339.395772
 30
0.0
 11
412.355223
 21
341.644545
 31
0.0
  0
LINE
  8
LC-006-005-----0
  6
CONTINUOUS
  5
BC
 10
410.440658
 20
342.558407
 30
0.0
 11
412.689431
 21
344.80718
 31
0.0
  0
LINE
  8
LC-006-005-----0
  6
CONTINUOUS
  5
BD
 10
410.774866
 20
345.721042
 30
0.0
 11
413.023639
 21
347.969815
 31
0.0
  0
LINE
  8
LC-006-005-----0
  6
CONTINUOUS
  5
BE
 10
411.109074
 20
348.883678
 30
0.0
 11
413.357847
 21
351.13245
 31
0.0
  0
LINE
  8
LC-006-005-----0
  6
CONTINUOUS
  5
BF
 10
411.443282
 20
352.046313
 30
0.0
 11
413.692055
 21
354.295085
 31
0.0
  0
LINE
  8
LC-006-005-----0
  6
CONTINUOUS
  5
C0
 10
411.777491
 20
355.208948
 30
0.0
 11
414.026263
 21
357.457721
 31
0.0
  0
LINE
  8
LC-006-005-----0
  6
CONTINUOUS
  5
C1
 10
412.111699
 20
358.371583
 30
0.0
 11
414.360471
 21
360.620356
 31
0.0
  0
LINE
  8
LC-006-005-----0
  6
CONTINUOUS
  5
C2
 10
414.672263
 20
360.932148
 30
0.0
 11
416.856888
 21
363.116772
 31
0.0
  0
LINE
  8
LC-006-005-----0
  6
CONTINUOUS
  5
C3
 10
412.445907
 20
361.534219
 30
0.0
 11
416.856888
 21
365.945199
 31
0.0
  0
LINE
  8
LC-006-005-----0
  6
CONTINUOUS
  5
C4
 10
412.780115
 20
364.696854
 30
0.0
 11
416.856888
 21
368.773627
 31
0.0
  0
LINE
  8
LC-006-005-----0
  6
CONTINUOUS
  5
C5
 10
413.114323
 20
367.859489
 30
0.0
 11
416.856888
 21
371.602054
 31
0.0
  0
LINE
  8
LC-006-005-----0
  6
CONTINUOUS
  5
C6
 10
413.448531
 20
371.022124
 30
0.0
 11
416.856888
 21
374.430481
 31
0.0
  0
LINE
  8
LC-006-005-----0
  6
CONTINUOUS
  5
C7
 10
413.782739
 20
374.18476
 30
0.0
 11
416.856888
 21
377.258908
 31
0.0
  0
LINE
  8
LC-006-005-----0
  6
CONTINUOUS
  5
C8
 10
414.116947
 20
377.347395
 30
0.0
 11
416.856888
 21
380.087335
 31
0.0
  0
LINE
  8
LC-006-005-----0
  6
CONTINUOUS
  5
C9
 10
414.451155
 20
380.51003
 30
0.0
 11
416.856888
 21
382.915762
 31
0.0
  0
LINE
  8
LC-006-005-----0
  6
CONTINUOUS
  5
CA
 10
420.552824
 20
386.611699
 30
0.0
 11
421.334078
 21
387.392952
 31
0.0
  0
LINE
  8
LC-006-005-----0
  6
CONTINUOUS
  5
CB
 10
414.785364
 20
383.672665
 30
0.0
 11
419.727836
 21
388.615137
 31
0.0
  0
ENDBLK
  8
0
  5
CC
  0
BLOCK
  8
0
  5
CE
  2
*X11
 70
    65
 10
459.802424
 20
361.767914
 30
0.0
  3
*X11
  0
LINE
  8
LC-006-005-----0
  6
CONTINUOUS
  5
CF
 10
483.39028
 20
361.767914
 30
0.0
 11
484.594513
 21
362.972147
 31
0.0
  0
LINE
  8
LC-006-005-----0
  6
CONTINUOUS
  5
D0
 10
480.566064
 20
361.772125
 30
0.0
 11
481.76609
 21
362.972151
 31
0.0
  0
LINE
  8
LC-006-005-----0
  6
CONTINUOUS
  5
D1
 10
478.635622
 20
362.67011
 30
0.0
 11
480.054861
 21
364.089349
 31
0.0
  0
LINE
  8
LC-006-005-----0
  6
CONTINUOUS
  5
D2
 10
478.054752
 20
364.917667
 30
0.0
 11
480.054873
 21
366.917788
 31
0.0
  0
LINE
  8
LC-006-005-----0
  6
CONTINUOUS
  5
D3
 10
483.709233
 20
370.572148
 30
0.0
 11
484.90924
 21
371.772155
 31
0.0
  0
LINE
  8
LC-006-005-----0
  6
CONTINUOUS
  5
D4
 10
478.054591
 20
367.745933
 30
0.0
 11
480.054885
 21
369.746227
 31
0.0
  0
LINE
  8
LC-006-005-----0
  6
CONTINUOUS
  5
D5
 10
480.88081
 20
370.572152
 30
0.0
 11
482.080813
 21
371.772155
 31
0.0
  0
LINE
  8
LC-006-005-----0
  6
CONTINUOUS
  5
D6
 10
478.054591
 20
370.574361
 30
0.0
 11
481.298748
 21
373.818517
 31
0.0
  0
LINE
  8
LC-006-005-----0
  6
CONTINUOUS
  5
D7
 10
478.054592
 20
373.402788
 30
0.0
 11
481.043996
 21
376.392192
 31
0.0
  0
LINE
  8
LC-006-005-----0
  6
CONTINUOUS
  5
D8
 10
478.054593
 20
376.231216
 30
0.0
 11
480.789243
 21
378.965867
 31
0.0
  0
LINE
  8
LC-006-005-----0
  6
CONTINUOUS
  5
D9
 10
478.054593
 20
379.059644
 30
0.0
 11
480.48379
 21
381.488841
 31
0.0
  0
LINE
  8
LC-006-005-----0
  6
CONTINUOUS
  5
DA
 10
477.765725
 20
381.599202
 30
0.0
 11
479.755954
 21
383.589431
 31
0.0
  0
LINE
  8
LC-006-005-----0
  6
CONTINUOUS
  5
DB
 10
476.859321
 20
383.521226
 30
0.0
 11
478.649202
 21
385.311107
 31
0.0
  0
LINE
  8
LC-006-005-----0
  6
CONTINUOUS
  5
DC
 10
475.514233
 20
385.004565
 30
0.0
 11
477.219114
 21
386.709446
 31
0.0
  0
LINE
  8
LC-006-005-----0
  6
CONTINUOUS
  5
DD
 10
473.750377
 20
386.069136
 30
0.0
 11
475.463113
 21
387.781873
 31
0.0
  0
LINE
  8
LC-006-005-----0
  6
CONTINUOUS
  5
DE
 10
471.450648
 20
386.597834
 30
0.0
 11
473.317849
 21
388.465036
 31
0.0
  0
LINE
  8
LC-006-005-----0
  6
CONTINUOUS
  5
DF
 10
468.633434
 20
386.609047
 30
0.0
 11
470.639524
 21
388.615137
 31
0.0
  0
LINE
  8
LC-006-005-----0
  6
CONTINUOUS
  5
E0
 10
465.805007
 20
386.609047
 30
0.0
 11
467.811097
 21
388.615137
 31
0.0
  0
LINE
  8
LC-006-005-----0
  6
CONTINUOUS
  5
E1
 10
462.97658
 20
386.609047
 30
0.0
 11
464.98267
 21
388.615137
 31
0.0
  0
LINE
  8
LC-006-005-----0
  6
CONTINUOUS
  5
E2
 10
460.148153
 20
386.609047
 30
0.0
 11
462.154242
 21
388.615137
 31
0.0
  0
ENDBLK
  8
0
  5
E3
  0
BLOCK
  8
0
  5
E5
  2
*X12
 70
    65
 10
285.377793
 20
322.137085
 30
0.0
  3
*X12
  0
LINE
  8
LC-006-005-----0
  6
CONTINUOUS
  5
E6
 10
285.41611
 20
324.109935
 30
0.0
 11
287.350643
 21
322.175403
 31
0.0
  0
LINE
  8
LC-006-005-----0
  6
CONTINUOUS
  5
E7
 10
285.377793
 20
325.562466
 30
0.0
 11
288.64213
 21
322.298129
 31
0.0
  0
LINE
  8
LC-006-005-----0
  6
CONTINUOUS
  5
E8
 10
285.711228
 20
328.057458
 30
0.0
 11
290.038193
 21
323.730493
 31
0.0
  0
LINE
  8
LC-006-005-----0
  6
CONTINUOUS
  5
E9
 10
286.388682
 20
328.794218
 30
0.0
 11
290.177793
 21
325.005107
 31
0.0
  0
LINE
  8
LC-006-005-----0
  6
CONTINUOUS
  5
EA
 10
287.391345
 20
329.205768
 30
0.0
 11
290.177793
 21
326.419321
 31
0.0
  0
ENDBLK
  8
0
  5
EB
  0
BLOCK
  8
0
  5
ED
  2
*X13
 70
    65
 10
285.377793
 20
322.137085
 30
0.0
  3
*X13
  0
LINE
  8
LC-006-005-----0
  6
CONTINUOUS
  5
EE
 10
288.241104
 20
322.18223
 30
0.0
 11
290.132648
 21
324.073773
 31
0.0
  0
LINE
  8
LC-006-005-----0
  6
CONTINUOUS
  5
EF
 10
286.934703
 20
322.290042
 30
0.0
 11
290.177793
 21
325.533132
 31
0.0
  0
LINE
  8
LC-006-005-----0
  6
CONTINUOUS
  5
F0
 10
286.075614
 20
322.845166
 30
0.0
 11
290.175369
 21
326.944921
 31
0.0
  0
LINE
  8
LC-006-005-----0
  6
CONTINUOUS
  5
F1
 10
285.525192
 20
323.708959
 30
0.0
 11
289.855179
 21
328.038945
 31
0.0
  0
LINE
  8
LC-006-005-----0
  6
CONTINUOUS
  5
F2
 10
285.377793
 20
324.975772
 30
0.0
 11
289.183995
 21
328.781974
 31
0.0
  0
LINE
  8
LC-006-005-----0
  6
CONTINUOUS
  5
F3
 10
285.377793
 20
326.389986
 30
0.0
 11
288.189342
 21
329.201535
 31
0.0
  0
LINE
  8
LC-006-005-----0
  6
CONTINUOUS
  5
F4
 10
285.880612
 20
328.307019
 30
0.0
 11
286.307858
 21
328.734265
 31
0.0
  0
ENDBLK
  8
0
  5
F5
  0
BLOCK
  8
0
  5
F7
  2
*X14
 70
    65
 10
334.777793
 20
322.137085
 30
0.0
  3
*X14
  0
LINE
  8
LC-006-005-----0
  6
CONTINUOUS
  5
F8
 10
337.766845
 20
322.210496
 30
0.0
 11
339.504382
 21
323.948033
 31
0.0
  0
LINE
  8
LC-006-005-----0
  6
CONTINUOUS
  5
F9
 10
336.406525
 20
322.264389
 30
0.0
 11
339.577793
 21
325.435657
 31
0.0
  0
LINE
  8
LC-006-005-----0
  6
CONTINUOUS
  5
FA
 10
334.952317
 20
323.638609
 30
0.0
 11
339.290121
 21
327.976413
 31
0.0
  0
LINE
  8
LC-006-005-----0
  6
CONTINUOUS
  5
FB
 10
334.777793
 20
324.878298
 30
0.0
 11
338.639843
 21
328.740348
 31
0.0
  0
LINE
  8
LC-006-005-----0
  6
CONTINUOUS
  5
FC
 10
334.777793
 20
326.292511
 30
0.0
 11
337.671117
 21
329.185836
 31
0.0
  0
LINE
  8
LC-006-005-----0
  6
CONTINUOUS
  5
FD
 10
335.087601
 20
328.016533
 30
0.0
 11
335.998345
 21
328.927277
 31
0.0
  0
ENDBLK
  8
0
  5
FE
  0
BLOCK
  8
0
  5
100
  2
*X15
 70
    65
 10
334.777793
 20
322.137085
 30
0.0
  3
*X15
  0
LINE
  8
LC-006-005-----0
  6
CONTINUOUS
  5
101
 10
334.798117
 20
324.225403
 30
0.0
 11
336.86611
 21
322.15741
 31
0.0
  0
LINE
  8
LC-006-005-----0
  6
CONTINUOUS
  5
102
 10
334.777793
 20
325.659941
 30
0.0
 11
338.111552
 21
322.326182
 31
0.0
  0
LINE
  8
LC-006-005-----0
  6
CONTINUOUS
  5
103
 10
334.788492
 20
327.063455
 30
0.0
 11
338.941999
 21
322.909948
 31
0.0
  0
LINE
  8
LC-006-005-----0
  6
CONTINUOUS
  5
104
 10
335.148183
 20
328.117978
 30
0.0
 11
339.462865
 21
323.803296
 31
0.0
  0
LINE
  8
LC-006-005-----0
  6
CONTINUOUS
  5
105
 10
335.846426
 20
328.833948
 30
0.0
 11
339.577793
 21
325.102582
 31
0.0
  0
LINE
  8
LC-006-005-----0
  6
CONTINUOUS
  5
106
 10
336.876491
 20
329.218097
 30
0.0
 11
339.577793
 21
326.516795
 31
0.0
  0
ENDBLK
  8
0
  5
107
  0
BLOCK
  8
0
  5
109
  2
*X16
 70
    65
 10
349.807146
 20
289.771462
 30
0.0
  3
*X16
  0
LINE
  8
LC-006-005-----0
  6
CONTINUOUS
  5
10A
 10
534.892133
 20
308.617963
 30
0.0
 11
537.895198
 21
311.621028
 31
0.0
  0
LINE
  8
LC-006-005-----0
  6
CONTINUOUS
  5
10B
 10
530.897466
 20
307.451723
 30
0.0
 11
535.410336
 21
311.964593
 31
0.0
  0
LINE
  8
LC-006-005-----0
  6
CONTINUOUS
  5
10C
 10
525.913258
 20
305.295942
 30
0.0
 11
526.398924
 21
305.781608
 31
0.0
  0
LINE
  8
LC-006-005-----0
  6
CONTINUOUS
  5
10D
 10
529.882204
 20
309.264888
 30
0.0
 11
532.581909
 21
311.964593
 31
0.0
  0
LINE
  8
LC-006-005-----0
  6
CONTINUOUS
  5
10E
 10
522.638966
 20
304.850077
 30
0.0
 11
526.398924
 21
308.610036
 31
0.0
  0
LINE
  8
LC-006-005-----0
  6
CONTINUOUS
  5
10F
 10
527.054326
 20
309.265438
 30
0.0
 11
529.753482
 21
311.964593
 31
0.0
  0
LINE
  8
LC-006-005-----0
  6
CONTINUOUS
  5
110
 10
519.723503
 20
304.763042
 30
0.0
 11
526.925055
 21
311.964593
 31
0.0
  0
LINE
  8
LC-006-005-----0
  6
CONTINUOUS
  5
111
 10
517.067288
 20
304.935254
 30
0.0
 11
524.096628
 21
311.964593
 31
0.0
  0
LINE
  8
LC-006-005-----0
  6
CONTINUOUS
  5
112
 10
514.61445
 20
305.310842
 30
0.0
 11
521.268201
 21
311.964593
 31
0.0
  0
LINE
  8
LC-006-005-----0
  6
CONTINUOUS
  5
113
 10
512.330111
 20
305.854931
 30
0.0
 11
518.439773
 21
311.964593
 31
0.0
  0
LINE
  8
LC-006-005-----0
  6
CONTINUOUS
  5
114
 10
510.191002
 20
306.544249
 30
0.0
 11
515.611346
 21
311.964593
 31
0.0
  0
LINE
  8
LC-006-005-----0
  6
CONTINUOUS
  5
115
 10
508.180924
 20
307.362598
 30
0.0
 11
512.782919
 21
311.964593
 31
0.0
  0
LINE
  8
LC-006-005-----0
  6
CONTINUOUS
  5
116
 10
506.288335
 20
308.298436
 30
0.0
 11
509.954492
 21
311.964593
 31
0.0
  0
LINE
  8
LC-006-005-----0
  6
CONTINUOUS
  5
117
 10
504.42694
 20
309.265468
 30
0.0
 11
507.126065
 21
311.964593
 31
0.0
  0
LINE
  8
LC-006-005-----0
  6
CONTINUOUS
  5
118
 10
485.158643
 20
292.825599
 30
0.0
 11
485.779941
 21
293.446896
 31
0.0
  0
LINE
  8
LC-006-005-----0
  6
CONTINUOUS
  5
119
 10
501.598513
 20
309.265468
 30
0.0
 11
504.297638
 21
311.964593
 31
0.0
  0
LINE
  8
LC-006-005-----0
  6
CONTINUOUS
  5
11A
 10
482.834078
 20
293.32946
 30
0.0
 11
485.834078
 21
296.32946
 31
0.0
  0
LINE
  8
LC-006-005-----0
  6
CONTINUOUS
  5
11B
 10
498.770085
 20
309.265468
 30
0.0
 11
501.469211
 21
311.964593
 31
0.0
  0
LINE
  8
LC-006-005-----0
  6
CONTINUOUS
  5
11C
 10
482.834078
 20
296.157887
 30
0.0
 11
485.834078
 21
299.157887
 31
0.0
  0
LINE
  8
LC-006-005-----0
  6
CONTINUOUS
  5
11D
 10
495.941658
 20
309.265468
 30
0.0
 11
498.640784
 21
311.964593
 31
0.0
  0
LINE
  8
LC-006-005-----0
  6
CONTINUOUS
  5
11E
 10
482.834078
 20
298.986314
 30
0.0
 11
485.834078
 21
301.986314
 31
0.0
  0
LINE
  8
LC-006-005-----0
  6
CONTINUOUS
  5
11F
 10
493.113231
 20
309.265468
 30
0.0
 11
495.812356
 21
311.964593
 31
0.0
  0
LINE
  8
LC-006-005-----0
  6
CONTINUOUS
  5
120
 10
482.834078
 20
301.814742
 30
0.0
 11
485.834078
 21
304.814742
 31
0.0
  0
LINE
  8
LC-006-005-----0
  6
CONTINUOUS
  5
121
 10
490.284804
 20
309.265468
 30
0.0
 11
492.983929
 21
311.964593
 31
0.0
  0
LINE
  8
LC-006-005-----0
  6
CONTINUOUS
  5
122
 10
482.834078
 20
304.643169
 30
0.0
 11
485.879306
 21
307.688397
 31
0.0
  0
LINE
  8
LC-006-005-----0
  6
CONTINUOUS
  5
123
 10
487.411148
 20
309.220239
 30
0.0
 11
490.155502
 21
311.964593
 31
0.0
  0
LINE
  8
LC-006-005-----0
  6
CONTINUOUS
  5
124
 10
482.834078
 20
307.471596
 30
0.0
 11
487.327075
 21
311.964593
 31
0.0
  0
LINE
  8
LC-006-005-----0
  6
CONTINUOUS
  5
125
 10
465.305517
 20
292.771462
 30
0.0
 11
465.834078
 21
293.300023
 31
0.0
  0
LINE
  8
LC-006-005-----0
  6
CONTINUOUS
  5
126
 10
481.805769
 20
309.271714
 30
0.0
 11
484.498648
 21
311.964593
 31
0.0
  0
LINE
  8
LC-006-005-----0
  6
CONTINUOUS
  5
127
 10
462.47709
 20
292.771462
 30
0.0
 11
465.834078
 21
296.12845
 31
0.0
  0
LINE
  8
LC-006-005-----0
  6
CONTINUOUS
  5
128
 10
479.278393
 20
309.572765
 30
0.0
 11
481.704584
 21
311.998956
 31
0.0
  0
LINE
  8
LC-006-005-----0
  6
CONTINUOUS
  5
129
 10
459.648662
 20
292.771462
 30
0.0
 11
462.648662
 21
295.771462
 31
0.0
  0
LINE
  8
LC-006-005-----0
  6
CONTINUOUS
  5
12A
 10
463.834078
 20
296.956877
 30
0.0
 11
465.834078
 21
298.956877
 31
0.0
  0
LINE
  8
LC-006-005-----0
  6
CONTINUOUS
  5
12B
 10
476.534933
 20
309.657733
 30
0.0
 11
478.961124
 21
312.083924
 31
0.0
  0
LINE
  8
LC-006-005-----0
  6
CONTINUOUS
  5
12C
 10
456.820235
 20
292.771462
 30
0.0
 11
459.820235
 21
295.771462
 31
0.0
  0
LINE
  8
LC-006-005-----0
  6
CONTINUOUS
  5
12D
 10
463.834078
 20
299.785304
 30
0.0
 11
465.834078
 21
301.785304
 31
0.0
  0
LINE
  8
LC-006-005-----0
  6
CONTINUOUS
  5
12E
 10
473.791474
 20
309.742701
 30
0.0
 11
476.217665
 21
312.168892
 31
0.0
  0
LINE
  8
LC-006-005-----0
  6
CONTINUOUS
  5
12F
 10
453.991808
 20
292.771462
 30
0.0
 11
456.991808
 21
295.771462
 31
0.0
  0
LINE
  8
LC-006-005-----0
  6
CONTINUOUS
  5
130
 10
463.834078
 20
302.613731
 30
0.0
 11
465.834078
 21
304.613731
 31
0.0
  0
LINE
  8
LC-006-005-----0
  6
CONTINUOUS
  5
131
 10
471.048015
 20
309.827669
 30
0.0
 11
473.474206
 21
312.25386
 31
0.0
  0
LINE
  8
LC-006-005-----0
  6
CONTINUOUS
  5
132
 10
451.163381
 20
292.771462
 30
0.0
 11
454.163381
 21
295.771462
 31
0.0
  0
LINE
  8
LC-006-005-----0
  6
CONTINUOUS
  5
133
 10
463.834078
 20
305.442159
 30
0.0
 11
465.834078
 21
307.442159
 31
0.0
  0
LINE
  8
LC-006-005-----0
  6
CONTINUOUS
  5
134
 10
468.304555
 20
309.912636
 30
0.0
 11
470.730746
 21
312.338827
 31
0.0
  0
LINE
  8
LC-006-005-----0
  6
CONTINUOUS
  5
135
 10
448.334954
 20
292.771462
 30
0.0
 11
451.334954
 21
295.771462
 31
0.0
  0
LINE
  8
LC-006-005-----0
  6
CONTINUOUS
  5
136
 10
463.834078
 20
308.270586
 30
0.0
 11
467.987287
 21
312.423795
 31
0.0
  0
LINE
  8
LC-006-005-----0
  6
CONTINUOUS
  5
137
 10
445.506527
 20
292.771462
 30
0.0
 11
448.506527
 21
295.771462
 31
0.0
  0
LINE
  8
LC-006-005-----0
  6
CONTINUOUS
  5
138
 10
463.834078
 20
311.099013
 30
0.0
 11
465.834078
 21
313.099013
 31
0.0
  0
LINE
  8
LC-006-005-----0
  6
CONTINUOUS
  5
139
 10
442.6781
 20
292.771462
 30
0.0
 11
445.6781
 21
295.771462
 31
0.0
  0
LINE
  8
LC-006-005-----0
  6
CONTINUOUS
  5
13A
 10
463.834078
 20
313.92744
 30
0.0
 11
465.834078
 21
315.92744
 31
0.0
  0
LINE
  8
LC-006-005-----0
  6
CONTINUOUS
  5
13B
 10
439.849673
 20
292.771462
 30
0.0
 11
442.849673
 21
295.771462
 31
0.0
  0
LINE
  8
LC-006-005-----0
  6
CONTINUOUS
  5
13C
 10
463.834078
 20
316.755867
 30
0.0
 11
465.834078
 21
318.755867
 31
0.0
  0
LINE
  8
LC-006-005-----0
  6
CONTINUOUS
  5
13D
 10
437.021245
 20
292.771462
 30
0.0
 11
440.021245
 21
295.771462
 31
0.0
  0
LINE
  8
LC-006-005-----0
  6
CONTINUOUS
  5
13E
 10
463.834078
 20
319.584294
 30
0.0
 11
465.834078
 21
321.584294
 31
0.0
  0
LINE
  8
LC-006-005-----0
  6
CONTINUOUS
  5
13F
 10
434.192818
 20
292.771462
 30
0.0
 11
437.192818
 21
295.771462
 31
0.0
  0
LINE
  8
LC-006-005-----0
  6
CONTINUOUS
  5
140
 10
463.834078
 20
322.412721
 30
0.0
 11
465.834078
 21
324.412721
 31
0.0
  0
LINE
  8
LC-006-005-----0
  6
CONTINUOUS
  5
141
 10
431.364391
 20
292.771462
 30
0.0
 11
434.364391
 21
295.771462
 31
0.0
  0
LINE
  8
LC-006-005-----0
  6
CONTINUOUS
  5
142
 10
463.834078
 20
325.241148
 30
0.0
 11
465.834078
 21
327.241148
 31
0.0
  0
LINE
  8
LC-006-005-----0
  6
CONTINUOUS
  5
143
 10
428.535964
 20
292.771462
 30
0.0
 11
431.535964
 21
295.771462
 31
0.0
  0
LINE
  8
LC-006-005-----0
  6
CONTINUOUS
  5
144
 10
463.834078
 20
328.069576
 30
0.0
 11
465.834078
 21
330.069576
 31
0.0
  0
LINE
  8
LC-006-005-----0
  6
CONTINUOUS
  5
145
 10
425.707537
 20
292.771462
 30
0.0
 11
428.707537
 21
295.771462
 31
0.0
  0
LINE
  8
LC-006-005-----0
  6
CONTINUOUS
  5
146
 10
463.834078
 20
330.898003
 30
0.0
 11
465.834078
 21
332.898003
 31
0.0
  0
LINE
  8
LC-006-005-----0
  6
CONTINUOUS
  5
147
 10
422.87911
 20
292.771462
 30
0.0
 11
425.87911
 21
295.771462
 31
0.0
  0
LINE
  8
LC-006-005-----0
  6
CONTINUOUS
  5
148
 10
463.834078
 20
333.72643
 30
0.0
 11
465.834078
 21
335.72643
 31
0.0
  0
LINE
  8
LC-006-005-----0
  6
CONTINUOUS
  5
149
 10
420.050683
 20
292.771462
 30
0.0
 11
423.050683
 21
295.771462
 31
0.0
  0
LINE
  8
LC-006-005-----0
  6
CONTINUOUS
  5
14A
 10
463.834078
 20
336.554857
 30
0.0
 11
465.834078
 21
338.554857
 31
0.0
  0
LINE
  8
LC-006-005-----0
  6
CONTINUOUS
  5
14B
 10
417.222256
 20
292.771462
 30
0.0
 11
420.222256
 21
295.771462
 31
0.0
  0
LINE
  8
LC-006-005-----0
  6
CONTINUOUS
  5
14C
 10
463.834078
 20
339.383284
 30
0.0
 11
465.834078
 21
341.383284
 31
0.0
  0
LINE
  8
LC-006-005-----0
  6
CONTINUOUS
  5
14D
 10
414.393828
 20
292.771462
 30
0.0
 11
417.393828
 21
295.771462
 31
0.0
  0
LINE
  8
LC-006-005-----0
  6
CONTINUOUS
  5
14E
 10
463.834078
 20
342.211711
 30
0.0
 11
465.834078
 21
344.211711
 31
0.0
  0
LINE
  8
LC-006-005-----0
  6
CONTINUOUS
  5
14F
 10
411.565401
 20
292.771462
 30
0.0
 11
414.565401
 21
295.771462
 31
0.0
  0
LINE
  8
LC-006-005-----0
  6
CONTINUOUS
  5
150
 10
463.834078
 20
345.040138
 30
0.0
 11
465.834078
 21
347.040138
 31
0.0
  0
LINE
  8
LC-006-005-----0
  6
CONTINUOUS
  5
151
 10
408.736974
 20
292.771462
 30
0.0
 11
411.736974
 21
295.771462
 31
0.0
  0
LINE
  8
LC-006-005-----0
  6
CONTINUOUS
  5
152
 10
463.834078
 20
347.868565
 30
0.0
 11
465.834078
 21
349.868565
 31
0.0
  0
LINE
  8
LC-006-005-----0
  6
CONTINUOUS
  5
153
 10
405.908547
 20
292.771462
 30
0.0
 11
408.908547
 21
295.771462
 31
0.0
  0
LINE
  8
LC-006-005-----0
  6
CONTINUOUS
  5
154
 10
463.834078
 20
350.696993
 30
0.0
 11
465.834078
 21
352.696993
 31
0.0
  0
LINE
  8
LC-006-005-----0
  6
CONTINUOUS
  5
155
 10
403.08012
 20
292.771462
 30
0.0
 11
406.08012
 21
295.771462
 31
0.0
  0
LINE
  8
LC-006-005-----0
  6
CONTINUOUS
  5
156
 10
463.834078
 20
353.52542
 30
0.0
 11
465.834078
 21
355.52542
 31
0.0
  0
LINE
  8
LC-006-005-----0
  6
CONTINUOUS
  5
157
 10
400.251693
 20
292.771462
 30
0.0
 11
403.251693
 21
295.771462
 31
0.0
  0
LINE
  8
LC-006-005-----0
  6
CONTINUOUS
  5
158
 10
463.834078
 20
356.353847
 30
0.0
 11
465.834078
 21
358.353847
 31
0.0
  0
LINE
  8
LC-006-005-----0
  6
CONTINUOUS
  5
159
 10
397.423266
 20
292.771462
 30
0.0
 11
400.423266
 21
295.771462
 31
0.0
  0
LINE
  8
LC-006-005-----0
  6
CONTINUOUS
  5
15A
 10
463.834078
 20
359.182274
 30
0.0
 11
465.834078
 21
361.182274
 31
0.0
  0
LINE
  8
LC-006-005-----0
  6
CONTINUOUS
  5
15B
 10
394.594839
 20
292.771462
 30
0.0
 11
397.594839
 21
295.771462
 31
0.0
  0
LINE
  8
LC-006-005-----0
  6
CONTINUOUS
  5
15C
 10
391.766411
 20
292.771462
 30
0.0
 11
394.766411
 21
295.771462
 31
0.0
  0
LINE
  8
LC-006-005-----0
  6
CONTINUOUS
  5
15D
 10
388.937984
 20
292.771462
 30
0.0
 11
393.073472
 21
296.90695
 31
0.0
  0
LINE
  8
LC-006-005-----0
  6
CONTINUOUS
  5
15E
 10
386.109557
 20
292.771462
 30
0.0
 11
393.073472
 21
299.735377
 31
0.0
  0
LINE
  8
LC-006-005-----0
  6
CONTINUOUS
  5
15F
 10
383.28113
 20
292.771462
 30
0.0
 11
386.285633
 21
295.775965
 31
0.0
  0
LINE
  8
LC-006-005-----0
  6
CONTINUOUS
  5
160
 10
391.068969
 20
300.559301
 30
0.0
 11
393.073472
 21
302.563804
 31
0.0
  0
LINE
  8
LC-006-005-----0
  6
CONTINUOUS
  5
161
 10
380.452703
 20
292.771462
 30
0.0
 11
383.452703
 21
295.771462
 31
0.0
  0
LINE
  8
LC-006-005-----0
  6
CONTINUOUS
  5
162
 10
391.073472
 20
303.392231
 30
0.0
 11
393.073472
 21
305.392231
 31
0.0
  0
LINE
  8
LC-006-005-----0
  6
CONTINUOUS
  5
163
 10
377.624276
 20
292.771462
 30
0.0
 11
380.624276
 21
295.771462
 31
0.0
  0
LINE
  8
LC-006-005-----0
  6
CONTINUOUS
  5
164
 10
391.073472
 20
306.220658
 30
0.0
 11
393.073472
 21
308.220658
 31
0.0
  0
LINE
  8
LC-006-005-----0
  6
CONTINUOUS
  5
165
 10
374.795849
 20
292.771462
 30
0.0
 11
377.795849
 21
295.771462
 31
0.0
  0
LINE
  8
LC-006-005-----0
  6
CONTINUOUS
  5
166
 10
391.073472
 20
309.049085
 30
0.0
 11
393.073472
 21
311.049085
 31
0.0
  0
LINE
  8
LC-006-005-----0
  6
CONTINUOUS
  5
167
 10
371.967422
 20
292.771462
 30
0.0
 11
374.967422
 21
295.771462
 31
0.0
  0
LINE
  8
LC-006-005-----0
  6
CONTINUOUS
  5
168
 10
391.073472
 20
311.877513
 30
0.0
 11
391.879589
 21
312.68363
 31
0.0
  0
LINE
  8
LC-006-005-----0
  6
CONTINUOUS
  5
169
 10
369.138994
 20
292.771462
 30
0.0
 11
372.138994
 21
295.771462
 31
0.0
  0
LINE
  8
LC-006-005-----0
  6
CONTINUOUS
  5
16A
 10
366.310567
 20
292.771462
 30
0.0
 11
369.310567
 21
295.771462
 31
0.0
  0
LINE
  8
LC-006-005-----0
  6
CONTINUOUS
  5
16B
 10
363.48214
 20
292.771462
 30
0.0
 11
366.48214
 21
295.771462
 31
0.0
  0
LINE
  8
LC-006-005-----0
  6
CONTINUOUS
  5
16C
 10
360.653713
 20
292.771462
 30
0.0
 11
363.653713
 21
295.771462
 31
0.0
  0
LINE
  8
LC-006-005-----0
  6
CONTINUOUS
  5
16D
 10
357.825286
 20
292.771462
 30
0.0
 11
360.825286
 21
295.771462
 31
0.0
  0
LINE
  8
LC-006-005-----0
  6
CONTINUOUS
  5
16E
 10
354.996859
 20
292.771462
 30
0.0
 11
357.996859
 21
295.771462
 31
0.0
  0
LINE
  8
LC-006-005-----0
  6
CONTINUOUS
  5
16F
 10
349.807146
 20
290.410177
 30
0.0
 11
351.057146
 21
291.660177
 31
0.0
  0
LINE
  8
LC-006-005-----0
  6
CONTINUOUS
  5
170
 10
352.168432
 20
292.771462
 30
0.0
 11
355.168432
 21
295.771462
 31
0.0
  0
LINE
  8
LC-006-005-----0
  6
CONTINUOUS
  5
171
 10
349.807146
 20
293.238604
 30
0.0
 11
352.340005
 21
295.771462
 31
0.0
  0
ENDBLK
  8
0
  5
172
  0
BLOCK
  8
0
  5
174
  2
*X17
 70
    65
 10
482.814103
 20
304.757368
 30
0.0
  3
*X17
  0
LINE
  8
LC-006-005-----0
  6
CONTINUOUS
  5
175
 10
537.569479
 20
356.550143
 30
0.0
 11
537.895198
 21
356.875862
 31
0.0
  0
LINE
  8
LC-006-005-----0
  6
CONTINUOUS
  5
176
 10
534.741052
 20
356.550143
 30
0.0
 11
536.86185
 21
358.670941
 31
0.0
  0
LINE
  8
LC-006-005-----0
  6
CONTINUOUS
  5
177
 10
531.912625
 20
356.550143
 30
0.0
 11
535.125212
 21
359.76273
 31
0.0
  0
LINE
  8
LC-006-005-----0
  6
CONTINUOUS
  5
178
 10
529.084197
 20
356.550143
 30
0.0
 11
533.282252
 21
360.748197
 31
0.0
  0
LINE
  8
LC-006-005-----0
  6
CONTINUOUS
  5
179
 10
526.25577
 20
356.550143
 30
0.0
 11
528.955295
 21
359.249668
 31
0.0
  0
LINE
  8
LC-006-005-----0
  6
CONTINUOUS
  5
17A
 10
530.897466
 20
361.191839
 30
0.0
 11
531.325847
 21
361.620219
 31
0.0
  0
LINE
  8
LC-006-005-----0
  6
CONTINUOUS
  5
17B
 10
523.427343
 20
356.550143
 30
0.0
 11
526.398924
 21
359.521724
 31
0.0
  0
LINE
  8
LC-006-005-----0
  6
CONTINUOUS
  5
17C
 10
571.257298
 20
404.380098
 30
0.0
 11
572.334078
 21
405.456877
 31
0.0
  0
LINE
  8
LC-006-005-----0
  6
CONTINUOUS
  5
17D
 10
520.598916
 20
356.550143
 30
0.0
 11
526.398924
 21
362.350151
 31
0.0
  0
LINE
  8
LC-006-005-----0
  6
CONTINUOUS
  5
17E
 10
568.218218
 20
404.169445
 30
0.0
 11
571.449384
 21
407.400611
 31
0.0
  0
LINE
  8
LC-006-005-----0
  6
CONTINUOUS
  5
17F
 10
517.770489
 20
356.550143
 30
0.0
 11
524.654817
 21
363.434471
 31
0.0
  0
LINE
  8
LC-006-005-----0
  6
CONTINUOUS
  5
180
 10
565.179138
 20
403.958792
 30
0.0
 11
568.410304
 21
407.189958
 31
0.0
  0
LINE
  8
LC-006-005-----0
  6
CONTINUOUS
  5
181
 10
514.942062
 20
356.550143
 30
0.0
 11
522.094764
 21
363.702845
 31
0.0
  0
LINE
  8
LC-006-005-----0
  6
CONTINUOUS
  5
182
 10
562.140058
 20
403.748139
 30
0.0
 11
565.371224
 21
406.979305
 31
0.0
  0
LINE
  8
LC-006-005-----0
  6
CONTINUOUS
  5
183
 10
512.113635
 20
356.550143
 30
0.0
 11
519.303971
 21
363.74048
 31
0.0
  0
LINE
  8
LC-006-005-----0
  6
CONTINUOUS
  5
184
 10
559.100978
 20
403.537486
 30
0.0
 11
562.332144
 21
406.768652
 31
0.0
  0
LINE
  8
LC-006-005-----0
  6
CONTINUOUS
  5
185
 10
509.285208
 20
356.550143
 30
0.0
 11
516.206796
 21
363.471731
 31
0.0
  0
LINE
  8
LC-006-005-----0
  6
CONTINUOUS
  5
186
 10
556.061898
 20
403.326833
 30
0.0
 11
559.293064
 21
406.557999
 31
0.0
  0
LINE
  8
LC-006-005-----0
  6
CONTINUOUS
  5
187
 10
506.45678
 20
356.550143
 30
0.0
 11
512.655865
 21
362.749228
 31
0.0
  0
LINE
  8
LC-006-005-----0
  6
CONTINUOUS
  5
188
 10
553.022818
 20
403.11618
 30
0.0
 11
556.253984
 21
406.347346
 31
0.0
  0
LINE
  8
LC-006-005-----0
  6
CONTINUOUS
  5
189
 10
503.628353
 20
356.550143
 30
0.0
 11
508.270572
 21
361.192361
 31
0.0
  0
LINE
  8
LC-006-005-----0
  6
CONTINUOUS
  5
18A
 10
549.983738
 20
402.905528
 30
0.0
 11
553.214903
 21
406.136693
 31
0.0
  0
LINE
  8
LC-006-005-----0
  6
CONTINUOUS
  5
18B
 10
500.799926
 20
356.550143
 30
0.0
 11
503.499051
 21
359.249268
 31
0.0
  0
LINE
  8
LC-006-005-----0
  6
CONTINUOUS
  5
18C
 10
546.944658
 20
402.694875
 30
0.0
 11
550.175823
 21
405.92604
 31
0.0
  0
LINE
  8
LC-006-005-----0
  6
CONTINUOUS
  5
18D
 10
497.971499
 20
356.550143
 30
0.0
 11
500.670624
 21
359.249268
 31
0.0
  0
LINE
  8
LC-006-005-----0
  6
CONTINUOUS
  5
18E
 10
543.905578
 20
402.484222
 30
0.0
 11
547.136743
 21
405.715387
 31
0.0
  0
LINE
  8
LC-006-005-----0
  6
CONTINUOUS
  5
18F
 10
495.143072
 20
356.550143
 30
0.0
 11
497.842197
 21
359.249268
 31
0.0
  0
LINE
  8
LC-006-005-----0
  6
CONTINUOUS
  5
190
 10
540.866498
 20
402.273569
 30
0.0
 11
544.097663
 21
405.504734
 31
0.0
  0
LINE
  8
LC-006-005-----0
  6
CONTINUOUS
  5
191
 10
492.314645
 20
356.550143
 30
0.0
 11
495.01377
 21
359.249268
 31
0.0
  0
LINE
  8
LC-006-005-----0
  6
CONTINUOUS
  5
192
 10
536.883326
 20
401.118824
 30
0.0
 11
541.058583
 21
405.294081
 31
0.0
  0
LINE
  8
LC-006-005-----0
  6
CONTINUOUS
  5
193
 10
489.486218
 20
356.550143
 30
0.0
 11
492.185343
 21
359.249268
 31
0.0
  0
LINE
  8
LC-006-005-----0
  6
CONTINUOUS
  5
194
 10
501.895399
 20
368.959325
 30
0.0
 11
506.11189
 21
373.175816
 31
0.0
  0
LINE
  8
LC-006-005-----0
  6
CONTINUOUS
  5
195
 10
532.699627
 20
399.763552
 30
0.0
 11
538.019503
 21
405.083428
 31
0.0
  0
LINE
  8
LC-006-005-----0
  6
CONTINUOUS
  5
196
 10
486.657791
 20
356.550143
 30
0.0
 11
489.356916
 21
359.249268
 31
0.0
  0
LINE
  8
LC-006-005-----0
  6
CONTINUOUS
  5
197
 10
499.066972
 20
368.959325
 30
0.0
 11
508.577862
 21
378.470214
 31
0.0
  0
LINE
  8
LC-006-005-----0
  6
CONTINUOUS
  5
198
 10
529.558711
 20
399.451063
 30
0.0
 11
534.980423
 21
404.872775
 31
0.0
  0
LINE
  8
LC-006-005-----0
  6
CONTINUOUS
  5
199
 10
483.829363
 20
356.550143
 30
0.0
 11
486.528489
 21
359.249268
 31
0.0
  0
LINE
  8
LC-006-005-----0
  6
CONTINUOUS
  5
19A
 10
486.956382
 20
359.677161
 30
0.0
 11
488.616241
 21
361.33702
 31
0.0
  0
LINE
  8
LC-006-005-----0
  6
CONTINUOUS
  5
19B
 10
496.238545
 20
368.959325
 30
0.0
 11
510.334078
 21
383.054857
 31
0.0
  0
LINE
  8
LC-006-005-----0
  6
CONTINUOUS
  5
19C
 10
526.517631
 20
399.238411
 30
0.0
 11
531.177877
 21
403.898657
 31
0.0
  0
LINE
  8
LC-006-005-----0
  6
CONTINUOUS
  5
19D
 10
482.814105
 20
358.363311
 30
0.0
 11
488.834078
 21
364.383284
 31
0.0
  0
LINE
  8
LC-006-005-----0
  6
CONTINUOUS
  5
19E
 10
493.410118
 20
368.959325
 30
0.0
 11
496.414469
 21
371.963676
 31
0.0
  0
LINE
  8
LC-006-005-----0
  6
CONTINUOUS
  5
19F
 10
498.826499
 20
374.375705
 30
0.0
 11
505.10866
 21
380.657867
 31
0.0
  0
LINE
  8
LC-006-005-----0
  6
CONTINUOUS
  5
1A0
 10
508.083371
 20
383.632577
 30
0.0
 11
510.334078
 21
385.883284
 31
0.0
  0
LINE
  8
LC-006-005-----0
  6
CONTINUOUS
  5
1A1
 10
514.302588
 20
389.851794
 30
0.0
 11
515.267019
 21
390.816226
 31
0.0
  0
LINE
  8
LC-006-005-----0
  6
CONTINUOUS
  5
1A2
 10
523.476551
 20
399.025758
 30
0.0
 11
526.904853
 21
402.454059
 31
0.0
  0
LINE
  8
LC-006-005-----0
  6
CONTINUOUS
  5
1A3
 10
482.814103
 20
361.191737
 30
0.0
 11
483.39028
 21
361.767914
 31
0.0
  0
LINE
  8
LC-006-005-----0
  6
CONTINUOUS
  5
1A4
 10
485.513072
 20
363.890706
 30
0.0
 11
493.586042
 21
371.963676
 31
0.0
  0
LINE
  8
LC-006-005-----0
  6
CONTINUOUS
  5
1A5
 10
499.190606
 20
377.56824
 30
0.0
 11
502.280233
 21
380.657867
 31
0.0
  0
LINE
  8
LC-006-005-----0
  6
CONTINUOUS
  5
1A6
 10
508.083371
 20
386.461004
 30
0.0
 11
510.353567
 21
388.7312
 31
0.0
  0
LINE
  8
LC-006-005-----0
  6
CONTINUOUS
  5
1A7
 10
511.137613
 20
389.515246
 30
0.0
 11
516.584078
 21
394.961711
 31
0.0
  0
LINE
  8
LC-006-005-----0
  6
CONTINUOUS
  5
1A8
 10
520.435471
 20
398.813105
 30
0.0
 11
523.699752
 21
402.077385
 31
0.0
  0
LINE
  8
LC-006-005-----0
  6
CONTINUOUS
  5
1A9
 10
485.513072
 20
366.719133
 30
0.0
 11
490.757615
 21
371.963676
 31
0.0
  0
LINE
  8
LC-006-005-----0
  6
CONTINUOUS
  5
1AA
 10
508.083371
 20
389.289431
 30
0.0
 11
511.362347
 21
392.568408
 31
0.0
  0
LINE
  8
LC-006-005-----0
  6
CONTINUOUS
  5
1AB
 10
513.181989
 20
394.38805
 30
0.0
 11
515.584078
 21
396.790138
 31
0.0
  0
LINE
  8
LC-006-005-----0
  6
CONTINUOUS
  5
1AC
 10
517.394391
 20
398.600452
 30
0.0
 11
520.649678
 21
401.855738
 31
0.0
  0
LINE
  8
LC-006-005-----0
  6
CONTINUOUS
  5
1AD
 10
485.513072
 20
369.54756
 30
0.0
 11
487.929188
 21
371.963676
 31
0.0
  0
LINE
  8
LC-006-005-----0
  6
CONTINUOUS
  5
1AE
 10
508.083371
 20
392.117859
 30
0.0
 11
510.083371
 21
394.117859
 31
0.0
  0
LINE
  8
LC-006-005-----0
  6
CONTINUOUS
  5
1AF
 10
513.181989
 20
397.216477
 30
0.0
 11
517.599604
 21
401.634092
 31
0.0
  0
LINE
  8
LC-006-005-----0
  6
CONTINUOUS
  5
1B0
 10
508.083371
 20
394.946286
 30
0.0
 11
510.083371
 21
396.946286
 31
0.0
  0
LINE
  8
LC-006-005-----0
  6
CONTINUOUS
  5
1B1
 10
513.181989
 20
400.044904
 30
0.0
 11
514.54953
 21
401.412445
 31
0.0
  0
LINE
  8
LC-006-005-----0
  6
CONTINUOUS
  5
1B2
 10
508.583371
 20
398.274713
 30
0.0
 11
509.067377
 21
398.75872
 31
0.0
  0
ENDBLK
  8
0
  5
1B3
  0
BLOCK
  8
0
  5
1B5
  2
BLK3
 70
    64
 10
0.0
 20
0.0
 30
0.0
  3
BLK3
  0
ENDBLK
  8
0
  5
1B6
  0
BLOCK
  8
0
  5
1B8
  2
*X19
 70
    65
 10
527.232037
 20
301.457368
 30
0.0
  3
*X19
  0
LINE
  8
LC-006-005-----0
  6
CONTINUOUS
  5
1B9
 10
552.373461
 20
364.036927
 30
0.0
 11
553.333584
 21
363.076805
 31
0.0
  0
LINE
  8
LC-006-005-----0
  6
CONTINUOUS
  5
1BA
 10
554.709875
 20
367.357368
 30
0.0
 11
558.27487
 21
363.792373
 31
0.0
  0
LINE
  8
LC-006-005-----0
  6
CONTINUOUS
  5
1BB
 10
560.366729
 20
367.357368
 30
0.0
 11
564.124682
 21
363.599415
 31
0.0
  0
LINE
  8
LC-006-005-----0
  6
CONTINUOUS
  5
1BC
 10
566.530164
 20
366.850787
 30
0.0
 11
571.951289
 21
361.429663
 31
0.0
  0
LINE
  8
LC-006-005-----0
  6
CONTINUOUS
  5
1BD
 10
575.139543
 20
363.898262
 30
0.0
 11
582.010437
 21
357.027368
 31
0.0
  0
LINE
  8
LC-006-005-----0
  6
CONTINUOUS
  5
1BE
 10
585.337292
 20
359.357368
 30
0.0
 11
587.667292
 21
357.027368
 31
0.0
  0
LINE
  8
LC-006-005-----0
  6
CONTINUOUS
  5
1BF
 10
590.994146
 20
359.357368
 30
0.0
 11
594.46867
 21
355.882844
 31
0.0
  0
LINE
  8
LC-006-005-----0
  6
CONTINUOUS
  5
1C0
 10
596.651
 20
359.357368
 30
0.0
 11
602.00439
 21
354.003978
 31
0.0
  0
LINE
  8
LC-006-005-----0
  6
CONTINUOUS
  5
1C1
 10
600.66239
 20
361.002833
 30
0.0
 11
602.770696
 21
358.894526
 31
0.0
  0
LINE
  8
LC-006-005-----0
  6
CONTINUOUS
  5
1C2
 10
605.586317
 20
356.078906
 30
0.0
 11
609.540111
 21
352.125112
 31
0.0
  0
LINE
  8
LC-006-005-----0
  6
CONTINUOUS
  5
1C3
 10
604.248692
 20
363.073385
 30
0.0
 11
606.356998
 21
360.965079
 31
0.0
  0
LINE
  8
LC-006-005-----0
  6
CONTINUOUS
  5
1C4
 10
613.313723
 20
354.008353
 30
0.0
 11
617.075831
 21
350.246246
 31
0.0
  0
LINE
  8
LC-006-005-----0
  6
CONTINUOUS
  5
1C5
 10
607.834994
 20
365.143937
 30
0.0
 11
609.9433
 21
363.035631
 31
0.0
  0
LINE
  8
LC-006-005-----0
  6
CONTINUOUS
  5
1C6
 10
621.04113
 20
351.937801
 30
0.0
 11
624.611551
 21
348.36738
 31
0.0
  0
LINE
  8
LC-006-005-----0
  6
CONTINUOUS
  5
1C7
 10
611.421296
 20
367.21449
 30
0.0
 11
615.123557
 21
363.512228
 31
0.0
  0
LINE
  8
LC-006-005-----0
  6
CONTINUOUS
  5
1C8
 10
628.768537
 20
349.867249
 30
0.0
 11
632.147272
 21
346.488513
 31
0.0
  0
LINE
  8
LC-006-005-----0
  6
CONTINUOUS
  5
1C9
 10
618.747563
 20
365.545076
 30
0.0
 11
622.659277
 21
361.633362
 31
0.0
  0
LINE
  8
LC-006-005-----0
  6
CONTINUOUS
  5
1CA
 10
636.495943
 20
347.796696
 30
0.0
 11
639.682992
 21
344.609647
 31
0.0
  0
LINE
  8
LC-006-005-----0
  6
CONTINUOUS
  5
1CB
 10
626.47497
 20
363.474524
 30
0.0
 11
630.194998
 21
359.754496
 31
0.0
  0
LINE
  8
LC-006-005-----0
  6
CONTINUOUS
  5
1CC
 10
644.22335
 20
345.726144
 30
0.0
 11
647.218712
 21
342.730781
 31
0.0
  0
LINE
  8
LC-006-005-----0
  6
CONTINUOUS
  5
1CD
 10
634.202376
 20
361.403972
 30
0.0
 11
637.730718
 21
357.87563
 31
0.0
  0
LINE
  8
LC-006-005-----0
  6
CONTINUOUS
  5
1CE
 10
651.950756
 20
343.655591
 30
0.0
 11
654.754433
 21
340.851915
 31
0.0
  0
LINE
  8
LC-006-005-----0
  6
CONTINUOUS
  5
1CF
 10
641.929783
 20
359.333419
 30
0.0
 11
645.266438
 21
355.996764
 31
0.0
  0
LINE
  8
LC-006-005-----0
  6
CONTINUOUS
  5
1D0
 10
660.207715
 20
341.055488
 30
0.0
 11
662.076788
 21
339.186414
 31
0.0
  0
LINE
  8
LC-006-005-----0
  6
CONTINUOUS
  5
1D1
 10
649.657189
 20
357.262867
 30
0.0
 11
652.802159
 21
354.117898
 31
0.0
  0
LINE
  8
LC-006-005-----0
  6
CONTINUOUS
  5
1D2
 10
657.384596
 20
355.192315
 30
0.0
 11
660.337879
 21
352.239032
 31
0.0
  0
ENDBLK
  8
0
  5
1D3
  0
BLOCK
  8
0
  5
1D5
  2
BLK4
 70
    64
 10
0.0
 20
0.0
 30
0.0
  3
BLK4
  0
ENDBLK
  8
0
  5
1D6
  0
BLOCK
  8
0
  5
1D8
  2
*X21
 70
    65
 10
527.232037
 20
281.311912
 30
0.0
  3
*X21
  0
LINE
  8
LC-006-005-----0
  6
CONTINUOUS
  5
1D9
 10
646.179011
 20
281.311912
 30
0.0
 11
646.71224
 21
281.845141
 31
0.0
  0
LINE
  8
LC-006-005-----0
  6
CONTINUOUS
  5
1DA
 10
643.350584
 20
281.311912
 30
0.0
 11
644.845651
 21
282.806979
 31
0.0
  0
LINE
  8
LC-006-005-----0
  6
CONTINUOUS
  5
1DB
 10
640.952703
 20
281.742458
 30
0.0
 11
642.647526
 21
283.437281
 31
0.0
  0
LINE
  8
LC-006-005-----0
  6
CONTINUOUS
  5
1DC
 10
638.721993
 20
282.340175
 30
0.0
 11
640.449401
 21
284.067583
 31
0.0
  0
LINE
  8
LC-006-005-----0
  6
CONTINUOUS
  5
1DD
 10
649.767802
 20
293.385984
 30
0.0
 11
649.818069
 21
293.436251
 31
0.0
  0
LINE
  8
LC-006-005-----0
  6
CONTINUOUS
  5
1DE
 10
636.491283
 20
282.937892
 30
0.0
 11
638.251276
 21
284.697885
 31
0.0
  0
LINE
  8
LC-006-005-----0
  6
CONTINUOUS
  5
1DF
 10
646.939375
 20
293.385984
 30
0.0
 11
648.276046
 21
294.722655
 31
0.0
  0
LINE
  8
LC-006-005-----0
  6
CONTINUOUS
  5
1E0
 10
634.260573
 20
283.535609
 30
0.0
 11
636.053151
 21
285.328187
 31
0.0
  0
LINE
  8
LC-006-005-----0
  6
CONTINUOUS
  5
1E1
 10
644.507605
 20
293.782641
 30
0.0
 11
646.077921
 21
295.352957
 31
0.0
  0
LINE
  8
LC-006-005-----0
  6
CONTINUOUS
  5
1E2
 10
632.029863
 20
284.133326
 30
0.0
 11
633.855026
 21
285.958489
 31
0.0
  0
LINE
  8
LC-006-005-----0
  6
CONTINUOUS
  5
1E3
 10
642.276895
 20
294.380358
 30
0.0
 11
643.879796
 21
295.983259
 31
0.0
  0
LINE
  8
LC-006-005-----0
  6
CONTINUOUS
  5
1E4
 10
629.799152
 20
284.731043
 30
0.0
 11
631.656901
 21
286.588792
 31
0.0
  0
LINE
  8
LC-006-005-----0
  6
CONTINUOUS
  5
1E5
 10
640.046184
 20
294.978075
 30
0.0
 11
641.681671
 21
296.613562
 31
0.0
  0
LINE
  8
LC-006-005-----0
  6
CONTINUOUS
  5
1E6
 10
627.568442
 20
285.32876
 30
0.0
 11
629.458776
 21
287.219094
 31
0.0
  0
LINE
  8
LC-006-005-----0
  6
CONTINUOUS
  5
1E7
 10
637.815474
 20
295.575792
 30
0.0
 11
639.483546
 21
297.243864
 31
0.0
  0
LINE
  8
LC-006-005-----0
  6
CONTINUOUS
  5
1E8
 10
625.337732
 20
285.926477
 30
0.0
 11
627.260651
 21
287.849396
 31
0.0
  0
LINE
  8
LC-006-005-----0
  6
CONTINUOUS
  5
1E9
 10
635.584764
 20
296.173509
 30
0.0
 11
637.285421
 21
297.874166
 31
0.0
  0
LINE
  8
LC-006-005-----0
  6
CONTINUOUS
  5
1EA
 10
623.107022
 20
286.524194
 30
0.0
 11
625.062526
 21
288.479698
 31
0.0
  0
LINE
  8
LC-006-005-----0
  6
CONTINUOUS
  5
1EB
 10
633.354054
 20
296.771226
 30
0.0
 11
635.087296
 21
298.504468
 31
0.0
  0
LINE
  8
LC-006-005-----0
  6
CONTINUOUS
  5
1EC
 10
620.876312
 20
287.121911
 30
0.0
 11
622.864401
 21
289.11
 31
0.0
  0
LINE
  8
LC-006-005-----0
  6
CONTINUOUS
  5
1ED
 10
631.123344
 20
297.368943
 30
0.0
 11
632.889171
 21
299.13477
 31
0.0
  0
LINE
  8
LC-006-005-----0
  6
CONTINUOUS
  5
1EE
 10
618.645602
 20
287.719628
 30
0.0
 11
620.666276
 21
289.740303
 31
0.0
  0
LINE
  8
LC-006-005-----0
  6
CONTINUOUS
  5
1EF
 10
628.892634
 20
297.96666
 30
0.0
 11
630.691046
 21
299.765072
 31
0.0
  0
LINE
  8
LC-006-005-----0
  6
CONTINUOUS
  5
1F0
 10
616.414892
 20
288.317345
 30
0.0
 11
618.468151
 21
290.370605
 31
0.0
  0
LINE
  8
LC-006-005-----0
  6
CONTINUOUS
  5
1F1
 10
626.661924
 20
298.564377
 30
0.0
 11
628.492921
 21
300.395375
 31
0.0
  0
LINE
  8
LC-006-005-----0
  6
CONTINUOUS
  5
1F2
 10
614.184181
 20
288.915062
 30
0.0
 11
616.270026
 21
291.000907
 31
0.0
  0
LINE
  8
LC-006-005-----0
  6
CONTINUOUS
  5
1F3
 10
624.431213
 20
299.162094
 30
0.0
 11
626.294796
 21
301.025677
 31
0.0
  0
LINE
  8
LC-006-005-----0
  6
CONTINUOUS
  5
1F4
 10
611.953471
 20
289.512779
 30
0.0
 11
614.071901
 21
291.631209
 31
0.0
  0
LINE
  8
LC-006-005-----0
  6
CONTINUOUS
  5
1F5
 10
622.200503
 20
299.759811
 30
0.0
 11
624.096671
 21
301.655979
 31
0.0
  0
LINE
  8
LC-006-005-----0
  6
CONTINUOUS
  5
1F6
 10
609.722761
 20
290.110496
 30
0.0
 11
611.873776
 21
292.261511
 31
0.0
  0
LINE
  8
LC-006-005-----0
  6
CONTINUOUS
  5
1F7
 10
619.969793
 20
300.357528
 30
0.0
 11
621.898546
 21
302.286281
 31
0.0
  0
LINE
  8
LC-006-005-----0
  6
CONTINUOUS
  5
1F8
 10
607.492051
 20
290.708213
 30
0.0
 11
609.675651
 21
292.891813
 31
0.0
  0
LINE
  8
LC-006-005-----0
  6
CONTINUOUS
  5
1F9
 10
617.739083
 20
300.955245
 30
0.0
 11
619.700421
 21
302.916583
 31
0.0
  0
LINE
  8
LC-006-005-----0
  6
CONTINUOUS
  5
1FA
 10
605.261341
 20
291.30593
 30
0.0
 11
607.477527
 21
293.522116
 31
0.0
  0
LINE
  8
LC-006-005-----0
  6
CONTINUOUS
  5
1FB
 10
615.508373
 20
301.552962
 30
0.0
 11
617.502296
 21
303.546886
 31
0.0
  0
LINE
  8
LC-006-005-----0
  6
CONTINUOUS
  5
1FC
 10
603.030631
 20
291.903647
 30
0.0
 11
605.279402
 21
294.152418
 31
0.0
  0
LINE
  8
LC-006-005-----0
  6
CONTINUOUS
  5
1FD
 10
613.277663
 20
302.150679
 30
0.0
 11
615.304171
 21
304.177188
 31
0.0
  0
LINE
  8
LC-006-005-----0
  6
CONTINUOUS
  5
1FE
 10
600.799921
 20
292.501364
 30
0.0
 11
603.081277
 21
294.78272
 31
0.0
  0
LINE
  8
LC-006-005-----0
  6
CONTINUOUS
  5
1FF
 10
611.046953
 20
302.748396
 30
0.0
 11
613.106047
 21
304.80749
 31
0.0
  0
LINE
  8
LC-006-005-----0
  6
CONTINUOUS
  5
200
 10
598.56921
 20
293.099081
 30
0.0
 11
600.883152
 21
295.413022
 31
0.0
  0
LINE
  8
LC-006-005-----0
  6
CONTINUOUS
  5
201
 10
608.816242
 20
303.346113
 30
0.0
 11
610.907922
 21
305.437792
 31
0.0
  0
LINE
  8
LC-006-005-----0
  6
CONTINUOUS
  5
202
 10
596.3385
 20
293.696798
 30
0.0
 11
598.685027
 21
296.043324
 31
0.0
  0
LINE
  8
LC-006-005-----0
  6
CONTINUOUS
  5
203
 10
606.585532
 20
303.94383
 30
0.0
 11
608.709797
 21
306.068094
 31
0.0
  0
LINE
  8
LC-006-005-----0
  6
CONTINUOUS
  5
204
 10
594.10779
 20
294.294515
 30
0.0
 11
596.486902
 21
296.673627
 31
0.0
  0
LINE
  8
LC-006-005-----0
  6
CONTINUOUS
  5
205
 10
604.354822
 20
304.541547
 30
0.0
 11
606.511672
 21
306.698396
 31
0.0
  0
LINE
  8
LC-006-005-----0
  6
CONTINUOUS
  5
206
 10
592.10667
 20
295.121821
 30
0.0
 11
594.288777
 21
297.303929
 31
0.0
  0
LINE
  8
LC-006-005-----0
  6
CONTINUOUS
  5
207
 10
602.124112
 20
305.139264
 30
0.0
 11
604.313547
 21
307.328699
 31
0.0
  0
LINE
  8
LC-006-005-----0
  6
CONTINUOUS
  5
208
 10
591.071393
 20
296.914972
 30
0.0
 11
593.1797
 21
299.023279
 31
0.0
  0
LINE
  8
LC-006-005-----0
  6
CONTINUOUS
  5
209
 10
599.893402
 20
305.736981
 30
0.0
 11
602.115422
 21
307.959001
 31
0.0
  0
LINE
  8
LC-006-005-----0
  6
CONTINUOUS
  5
20A
 10
590.036117
 20
298.708123
 30
0.0
 11
592.144424
 21
300.81643
 31
0.0
  0
LINE
  8
LC-006-005-----0
  6
CONTINUOUS
  5
20B
 10
597.662692
 20
306.334698
 30
0.0
 11
599.917297
 21
308.589303
 31
0.0
  0
LINE
  8
LC-006-005-----0
  6
CONTINUOUS
  5
20C
 10
589.000841
 20
300.501274
 30
0.0
 11
591.109147
 21
302.609581
 31
0.0
  0
LINE
  8
LC-006-005-----0
  6
CONTINUOUS
  5
20D
 10
595.431982
 20
306.932415
 30
0.0
 11
597.719172
 21
309.219605
 31
0.0
  0
LINE
  8
LC-006-005-----0
  6
CONTINUOUS
  5
20E
 10
587.965565
 20
302.294425
 30
0.0
 11
590.073871
 21
304.402732
 31
0.0
  0
LINE
  8
LC-006-005-----0
  6
CONTINUOUS
  5
20F
 10
593.201271
 20
307.530132
 30
0.0
 11
595.521047
 21
309.849907
 31
0.0
  0
LINE
  8
LC-006-005-----0
  6
CONTINUOUS
  5
210
 10
586.930289
 20
304.087576
 30
0.0
 11
589.038595
 21
306.195883
 31
0.0
  0
LINE
  8
LC-006-005-----0
  6
CONTINUOUS
  5
211
 10
590.970561
 20
308.127849
 30
0.0
 11
593.322922
 21
310.48021
 31
0.0
  0
LINE
  8
LC-006-005-----0
  6
CONTINUOUS
  5
212
 10
585.895012
 20
305.880727
 30
0.0
 11
588.003319
 21
307.989033
 31
0.0
  0
LINE
  8
LC-006-005-----0
  6
CONTINUOUS
  5
213
 10
588.739851
 20
308.725566
 30
0.0
 11
591.124797
 21
311.110512
 31
0.0
  0
LINE
  8
LC-006-005-----0
  6
CONTINUOUS
  5
214
 10
584.859736
 20
307.673878
 30
0.0
 11
588.873226
 21
311.687368
 31
0.0
  0
LINE
  8
LC-006-005-----0
  6
CONTINUOUS
  5
215
 10
583.714799
 20
309.357368
 30
0.0
 11
586.044799
 21
311.687368
 31
0.0
  0
LINE
  8
LC-006-005-----0
  6
CONTINUOUS
  5
216
 10
577.939626
 20
306.410622
 30
0.0
 11
583.216372
 21
311.687368
 31
0.0
  0
LINE
  8
LC-006-005-----0
  6
CONTINUOUS
  5
217
 10
572.207542
 20
303.506965
 30
0.0
 11
580.387945
 21
311.687368
 31
0.0
  0
LINE
  8
LC-006-005-----0
  6
CONTINUOUS
  5
218
 10
568.075086
 20
302.202937
 30
0.0
 11
574.299894
 21
308.427744
 31
0.0
  0
LINE
  8
LC-006-005-----0
  6
CONTINUOUS
  5
219
 10
564.590129
 20
301.546406
 30
0.0
 11
569.343425
 21
306.299702
 31
0.0
  0
LINE
  8
LC-006-005-----0
  6
CONTINUOUS
  5
21A
 10
561.579478
 20
301.364183
 30
0.0
 11
565.557295
 21
305.341999
 31
0.0
  0
LINE
  8
LC-006-005-----0
  6
CONTINUOUS
  5
21B
 10
558.751051
 20
301.364183
 30
0.0
 11
562.318085
 21
304.931216
 31
0.0
  0
LINE
  8
LC-006-005-----0
  6
CONTINUOUS
  5
21C
 10
555.922624
 20
301.364183
 30
0.0
 11
559.426801
 21
304.86836
 31
0.0
  0
LINE
  8
LC-006-005-----0
  6
CONTINUOUS
  5
21D
 10
553.094197
 20
301.364183
 30
0.0
 11
556.788995
 21
305.058981
 31
0.0
  0
LINE
  8
LC-006-005-----0
  6
CONTINUOUS
  5
21E
 10
552.372696
 20
303.471109
 30
0.0
 11
554.351093
 21
305.449506
 31
0.0
  0
ENDBLK
  8
0
  5
21F
  0
BLOCK
  8
0
  5
221
  2
*X22
 70
    65
 10
487.302037
 20
301.257368
 30
0.0
  3
*X22
  0
LINE
  8
LC-006-005-----0
  6
CONTINUOUS
  5
222
 10
576.823583
 20
356.557368
 30
0.0
 11
572.128843
 21
361.252108
 31
0.0
  0
LINE
  8
LC-006-005-----0
  6
CONTINUOUS
  5
223
 10
571.166729
 20
356.557368
 30
0.0
 11
568.466411
 21
359.257686
 31
0.0
  0
LINE
  8
LC-006-005-----0
  6
CONTINUOUS
  5
224
 10
566.3309
 20
361.393197
 30
0.0
 11
564.240306
 21
363.483791
 31
0.0
  0
LINE
  8
LC-006-005-----0
  6
CONTINUOUS
  5
225
 10
565.509875
 20
356.557368
 30
0.0
 11
558.368776
 21
363.698466
 31
0.0
  0
LINE
  8
LC-006-005-----0
  6
CONTINUOUS
  5
226
 10
559.85302
 20
356.557368
 30
0.0
 11
553.444497
 21
362.965891
 31
0.0
  0
LINE
  8
LC-006-005-----0
  6
CONTINUOUS
  5
227
 10
554.196166
 20
356.557368
 30
0.0
 11
549.154871
 21
361.598663
 31
0.0
  0
LINE
  8
LC-006-005-----0
  6
CONTINUOUS
  5
228
 10
548.539312
 20
356.557368
 30
0.0
 11
545.361522
 21
359.735158
 31
0.0
  0
LINE
  8
LC-006-005-----0
  6
CONTINUOUS
  5
229
 10
542.882458
 20
356.557368
 30
0.0
 11
536.344048
 21
363.095778
 31
0.0
  0
LINE
  8
LC-006-005-----0
  6
CONTINUOUS
  5
22A
 10
532.807277
 20
360.975694
 30
0.0
 11
527.269535
 21
366.513437
 31
0.0
  0
LINE
  8
LC-006-005-----0
  6
CONTINUOUS
  5
22B
 10
524.698143
 20
363.427974
 30
0.0
 11
520.873701
 21
367.252416
 31
0.0
  0
LINE
  8
LC-006-005-----0
  6
CONTINUOUS
  5
22C
 10
518.752613
 20
363.71665
 30
0.0
 11
515.211895
 21
367.257368
 31
0.0
  0
LINE
  8
LC-006-005-----0
  6
CONTINUOUS
  5
22D
 10
513.784107
 20
363.028301
 30
0.0
 11
512.442696
 21
364.369713
 31
0.0
  0
ENDBLK
  8
0
  5
22E
  0
BLOCK
  8
0
  5
230
  2
*X23
 70
    65
 10
487.302037
 20
301.257368
 30
0.0
  3
*X23
  0
LINE
  8
LC-006-005-----0
  6
CONTINUOUS
  5
231
 10
577.665973
 20
310.460144
 30
0.0
 11
576.168749
 21
311.957368
 31
0.0
  0
LINE
  8
LC-006-005-----0
  6
CONTINUOUS
  5
232
 10
574.197051
 20
308.272212
 30
0.0
 11
570.511895
 21
311.957368
 31
0.0
  0
LINE
  8
LC-006-005-----0
  6
CONTINUOUS
  5
233
 10
567.555181
 20
309.257227
 30
0.0
 11
564.855041
 21
311.957368
 31
0.0
  0
LINE
  8
LC-006-005-----0
  6
CONTINUOUS
  5
234
 10
565.856955
 20
305.298599
 30
0.0
 11
559.198186
 21
311.957368
 31
0.0
  0
LINE
  8
LC-006-005-----0
  6
CONTINUOUS
  5
235
 10
560.73701
 20
304.76169
 30
0.0
 11
553.541332
 21
311.957368
 31
0.0
  0
LINE
  8
LC-006-005-----0
  6
CONTINUOUS
  5
236
 10
554.527709
 20
305.314137
 30
0.0
 11
547.884478
 21
311.957368
 31
0.0
  0
LINE
  8
LC-006-005-----0
  6
CONTINUOUS
  5
237
 10
545.466255
 20
308.718737
 30
0.0
 11
542.227624
 21
311.957368
 31
0.0
  0
LINE
  8
LC-006-005-----0
  6
CONTINUOUS
  5
238
 10
540.425244
 20
308.102894
 30
0.0
 11
537.92692
 21
310.601217
 31
0.0
  0
LINE
  8
LC-006-005-----0
  6
CONTINUOUS
  5
239
 10
537.048836
 20
305.822447
 30
0.0
 11
534.48226
 21
308.389023
 31
0.0
  0
LINE
  8
LC-006-005-----0
  6
CONTINUOUS
  5
23A
 10
533.292604
 20
303.921825
 30
0.0
 11
530.600921
 21
306.613508
 31
0.0
  0
LINE
  8
LC-006-005-----0
  6
CONTINUOUS
  5
23B
 10
529.104544
 20
302.453031
 30
0.0
 11
526.203821
 21
305.353753
 31
0.0
  0
LINE
  8
LC-006-005-----0
  6
CONTINUOUS
  5
23C
 10
524.389262
 20
301.511459
 30
0.0
 11
521.131684
 21
304.769037
 31
0.0
  0
LINE
  8
LC-006-005-----0
  6
CONTINUOUS
  5
23D
 10
518.986498
 20
301.257368
 30
0.0
 11
515.007486
 21
305.23638
 31
0.0
  0
LINE
  8
LC-006-005-----0
  6
CONTINUOUS
  5
23E
 10
513.329644
 20
301.257368
 30
0.0
 11
512.442696
 21
302.144316
 31
0.0
  0
ENDBLK
  8
0
  5
23F
  0
BLOCK
  8
0
  5
241
  2
BLK5
 70
    64
 10
0.0
 20
0.0
 30
0.0
  3
BLK5
  0
ENDBLK
  8
0
  5
242
  0
BLOCK
  8
0
  5
244
  2
BLK6
 70
    64
 10
0.0
 20
0.0
 30
0.0
  3
BLK6
  0
ENDBLK
  8
0
  5
245
  0
BLOCK
  8
0
  5
247
  2
BLK7
 70
    64
 10
0.0
 20
0.0
 30
0.0
  3
BLK7
  0
ENDBLK
  8
0
  5
248
  0
BLOCK
  8
0
  5
24A
  2
*X27
 70
    65
 10
526.648195
 20
359.249608
 30
0.0
  3
*X27
  0
LINE
  8
LC-006-005-----0
  6
DASHED
  5
24C
 10
530.488368
 20
360.466177
 30
0.0
 11
527.864764
 21
363.089781
 31
0.0
  0
LINE
  8
LC-006-005-----0
  6
DASHED
  5
24D
 10
529.872332
 20
359.667999
 30
0.0
 11
527.066586
 21
362.473745
 31
0.0
  0
ENDBLK
  8
0
  5
24E
  0
BLOCK
  8
0
  5
250
  2
*X28
 70
    65
 10
526.648195
 20
305.265128
 30
0.0
  3
*X28
  0
LINE
  8
LC-006-005-----0
  6
CONTINUOUS
  5
251
 10
530.401784
 20
308.226858
 30
0.0
 11
529.609925
 21
309.018717
 31
0.0
  0
LINE
  8
LC-006-005-----0
  6
DASHED
  5
252
 10
530.004724
 20
305.795492
 30
0.0
 11
527.178559
 21
308.621657
 31
0.0
  0
LINE
  8
LC-006-005-----0
  6
DASHED
  5
253
 10
529.074838
 20
305.311164
 30
0.0
 11
526.694231
 21
307.691771
 31
0.0
  0
ENDBLK
  8
0
  5
254
  0
BLOCK
  8
0
  5
256
  2
*X29
 70
    65
 10
566.5809
 20
359.257708
 30
0.0
  3
*X29
  0
LINE
  8
LC-006-005-----0
  6
CONTINUOUS
  5
257
 10
570.576505
 20
361.390233
 30
0.0
 11
568.713425
 21
363.253313
 31
0.0
  0
LINE
  8
LC-006-005-----0
  6
DASHED
  5
258
 10
569.600932
 20
359.537378
 30
0.0
 11
566.86057
 21
362.27774
 31
0.0
  0
LINE
  8
LC-006-005-----0
  6
DASHED
  5
259
 10
568.462905
 20
359.261192
 30
0.0
 11
566.584384
 21
361.139713
 31
0.0
  0
ENDBLK
  8
0
  5
25A
  0
BLOCK
  8
0
  5
25C
  2
*X30
 70
    65
 10
566.5809
 20
305.257028
 30
0.0
  3
*X30
  0
LINE
  8
LC-006-005-----0
  6
CONTINUOUS
  5
25D
 10
570.532568
 20
307.694054
 30
0.0
 11
569.017926
 21
309.208696
 31
0.0
  0
LINE
  8
LC-006-005-----0
  6
DASHED
  5
25E
 10
569.758051
 20
305.640144
 30
0.0
 11
566.964016
 21
308.434179
 31
0.0
  0
LINE
  8
LC-006-005-----0
  6
DASHED
  5
25F
 10
568.721972
 20
305.26201
 30
0.0
 11
566.585882
 21
307.3981
 31
0.0
  0
ENDBLK
  8
0
  5
260
  0
BLOCK
  8
0
  5
262
  2
BLK8
 70
    64
 10
0.0
 20
0.0
 30
0.0
  3
BLK8
  0
ENDBLK
  8
0
  5
263
  0
BLOCK
  8
0
  5
265
  2
*X32
 70
    65
 10
217.477793
 20
332.724788
 30
0.0
  3
*X32
  0
LINE
  8
LC-006-005-----0
  6
CONTINUOUS
  5
266
 10
242.953746
 20
339.120268
 30
0.0
 11
244.477793
 21
340.644315
 31
0.0
  0
LINE
  8
LC-006-005-----0
  6
CONTINUOUS
  5
267
 10
239.729838
 20
338.724788
 30
0.0
 11
241.775037
 21
340.769986
 31
0.0
  0
LINE
  8
LC-006-005-----0
  6
CONTINUOUS
  5
268
 10
242.432594
 20
341.427543
 30
0.0
 11
244.477793
 21
343.472742
 31
0.0
  0
LINE
  8
LC-006-005-----0
  6
CONTINUOUS
  5
269
 10
236.901411
 20
338.724788
 30
0.0
 11
238.901411
 21
340.724788
 31
0.0
  0
LINE
  8
LC-006-005-----0
  6
CONTINUOUS
  5
26A
 10
242.477793
 20
344.301169
 30
0.0
 11
244.477793
 21
346.301169
 31
0.0
  0
LINE
  8
LC-006-005-----0
  6
CONTINUOUS
  5
26B
 10
234.072984
 20
338.724788
 30
0.0
 11
236.072984
 21
340.724788
 31
0.0
  0
LINE
  8
LC-006-005-----0
  6
CONTINUOUS
  5
26C
 10
242.477793
 20
347.129596
 30
0.0
 11
244.477793
 21
349.129596
 31
0.0
  0
LINE
  8
LC-006-005-----0
  6
CONTINUOUS
  5
26D
 10
231.244557
 20
338.724788
 30
0.0
 11
233.244557
 21
340.724788
 31
0.0
  0
LINE
  8
LC-006-005-----0
  6
CONTINUOUS
  5
26E
 10
242.477793
 20
349.958023
 30
0.0
 11
244.477793
 21
351.958023
 31
0.0
  0
LINE
  8
LC-006-005-----0
  6
CONTINUOUS
  5
26F
 10
228.41613
 20
338.724788
 30
0.0
 11
230.41613
 21
340.724788
 31
0.0
  0
LINE
  8
LC-006-005-----0
  6
CONTINUOUS
  5
270
 10
242.477793
 20
352.78645
 30
0.0
 11
244.477793
 21
354.78645
 31
0.0
  0
LINE
  8
LC-006-005-----0
  6
CONTINUOUS
  5
271
 10
225.587703
 20
338.724788
 30
0.0
 11
227.587703
 21
340.724788
 31
0.0
  0
LINE
  8
LC-006-005-----0
  6
CONTINUOUS
  5
272
 10
242.477793
 20
355.614878
 30
0.0
 11
244.477793
 21
357.614878
 31
0.0
  0
LINE
  8
LC-006-005-----0
  6
CONTINUOUS
  5
273
 10
217.477793
 20
333.443305
 30
0.0
 11
219.477793
 21
335.443305
 31
0.0
  0
LINE
  8
LC-006-005-----0
  6
CONTINUOUS
  5
274
 10
222.759276
 20
338.724788
 30
0.0
 11
224.759276
 21
340.724788
 31
0.0
  0
LINE
  8
LC-006-005-----0
  6
CONTINUOUS
  5
275
 10
242.477793
 20
358.443305
 30
0.0
 11
244.477793
 21
360.443305
 31
0.0
  0
LINE
  8
LC-006-005-----0
  6
CONTINUOUS
  5
276
 10
217.477793
 20
336.271732
 30
0.0
 11
219.477793
 21
338.271732
 31
0.0
  0
LINE
  8
LC-006-005-----0
  6
CONTINUOUS
  5
277
 10
219.930848
 20
338.724788
 30
0.0
 11
221.930848
 21
340.724788
 31
0.0
  0
LINE
  8
LC-006-005-----0
  6
CONTINUOUS
  5
278
 10
242.477793
 20
361.271732
 30
0.0
 11
244.477793
 21
363.271732
 31
0.0
  0
LINE
  8
LC-006-005-----0
  6
CONTINUOUS
  5
279
 10
217.477793
 20
339.100159
 30
0.0
 11
219.102421
 21
340.724788
 31
0.0
  0
LINE
  8
LC-006-005-----0
  6
CONTINUOUS
  5
27A
 10
242.477793
 20
364.100159
 30
0.0
 11
244.477793
 21
366.100159
 31
0.0
  0
LINE
  8
LC-006-005-----0
  6
CONTINUOUS
  5
27B
 10
242.477793
 20
366.928586
 30
0.0
 11
244.477793
 21
368.928586
 31
0.0
  0
LINE
  8
LC-006-005-----0
  6
CONTINUOUS
  5
27C
 10
242.477793
 20
369.757013
 30
0.0
 11
244.477793
 21
371.757013
 31
0.0
  0
LINE
  8
LC-006-005-----0
  6
CONTINUOUS
  5
27D
 10
242.477793
 20
372.58544
 30
0.0
 11
244.477793
 21
374.58544
 31
0.0
  0
LINE
  8
LC-006-005-----0
  6
CONTINUOUS
  5
27E
 10
242.477793
 20
375.413867
 30
0.0
 11
244.477793
 21
377.413867
 31
0.0
  0
LINE
  8
LC-006-005-----0
  6
CONTINUOUS
  5
27F
 10
242.477793
 20
378.242295
 30
0.0
 11
244.477793
 21
380.242295
 31
0.0
  0
LINE
  8
LC-006-005-----0
  6
CONTINUOUS
  5
280
 10
242.477793
 20
381.070722
 30
0.0
 11
244.477793
 21
383.070722
 31
0.0
  0
LINE
  8
LC-006-005-----0
  6
CONTINUOUS
  5
281
 10
242.477793
 20
383.899149
 30
0.0
 11
244.477793
 21
385.899149
 31
0.0
  0
LINE
  8
LC-006-005-----0
  6
CONTINUOUS
  5
282
 10
242.183504
 20
386.433287
 30
0.0
 11
243.841619
 21
388.091402
 31
0.0
  0
LINE
  8
LC-006-005-----0
  6
CONTINUOUS
  5
283
 10
239.646577
 20
386.724788
 30
0.0
 11
241.610909
 21
388.689119
 31
0.0
  0
LINE
  8
LC-006-005-----0
  6
CONTINUOUS
  5
284
 10
236.81815
 20
386.724788
 30
0.0
 11
238.81815
 21
388.724788
 31
0.0
  0
LINE
  8
LC-006-005-----0
  6
CONTINUOUS
  5
285
 10
233.989723
 20
386.724788
 30
0.0
 11
235.989723
 21
388.724788
 31
0.0
  0
LINE
  8
LC-006-005-----0
  6
CONTINUOUS
  5
286
 10
231.161296
 20
386.724788
 30
0.0
 11
233.161296
 21
388.724788
 31
0.0
  0
LINE
  8
LC-006-005-----0
  6
CONTINUOUS
  5
287
 10
228.332869
 20
386.724788
 30
0.0
 11
230.332869
 21
388.724788
 31
0.0
  0
LINE
  8
LC-006-005-----0
  6
CONTINUOUS
  5
288
 10
225.504442
 20
386.724788
 30
0.0
 11
227.504442
 21
388.724788
 31
0.0
  0
LINE
  8
LC-006-005-----0
  6
CONTINUOUS
  5
289
 10
222.676014
 20
386.724788
 30
0.0
 11
224.676014
 21
388.724788
 31
0.0
  0
LINE
  8
LC-006-005-----0
  6
CONTINUOUS
  5
28A
 10
219.847587
 20
386.724788
 30
0.0
 11
221.847587
 21
388.724788
 31
0.0
  0
LINE
  8
LC-006-005-----0
  6
CONTINUOUS
  5
28B
 10
217.477793
 20
387.18342
 30
0.0
 11
219.477793
 21
389.18342
 31
0.0
  0
LINE
  8
LC-006-005-----0
  6
CONTINUOUS
  5
28C
 10
217.477793
 20
390.011847
 30
0.0
 11
219.477793
 21
392.011847
 31
0.0
  0
LINE
  8
LC-006-005-----0
  6
CONTINUOUS
  5
28D
 10
217.477793
 20
392.840274
 30
0.0
 11
219.362306
 21
394.724788
 31
0.0
  0
ENDBLK
  8
0
  5
28E
  0
BLOCK
  8
0
  5
290
  2
*X33
 70
    65
 10
219.477793
 20
286.474788
 30
0.0
  3
*X33
  0
LINE
  8
LC-006-005-----0
  6
CONTINUOUS
  5
291
 10
333.206431
 20
316.235869
 30
0.0
 11
334.777793
 21
317.80723
 31
0.0
  0
LINE
  8
LC-006-005-----0
  6
CONTINUOUS
  5
292
 10
332.477793
 20
318.335657
 30
0.0
 11
336.378004
 21
322.235869
 31
0.0
  0
LINE
  8
LC-006-005-----0
  6
CONTINUOUS
  5
293
 10
332.477793
 20
321.164084
 30
0.0
 11
334.777793
 21
323.464084
 31
0.0
  0
LINE
  8
LC-006-005-----0
  6
CONTINUOUS
  5
294
 10
332.477793
 20
323.992511
 30
0.0
 11
334.777793
 21
326.292511
 31
0.0
  0
LINE
  8
LC-006-005-----0
  6
CONTINUOUS
  5
295
 10
337.721218
 20
329.235936
 30
0.0
 11
339.427793
 21
330.942511
 31
0.0
  0
LINE
  8
LC-006-005-----0
  6
CONTINUOUS
  5
296
 10
332.477793
 20
326.820938
 30
0.0
 11
337.392791
 21
331.735936
 31
0.0
  0
LINE
  8
LC-006-005-----0
  6
CONTINUOUS
  5
297
 10
332.477793
 20
329.649365
 30
0.0
 11
335.1158
 21
332.287373
 31
0.0
  0
LINE
  8
LC-006-005-----0
  6
CONTINUOUS
  5
298
 10
338.853215
 20
336.024788
 30
0.0
 11
341.353215
 21
338.524788
 31
0.0
  0
LINE
  8
LC-006-005-----0
  6
CONTINUOUS
  5
299
 10
332.477793
 20
332.477793
 30
0.0
 11
334.777793
 21
334.777793
 31
0.0
  0
LINE
  8
LC-006-005-----0
  6
CONTINUOUS
  5
29A
 10
336.024788
 20
336.024788
 30
0.0
 11
338.524788
 21
338.524788
 31
0.0
  0
LINE
  8
LC-006-005-----0
  6
CONTINUOUS
  5
29B
 10
332.477793
 20
335.30622
 30
0.0
 11
335.696361
 21
338.524788
 31
0.0
  0
LINE
  8
LC-006-005-----0
  6
CONTINUOUS
  5
29C
 10
332.477793
 20
338.134647
 30
0.0
 11
334.899968
 21
340.556822
 31
0.0
  0
LINE
  8
LC-006-005-----0
  6
CONTINUOUS
  5
29D
 10
332.439744
 20
340.925025
 30
0.0
 11
334.750601
 21
343.235882
 31
0.0
  0
LINE
  8
LC-006-005-----0
  6
CONTINUOUS
  5
29E
 10
332.265348
 20
343.579057
 30
0.0
 11
334.479196
 21
345.792905
 31
0.0
  0
LINE
  8
LC-006-005-----0
  6
CONTINUOUS
  5
29F
 10
331.966289
 20
346.108424
 30
0.0
 11
334.099488
 21
348.241624
 31
0.0
  0
LINE
  8
LC-006-005-----0
  6
CONTINUOUS
  5
2A0
 10
331.556794
 20
348.527357
 30
0.0
 11
333.62218
 21
350.592743
 31
0.0
  0
LINE
  8
LC-006-005-----0
  6
CONTINUOUS
  5
2A1
 10
331.047882
 20
350.846872
 30
0.0
 11
333.055777
 21
352.854767
 31
0.0
  0
LINE
  8
LC-006-005-----0
  6
CONTINUOUS
  5
2A2
 10
330.448253
 20
353.07567
 30
0.0
 11
332.407144
 21
355.034561
 31
0.0
  0
LINE
  8
LC-006-005-----0
  6
CONTINUOUS
  5
2A3
 10
290.961889
 20
316.417733
 30
0.0
 11
292.477793
 21
317.933637
 31
0.0
  0
LINE
  8
LC-006-005-----0
  6
CONTINUOUS
  5
2A4
 10
329.764887
 20
355.220731
 30
0.0
 11
331.681882
 21
357.137726
 31
0.0
  0
LINE
  8
LC-006-005-----0
  6
CONTINUOUS
  5
2A5
 10
290.177793
 20
318.462064
 30
0.0
 11
292.477793
 21
320.762064
 31
0.0
  0
LINE
  8
LC-006-005-----0
  6
CONTINUOUS
  5
2A6
 10
329.003447
 20
357.287719
 30
0.0
 11
330.884606
 21
359.168877
 31
0.0
  0
LINE
  8
LC-006-005-----0
  6
CONTINUOUS
  5
2A7
 10
288.62317
 20
319.735869
 30
0.0
 11
292.477793
 21
323.590491
 31
0.0
  0
LINE
  8
LC-006-005-----0
  6
CONTINUOUS
  5
2A8
 10
328.168568
 20
359.281266
 30
0.0
 11
330.019137
 21
361.131836
 31
0.0
  0
LINE
  8
LC-006-005-----0
  6
CONTINUOUS
  5
2A9
 10
287.477793
 20
321.418918
 30
0.0
 11
288.294743
 21
322.235869
 31
0.0
  0
LINE
  8
LC-006-005-----0
  6
CONTINUOUS
  5
2AA
 10
290.177793
 20
324.118918
 30
0.0
 11
292.477793
 21
326.418918
 31
0.0
  0
LINE
  8
LC-006-005-----0
  6
CONTINUOUS
  5
2AB
 10
327.264057
 20
361.205183
 30
0.0
 11
329.088652
 21
363.029777
 31
0.0
  0
LINE
  8
LC-006-005-----0
  6
CONTINUOUS
  5
2AC
 10
290.177793
 20
326.947345
 30
0.0
 11
292.477793
 21
329.247345
 31
0.0
  0
LINE
  8
LC-006-005-----0
  6
CONTINUOUS
  5
2AD
 10
326.293053
 20
363.062605
 30
0.0
 11
328.095786
 21
364.865338
 31
0.0
  0
LINE
  8
LC-006-005-----0
  6
CONTINUOUS
  5
2AE
 10
289.407875
 20
329.005854
 30
0.0
 11
292.477793
 21
332.075772
 31
0.0
  0
LINE
  8
LC-006-005-----0
  6
CONTINUOUS
  5
2AF
 10
325.258129
 20
364.856109
 30
0.0
 11
327.042721
 21
366.640701
 31
0.0
  0
LINE
  8
LC-006-005-----0
  6
CONTINUOUS
  5
2B0
 10
286.80953
 20
329.235936
 30
0.0
 11
292.477793
 21
334.904199
 31
0.0
  0
LINE
  8
LC-006-005-----0
  6
CONTINUOUS
  5
2B1
 10
324.161386
 20
366.587793
 30
0.0
 11
325.931247
 21
368.357654
 31
0.0
  0
LINE
  8
LC-006-005-----0
  6
CONTINUOUS
  5
2B2
 10
285.527793
 20
330.782627
 30
0.0
 11
286.481102
 21
331.735936
 31
0.0
  0
LINE
  8
LC-006-005-----0
  6
CONTINUOUS
  5
2B3
 10
290.116007
 20
335.370841
 30
0.0
 11
292.231489
 21
337.486323
 31
0.0
  0
LINE
  8
LC-006-005-----0
  6
CONTINUOUS
  5
2B4
 10
323.00451
 20
368.259344
 30
0.0
 11
324.762811
 21
370.017645
 31
0.0
  0
LINE
  8
LC-006-005-----0
  6
CONTINUOUS
  5
2B5
 10
287.941527
 20
336.024788
 30
0.0
 11
290.391527
 21
338.474788
 31
0.0
  0
LINE
  8
LC-006-005-----0
  6
CONTINUOUS
  5
2B6
 10
321.788823
 20
369.872084
 30
0.0
 11
323.53855
 21
371.621811
 31
0.0
  0
LINE
  8
LC-006-005-----0
  6
CONTINUOUS
  5
2B7
 10
285.113099
 20
336.024788
 30
0.0
 11
287.563099
 21
338.474788
 31
0.0
  0
LINE
  8
LC-006-005-----0
  6
CONTINUOUS
  5
2B8
 10
320.515319
 20
371.427007
 30
0.0
 11
322.259324
 21
373.171012
 31
0.0
  0
LINE
  8
LC-006-005-----0
  6
CONTINUOUS
  5
2B9
 10
282.284672
 20
336.024788
 30
0.0
 11
284.734672
 21
338.474788
 31
0.0
  0
LINE
  8
LC-006-005-----0
  6
CONTINUOUS
  5
2BA
 10
319.18469
 20
372.924805
 30
0.0
 11
320.925734
 21
374.665849
 31
0.0
  0
LINE
  8
LC-006-005-----0
  6
CONTINUOUS
  5
2BB
 10
279.456245
 20
336.024788
 30
0.0
 11
281.906245
 21
338.474788
 31
0.0
  0
LINE
  8
LC-006-005-----0
  6
CONTINUOUS
  5
2BC
 10
317.79734
 20
374.365882
 30
0.0
 11
319.538132
 21
376.106675
 31
0.0
  0
LINE
  8
LC-006-005-----0
  6
CONTINUOUS
  5
2BD
 10
276.627818
 20
336.024788
 30
0.0
 11
279.077818
 21
338.474788
 31
0.0
  0
LINE
  8
LC-006-005-----0
  6
CONTINUOUS
  5
2BE
 10
316.353399
 20
375.750368
 30
0.0
 11
318.096637
 21
377.493606
 31
0.0
  0
LINE
  8
LC-006-005-----0
  6
CONTINUOUS
  5
2BF
 10
273.799391
 20
336.024788
 30
0.0
 11
276.249391
 21
338.474788
 31
0.0
  0
LINE
  8
LC-006-005-----0
  6
CONTINUOUS
  5
2C0
 10
314.852723
 20
377.078119
 30
0.0
 11
316.601128
 21
378.826524
 31
0.0
  0
LINE
  8
LC-006-005-----0
  6
CONTINUOUS
  5
2C1
 10
270.970964
 20
336.024788
 30
0.0
 11
273.420964
 21
338.474788
 31
0.0
  0
LINE
  8
LC-006-005-----0
  6
CONTINUOUS
  5
2C2
 10
313.294893
 20
378.348717
 30
0.0
 11
315.051248
 21
380.105072
 31
0.0
  0
LINE
  8
LC-006-005-----0
  6
CONTINUOUS
  5
2C3
 10
268.142537
 20
336.024788
 30
0.0
 11
270.592537
 21
338.474788
 31
0.0
  0
LINE
  8
LC-006-005-----0
  6
CONTINUOUS
  5
2C4
 10
311.679204
 20
379.561455
 30
0.0
 11
313.446394
 21
381.328645
 31
0.0
  0
LINE
  8
LC-006-005-----0
  6
CONTINUOUS
  5
2C5
 10
265.31411
 20
336.024788
 30
0.0
 11
267.76411
 21
338.474788
 31
0.0
  0
LINE
  8
LC-006-005-----0
  6
CONTINUOUS
  5
2C6
 10
310.004646
 20
380.715324
 30
0.0
 11
311.785704
 21
382.496382
 31
0.0
  0
LINE
  8
LC-006-005-----0
  6
CONTINUOUS
  5
2C7
 10
262.485682
 20
336.024788
 30
0.0
 11
264.935682
 21
338.474788
 31
0.0
  0
LINE
  8
LC-006-005-----0
  6
CONTINUOUS
  5
2C8
 10
308.269878
 20
381.808983
 30
0.0
 11
310.068034
 21
383.60714
 31
0.0
  0
LINE
  8
LC-006-005-----0
  6
CONTINUOUS
  5
2C9
 10
259.657255
 20
336.024788
 30
0.0
 11
262.107255
 21
338.474788
 31
0.0
  0
LINE
  8
LC-006-005-----0
  6
CONTINUOUS
  5
2CA
 10
306.473195
 20
382.840727
 30
0.0
 11
308.291936
 21
384.659468
 31
0.0
  0
LINE
  8
LC-006-005-----0
  6
CONTINUOUS
  5
2CB
 10
256.828828
 20
336.024788
 30
0.0
 11
259.278828
 21
338.474788
 31
0.0
  0
LINE
  8
LC-006-005-----0
  6
CONTINUOUS
  5
2CC
 10
304.612475
 20
383.808434
 30
0.0
 11
306.455614
 21
385.651574
 31
0.0
  0
LINE
  8
LC-006-005-----0
  6
CONTINUOUS
  5
2CD
 10
254.000401
 20
336.024788
 30
0.0
 11
256.450401
 21
338.474788
 31
0.0
  0
LINE
  8
LC-006-005-----0
  6
CONTINUOUS
  5
2CE
 10
302.685115
 20
384.709502
 30
0.0
 11
304.556883
 21
386.581269
 31
0.0
  0
LINE
  8
LC-006-005-----0
  6
CONTINUOUS
  5
2CF
 10
251.171974
 20
336.024788
 30
0.0
 11
253.621974
 21
338.474788
 31
0.0
  0
LINE
  8
LC-006-005-----0
  6
CONTINUOUS
  5
2D0
 10
300.68795
 20
385.540764
 30
0.0
 11
302.593098
 21
387.445911
 31
0.0
  0
LINE
  8
LC-006-005-----0
  6
CONTINUOUS
  5
2D1
 10
248.343547
 20
336.024788
 30
0.0
 11
250.793547
 21
338.474788
 31
0.0
  0
LINE
  8
LC-006-005-----0
  6
CONTINUOUS
  5
2D2
 10
298.617132
 20
386.298373
 30
0.0
 11
300.561077
 21
388.242318
 31
0.0
  0
LINE
  8
LC-006-005-----0
  6
CONTINUOUS
  5
2D3
 10
245.51512
 20
336.024788
 30
0.0
 11
247.96512
 21
338.474788
 31
0.0
  0
LINE
  8
LC-006-005-----0
  6
CONTINUOUS
  5
2D4
 10
296.46798
 20
386.977648
 30
0.0
 11
298.45699
 21
388.966658
 31
0.0
  0
LINE
  8
LC-006-005-----0
  6
CONTINUOUS
  5
2D5
 10
242.686693
 20
336.024788
 30
0.0
 11
245.136693
 21
338.474788
 31
0.0
  0
LINE
  8
LC-006-005-----0
  6
CONTINUOUS
  5
2D6
 10
294.234773
 20
387.572868
 30
0.0
 11
296.276212
 21
389.614307
 31
0.0
  0
LINE
  8
LC-006-005-----0
  6
CONTINUOUS
  5
2D7
 10
235.058265
 20
331.224788
 30
0.0
 11
237.977793
 21
334.144315
 31
0.0
  0
LINE
  8
LC-006-005-----0
  6
CONTINUOUS
  5
2D8
 10
239.858265
 20
336.024788
 30
0.0
 11
242.308265
 21
338.474788
 31
0.0
  0
LINE
  8
LC-006-005-----0
  6
CONTINUOUS
  5
2D9
 10
291.910454
 20
388.076976
 30
0.0
 11
294.013126
 21
390.179648
 31
0.0
  0
LINE
  8
LC-006-005-----0
  6
CONTINUOUS
  5
2DA
 10
232.229838
 20
331.224788
 30
0.0
 11
234.729838
 21
333.724788
 31
0.0
  0
LINE
  8
LC-006-005-----0
  6
CONTINUOUS
  5
2DB
 10
235.977793
 20
334.972742
 30
0.0
 11
239.479838
 21
338.474788
 31
0.0
  0
LINE
  8
LC-006-005-----0
  6
CONTINUOUS
  5
2DC
 10
289.486221
 20
388.48117
 30
0.0
 11
291.660851
 21
390.6558
 31
0.0
  0
LINE
  8
LC-006-005-----0
  6
CONTINUOUS
  5
2DD
 10
229.401411
 20
331.224788
 30
0.0
 11
231.901411
 21
333.724788
 31
0.0
  0
LINE
  8
LC-006-005-----0
  6
CONTINUOUS
  5
2DE
 10
235.977793
 20
337.801169
 30
0.0
 11
236.651411
 21
338.474788
 31
0.0
  0
LINE
  8
LC-006-005-----0
  6
CONTINUOUS
  5
2DF
 10
286.95092
 20
388.774297
 30
0.0
 11
289.210858
 21
391.034234
 31
0.0
  0
LINE
  8
LC-006-005-----0
  6
CONTINUOUS
  5
2E0
 10
226.633955
 20
331.285759
 30
0.0
 11
229.072984
 21
333.724788
 31
0.0
  0
LINE
  8
LC-006-005-----0
  6
CONTINUOUS
  5
2E1
 10
284.290128
 20
388.941931
 30
0.0
 11
286.652411
 21
391.304215
 31
0.0
  0
LINE
  8
LC-006-005-----0
  6
CONTINUOUS
  5
2E2
 10
225.977793
 20
333.458023
 30
0.0
 11
227.336175
 21
334.816405
 31
0.0
  0
LINE
  8
LC-006-005-----0
  6
CONTINUOUS
  5
2E3
 10
281.494557
 20
388.974788
 30
0.0
 11
283.971732
 21
391.451963
 31
0.0
  0
LINE
  8
LC-006-005-----0
  6
CONTINUOUS
  5
2E4
 10
224.571961
 20
334.880619
 30
0.0
 11
225.921961
 21
336.230619
 31
0.0
  0
LINE
  8
LC-006-005-----0
  6
CONTINUOUS
  5
2E5
 10
278.66613
 20
388.974788
 30
0.0
 11
281.16613
 21
391.474788
 31
0.0
  0
LINE
  8
LC-006-005-----0
  6
CONTINUOUS
  5
2E6
 10
222.837703
 20
335.974788
 30
0.0
 11
224.507748
 21
337.644833
 31
0.0
  0
LINE
  8
LC-006-005-----0
  6
CONTINUOUS
  5
2E7
 10
275.837703
 20
388.974788
 30
0.0
 11
278.337703
 21
391.474788
 31
0.0
  0
LINE
  8
LC-006-005-----0
  6
CONTINUOUS
  5
2E8
 10
220.009276
 20
335.974788
 30
0.0
 11
222.509276
 21
338.474788
 31
0.0
  0
LINE
  8
LC-006-005-----0
  6
CONTINUOUS
  5
2E9
 10
273.009276
 20
388.974788
 30
0.0
 11
275.509276
 21
391.474788
 31
0.0
  0
LINE
  8
LC-006-005-----0
  6
CONTINUOUS
  5
2EA
 10
219.477793
 20
338.271732
 30
0.0
 11
219.680848
 21
338.474788
 31
0.0
  0
LINE
  8
LC-006-005-----0
  6
CONTINUOUS
  5
2EB
 10
270.180848
 20
388.974788
 30
0.0
 11
272.680848
 21
391.474788
 31
0.0
  0
LINE
  8
LC-006-005-----0
  6
CONTINUOUS
  5
2EC
 10
267.352421
 20
388.974788
 30
0.0
 11
269.852421
 21
391.474788
 31
0.0
  0
LINE
  8
LC-006-005-----0
  6
CONTINUOUS
  5
2ED
 10
264.523994
 20
388.974788
 30
0.0
 11
267.023994
 21
391.474788
 31
0.0
  0
LINE
  8
LC-006-005-----0
  6
CONTINUOUS
  5
2EE
 10
261.695567
 20
388.974788
 30
0.0
 11
264.195567
 21
391.474788
 31
0.0
  0
LINE
  8
LC-006-005-----0
  6
CONTINUOUS
  5
2EF
 10
258.86714
 20
388.974788
 30
0.0
 11
261.36714
 21
391.474788
 31
0.0
  0
LINE
  8
LC-006-005-----0
  6
CONTINUOUS
  5
2F0
 10
256.038713
 20
388.974788
 30
0.0
 11
258.538713
 21
391.474788
 31
0.0
  0
LINE
  8
LC-006-005-----0
  6
CONTINUOUS
  5
2F1
 10
253.210286
 20
388.974788
 30
0.0
 11
255.710286
 21
391.474788
 31
0.0
  0
LINE
  8
LC-006-005-----0
  6
CONTINUOUS
  5
2F2
 10
250.381859
 20
388.974788
 30
0.0
 11
252.881859
 21
391.474788
 31
0.0
  0
LINE
  8
LC-006-005-----0
  6
CONTINUOUS
  5
2F3
 10
247.553431
 20
388.974788
 30
0.0
 11
250.053431
 21
391.474788
 31
0.0
  0
LINE
  8
LC-006-005-----0
  6
CONTINUOUS
  5
2F4
 10
244.725004
 20
388.974788
 30
0.0
 11
247.225004
 21
391.474788
 31
0.0
  0
LINE
  8
LC-006-005-----0
  6
CONTINUOUS
  5
2F5
 10
241.896577
 20
388.974788
 30
0.0
 11
244.396577
 21
391.474788
 31
0.0
  0
LINE
  8
LC-006-005-----0
  6
CONTINUOUS
  5
2F6
 10
239.06815
 20
388.974788
 30
0.0
 11
241.56815
 21
391.474788
 31
0.0
  0
LINE
  8
LC-006-005-----0
  6
CONTINUOUS
  5
2F7
 10
236.239723
 20
388.974788
 30
0.0
 11
238.739723
 21
391.474788
 31
0.0
  0
LINE
  8
LC-006-005-----0
  6
CONTINUOUS
  5
2F8
 10
235.977793
 20
391.541284
 30
0.0
 11
237.977793
 21
393.541284
 31
0.0
  0
LINE
  8
LC-006-005-----0
  6
CONTINUOUS
  5
2F9
 10
235.332869
 20
393.724788
 30
0.0
 11
237.608715
 21
396.000634
 31
0.0
  0
LINE
  8
LC-006-005-----0
  6
CONTINUOUS
  5
2FA
 10
232.504442
 20
393.724788
 30
0.0
 11
235.004442
 21
396.224788
 31
0.0
  0
LINE
  8
LC-006-005-----0
  6
CONTINUOUS
  5
2FB
 10
229.676014
 20
393.724788
 30
0.0
 11
232.176014
 21
396.224788
 31
0.0
  0
LINE
  8
LC-006-005-----0
  6
CONTINUOUS
  5
2FC
 10
222.097587
 20
388.974788
 30
0.0
 11
229.347587
 21
396.224788
 31
0.0
  0
LINE
  8
LC-006-005-----0
  6
CONTINUOUS
  5
2FD
 10
219.477793
 20
389.18342
 30
0.0
 11
221.76916
 21
391.474788
 31
0.0
  0
ENDBLK
  8
0
  5
2FE
  0
BLOCK
  8
0
  5
300
  2
*X34
 70
    65
 10
283.02293
 20
291.126667
 30
0.0
  3
*X34
  0
LINE
  8
LC-006-005-----0
  6
CONTINUOUS
  5
301
 10
348.707076
 20
292.138533
 30
0.0
 11
349.807146
 21
293.238604
 31
0.0
  0
LINE
  8
LC-006-005-----0
  6
CONTINUOUS
  5
302
 10
346.866782
 20
293.126667
 30
0.0
 11
349.808825
 21
296.06871
 31
0.0
  0
LINE
  8
LC-006-005-----0
  6
CONTINUOUS
  5
303
 10
344.038355
 20
293.126667
 30
0.0
 11
347.038299
 21
296.126611
 31
0.0
  0
LINE
  8
LC-006-005-----0
  6
CONTINUOUS
  5
304
 10
341.209928
 20
293.126667
 30
0.0
 11
344.209872
 21
296.126611
 31
0.0
  0
LINE
  8
LC-006-005-----0
  6
CONTINUOUS
  5
305
 10
338.381501
 20
293.126667
 30
0.0
 11
341.381445
 21
296.126611
 31
0.0
  0
LINE
  8
LC-006-005-----0
  6
CONTINUOUS
  5
306
 10
335.553073
 20
293.126667
 30
0.0
 11
338.553018
 21
296.126611
 31
0.0
  0
LINE
  8
LC-006-005-----0
  6
CONTINUOUS
  5
307
 10
332.724646
 20
293.126667
 30
0.0
 11
335.724591
 21
296.126611
 31
0.0
  0
LINE
  8
LC-006-005-----0
  6
CONTINUOUS
  5
308
 10
329.896219
 20
293.126667
 30
0.0
 11
332.896163
 21
296.126611
 31
0.0
  0
LINE
  8
LC-006-005-----0
  6
CONTINUOUS
  5
309
 10
327.067792
 20
293.126667
 30
0.0
 11
330.067736
 21
296.126611
 31
0.0
  0
LINE
  8
LC-006-005-----0
  6
CONTINUOUS
  5
30A
 10
324.239365
 20
293.126667
 30
0.0
 11
327.239309
 21
296.126611
 31
0.0
  0
LINE
  8
LC-006-005-----0
  6
CONTINUOUS
  5
30B
 10
321.410938
 20
293.126667
 30
0.0
 11
324.410882
 21
296.126611
 31
0.0
  0
LINE
  8
LC-006-005-----0
  6
CONTINUOUS
  5
30C
 10
318.582511
 20
293.126667
 30
0.0
 11
321.582455
 21
296.126611
 31
0.0
  0
LINE
  8
LC-006-005-----0
  6
CONTINUOUS
  5
30D
 10
315.754084
 20
293.126667
 30
0.0
 11
318.754028
 21
296.126611
 31
0.0
  0
LINE
  8
LC-006-005-----0
  6
CONTINUOUS
  5
30E
 10
312.925656
 20
293.126667
 30
0.0
 11
315.925601
 21
296.126611
 31
0.0
  0
LINE
  8
LC-006-005-----0
  6
CONTINUOUS
  5
30F
 10
310.097229
 20
293.126667
 30
0.0
 11
313.097174
 21
296.126611
 31
0.0
  0
LINE
  8
LC-006-005-----0
  6
CONTINUOUS
  5
310
 10
307.268802
 20
293.126667
 30
0.0
 11
310.268746
 21
296.126611
 31
0.0
  0
LINE
  8
LC-006-005-----0
  6
CONTINUOUS
  5
311
 10
304.440375
 20
293.126667
 30
0.0
 11
307.440319
 21
296.126611
 31
0.0
  0
LINE
  8
LC-006-005-----0
  6
CONTINUOUS
  5
312
 10
301.611948
 20
293.126667
 30
0.0
 11
304.611892
 21
296.126611
 31
0.0
  0
LINE
  8
LC-006-005-----0
  6
CONTINUOUS
  5
313
 10
298.783521
 20
293.126667
 30
0.0
 11
301.783465
 21
296.126611
 31
0.0
  0
LINE
  8
LC-006-005-----0
  6
CONTINUOUS
  5
314
 10
296.078433
 20
293.250005
 30
0.0
 11
298.955038
 21
296.126611
 31
0.0
  0
LINE
  8
LC-006-005-----0
  6
CONTINUOUS
  5
315
 10
293.947659
 20
293.947659
 30
0.0
 11
296.273748
 21
296.273748
 31
0.0
  0
LINE
  8
LC-006-005-----0
  6
CONTINUOUS
  5
316
 10
292.246056
 20
295.074483
 30
0.0
 11
294.37633
 21
297.204758
 31
0.0
  0
LINE
  8
LC-006-005-----0
  6
CONTINUOUS
  5
317
 10
290.906756
 20
296.56361
 30
0.0
 11
293.083797
 21
298.740651
 31
0.0
  0
LINE
  8
LC-006-005-----0
  6
CONTINUOUS
  5
318
 10
289.945658
 20
298.430939
 30
0.0
 11
292.480384
 21
300.965665
 31
0.0
  0
LINE
  8
LC-006-005-----0
  6
CONTINUOUS
  5
319
 10
289.484537
 20
300.798245
 30
0.0
 11
292.477793
 21
303.791501
 31
0.0
  0
LINE
  8
LC-006-005-----0
  6
CONTINUOUS
  5
31A
 10
289.477793
 20
303.619928
 30
0.0
 11
292.477793
 21
306.619928
 31
0.0
  0
LINE
  8
LC-006-005-----0
  6
CONTINUOUS
  5
31B
 10
289.477793
 20
306.448355
 30
0.0
 11
292.477793
 21
309.448355
 31
0.0
  0
LINE
  8
LC-006-005-----0
  6
CONTINUOUS
  5
31C
 10
289.477793
 20
309.276782
 30
0.0
 11
292.477793
 21
312.276782
 31
0.0
  0
LINE
  8
LC-006-005-----0
  6
CONTINUOUS
  5
31D
 10
289.329721
 20
311.957138
 30
0.0
 11
292.477793
 21
315.10521
 31
0.0
  0
LINE
  8
LC-006-005-----0
  6
CONTINUOUS
  5
31E
 10
288.096352
 20
313.552196
 30
0.0
 11
290.268944
 21
315.724788
 31
0.0
  0
LINE
  8
LC-006-005-----0
  6
CONTINUOUS
  5
31F
 10
285.742007
 20
314.026278
 30
0.0
 11
289.212721
 21
317.496992
 31
0.0
  0
LINE
  8
LC-006-005-----0
  6
CONTINUOUS
  5
320
 10
283.555099
 20
314.667797
 30
0.0
 11
286.384294
 21
317.496992
 31
0.0
  0
LINE
  8
LC-006-005-----0
  6
CONTINUOUS
  5
321
 10
283.03928
 20
316.980406
 30
0.0
 11
285.378297
 21
319.319422
 31
0.0
  0
LINE
  8
LC-006-005-----0
  6
CONTINUOUS
  5
322
 10
283.089528
 20
319.85908
 30
0.0
 11
285.378297
 21
322.147849
 31
0.0
  0
LINE
  8
LC-006-005-----0
  6
CONTINUOUS
  5
323
 10
283.139775
 20
322.737755
 30
0.0
 11
285.378297
 21
324.976276
 31
0.0
  0
LINE
  8
LC-006-005-----0
  6
CONTINUOUS
  5
324
 10
283.190022
 20
325.616429
 30
0.0
 11
285.378297
 21
327.804703
 31
0.0
  0
LINE
  8
LC-006-005-----0
  6
CONTINUOUS
  5
325
 10
283.24027
 20
328.495104
 30
0.0
 11
285.378297
 21
330.633131
 31
0.0
  0
LINE
  8
LC-006-005-----0
  6
CONTINUOUS
  5
326
 10
283.290517
 20
331.373778
 30
0.0
 11
286.159921
 21
334.243182
 31
0.0
  0
LINE
  8
LC-006-005-----0
  6
CONTINUOUS
  5
327
 10
283.340765
 20
334.252453
 30
0.0
 11
284.745707
 21
335.657396
 31
0.0
  0
ENDBLK
  8
0
  5
328
  0
BLOCK
  8
0
  5
32A
  2
*X35
 70
    65
 10
332.477793
 20
311.116332
 30
0.0
  3
*X35
  0
LINE
  8
LC-006-005-----0
  6
CONTINUOUS
  5
32B
 10
348.599136
 20
311.829583
 30
0.0
 11
348.885866
 21
312.116313
 31
0.0
  0
LINE
  8
LC-006-005-----0
  6
CONTINUOUS
  5
32C
 10
346.057439
 20
312.116313
 30
0.0
 11
349.807146
 21
315.866021
 31
0.0
  0
LINE
  8
LC-006-005-----0
  6
CONTINUOUS
  5
32D
 10
343.229012
 20
312.116313
 30
0.0
 11
346.228956
 21
315.116258
 31
0.0
  0
LINE
  8
LC-006-005-----0
  6
CONTINUOUS
  5
32E
 10
340.400585
 20
312.116313
 30
0.0
 11
343.400529
 21
315.116258
 31
0.0
  0
LINE
  8
LC-006-005-----0
  6
CONTINUOUS
  5
32F
 10
337.572157
 20
312.116313
 30
0.0
 11
341.925225
 21
316.469381
 31
0.0
  0
LINE
  8
LC-006-005-----0
  6
CONTINUOUS
  5
330
 10
334.74373
 20
312.116313
 30
0.0
 11
341.876702
 21
319.249285
 31
0.0
  0
LINE
  8
LC-006-005-----0
  6
CONTINUOUS
  5
331
 10
332.477793
 20
312.678803
 30
0.0
 11
337.295982
 21
317.496992
 31
0.0
  0
LINE
  8
LC-006-005-----0
  6
CONTINUOUS
  5
332
 10
339.577289
 20
319.778299
 30
0.0
 11
341.828178
 21
322.029188
 31
0.0
  0
LINE
  8
LC-006-005-----0
  6
CONTINUOUS
  5
333
 10
332.477793
 20
315.50723
 30
0.0
 11
332.69535
 21
315.724788
 31
0.0
  0
LINE
  8
LC-006-005-----0
  6
CONTINUOUS
  5
334
 10
339.577289
 20
322.606726
 30
0.0
 11
341.779655
 21
324.809092
 31
0.0
  0
LINE
  8
LC-006-005-----0
  6
CONTINUOUS
  5
335
 10
339.577289
 20
325.435153
 30
0.0
 11
341.731131
 21
327.588996
 31
0.0
  0
LINE
  8
LC-006-005-----0
  6
CONTINUOUS
  5
336
 10
339.577289
 20
328.26358
 30
0.0
 11
341.682608
 21
330.3689
 31
0.0
  0
LINE
  8
LC-006-005-----0
  6
CONTINUOUS
  5
337
 10
339.577289
 20
331.092007
 30
0.0
 11
341.634085
 21
333.148803
 31
0.0
  0
LINE
  8
LC-006-005-----0
  6
CONTINUOUS
  5
338
 10
338.077316
 20
332.420462
 30
0.0
 11
341.487824
 21
335.830969
 31
0.0
  0
ENDBLK
  8
0
  5
339
  0
BLOCK
  8
0
  5
33B
  2
BLK9
 70
    64
 10
0.0
 20
0.0
 30
0.0
  3
BLK9
  0
ENDBLK
  8
0
  5
33C
  0
BLOCK
  8
0
  5
33E
  2
*D37
 70
    65
 10
0.0
 20
0.0
 30
0.0
  3
*D37
  0
LINE
  8
LC-014-003-MTH-0
  6
CONTINUOUS
  5
340
 10
219.477793
 20
363.724788
 30
0.0
 11
140.0
 21
363.724788
 31
0.0
  0
LINE
  8
LC-014-003-MTH-0
  6
CONTINUOUS
  5
341
 10
270.334078
 20
404.454735
 30
0.0
 11
140.0
 21
404.454735
 31
0.0
  0
LINE
  8
LC-013-003-----0
  6
CONTINUOUS
  5
343
 10
160.454733
 20
335.964332
 30
0.0
 11
156.8
 21
363.724788
 31
0.0
  0
LINE
  8
LC-013-003-----0
  6
CONTINUOUS
  5
344
 10
156.8
 20
363.724788
 30
0.0
 11
153.145267
 21
335.964332
 31
0.0
  0
LINE
  8
LC-013-003-----0
  6
CONTINUOUS
  5
345
 10
153.145267
 20
335.964332
 30
0.0
 11
160.454733
 21
335.964332
 31
0.0
  0
LINE
  8
LC-013-003-----0
  6
CONTINUOUS
  5
346
 10
159.504503
 20
335.90205
 30
0.0
 11
156.8
 21
356.444788
 31
0.0
  0
LINE
  8
LC-013-003-----0
  6
CONTINUOUS
  5
347
 10
156.8
 20
356.444788
 30
0.0
 11
154.095497
 21
335.90205
 31
0.0
  0
LINE
  8
LC-013-003-----0
  6
CONTINUOUS
  5
348
 10
158.554272
 20
335.839769
 30
0.0
 11
156.8
 21
349.164788
 31
0.0
  0
LINE
  8
LC-013-003-----0
  6
CONTINUOUS
  5
349
 10
156.8
 20
349.164788
 30
0.0
 11
155.045728
 21
335.839769
 31
0.0
  0
LINE
  8
LC-013-003-----0
  6
CONTINUOUS
  5
34A
 10
157.604041
 20
335.777487
 30
0.0
 11
156.8
 21
341.884788
 31
0.0
  0
LINE
  8
LC-013-003-----0
  6
CONTINUOUS
  5
34B
 10
156.8
 20
341.884788
 30
0.0
 11
155.995959
 21
335.777487
 31
0.0
  0
LINE
  8
LC-013-003-----0
  6
CONTINUOUS
  5
34C
 10
153.145267
 20
432.215191
 30
0.0
 11
156.8
 21
404.454735
 31
0.0
  0
LINE
  8
LC-013-003-----0
  6
CONTINUOUS
  5
34D
 10
156.8
 20
404.454735
 30
0.0
 11
160.454733
 21
432.215191
 31
0.0
  0
LINE
  8
LC-013-003-----0
  6
CONTINUOUS
  5
34E
 10
160.454733
 20
432.215191
 30
0.0
 11
153.145267
 21
432.215191
 31
0.0
  0
LINE
  8
LC-013-003-----0
  6
CONTINUOUS
  5
34F
 10
154.095497
 20
432.277472
 30
0.0
 11
156.8
 21
411.734735
 31
0.0
  0
LINE
  8
LC-013-003-----0
  6
CONTINUOUS
  5
350
 10
156.8
 20
411.734735
 30
0.0
 11
159.504503
 21
432.277472
 31
0.0
  0
LINE
  8
LC-013-003-----0
  6
CONTINUOUS
  5
351
 10
155.045728
 20
432.339754
 30
0.0
 11
156.8
 21
419.014735
 31
0.0
  0
LINE
  8
LC-013-003-----0
  6
CONTINUOUS
  5
352
 10
156.8
 20
419.014735
 30
0.0
 11
158.554272
 21
432.339754
 31
0.0
  0
LINE
  8
LC-013-003-----0
  6
CONTINUOUS
  5
353
 10
155.995959
 20
432.402035
 30
0.0
 11
156.8
 21
426.294735
 31
0.0
  0
LINE
  8
LC-013-003-----0
  6
CONTINUOUS
  5
354
 10
156.8
 20
426.294735
 30
0.0
 11
157.604041
 21
432.402035
 31
0.0
  0
LINE
  8
LC-015-003-MTG-0
  6
CONTINUOUS
  5
356
 10
156.8
 20
324.524788
 30
0.0
 11
156.8
 21
487.819135
 31
0.0
  0
TEXT
  8
LC-013-003-----0
  6
CONTINUOUS
 62
     8
  5
358
 10
148.972446
 20
446.882895
 30
0.0
 40
28.0
  1
40
 50
90.0
 41
0.9
 51
15.0
  7
LC-TXTSTYLE-150-400-0-0-D0
  0
ENDBLK
  8
0
  5
359
  0
BLOCK
  8
0
  5
35B
  2
*D38
 70
    65
 10
0.0
 20
0.0
 30
0.0
  3
*D38
  0
LINE
  8
LC-014-003-MTH-0
  6
CONTINUOUS
  5
35C
 10
297.477793
 20
293.126667
 30
0.0
 11
147.76607
 21
293.126667
 31
0.0
  0
LINE
  8
LC-014-003-MTH-0
  6
CONTINUOUS
  5
35D
 10
120.76607
 20
293.126667
 30
0.0
 11
61.6
 21
293.126667
 31
0.0
  0
LINE
  8
LC-014-003-MTH-0
  6
CONTINUOUS
  5
35E
 10
270.334078
 20
404.454735
 30
0.0
 11
61.6
 21
404.454735
 31
0.0
  0
LINE
  8
LC-015-003-MTG-0
  6
CONTINUOUS
  5
35F
 10
78.4
 20
293.126667
 30
0.0
 11
78.4
 21
404.454735
 31
0.0
  0
LINE
  8
LC-013-003-----0
  6
CONTINUOUS
  5
360
 10
74.745267
 20
320.887123
 30
0.0
 11
78.4
 21
293.126667
 31
0.0
  0
LINE
  8
LC-013-003-----0
  6
CONTINUOUS
  5
361
 10
78.4
 20
293.126667
 30
0.0
 11
82.054733
 21
320.887123
 31
0.0
  0
LINE
  8
LC-013-003-----0
  6
CONTINUOUS
  5
362
 10
82.054733
 20
320.887123
 30
0.0
 11
74.745267
 21
320.887123
 31
0.0
  0
LINE
  8
LC-013-003-----0
  6
CONTINUOUS
  5
363
 10
75.695497
 20
320.949404
 30
0.0
 11
78.4
 21
300.406667
 31
0.0
  0
LINE
  8
LC-013-003-----0
  6
CONTINUOUS
  5
364
 10
78.4
 20
300.406667
 30
0.0
 11
81.104503
 21
320.949404
 31
0.0
  0
LINE
  8
LC-013-003-----0
  6
CONTINUOUS
  5
365
 10
76.645728
 20
321.011686
 30
0.0
 11
78.4
 21
307.686667
 31
0.0
  0
LINE
  8
LC-013-003-----0
  6
CONTINUOUS
  5
366
 10
78.4
 20
307.686667
 30
0.0
 11
80.154272
 21
321.011686
 31
0.0
  0
LINE
  8
LC-013-003-----0
  6
CONTINUOUS
  5
367
 10
77.595959
 20
321.073967
 30
0.0
 11
78.4
 21
314.966667
 31
0.0
  0
LINE
  8
LC-013-003-----0
  6
CONTINUOUS
  5
368
 10
78.4
 20
314.966667
 30
0.0
 11
79.204041
 21
321.073967
 31
0.0
  0
LINE
  8
LC-013-003-----0
  6
CONTINUOUS
  5
369
 10
82.054733
 20
376.694279
 30
0.0
 11
78.4
 21
404.454735
 31
0.0
  0
LINE
  8
LC-013-003-----0
  6
CONTINUOUS
  5
36A
 10
78.4
 20
404.454735
 30
0.0
 11
74.745267
 21
376.694279
 31
0.0
  0
LINE
  8
LC-013-003-----0
  6
CONTINUOUS
  5
36B
 10
74.745267
 20
376.694279
 30
0.0
 11
82.054733
 21
376.694279
 31
0.0
  0
LINE
  8
LC-013-003-----0
  6
CONTINUOUS
  5
36C
 10
81.104503
 20
376.631997
 30
0.0
 11
78.4
 21
397.174735
 31
0.0
  0
LINE
  8
LC-013-003-----0
  6
CONTINUOUS
  5
36D
 10
78.4
 20
397.174735
 30
0.0
 11
75.695497
 21
376.631997
 31
0.0
  0
LINE
  8
LC-013-003-----0
  6
CONTINUOUS
  5
36E
 10
80.154272
 20
376.569716
 30
0.0
 11
78.4
 21
389.894735
 31
0.0
  0
LINE
  8
LC-013-003-----0
  6
CONTINUOUS
  5
36F
 10
78.4
 20
389.894735
 30
0.0
 11
76.645728
 21
376.569716
 31
0.0
  0
LINE
  8
LC-013-003-----0
  6
CONTINUOUS
  5
370
 10
79.204041
 20
376.507434
 30
0.0
 11
78.4
 21
382.614735
 31
0.0
  0
LINE
  8
LC-013-003-----0
  6
CONTINUOUS
  5
371
 10
78.4
 20
382.614735
 30
0.0
 11
77.595959
 21
376.507434
 31
0.0
  0
TEXT
  8
LC-013-003-----0
  6
CONTINUOUS
 62
     8
  5
372
 10
70.572446
 20
323.375081
 30
0.0
 40
28.0
  1
110
 50
90.0
 51
15.0
  7
LC-TXTSTYLE-150-400-0-0-D0
 72
     1
 11
70.572446
 21
353.138861
 31
0.0
  0
ENDBLK
  8
0
  5
373
  0
BLOCK
  8
0
  5
375
  2
*D39
 70
    65
 10
0.0
 20
0.0
 30
0.0
  3
*D39
  0
LINE
  8
LC-014-003-MTH-0
  6
CONTINUOUS
  5
376
 10
270.334078
 20
407.461933
 30
0.0
 11
270.334078
 21
487.2
 31
0.0
  0
LINE
  8
LC-014-003-MTH-0
  6
CONTINUOUS
  5
377
 10
572.334078
 20
407.461933
 30
0.0
 11
572.334078
 21
487.2
 31
0.0
  0
LINE
  8
LC-015-003-MTG-0
  6
CONTINUOUS
  5
378
 10
270.334078
 20
470.4
 30
0.0
 11
572.334078
 21
470.4
 31
0.0
  0
LINE
  8
LC-013-003-----0
  6
CONTINUOUS
  5
379
 10
298.094534
 20
474.054733
 30
0.0
 11
270.334078
 21
470.4
 31
0.0
  0
LINE
  8
LC-013-003-----0
  6
CONTINUOUS
  5
37A
 10
270.334078
 20
470.4
 30
0.0
 11
298.094534
 21
466.745267
 31
0.0
  0
LINE
  8
LC-013-003-----0
  6
CONTINUOUS
  5
37B
 10
298.094534
 20
466.745267
 30
0.0
 11
298.094534
 21
474.054733
 31
0.0
  0
LINE
  8
LC-013-003-----0
  6
CONTINUOUS
  5
37C
 10
298.156815
 20
473.104503
 30
0.0
 11
277.614078
 21
470.4
 31
0.0
  0
LINE
  8
LC-013-003-----0
  6
CONTINUOUS
  5
37D
 10
277.614078
 20
470.4
 30
0.0
 11
298.156815
 21
467.695497
 31
0.0
  0
LINE
  8
LC-013-003-----0
  6
CONTINUOUS
  5
37E
 10
298.219097
 20
472.154272
 30
0.0
 11
284.894078
 21
470.4
 31
0.0
  0
LINE
  8
LC-013-003-----0
  6
CONTINUOUS
  5
37F
 10
284.894078
 20
470.4
 30
0.0
 11
298.219097
 21
468.645728
 31
0.0
  0
LINE
  8
LC-013-003-----0
  6
CONTINUOUS
  5
380
 10
298.281378
 20
471.204041
 30
0.0
 11
292.174078
 21
470.4
 31
0.0
  0
LINE
  8
LC-013-003-----0
  6
CONTINUOUS
  5
381
 10
292.174078
 20
470.4
 30
0.0
 11
298.281378
 21
469.595959
 31
0.0
  0
LINE
  8
LC-013-003-----0
  6
CONTINUOUS
  5
382
 10
544.573621
 20
466.745267
 30
0.0
 11
572.334078
 21
470.4
 31
0.0
  0
LINE
  8
LC-013-003-----0
  6
CONTINUOUS
  5
383
 10
572.334078
 20
470.4
 30
0.0
 11
544.573621
 21
474.054733
 31
0.0
  0
LINE
  8
LC-013-003-----0
  6
CONTINUOUS
  5
384
 10
544.573621
 20
474.054733
 30
0.0
 11
544.573621
 21
466.745267
 31
0.0
  0
LINE
  8
LC-013-003-----0
  6
CONTINUOUS
  5
385
 10
544.51134
 20
467.695497
 30
0.0
 11
565.054078
 21
470.4
 31
0.0
  0
LINE
  8
LC-013-003-----0
  6
CONTINUOUS
  5
386
 10
565.054078
 20
470.4
 30
0.0
 11
544.51134
 21
473.104503
 31
0.0
  0
LINE
  8
LC-013-003-----0
  6
CONTINUOUS
  5
387
 10
544.449059
 20
468.645728
 30
0.0
 11
557.774078
 21
470.4
 31
0.0
  0
LINE
  8
LC-013-003-----0
  6
CONTINUOUS
  5
388
 10
557.774078
 20
470.4
 30
0.0
 11
544.449059
 21
472.154272
 31
0.0
  0
LINE
  8
LC-013-003-----0
  6
CONTINUOUS
  5
389
 10
544.386777
 20
469.595959
 30
0.0
 11
550.494078
 21
470.4
 31
0.0
  0
LINE
  8
LC-013-003-----0
  6
CONTINUOUS
  5
38A
 10
550.494078
 20
470.4
 30
0.0
 11
544.386777
 21
471.204041
 31
0.0
  0
TEXT
  8
LC-013-003-----0
  6
CONTINUOUS
 62
     8
  5
38B
 10
387.5846
 20
478.227554
 30
0.0
 40
28.0
  1
Ø300
 51
15.0
  7
LC-TXTSTYLE-150-400-0-0-D0
 72
     1
 11
425.682238
 21
478.227554
 31
0.0
  0
ENDBLK
  8
0
  5
38C
  0
BLOCK
  8
0
  5
38E
  2
*D40
 70
    65
 10
0.0
 20
0.0
 30
0.0
  3
*D40
  0
LINE
  8
LC-014-003-MTH-0
  6
CONTINUOUS
  5
38F
 10
219.477793
 20
332.724788
 30
0.0
 11
219.477793
 21
218.4
 31
0.0
  0
LINE
  8
LC-014-003-MTH-0
  6
CONTINUOUS
  5
390
 10
421.334078
 20
292.771462
 30
0.0
 11
421.334078
 21
218.4
 31
0.0
  0
LINE
  8
LC-015-003-MTG-0
  6
CONTINUOUS
  5
391
 10
219.477793
 20
235.2
 30
0.0
 11
421.334078
 21
235.2
 31
0.0
  0
LINE
  8
LC-013-003-----0
  6
CONTINUOUS
  5
392
 10
247.238249
 20
238.854733
 30
0.0
 11
219.477793
 21
235.2
 31
0.0
  0
LINE
  8
LC-013-003-----0
  6
CONTINUOUS
  5
393
 10
219.477793
 20
235.2
 30
0.0
 11
247.238249
 21
231.545267
 31
0.0
  0
LINE
  8
LC-013-003-----0
  6
CONTINUOUS
  5
394
 10
247.238249
 20
231.545267
 30
0.0
 11
247.238249
 21
238.854733
 31
0.0
  0
LINE
  8
LC-013-003-----0
  6
CONTINUOUS
  5
395
 10
247.30053
 20
237.904503
 30
0.0
 11
226.757793
 21
235.2
 31
0.0
  0
LINE
  8
LC-013-003-----0
  6
CONTINUOUS
  5
396
 10
226.757793
 20
235.2
 30
0.0
 11
247.30053
 21
232.495497
 31
0.0
  0
LINE
  8
LC-013-003-----0
  6
CONTINUOUS
  5
397
 10
247.362812
 20
236.954272
 30
0.0
 11
234.037793
 21
235.2
 31
0.0
  0
LINE
  8
LC-013-003-----0
  6
CONTINUOUS
  5
398
 10
234.037793
 20
235.2
 30
0.0
 11
247.362812
 21
233.445728
 31
0.0
  0
LINE
  8
LC-013-003-----0
  6
CONTINUOUS
  5
399
 10
247.425093
 20
236.004041
 30
0.0
 11
241.317793
 21
235.2
 31
0.0
  0
LINE
  8
LC-013-003-----0
  6
CONTINUOUS
  5
39A
 10
241.317793
 20
235.2
 30
0.0
 11
247.425093
 21
234.395959
 31
0.0
  0
LINE
  8
LC-013-003-----0
  6
CONTINUOUS
  5
39B
 10
393.573621
 20
231.545267
 30
0.0
 11
421.334078
 21
235.2
 31
0.0
  0
LINE
  8
LC-013-003-----0
  6
CONTINUOUS
  5
39C
 10
421.334078
 20
235.2
 30
0.0
 11
393.573621
 21
238.854733
 31
0.0
  0
LINE
  8
LC-013-003-----0
  6
CONTINUOUS
  5
39D
 10
393.573621
 20
238.854733
 30
0.0
 11
393.573621
 21
231.545267
 31
0.0
  0
LINE
  8
LC-013-003-----0
  6
CONTINUOUS
  5
39E
 10
393.51134
 20
232.495497
 30
0.0
 11
414.054078
 21
235.2
 31
0.0
  0
LINE
  8
LC-013-003-----0
  6
CONTINUOUS
  5
39F
 10
414.054078
 20
235.2
 30
0.0
 11
393.51134
 21
237.904503
 31
0.0
  0
LINE
  8
LC-013-003-----0
  6
CONTINUOUS
  5
3A0
 10
393.449059
 20
233.445728
 30
0.0
 11
406.774078
 21
235.2
 31
0.0
  0
LINE
  8
LC-013-003-----0
  6
CONTINUOUS
  5
3A1
 10
406.774078
 20
235.2
 30
0.0
 11
393.449059
 21
236.954272
 31
0.0
  0
LINE
  8
LC-013-003-----0
  6
CONTINUOUS
  5
3A2
 10
393.386777
 20
234.395959
 30
0.0
 11
399.494078
 21
235.2
 31
0.0
  0
LINE
  8
LC-013-003-----0
  6
CONTINUOUS
  5
3A3
 10
399.494078
 20
235.2
 30
0.0
 11
393.386777
 21
236.004041
 31
0.0
  0
TEXT
  8
LC-013-003-----0
  6
CONTINUOUS
 62
     8
  5
3A4
 10
294.990316
 20
243.027554
 30
0.0
 40
28.0
  1
200
 51
15.0
  7
LC-TXTSTYLE-150-400-0-0-D0
 72
     1
 11
324.754095
 21
243.027554
 31
0.0
  0
ENDBLK
  8
0
  5
3A5
  0
BLOCK
  8
0
  5
3A7
  2
*D41
 70
    65
 10
0.0
 20
0.0
 30
0.0
  3
*D41
  0
LINE
  8
LC-014-003-MTH-0
  6
CONTINUOUS
  5
3A8
 10
219.477793
 20
332.724788
 30
0.0
 11
219.477793
 21
179.2
 31
0.0
  0
LINE
  8
LC-014-003-MTH-0
  6
CONTINUOUS
  5
3A9
 10
656.03235
 20
316.628263
 30
0.0
 11
656.03235
 21
179.2
 31
0.0
  0
LINE
  8
LC-015-003-MTG-0
  6
CONTINUOUS
  5
3AA
 10
219.477793
 20
196.0
 30
0.0
 11
656.03235
 21
196.0
 31
0.0
  0
LINE
  8
LC-013-003-----0
  6
CONTINUOUS
  5
3AB
 10
247.238249
 20
199.654733
 30
0.0
 11
219.477793
 21
196.0
 31
0.0
  0
LINE
  8
LC-013-003-----0
  6
CONTINUOUS
  5
3AC
 10
219.477793
 20
196.0
 30
0.0
 11
247.238249
 21
192.345267
 31
0.0
  0
LINE
  8
LC-013-003-----0
  6
CONTINUOUS
  5
3AD
 10
247.238249
 20
192.345267
 30
0.0
 11
247.238249
 21
199.654733
 31
0.0
  0
LINE
  8
LC-013-003-----0
  6
CONTINUOUS
  5
3AE
 10
247.30053
 20
198.704503
 30
0.0
 11
226.757793
 21
196.0
 31
0.0
  0
LINE
  8
LC-013-003-----0
  6
CONTINUOUS
  5
3AF
 10
226.757793
 20
196.0
 30
0.0
 11
247.30053
 21
193.295497
 31
0.0
  0
LINE
  8
LC-013-003-----0
  6
CONTINUOUS
  5
3B0
 10
247.362812
 20
197.754272
 30
0.0
 11
234.037793
 21
196.0
 31
0.0
  0
LINE
  8
LC-013-003-----0
  6
CONTINUOUS
  5
3B1
 10
234.037793
 20
196.0
 30
0.0
 11
247.362812
 21
194.245728
 31
0.0
  0
LINE
  8
LC-013-003-----0
  6
CONTINUOUS
  5
3B2
 10
247.425093
 20
196.804041
 30
0.0
 11
241.317793
 21
196.0
 31
0.0
  0
LINE
  8
LC-013-003-----0
  6
CONTINUOUS
  5
3B3
 10
241.317793
 20
196.0
 30
0.0
 11
247.425093
 21
195.195959
 31
0.0
  0
LINE
  8
LC-013-003-----0
  6
CONTINUOUS
  5
3B4
 10
628.271894
 20
192.345267
 30
0.0
 11
656.03235
 21
196.0
 31
0.0
  0
LINE
  8
LC-013-003-----0
  6
CONTINUOUS
  5
3B5
 10
656.03235
 20
196.0
 30
0.0
 11
628.271894
 21
199.654733
 31
0.0
  0
LINE
  8
LC-013-003-----0
  6
CONTINUOUS
  5
3B6
 10
628.271894
 20
199.654733
 30
0.0
 11
628.271894
 21
192.345267
 31
0.0
  0
LINE
  8
LC-013-003-----0
  6
CONTINUOUS
  5
3B7
 10
628.209612
 20
193.295497
 30
0.0
 11
648.75235
 21
196.0
 31
0.0
  0
LINE
  8
LC-013-003-----0
  6
CONTINUOUS
  5
3B8
 10
648.75235
 20
196.0
 30
0.0
 11
628.209612
 21
198.704503
 31
0.0
  0
LINE
  8
LC-013-003-----0
  6
CONTINUOUS
  5
3B9
 10
628.147331
 20
194.245728
 30
0.0
 11
641.47235
 21
196.0
 31
0.0
  0
LINE
  8
LC-013-003-----0
  6
CONTINUOUS
  5
3BA
 10
641.47235
 20
196.0
 30
0.0
 11
628.147331
 21
197.754272
 31
0.0
  0
LINE
  8
LC-013-003-----0
  6
CONTINUOUS
  5
3BB
 10
628.085049
 20
195.195959
 30
0.0
 11
634.19235
 21
196.0
 31
0.0
  0
LINE
  8
LC-013-003-----0
  6
CONTINUOUS
  5
3BC
 10
634.19235
 20
196.0
 30
0.0
 11
628.085049
 21
196.804041
 31
0.0
  0
TEXT
  8
LC-013-003-----0
  6
CONTINUOUS
 62
     8
  5
3BD
 10
412.339452
 20
203.827554
 30
0.0
 40
28.0
  1
435
 51
15.0
  7
LC-TXTSTYLE-150-400-0-0-D0
 72
     1
 11
442.103231
 21
203.827554
 31
0.0
  0
ENDBLK
  8
0
  5
3BE
  0
BLOCK
  8
0
  5
3C0
  2
BLK10
 70
    64
 10
0.0
 20
0.0
 30
0.0
  3
BLK10
  0
ENDBLK
  8
0
  5
3C1
  0
BLOCK
  8
0
  5
3C3
  2
*D43
 70
    65
 10
0.0
 20
0.0
 30
0.0
  3
*D43
  0
LINE
  8
LC-014-003-MTH-0
  6
CONTINUOUS
  5
3C4
 10
409.195384
 20
311.742768
 30
0.0
 11
487.2
 21
311.742768
 31
0.0
  0
LINE
  8
LC-014-003-MTH-0
  6
CONTINUOUS
  5
3C5
 10
463.834078
 20
361.767914
 30
0.0
 11
487.2
 21
361.767914
 31
0.0
  0
LINE
  8
LC-013-003-----0
  6
CONTINUOUS
  5
3C6
 10
474.054733
 20
283.982312
 30
0.0
 11
470.4
 21
311.742768
 31
0.0
  0
LINE
  8
LC-013-003-----0
  6
CONTINUOUS
  5
3C7
 10
470.4
 20
311.742768
 30
0.0
 11
466.745267
 21
283.982312
 31
0.0
  0
LINE
  8
LC-013-003-----0
  6
CONTINUOUS
  5
3C8
 10
466.745267
 20
283.982312
 30
0.0
 11
474.054733
 21
283.982312
 31
0.0
  0
LINE
  8
LC-013-003-----0
  6
CONTINUOUS
  5
3C9
 10
473.104503
 20
283.92003
 30
0.0
 11
470.4
 21
304.462768
 31
0.0
  0
LINE
  8
LC-013-003-----0
  6
CONTINUOUS
  5
3CA
 10
470.4
 20
304.462768
 30
0.0
 11
467.695497
 21
283.92003
 31
0.0
  0
LINE
  8
LC-013-003-----0
  6
CONTINUOUS
  5
3CB
 10
472.154272
 20
283.857749
 30
0.0
 11
470.4
 21
297.182768
 31
0.0
  0
LINE
  8
LC-013-003-----0
  6
CONTINUOUS
  5
3CC
 10
470.4
 20
297.182768
 30
0.0
 11
468.645728
 21
283.857749
 31
0.0
  0
LINE
  8
LC-013-003-----0
  6
CONTINUOUS
  5
3CD
 10
471.204041
 20
283.795467
 30
0.0
 11
470.4
 21
289.902768
 31
0.0
  0
LINE
  8
LC-013-003-----0
  6
CONTINUOUS
  5
3CE
 10
470.4
 20
289.902768
 30
0.0
 11
469.595959
 21
283.795467
 31
0.0
  0
LINE
  8
LC-013-003-----0
  6
CONTINUOUS
  5
3CF
 10
466.745267
 20
389.52837
 30
0.0
 11
470.4
 21
361.767914
 31
0.0
  0
LINE
  8
LC-013-003-----0
  6
CONTINUOUS
  5
3D0
 10
470.4
 20
361.767914
 30
0.0
 11
474.054733
 21
389.52837
 31
0.0
  0
LINE
  8
LC-013-003-----0
  6
CONTINUOUS
  5
3D1
 10
474.054733
 20
389.52837
 30
0.0
 11
466.745267
 21
389.52837
 31
0.0
  0
LINE
  8
LC-013-003-----0
  6
CONTINUOUS
  5
3D2
 10
467.695497
 20
389.590651
 30
0.0
 11
470.4
 21
369.047914
 31
0.0
  0
LINE
  8
LC-013-003-----0
  6
CONTINUOUS
  5
3D3
 10
470.4
 20
369.047914
 30
0.0
 11
473.104503
 21
389.590651
 31
0.0
  0
LINE
  8
LC-013-003-----0
  6
CONTINUOUS
  5
3D4
 10
468.645728
 20
389.652933
 30
0.0
 11
470.4
 21
376.327914
 31
0.0
  0
LINE
  8
LC-013-003-----0
  6
CONTINUOUS
  5
3D5
 10
470.4
 20
376.327914
 30
0.0
 11
472.154272
 21
389.652933
 31
0.0
  0
LINE
  8
LC-013-003-----0
  6
CONTINUOUS
  5
3D6
 10
469.595959
 20
389.715214
 30
0.0
 11
470.4
 21
383.607914
 31
0.0
  0
LINE
  8
LC-013-003-----0
  6
CONTINUOUS
  5
3D7
 10
470.4
 20
383.607914
 30
0.0
 11
471.204041
 21
389.715214
 31
0.0
  0
LINE
  8
LC-015-003-MTG-0
  6
CONTINUOUS
  5
3D8
 10
470.4
 20
272.542768
 30
0.0
 11
470.4
 21
400.967914
 31
0.0
  0
TEXT
  8
LC-013-003-----0
  6
CONTINUOUS
 62
     8
  5
3D9
 10
462.572446
 20
324.700351
 30
0.0
 40
28.0
  1
50
 50
90.0
 51
15.0
  7
LC-TXTSTYLE-150-400-0-0-D0
 72
     1
 11
462.572446
 21
341.103501
 31
0.0
  0
ENDBLK
  8
0
  5
3DA
  0
BLOCK
  8
0
  5
3DC
  2
*D44
 70
    65
 10
0.0
 20
0.0
 30
0.0
  3
*D44
  0
LINE
  8
LC-014-003-MTH-0
  6
CONTINUOUS
  5
3DD
 10
642.559525
 20
281.311912
 30
0.0
 11
776.107251
 21
245.527906
 31
0.0
  0
LINE
  8
LC-014-003-MTH-0
  6
CONTINUOUS
  5
3DE
 10
662.022717
 20
353.949534
 30
0.0
 11
795.570443
 21
318.165528
 31
0.0
  0
LINE
  8
LC-013-003-----0
  6
CONTINUOUS
  5
3DF
 10
756.224964
 20
222.11561
 30
0.0
 11
759.879697
 21
249.876066
 31
0.0
  0
LINE
  8
LC-013-003-----0
  6
CONTINUOUS
  5
3E0
 10
759.879697
 20
249.876066
 30
0.0
 11
749.164561
 21
224.007439
 31
0.0
  0
LINE
  8
LC-013-003-----0
  6
CONTINUOUS
  5
3E1
 10
749.164561
 20
224.007439
 30
0.0
 11
756.224964
 21
222.11561
 31
0.0
  0
LINE
  8
LC-013-003-----0
  6
CONTINUOUS
  5
3E2
 10
755.290992
 20
222.301389
 30
0.0
 11
757.995495
 21
242.844126
 31
0.0
  0
LINE
  8
LC-013-003-----0
  6
CONTINUOUS
  5
3E3
 10
757.995495
 20
242.844126
 30
0.0
 11
750.066294
 21
223.701342
 31
0.0
  0
LINE
  8
LC-013-003-----0
  6
CONTINUOUS
  5
3E4
 10
754.35702
 20
222.487167
 30
0.0
 11
756.111292
 21
235.812186
 31
0.0
  0
LINE
  8
LC-013-003-----0
  6
CONTINUOUS
  5
3E5
 10
756.111292
 20
235.812186
 30
0.0
 11
750.968027
 21
223.395245
 31
0.0
  0
LINE
  8
LC-013-003-----0
  6
CONTINUOUS
  5
3E6
 10
753.423048
 20
222.672946
 30
0.0
 11
754.227089
 21
228.780246
 31
0.0
  0
LINE
  8
LC-013-003-----0
  6
CONTINUOUS
  5
3E7
 10
754.227089
 20
228.780246
 30
0.0
 11
751.869759
 21
223.089148
 31
0.0
  0
LINE
  8
LC-013-003-----0
  6
CONTINUOUS
  5
3E8
 10
782.997623
 20
350.274144
 30
0.0
 11
779.34289
 21
322.513688
 31
0.0
  0
LINE
  8
LC-013-003-----0
  6
CONTINUOUS
  5
3E9
 10
779.34289
 20
322.513688
 30
0.0
 11
790.058026
 21
348.382315
 31
0.0
  0
LINE
  8
LC-013-003-----0
  6
CONTINUOUS
  5
3EA
 10
790.058026
 20
348.382315
 30
0.0
 11
782.997623
 21
350.274144
 31
0.0
  0
LINE
  8
LC-013-003-----0
  6
CONTINUOUS
  5
3EB
 10
783.931595
 20
350.088366
 30
0.0
 11
781.227092
 21
329.545628
 31
0.0
  0
LINE
  8
LC-013-003-----0
  6
CONTINUOUS
  5
3EC
 10
781.227092
 20
329.545628
 30
0.0
 11
789.156293
 21
348.688412
 31
0.0
  0
LINE
  8
LC-013-003-----0
  6
CONTINUOUS
  5
3ED
 10
784.865567
 20
349.902587
 30
0.0
 11
783.111295
 21
336.577568
 31
0.0
  0
LINE
  8
LC-013-003-----0
  6
CONTINUOUS
  5
3EE
 10
783.111295
 20
336.577568
 30
0.0
 11
788.25456
 21
348.994509
 31
0.0
  0
LINE
  8
LC-013-003-----0
  6
CONTINUOUS
  5
3EF
 10
785.799539
 20
349.716809
 30
0.0
 11
784.995498
 21
343.609508
 31
0.0
  0
LINE
  8
LC-013-003-----0
  6
CONTINUOUS
  5
3F0
 10
784.995498
 20
343.609508
 30
0.0
 11
787.352827
 21
349.300606
 31
0.0
  0
LINE
  8
LC-015-003-MTG-0
  6
CONTINUOUS
  5
3F1
 10
749.733991
 20
212.011774
 30
0.0
 11
812.722808
 21
447.089239
 31
0.0
  0
TEXT
  8
LC-013-003-----0
  6
CONTINUOUS
 62
     8
  5
3F2
 10
782.763269
 20
365.522064
 30
0.0
 40
28.0
  1
DN70
 50
75.0
 51
15.0
  7
LC-TXTSTYLE-150-400-0-0-D0
  0
ENDBLK
  8
0
  5
3F3
  0
BLOCK
  8
0
  5
3F5
  2
*D45
 70
    65
 10
0.0
 20
0.0
 30
0.0
  3
*D45
  0
LINE
  8
LC-014-003-MTH-0
  6
CONTINUOUS
  5
3F6
 10
645.987948
 20
293.385984
 30
0.0
 11
738.675716
 21
268.550372
 31
0.0
  0
LINE
  8
LC-014-003-MTH-0
  6
CONTINUOUS
  5
3F7
 10
658.954782
 20
341.778868
 30
0.0
 11
751.64255
 21
316.943256
 31
0.0
  0
LINE
  8
LC-013-003-----0
  6
CONTINUOUS
  5
3F8
 10
718.793428
 20
245.138076
 30
0.0
 11
722.448162
 21
272.898532
 31
0.0
  0
LINE
  8
LC-013-003-----0
  6
CONTINUOUS
  5
3F9
 10
722.448162
 20
272.898532
 30
0.0
 11
711.733026
 21
247.029905
 31
0.0
  0
LINE
  8
LC-013-003-----0
  6
CONTINUOUS
  5
3FA
 10
711.733026
 20
247.029905
 30
0.0
 11
718.793428
 21
245.138076
 31
0.0
  0
LINE
  8
LC-013-003-----0
  6
CONTINUOUS
  5
3FB
 10
717.859456
 20
245.323854
 30
0.0
 11
720.563959
 21
265.866592
 31
0.0
  0
LINE
  8
LC-013-003-----0
  6
CONTINUOUS
  5
3FC
 10
720.563959
 20
265.866592
 30
0.0
 11
712.634758
 21
246.723808
 31
0.0
  0
LINE
  8
LC-013-003-----0
  6
CONTINUOUS
  5
3FD
 10
716.925484
 20
245.509633
 30
0.0
 11
718.679756
 21
258.834652
 31
0.0
  0
LINE
  8
LC-013-003-----0
  6
CONTINUOUS
  5
3FE
 10
718.679756
 20
258.834652
 30
0.0
 11
713.536491
 21
246.417711
 31
0.0
  0
LINE
  8
LC-013-003-----0
  6
CONTINUOUS
  5
3FF
 10
715.991512
 20
245.695412
 30
0.0
 11
716.795554
 21
251.802712
 31
0.0
  0
LINE
  8
LC-013-003-----0
  6
CONTINUOUS
  5
400
 10
716.795554
 20
251.802712
 30
0.0
 11
714.438224
 21
246.111614
 31
0.0
  0
LINE
  8
LC-013-003-----0
  6
CONTINUOUS
  5
401
 10
739.069729
 20
349.051872
 30
0.0
 11
735.414996
 21
321.291416
 31
0.0
  0
LINE
  8
LC-013-003-----0
  6
CONTINUOUS
  5
402
 10
735.414996
 20
321.291416
 30
0.0
 11
746.130132
 21
347.160043
 31
0.0
  0
LINE
  8
LC-013-003-----0
  6
CONTINUOUS
  5
403
 10
746.130132
 20
347.160043
 30
0.0
 11
739.069729
 21
349.051872
 31
0.0
  0
LINE
  8
LC-013-003-----0
  6
CONTINUOUS
  5
404
 10
740.003701
 20
348.866093
 30
0.0
 11
737.299198
 21
328.323356
 31
0.0
  0
LINE
  8
LC-013-003-----0
  6
CONTINUOUS
  5
405
 10
737.299198
 20
328.323356
 30
0.0
 11
745.228399
 21
347.46614
 31
0.0
  0
LINE
  8
LC-013-003-----0
  6
CONTINUOUS
  5
406
 10
740.937673
 20
348.680315
 30
0.0
 11
739.183401
 21
335.355296
 31
0.0
  0
LINE
  8
LC-013-003-----0
  6
CONTINUOUS
  5
407
 10
739.183401
 20
335.355296
 30
0.0
 11
744.326666
 21
347.772237
 31
0.0
  0
LINE
  8
LC-013-003-----0
  6
CONTINUOUS
  5
408
 10
741.871645
 20
348.494536
 30
0.0
 11
741.067604
 21
342.387236
 31
0.0
  0
LINE
  8
LC-013-003-----0
  6
CONTINUOUS
  5
409
 10
741.067604
 20
342.387236
 30
0.0
 11
743.424934
 21
348.078334
 31
0.0
  0
LINE
  8
LC-015-003-MTG-0
  6
CONTINUOUS
  5
40A
 10
712.302455
 20
235.03424
 30
0.0
 11
772.731584
 21
460.558818
 31
0.0
  0
TEXT
  8
LC-013-003-----0
  6
CONTINUOUS
 62
     8
  5
40B
 10
742.772045
 20
378.991643
 30
0.0
 40
28.0
  1
DN50
 50
75.0
 51
15.0
  7
LC-TXTSTYLE-150-400-0-0-D0
  0
ENDBLK
  8
0
  5
40C
  0
BLOCK
  8
0
  5
40E
  2
*D46
 70
    65
 10
0.0
 20
0.0
 30
0.0
  3
*D46
  0
TEXT
  8
LC-013-003-----0
  6
CONTINUOUS
 62
     8
  5
40F
 10
777.19292
 20
184.812723
 30
0.0
 40
28.0
  1
 55Ý
 50
62.5
 51
15.0
  7
LC-TXTSTYLE-150-400-0-0-D0
 72
     1
 11
793.593358
 21
216.317672
 31
0.0
  0
ARC
  8
LC-015-003-MTG-0
  6
CONTINUOUS
  5
410
 10
557.616584
 20
334.257368
 30
0.0
 40
280.0
 50
305.0
 51
360.0
  0
LINE
  8
LC-013-003-----0
  6
CONTINUOUS
  5
411
 10
737.891349
 20
124.818621
 30
0.0
 11
718.217987
 21
104.894796
 31
0.0
  0
LINE
  8
LC-013-003-----0
  6
CONTINUOUS
  5
412
 10
718.217987
 20
104.894796
 30
0.0
 11
742.377661
 21
119.047892
 31
0.0
  0
LINE
  8
LC-013-003-----0
  6
CONTINUOUS
  5
413
 10
742.377661
 20
119.047892
 30
0.0
 11
737.891349
 21
124.818621
 31
0.0
  0
LINE
  8
LC-013-003-----0
  6
CONTINUOUS
  5
414
 10
738.52374
 20
124.106652
 30
0.0
 11
723.965452
 21
109.363022
 31
0.0
  0
LINE
  8
LC-013-003-----0
  6
CONTINUOUS
  5
415
 10
723.965452
 20
109.363022
 30
0.0
 11
741.843611
 21
119.836313
 31
0.0
  0
LINE
  8
LC-013-003-----0
  6
CONTINUOUS
  5
416
 10
739.156131
 20
123.394684
 30
0.0
 11
729.712917
 21
113.831248
 31
0.0
  0
LINE
  8
LC-013-003-----0
  6
CONTINUOUS
  5
417
 10
729.712917
 20
113.831248
 30
0.0
 11
741.309561
 21
120.624734
 31
0.0
  0
LINE
  8
LC-013-003-----0
  6
CONTINUOUS
  5
418
 10
739.788522
 20
122.682715
 30
0.0
 11
735.460382
 21
118.299474
 31
0.0
  0
LINE
  8
LC-013-003-----0
  6
CONTINUOUS
  5
419
 10
735.460382
 20
118.299474
 30
0.0
 11
740.775511
 21
121.413155
 31
0.0
  0
LINE
  8
LC-013-003-----0
  6
CONTINUOUS
  5
41A
 10
839.880467
 20
306.349039
 30
0.0
 11
837.616584
 21
334.257368
 31
0.0
  0
LINE
  8
LC-013-003-----0
  6
CONTINUOUS
  5
41B
 10
837.616584
 20
334.257368
 30
0.0
 11
832.58012
 21
306.714056
 31
0.0
  0
LINE
  8
LC-013-003-----0
  6
CONTINUOUS
  5
41C
 10
832.58012
 20
306.714056
 30
0.0
 11
839.880467
 21
306.349039
 31
0.0
  0
LINE
  8
LC-013-003-----0
  6
CONTINUOUS
  5
41D
 10
838.928312
 20
306.334287
 30
0.0
 11
837.253039
 21
326.986451
 31
0.0
  0
LINE
  8
LC-013-003-----0
  6
CONTINUOUS
  5
41E
 10
837.253039
 20
326.986451
 30
0.0
 11
833.526055
 21
306.6044
 31
0.0
  0
LINE
  8
LC-013-003-----0
  6
CONTINUOUS
  5
41F
 10
837.976156
 20
306.319536
 30
0.0
 11
836.889493
 21
319.715534
 31
0.0
  0
LINE
  8
LC-013-003-----0
  6
CONTINUOUS
  5
420
 10
836.889493
 20
319.715534
 30
0.0
 11
834.47199
 21
306.494744
 31
0.0
  0
LINE
  8
LC-013-003-----0
  6
CONTINUOUS
  5
421
 10
837.024001
 20
306.304785
 30
0.0
 11
836.525947
 21
312.444617
 31
0.0
  0
LINE
  8
LC-013-003-----0
  6
CONTINUOUS
  5
422
 10
836.525947
 20
312.444617
 30
0.0
 11
835.417925
 21
306.385088
 31
0.0
  0
LINE
  8
LC-014-003-MTH-0
  6
CONTINUOUS
  5
423
 10
619.742592
 20
245.532234
 30
0.0
 11
720.512292
 21
101.618188
 31
0.0
  0
LINE
  8
LC-014-003-MTH-0
  6
CONTINUOUS
  5
424
 10
577.8309
 20
334.257368
 30
0.0
 11
841.616584
 21
334.257368
 31
0.0
  0
ENDBLK
  8
0
  5
425
  0
BLOCK
  8
0
  5
427
  2
*D47
 70
    65
 10
0.0
 20
0.0
 30
0.0
  3
*D47
  0
LINE
  8
LC-014-003-MTH-0
  6
CONTINUOUS
  5
428
 10
326.084078
 20
395.034736
 30
0.0
 11
326.084078
 21
448.0
 31
0.0
  0
LINE
  8
LC-014-003-MTH-0
  6
CONTINUOUS
  5
429
 10
516.584078
 20
395.034736
 30
0.0
 11
516.584078
 21
448.0
 31
0.0
  0
LINE
  8
LC-015-003-MTG-0
  6
CONTINUOUS
  5
42A
 10
326.084078
 20
431.2
 30
0.0
 11
516.584078
 21
431.2
 31
0.0
  0
LINE
  8
LC-013-003-----0
  6
CONTINUOUS
  5
42B
 10
353.844534
 20
434.854733
 30
0.0
 11
326.084078
 21
431.2
 31
0.0
  0
LINE
  8
LC-013-003-----0
  6
CONTINUOUS
  5
42C
 10
326.084078
 20
431.2
 30
0.0
 11
353.844534
 21
427.545267
 31
0.0
  0
LINE
  8
LC-013-003-----0
  6
CONTINUOUS
  5
42D
 10
353.844534
 20
427.545267
 30
0.0
 11
353.844534
 21
434.854733
 31
0.0
  0
LINE
  8
LC-013-003-----0
  6
CONTINUOUS
  5
42E
 10
353.906815
 20
433.904503
 30
0.0
 11
333.364078
 21
431.2
 31
0.0
  0
LINE
  8
LC-013-003-----0
  6
CONTINUOUS
  5
42F
 10
333.364078
 20
431.2
 30
0.0
 11
353.906815
 21
428.495497
 31
0.0
  0
LINE
  8
LC-013-003-----0
  6
CONTINUOUS
  5
430
 10
353.969097
 20
432.954272
 30
0.0
 11
340.644078
 21
431.2
 31
0.0
  0
LINE
  8
LC-013-003-----0
  6
CONTINUOUS
  5
431
 10
340.644078
 20
431.2
 30
0.0
 11
353.969097
 21
429.445728
 31
0.0
  0
LINE
  8
LC-013-003-----0
  6
CONTINUOUS
  5
432
 10
354.031378
 20
432.004041
 30
0.0
 11
347.924078
 21
431.2
 31
0.0
  0
LINE
  8
LC-013-003-----0
  6
CONTINUOUS
  5
433
 10
347.924078
 20
431.2
 30
0.0
 11
354.031378
 21
430.395959
 31
0.0
  0
LINE
  8
LC-013-003-----0
  6
CONTINUOUS
  5
434
 10
488.823621
 20
427.545267
 30
0.0
 11
516.584078
 21
431.2
 31
0.0
  0
LINE
  8
LC-013-003-----0
  6
CONTINUOUS
  5
435
 10
516.584078
 20
431.2
 30
0.0
 11
488.823621
 21
434.854733
 31
0.0
  0
LINE
  8
LC-013-003-----0
  6
CONTINUOUS
  5
436
 10
488.823621
 20
434.854733
 30
0.0
 11
488.823621
 21
427.545267
 31
0.0
  0
LINE
  8
LC-013-003-----0
  6
CONTINUOUS
  5
437
 10
488.76134
 20
428.495497
 30
0.0
 11
509.304078
 21
431.2
 31
0.0
  0
LINE
  8
LC-013-003-----0
  6
CONTINUOUS
  5
438
 10
509.304078
 20
431.2
 30
0.0
 11
488.76134
 21
433.904503
 31
0.0
  0
LINE
  8
LC-013-003-----0
  6
CONTINUOUS
  5
439
 10
488.699059
 20
429.445728
 30
0.0
 11
502.024078
 21
431.2
 31
0.0
  0
LINE
  8
LC-013-003-----0
  6
CONTINUOUS
  5
43A
 10
502.024078
 20
431.2
 30
0.0
 11
488.699059
 21
432.954272
 31
0.0
  0
LINE
  8
LC-013-003-----0
  6
CONTINUOUS
  5
43B
 10
488.636777
 20
430.395959
 30
0.0
 11
494.744078
 21
431.2
 31
0.0
  0
LINE
  8
LC-013-003-----0
  6
CONTINUOUS
  5
43C
 10
494.744078
 20
431.2
 30
0.0
 11
488.636777
 21
432.004041
 31
0.0
  0
TEXT
  8
LC-013-003-----0
  6
CONTINUOUS
 62
     8
  5
43D
 10
387.5846
 20
439.027554
 30
0.0
 40
28.0
  1
Ø190
 51
15.0
  7
LC-TXTSTYLE-150-400-0-0-D0
 72
     1
 11
425.682238
 21
439.027554
 31
0.0
  0
ENDBLK
  8
0
  5
43E
  0
BLOCK
  8
0
  5
440
  2
BLK11
 70
    64
 10
0.0
 20
0.0
 30
0.0
  3
BLK11
  0
ENDBLK
  8
0
  5
441
  0
BLOCK
  8
0
  5
443
  2
*X49
 70
    65
 10
171.52447
 20
407.461933
 30
0.0
  3
*X49
  0
LINE
  8
LC-006-005-----0
  6
CONTINUOUS
  5
444
 10
181.187763
 20
407.461933
 30
0.0
 11
181.52447
 21
407.79864
 31
0.0
  0
LINE
  8
LC-006-005-----0
  6
CONTINUOUS
  5
445
 10
180.622077
 20
407.461933
 30
0.0
 11
181.52447
 21
408.364326
 31
0.0
  0
LINE
  8
LC-006-005-----0
  6
CONTINUOUS
  5
446
 10
180.056392
 20
407.461933
 30
0.0
 11
181.52447
 21
408.930011
 31
0.0
  0
LINE
  8
LC-006-005-----0
  6
CONTINUOUS
  5
447
 10
179.490707
 20
407.461933
 30
0.0
 11
181.52447
 21
409.495697
 31
0.0
  0
LINE
  8
LC-006-005-----0
  6
CONTINUOUS
  5
448
 10
178.925021
 20
407.461933
 30
0.0
 11
181.52447
 21
410.061382
 31
0.0
  0
LINE
  8
LC-006-005-----0
  6
CONTINUOUS
  5
449
 10
178.359336
 20
407.461933
 30
0.0
 11
181.52447
 21
410.627067
 31
0.0
  0
LINE
  8
LC-006-005-----0
  6
CONTINUOUS
  5
44A
 10
177.79365
 20
407.461933
 30
0.0
 11
181.52447
 21
411.192753
 31
0.0
  0
LINE
  8
LC-006-005-----0
  6
CONTINUOUS
  5
44B
 10
177.227965
 20
407.461933
 30
0.0
 11
181.52447
 21
411.758438
 31
0.0
  0
LINE
  8
LC-006-005-----0
  6
CONTINUOUS
  5
44C
 10
176.66228
 20
407.461933
 30
0.0
 11
181.36228
 21
412.161933
 31
0.0
  0
LINE
  8
LC-006-005-----0
  6
CONTINUOUS
  5
44D
 10
176.096594
 20
407.461933
 30
0.0
 11
180.796594
 21
412.161933
 31
0.0
  0
LINE
  8
LC-006-005-----0
  6
CONTINUOUS
  5
44E
 10
175.530909
 20
407.461933
 30
0.0
 11
180.230909
 21
412.161933
 31
0.0
  0
LINE
  8
LC-006-005-----0
  6
CONTINUOUS
  5
44F
 10
174.965223
 20
407.461933
 30
0.0
 11
179.665223
 21
412.161933
 31
0.0
  0
LINE
  8
LC-006-005-----0
  6
CONTINUOUS
  5
450
 10
174.399538
 20
407.461933
 30
0.0
 11
179.099538
 21
412.161933
 31
0.0
  0
LINE
  8
LC-006-005-----0
  6
CONTINUOUS
  5
451
 10
173.833852
 20
407.461933
 30
0.0
 11
178.533852
 21
412.161933
 31
0.0
  0
LINE
  8
LC-006-005-----0
  6
CONTINUOUS
  5
452
 10
173.268167
 20
407.461933
 30
0.0
 11
177.968167
 21
412.161933
 31
0.0
  0
LINE
  8
LC-006-005-----0
  6
CONTINUOUS
  5
453
 10
172.702482
 20
407.461933
 30
0.0
 11
177.402482
 21
412.161933
 31
0.0
  0
LINE
  8
LC-006-005-----0
  6
CONTINUOUS
  5
454
 10
172.136796
 20
407.461933
 30
0.0
 11
176.836796
 21
412.161933
 31
0.0
  0
LINE
  8
LC-006-005-----0
  6
CONTINUOUS
  5
455
 10
171.571111
 20
407.461933
 30
0.0
 11
176.271111
 21
412.161933
 31
0.0
  0
LINE
  8
LC-006-005-----0
  6
CONTINUOUS
  5
456
 10
171.52447
 20
407.980978
 30
0.0
 11
175.705425
 21
412.161933
 31
0.0
  0
LINE
  8
LC-006-005-----0
  6
CONTINUOUS
  5
457
 10
171.52447
 20
408.546663
 30
0.0
 11
175.13974
 21
412.161933
 31
0.0
  0
LINE
  8
LC-006-005-----0
  6
CONTINUOUS
  5
458
 10
171.52447
 20
409.112349
 30
0.0
 11
174.574054
 21
412.161933
 31
0.0
  0
LINE
  8
LC-006-005-----0
  6
CONTINUOUS
  5
459
 10
171.52447
 20
409.678034
 30
0.0
 11
174.008369
 21
412.161933
 31
0.0
  0
LINE
  8
LC-006-005-----0
  6
CONTINUOUS
  5
45A
 10
171.52447
 20
410.24372
 30
0.0
 11
173.442684
 21
412.161933
 31
0.0
  0
LINE
  8
LC-006-005-----0
  6
CONTINUOUS
  5
45B
 10
171.52447
 20
410.809405
 30
0.0
 11
172.876998
 21
412.161933
 31
0.0
  0
LINE
  8
LC-006-005-----0
  6
CONTINUOUS
  5
45C
 10
171.52447
 20
411.37509
 30
0.0
 11
172.311313
 21
412.161933
 31
0.0
  0
LINE
  8
LC-006-005-----0
  6
CONTINUOUS
  5
45D
 10
171.52447
 20
411.940776
 30
0.0
 11
171.745627
 21
412.161933
 31
0.0
  0
ENDBLK
  8
0
  5
45E
  0
BLOCK
  8
0
  5
460
  2
*X50
 70
    65
 10
191.52447
 20
407.461933
 30
0.0
  3
*X50
  0
LINE
  8
LC-006-005-----0
  6
CONTINUOUS
  5
461
 10
200.986753
 20
407.461933
 30
0.0
 11
201.52447
 21
407.99965
 31
0.0
  0
LINE
  8
LC-006-005-----0
  6
CONTINUOUS
  5
462
 10
200.421067
 20
407.461933
 30
0.0
 11
201.52447
 21
408.565336
 31
0.0
  0
LINE
  8
LC-006-005-----0
  6
CONTINUOUS
  5
463
 10
199.855382
 20
407.461933
 30
0.0
 11
201.52447
 21
409.131021
 31
0.0
  0
LINE
  8
LC-006-005-----0
  6
CONTINUOUS
  5
464
 10
199.289696
 20
407.461933
 30
0.0
 11
201.52447
 21
409.696707
 31
0.0
  0
LINE
  8
LC-006-005-----0
  6
CONTINUOUS
  5
465
 10
198.724011
 20
407.461933
 30
0.0
 11
201.52447
 21
410.262392
 31
0.0
  0
LINE
  8
LC-006-005-----0
  6
CONTINUOUS
  5
466
 10
198.158326
 20
407.461933
 30
0.0
 11
201.52447
 21
410.828077
 31
0.0
  0
LINE
  8
LC-006-005-----0
  6
CONTINUOUS
  5
467
 10
197.59264
 20
407.461933
 30
0.0
 11
201.52447
 21
411.393763
 31
0.0
  0
LINE
  8
LC-006-005-----0
  6
CONTINUOUS
  5
468
 10
197.026955
 20
407.461933
 30
0.0
 11
201.52447
 21
411.959448
 31
0.0
  0
LINE
  8
LC-006-005-----0
  6
CONTINUOUS
  5
469
 10
196.461269
 20
407.461933
 30
0.0
 11
201.161269
 21
412.161933
 31
0.0
  0
LINE
  8
LC-006-005-----0
  6
CONTINUOUS
  5
46A
 10
195.895584
 20
407.461933
 30
0.0
 11
200.595584
 21
412.161933
 31
0.0
  0
LINE
  8
LC-006-005-----0
  6
CONTINUOUS
  5
46B
 10
195.329899
 20
407.461933
 30
0.0
 11
200.029899
 21
412.161933
 31
0.0
  0
LINE
  8
LC-006-005-----0
  6
CONTINUOUS
  5
46C
 10
194.764213
 20
407.461933
 30
0.0
 11
199.464213
 21
412.161933
 31
0.0
  0
LINE
  8
LC-006-005-----0
  6
CONTINUOUS
  5
46D
 10
194.198528
 20
407.461933
 30
0.0
 11
198.898528
 21
412.161933
 31
0.0
  0
LINE
  8
LC-006-005-----0
  6
CONTINUOUS
  5
46E
 10
193.632842
 20
407.461933
 30
0.0
 11
198.332842
 21
412.161933
 31
0.0
  0
LINE
  8
LC-006-005-----0
  6
CONTINUOUS
  5
46F
 10
193.067157
 20
407.461933
 30
0.0
 11
197.767157
 21
412.161933
 31
0.0
  0
LINE
  8
LC-006-005-----0
  6
CONTINUOUS
  5
470
 10
192.501471
 20
407.461933
 30
0.0
 11
197.201471
 21
412.161933
 31
0.0
  0
LINE
  8
LC-006-005-----0
  6
CONTINUOUS
  5
471
 10
191.935786
 20
407.461933
 30
0.0
 11
196.635786
 21
412.161933
 31
0.0
  0
LINE
  8
LC-006-005-----0
  6
CONTINUOUS
  5
472
 10
191.52447
 20
407.616303
 30
0.0
 11
196.070101
 21
412.161933
 31
0.0
  0
LINE
  8
LC-006-005-----0
  6
CONTINUOUS
  5
473
 10
191.52447
 20
408.181988
 30
0.0
 11
195.504415
 21
412.161933
 31
0.0
  0
LINE
  8
LC-006-005-----0
  6
CONTINUOUS
  5
474
 10
191.52447
 20
408.747673
 30
0.0
 11
194.93873
 21
412.161933
 31
0.0
  0
LINE
  8
LC-006-005-----0
  6
CONTINUOUS
  5
475
 10
191.52447
 20
409.313359
 30
0.0
 11
194.373044
 21
412.161933
 31
0.0
  0
LINE
  8
LC-006-005-----0
  6
CONTINUOUS
  5
476
 10
191.52447
 20
409.879044
 30
0.0
 11
193.807359
 21
412.161933
 31
0.0
  0
LINE
  8
LC-006-005-----0
  6
CONTINUOUS
  5
477
 10
191.52447
 20
410.44473
 30
0.0
 11
193.241673
 21
412.161933
 31
0.0
  0
LINE
  8
LC-006-005-----0
  6
CONTINUOUS
  5
478
 10
191.52447
 20
411.010415
 30
0.0
 11
192.675988
 21
412.161933
 31
0.0
  0
LINE
  8
LC-006-005-----0
  6
CONTINUOUS
  5
479
 10
191.52447
 20
411.576101
 30
0.0
 11
192.110303
 21
412.161933
 31
0.0
  0
LINE
  8
LC-006-005-----0
  6
CONTINUOUS
  5
47A
 10
191.52447
 20
412.141786
 30
0.0
 11
191.544617
 21
412.161933
 31
0.0
  0
ENDBLK
  8
0
  5
47B
  0
BLOCK
  8
0
  5
47D
  2
*X51
 70
    65
 10
211.52447
 20
407.461933
 30
0.0
  3
*X51
  0
LINE
  8
LC-006-005-----0
  6
CONTINUOUS
  5
47E
 10
221.351428
 20
407.461933
 30
0.0
 11
221.52447
 21
407.634975
 31
0.0
  0
LINE
  8
LC-006-005-----0
  6
CONTINUOUS
  5
47F
 10
220.785743
 20
407.461933
 30
0.0
 11
221.52447
 21
408.20066
 31
0.0
  0
LINE
  8
LC-006-005-----0
  6
CONTINUOUS
  5
480
 10
220.220057
 20
407.461933
 30
0.0
 11
221.52447
 21
408.766346
 31
0.0
  0
LINE
  8
LC-006-005-----0
  6
CONTINUOUS
  5
481
 10
219.654372
 20
407.461933
 30
0.0
 11
221.52447
 21
409.332031
 31
0.0
  0
LINE
  8
LC-006-005-----0
  6
CONTINUOUS
  5
482
 10
219.088686
 20
407.461933
 30
0.0
 11
221.52447
 21
409.897717
 31
0.0
  0
LINE
  8
LC-006-005-----0
  6
CONTINUOUS
  5
483
 10
218.523001
 20
407.461933
 30
0.0
 11
221.52447
 21
410.463402
 31
0.0
  0
LINE
  8
LC-006-005-----0
  6
CONTINUOUS
  5
484
 10
217.957316
 20
407.461933
 30
0.0
 11
221.52447
 21
411.029088
 31
0.0
  0
LINE
  8
LC-006-005-----0
  6
CONTINUOUS
  5
485
 10
217.39163
 20
407.461933
 30
0.0
 11
221.52447
 21
411.594773
 31
0.0
  0
LINE
  8
LC-006-005-----0
  6
CONTINUOUS
  5
486
 10
216.825945
 20
407.461933
 30
0.0
 11
221.52447
 21
412.160458
 31
0.0
  0
LINE
  8
LC-006-005-----0
  6
CONTINUOUS
  5
487
 10
216.260259
 20
407.461933
 30
0.0
 11
220.960259
 21
412.161933
 31
0.0
  0
LINE
  8
LC-006-005-----0
  6
CONTINUOUS
  5
488
 10
215.694574
 20
407.461933
 30
0.0
 11
220.394574
 21
412.161933
 31
0.0
  0
LINE
  8
LC-006-005-----0
  6
CONTINUOUS
  5
489
 10
215.128888
 20
407.461933
 30
0.0
 11
219.828888
 21
412.161933
 31
0.0
  0
LINE
  8
LC-006-005-----0
  6
CONTINUOUS
  5
48A
 10
214.563203
 20
407.461933
 30
0.0
 11
219.263203
 21
412.161933
 31
0.0
  0
LINE
  8
LC-006-005-----0
  6
CONTINUOUS
  5
48B
 10
213.997518
 20
407.461933
 30
0.0
 11
218.697518
 21
412.161933
 31
0.0
  0
LINE
  8
LC-006-005-----0
  6
CONTINUOUS
  5
48C
 10
213.431832
 20
407.461933
 30
0.0
 11
218.131832
 21
412.161933
 31
0.0
  0
LINE
  8
LC-006-005-----0
  6
CONTINUOUS
  5
48D
 10
212.866147
 20
407.461933
 30
0.0
 11
217.566147
 21
412.161933
 31
0.0
  0
LINE
  8
LC-006-005-----0
  6
CONTINUOUS
  5
48E
 10
212.300461
 20
407.461933
 30
0.0
 11
217.000461
 21
412.161933
 31
0.0
  0
LINE
  8
LC-006-005-----0
  6
CONTINUOUS
  5
48F
 10
211.734776
 20
407.461933
 30
0.0
 11
216.434776
 21
412.161933
 31
0.0
  0
LINE
  8
LC-006-005-----0
  6
CONTINUOUS
  5
490
 10
211.52447
 20
407.817313
 30
0.0
 11
215.86909
 21
412.161933
 31
0.0
  0
LINE
  8
LC-006-005-----0
  6
CONTINUOUS
  5
491
 10
211.52447
 20
408.382998
 30
0.0
 11
215.303405
 21
412.161933
 31
0.0
  0
LINE
  8
LC-006-005-----0
  6
CONTINUOUS
  5
492
 10
211.52447
 20
408.948684
 30
0.0
 11
214.73772
 21
412.161933
 31
0.0
  0
LINE
  8
LC-006-005-----0
  6
CONTINUOUS
  5
493
 10
211.52447
 20
409.514369
 30
0.0
 11
214.172034
 21
412.161933
 31
0.0
  0
LINE
  8
LC-006-005-----0
  6
CONTINUOUS
  5
494
 10
211.52447
 20
410.080054
 30
0.0
 11
213.606349
 21
412.161933
 31
0.0
  0
LINE
  8
LC-006-005-----0
  6
CONTINUOUS
  5
495
 10
211.52447
 20
410.64574
 30
0.0
 11
213.040663
 21
412.161933
 31
0.0
  0
LINE
  8
LC-006-005-----0
  6
CONTINUOUS
  5
496
 10
211.52447
 20
411.211425
 30
0.0
 11
212.474978
 21
412.161933
 31
0.0
  0
LINE
  8
LC-006-005-----0
  6
CONTINUOUS
  5
497
 10
211.52447
 20
411.777111
 30
0.0
 11
211.909292
 21
412.161933
 31
0.0
  0
ENDBLK
  8
0
  5
498
  0
BLOCK
  8
0
  5
49A
  2
*X52
 70
    65
 10
231.52447
 20
407.461933
 30
0.0
  3
*X52
  0
LINE
  8
LC-006-005-----0
  6
CONTINUOUS
  5
49B
 10
241.150418
 20
407.461933
 30
0.0
 11
241.52447
 21
407.835985
 31
0.0
  0
LINE
  8
LC-006-005-----0
  6
CONTINUOUS
  5
49C
 10
240.584733
 20
407.461933
 30
0.0
 11
241.52447
 21
408.401671
 31
0.0
  0
LINE
  8
LC-006-005-----0
  6
CONTINUOUS
  5
49D
 10
240.019047
 20
407.461933
 30
0.0
 11
241.52447
 21
408.967356
 31
0.0
  0
LINE
  8
LC-006-005-----0
  6
CONTINUOUS
  5
49E
 10
239.453362
 20
407.461933
 30
0.0
 11
241.52447
 21
409.533041
 31
0.0
  0
LINE
  8
LC-006-005-----0
  6
CONTINUOUS
  5
49F
 10
238.887676
 20
407.461933
 30
0.0
 11
241.52447
 21
410.098727
 31
0.0
  0
LINE
  8
LC-006-005-----0
  6
CONTINUOUS
  5
4A0
 10
238.321991
 20
407.461933
 30
0.0
 11
241.52447
 21
410.664412
 31
0.0
  0
LINE
  8
LC-006-005-----0
  6
CONTINUOUS
  5
4A1
 10
237.756305
 20
407.461933
 30
0.0
 11
241.52447
 21
411.230098
 31
0.0
  0
LINE
  8
LC-006-005-----0
  6
CONTINUOUS
  5
4A2
 10
237.19062
 20
407.461933
 30
0.0
 11
241.52447
 21
411.795783
 31
0.0
  0
LINE
  8
LC-006-005-----0
  6
CONTINUOUS
  5
4A3
 10
236.624935
 20
407.461933
 30
0.0
 11
241.324935
 21
412.161933
 31
0.0
  0
LINE
  8
LC-006-005-----0
  6
CONTINUOUS
  5
4A4
 10
236.059249
 20
407.461933
 30
0.0
 11
240.759249
 21
412.161933
 31
0.0
  0
LINE
  8
LC-006-005-----0
  6
CONTINUOUS
  5
4A5
 10
235.493564
 20
407.461933
 30
0.0
 11
240.193564
 21
412.161933
 31
0.0
  0
LINE
  8
LC-006-005-----0
  6
CONTINUOUS
  5
4A6
 10
234.927878
 20
407.461933
 30
0.0
 11
239.627878
 21
412.161933
 31
0.0
  0
LINE
  8
LC-006-005-----0
  6
CONTINUOUS
  5
4A7
 10
234.362193
 20
407.461933
 30
0.0
 11
239.062193
 21
412.161933
 31
0.0
  0
LINE
  8
LC-006-005-----0
  6
CONTINUOUS
  5
4A8
 10
233.796507
 20
407.461933
 30
0.0
 11
238.496507
 21
412.161933
 31
0.0
  0
LINE
  8
LC-006-005-----0
  6
CONTINUOUS
  5
4A9
 10
233.230822
 20
407.461933
 30
0.0
 11
237.930822
 21
412.161933
 31
0.0
  0
LINE
  8
LC-006-005-----0
  6
CONTINUOUS
  5
4AA
 10
232.665137
 20
407.461933
 30
0.0
 11
237.365137
 21
412.161933
 31
0.0
  0
LINE
  8
LC-006-005-----0
  6
CONTINUOUS
  5
4AB
 10
232.099451
 20
407.461933
 30
0.0
 11
236.799451
 21
412.161933
 31
0.0
  0
LINE
  8
LC-006-005-----0
  6
CONTINUOUS
  5
4AC
 10
231.533766
 20
407.461933
 30
0.0
 11
236.233766
 21
412.161933
 31
0.0
  0
LINE
  8
LC-006-005-----0
  6
CONTINUOUS
  5
4AD
 10
231.52447
 20
408.018323
 30
0.0
 11
235.66808
 21
412.161933
 31
0.0
  0
LINE
  8
LC-006-005-----0
  6
CONTINUOUS
  5
4AE
 10
231.52447
 20
408.584008
 30
0.0
 11
235.102395
 21
412.161933
 31
0.0
  0
LINE
  8
LC-006-005-----0
  6
CONTINUOUS
  5
4AF
 10
231.52447
 20
409.149694
 30
0.0
 11
234.536709
 21
412.161933
 31
0.0
  0
LINE
  8
LC-006-005-----0
  6
CONTINUOUS
  5
4B0
 10
231.52447
 20
409.715379
 30
0.0
 11
233.971024
 21
412.161933
 31
0.0
  0
LINE
  8
LC-006-005-----0
  6
CONTINUOUS
  5
4B1
 10
231.52447
 20
410.281065
 30
0.0
 11
233.405339
 21
412.161933
 31
0.0
  0
LINE
  8
LC-006-005-----0
  6
CONTINUOUS
  5
4B2
 10
231.52447
 20
410.84675
 30
0.0
 11
232.839653
 21
412.161933
 31
0.0
  0
LINE
  8
LC-006-005-----0
  6
CONTINUOUS
  5
4B3
 10
231.52447
 20
411.412435
 30
0.0
 11
232.273968
 21
412.161933
 31
0.0
  0
LINE
  8
LC-006-005-----0
  6
CONTINUOUS
  5
4B4
 10
231.52447
 20
411.978121
 30
0.0
 11
231.708282
 21
412.161933
 31
0.0
  0
ENDBLK
  8
0
  5
4B5
  0
BLOCK
  8
0
  5
4B7
  2
*X53
 70
    65
 10
251.52447
 20
407.461933
 30
0.0
  3
*X53
  0
LINE
  8
LC-006-005-----0
  6
CONTINUOUS
  5
4B8
 10
261.515093
 20
407.461933
 30
0.0
 11
261.52447
 21
407.47131
 31
0.0
  0
LINE
  8
LC-006-005-----0
  6
CONTINUOUS
  5
4B9
 10
260.949408
 20
407.461933
 30
0.0
 11
261.52447
 21
408.036995
 31
0.0
  0
LINE
  8
LC-006-005-----0
  6
CONTINUOUS
  5
4BA
 10
260.383722
 20
407.461933
 30
0.0
 11
261.52447
 21
408.602681
 31
0.0
  0
LINE
  8
LC-006-005-----0
  6
CONTINUOUS
  5
4BB
 10
259.818037
 20
407.461933
 30
0.0
 11
261.52447
 21
409.168366
 31
0.0
  0
LINE
  8
LC-006-005-----0
  6
CONTINUOUS
  5
4BC
 10
259.252352
 20
407.461933
 30
0.0
 11
261.52447
 21
409.734052
 31
0.0
  0
LINE
  8
LC-006-005-----0
  6
CONTINUOUS
  5
4BD
 10
258.686666
 20
407.461933
 30
0.0
 11
261.52447
 21
410.299737
 31
0.0
  0
LINE
  8
LC-006-005-----0
  6
CONTINUOUS
  5
4BE
 10
258.120981
 20
407.461933
 30
0.0
 11
261.52447
 21
410.865422
 31
0.0
  0
LINE
  8
LC-006-005-----0
  6
CONTINUOUS
  5
4BF
 10
257.555295
 20
407.461933
 30
0.0
 11
261.52447
 21
411.431108
 31
0.0
  0
LINE
  8
LC-006-005-----0
  6
CONTINUOUS
  5
4C0
 10
256.98961
 20
407.461933
 30
0.0
 11
261.52447
 21
411.996793
 31
0.0
  0
LINE
  8
LC-006-005-----0
  6
CONTINUOUS
  5
4C1
 10
256.423924
 20
407.461933
 30
0.0
 11
261.123924
 21
412.161933
 31
0.0
  0
LINE
  8
LC-006-005-----0
  6
CONTINUOUS
  5
4C2
 10
255.858239
 20
407.461933
 30
0.0
 11
260.558239
 21
412.161933
 31
0.0
  0
LINE
  8
LC-006-005-----0
  6
CONTINUOUS
  5
4C3
 10
255.292554
 20
407.461933
 30
0.0
 11
259.992554
 21
412.161933
 31
0.0
  0
LINE
  8
LC-006-005-----0
  6
CONTINUOUS
  5
4C4
 10
254.726868
 20
407.461933
 30
0.0
 11
259.426868
 21
412.161933
 31
0.0
  0
LINE
  8
LC-006-005-----0
  6
CONTINUOUS
  5
4C5
 10
254.161183
 20
407.461933
 30
0.0
 11
258.861183
 21
412.161933
 31
0.0
  0
LINE
  8
LC-006-005-----0
  6
CONTINUOUS
  5
4C6
 10
253.595497
 20
407.461933
 30
0.0
 11
258.295497
 21
412.161933
 31
0.0
  0
LINE
  8
LC-006-005-----0
  6
CONTINUOUS
  5
4C7
 10
253.029812
 20
407.461933
 30
0.0
 11
257.729812
 21
412.161933
 31
0.0
  0
LINE
  8
LC-006-005-----0
  6
CONTINUOUS
  5
4C8
 10
252.464126
 20
407.461933
 30
0.0
 11
257.164126
 21
412.161933
 31
0.0
  0
LINE
  8
LC-006-005-----0
  6
CONTINUOUS
  5
4C9
 10
251.898441
 20
407.461933
 30
0.0
 11
256.598441
 21
412.161933
 31
0.0
  0
LINE
  8
LC-006-005-----0
  6
CONTINUOUS
  5
4CA
 10
251.52447
 20
407.653648
 30
0.0
 11
256.032756
 21
412.161933
 31
0.0
  0
LINE
  8
LC-006-005-----0
  6
CONTINUOUS
  5
4CB
 10
251.52447
 20
408.219333
 30
0.0
 11
255.46707
 21
412.161933
 31
0.0
  0
LINE
  8
LC-006-005-----0
  6
CONTINUOUS
  5
4CC
 10
251.52447
 20
408.785018
 30
0.0
 11
254.901385
 21
412.161933
 31
0.0
  0
LINE
  8
LC-006-005-----0
  6
CONTINUOUS
  5
4CD
 10
251.52447
 20
409.350704
 30
0.0
 11
254.335699
 21
412.161933
 31
0.0
  0
LINE
  8
LC-006-005-----0
  6
CONTINUOUS
  5
4CE
 10
251.52447
 20
409.916389
 30
0.0
 11
253.770014
 21
412.161933
 31
0.0
  0
LINE
  8
LC-006-005-----0
  6
CONTINUOUS
  5
4CF
 10
251.52447
 20
410.482075
 30
0.0
 11
253.204328
 21
412.161933
 31
0.0
  0
LINE
  8
LC-006-005-----0
  6
CONTINUOUS
  5
4D0
 10
251.52447
 20
411.04776
 30
0.0
 11
252.638643
 21
412.161933
 31
0.0
  0
LINE
  8
LC-006-005-----0
  6
CONTINUOUS
  5
4D1
 10
251.52447
 20
411.613446
 30
0.0
 11
252.072958
 21
412.161933
 31
0.0
  0
ENDBLK
  8
0
  5
4D2
  0
BLOCK
  8
0
  5
4D4
  2
*X54
 70
    65
 10
271.52447
 20
406.686421
 30
0.0
  3
*X54
  0
LINE
  8
LC-006-005-----0
  6
CONTINUOUS
  5
4D5
 10
281.131358
 20
406.713523
 30
0.0
 11
281.52447
 21
407.106635
 31
0.0
  0
LINE
  8
LC-006-005-----0
  6
CONTINUOUS
  5
4D6
 10
280.602341
 20
406.750191
 30
0.0
 11
281.52447
 21
407.67232
 31
0.0
  0
LINE
  8
LC-006-005-----0
  6
CONTINUOUS
  5
4D7
 10
280.073325
 20
406.78686
 30
0.0
 11
281.52447
 21
408.238005
 31
0.0
  0
LINE
  8
LC-006-005-----0
  6
CONTINUOUS
  5
4D8
 10
279.544308
 20
406.823528
 30
0.0
 11
281.52447
 21
408.803691
 31
0.0
  0
LINE
  8
LC-006-005-----0
  6
CONTINUOUS
  5
4D9
 10
279.015291
 20
406.860197
 30
0.0
 11
281.52447
 21
409.369376
 31
0.0
  0
LINE
  8
LC-006-005-----0
  6
CONTINUOUS
  5
4DA
 10
278.486274
 20
406.896866
 30
0.0
 11
281.52447
 21
409.935062
 31
0.0
  0
LINE
  8
LC-006-005-----0
  6
CONTINUOUS
  5
4DB
 10
277.957258
 20
406.933534
 30
0.0
 11
281.52447
 21
410.500747
 31
0.0
  0
LINE
  8
LC-006-005-----0
  6
CONTINUOUS
  5
4DC
 10
277.428241
 20
406.970203
 30
0.0
 11
281.52447
 21
411.066433
 31
0.0
  0
LINE
  8
LC-006-005-----0
  6
CONTINUOUS
  5
4DD
 10
276.899224
 20
407.006872
 30
0.0
 11
281.305108
 21
411.412756
 31
0.0
  0
LINE
  8
LC-006-005-----0
  6
CONTINUOUS
  5
4DE
 10
276.370207
 20
407.04354
 30
0.0
 11
280.776092
 21
411.449425
 31
0.0
  0
LINE
  8
LC-006-005-----0
  6
CONTINUOUS
  5
4DF
 10
275.84119
 20
407.080209
 30
0.0
 11
280.247075
 21
411.486094
 31
0.0
  0
LINE
  8
LC-006-005-----0
  6
CONTINUOUS
  5
4E0
 10
275.312174
 20
407.116878
 30
0.0
 11
279.718058
 21
411.522762
 31
0.0
  0
LINE
  8
LC-006-005-----0
  6
CONTINUOUS
  5
4E1
 10
274.783157
 20
407.153546
 30
0.0
 11
279.189041
 21
411.559431
 31
0.0
  0
LINE
  8
LC-006-005-----0
  6
CONTINUOUS
  5
4E2
 10
274.25414
 20
407.190215
 30
0.0
 11
278.660025
 21
411.596099
 31
0.0
  0
LINE
  8
LC-006-005-----0
  6
CONTINUOUS
  5
4E3
 10
273.725123
 20
407.226884
 30
0.0
 11
278.131008
 21
411.632768
 31
0.0
  0
LINE
  8
LC-006-005-----0
  6
CONTINUOUS
  5
4E4
 10
273.196106
 20
407.263552
 30
0.0
 11
277.601991
 21
411.669437
 31
0.0
  0
LINE
  8
LC-006-005-----0
  6
CONTINUOUS
  5
4E5
 10
272.66709
 20
407.300221
 30
0.0
 11
277.072974
 21
411.706105
 31
0.0
  0
LINE
  8
LC-006-005-----0
  6
CONTINUOUS
  5
4E6
 10
272.138073
 20
407.336889
 30
0.0
 11
276.543957
 21
411.742774
 31
0.0
  0
LINE
  8
LC-006-005-----0
  6
CONTINUOUS
  5
4E7
 10
271.609056
 20
407.373558
 30
0.0
 11
276.014941
 21
411.779443
 31
0.0
  0
LINE
  8
LC-006-005-----0
  6
CONTINUOUS
  5
4E8
 10
271.52447
 20
407.854658
 30
0.0
 11
275.485924
 21
411.816111
 31
0.0
  0
LINE
  8
LC-006-005-----0
  6
CONTINUOUS
  5
4E9
 10
271.52447
 20
408.420343
 30
0.0
 11
274.956907
 21
411.85278
 31
0.0
  0
LINE
  8
LC-006-005-----0
  6
CONTINUOUS
  5
4EA
 10
271.52447
 20
408.986029
 30
0.0
 11
274.42789
 21
411.889449
 31
0.0
  0
LINE
  8
LC-006-005-----0
  6
CONTINUOUS
  5
4EB
 10
271.52447
 20
409.551714
 30
0.0
 11
273.898874
 21
411.926117
 31
0.0
  0
LINE
  8
LC-006-005-----0
  6
CONTINUOUS
  5
4EC
 10
271.52447
 20
410.117399
 30
0.0
 11
273.369857
 21
411.962786
 31
0.0
  0
LINE
  8
LC-006-005-----0
  6
CONTINUOUS
  5
4ED
 10
271.52447
 20
410.683085
 30
0.0
 11
272.84084
 21
411.999454
 31
0.0
  0
LINE
  8
LC-006-005-----0
  6
CONTINUOUS
  5
4EE
 10
271.52447
 20
411.24877
 30
0.0
 11
272.311823
 21
412.036123
 31
0.0
  0
LINE
  8
LC-006-005-----0
  6
CONTINUOUS
  5
4EF
 10
271.52447
 20
411.814456
 30
0.0
 11
271.782806
 21
412.072792
 31
0.0
  0
ENDBLK
  8
0
  5
4F0
  0
BLOCK
  8
0
  5
4F2
  2
*X55
 70
    65
 10
291.52447
 20
405.300127
 30
0.0
  3
*X55
  0
LINE
  8
LC-006-005-----0
  6
CONTINUOUS
  5
4F3
 10
301.233996
 20
405.320114
 30
0.0
 11
301.52447
 21
405.610588
 31
0.0
  0
LINE
  8
LC-006-005-----0
  6
CONTINUOUS
  5
4F4
 10
300.704979
 20
405.356783
 30
0.0
 11
301.52447
 21
406.176274
 31
0.0
  0
LINE
  8
LC-006-005-----0
  6
CONTINUOUS
  5
4F5
 10
300.175962
 20
405.393451
 30
0.0
 11
301.52447
 21
406.741959
 31
0.0
  0
LINE
  8
LC-006-005-----0
  6
CONTINUOUS
  5
4F6
 10
299.646946
 20
405.43012
 30
0.0
 11
301.52447
 21
407.307645
 31
0.0
  0
LINE
  8
LC-006-005-----0
  6
CONTINUOUS
  5
4F7
 10
299.117929
 20
405.466789
 30
0.0
 11
301.52447
 21
407.87333
 31
0.0
  0
LINE
  8
LC-006-005-----0
  6
CONTINUOUS
  5
4F8
 10
298.588912
 20
405.503457
 30
0.0
 11
301.52447
 21
408.439016
 31
0.0
  0
LINE
  8
LC-006-005-----0
  6
CONTINUOUS
  5
4F9
 10
298.059895
 20
405.540126
 30
0.0
 11
301.52447
 21
409.004701
 31
0.0
  0
LINE
  8
LC-006-005-----0
  6
CONTINUOUS
  5
4FA
 10
297.530878
 20
405.576795
 30
0.0
 11
301.52447
 21
409.570386
 31
0.0
  0
LINE
  8
LC-006-005-----0
  6
CONTINUOUS
  5
4FB
 10
297.001862
 20
405.613463
 30
0.0
 11
301.407746
 21
410.019348
 31
0.0
  0
LINE
  8
LC-006-005-----0
  6
CONTINUOUS
  5
4FC
 10
296.472845
 20
405.650132
 30
0.0
 11
300.878729
 21
410.056016
 31
0.0
  0
LINE
  8
LC-006-005-----0
  6
CONTINUOUS
  5
4FD
 10
295.943828
 20
405.686801
 30
0.0
 11
300.349713
 21
410.092685
 31
0.0
  0
LINE
  8
LC-006-005-----0
  6
CONTINUOUS
  5
4FE
 10
295.414811
 20
405.723469
 30
0.0
 11
299.820696
 21
410.129354
 31
0.0
  0
LINE
  8
LC-006-005-----0
  6
CONTINUOUS
  5
4FF
 10
294.885795
 20
405.760138
 30
0.0
 11
299.291679
 21
410.166022
 31
0.0
  0
LINE
  8
LC-006-005-----0
  6
CONTINUOUS
  5
500
 10
294.356778
 20
405.796806
 30
0.0
 11
298.762662
 21
410.202691
 31
0.0
  0
LINE
  8
LC-006-005-----0
  6
CONTINUOUS
  5
501
 10
293.827761
 20
405.833475
 30
0.0
 11
298.233646
 21
410.23936
 31
0.0
  0
LINE
  8
LC-006-005-----0
  6
CONTINUOUS
  5
502
 10
293.298744
 20
405.870144
 30
0.0
 11
297.704629
 21
410.276028
 31
0.0
  0
LINE
  8
LC-006-005-----0
  6
CONTINUOUS
  5
503
 10
292.769727
 20
405.906812
 30
0.0
 11
297.175612
 21
410.312697
 31
0.0
  0
LINE
  8
LC-006-005-----0
  6
CONTINUOUS
  5
504
 10
292.240711
 20
405.943481
 30
0.0
 11
296.646595
 21
410.349366
 31
0.0
  0
LINE
  8
LC-006-005-----0
  6
CONTINUOUS
  5
505
 10
291.711694
 20
405.98015
 30
0.0
 11
296.117578
 21
410.386034
 31
0.0
  0
LINE
  8
LC-006-005-----0
  6
CONTINUOUS
  5
506
 10
291.52447
 20
406.358612
 30
0.0
 11
295.588562
 21
410.422703
 31
0.0
  0
LINE
  8
LC-006-005-----0
  6
CONTINUOUS
  5
507
 10
291.52447
 20
406.924297
 30
0.0
 11
295.059545
 21
410.459372
 31
0.0
  0
LINE
  8
LC-006-005-----0
  6
CONTINUOUS
  5
508
 10
291.52447
 20
407.489982
 30
0.0
 11
294.530528
 21
410.49604
 31
0.0
  0
LINE
  8
LC-006-005-----0
  6
CONTINUOUS
  5
509
 10
291.52447
 20
408.055668
 30
0.0
 11
294.001511
 21
410.532709
 31
0.0
  0
LINE
  8
LC-006-005-----0
  6
CONTINUOUS
  5
50A
 10
291.52447
 20
408.621353
 30
0.0
 11
293.472494
 21
410.569377
 31
0.0
  0
LINE
  8
LC-006-005-----0
  6
CONTINUOUS
  5
50B
 10
291.52447
 20
409.187039
 30
0.0
 11
292.943478
 21
410.606046
 31
0.0
  0
LINE
  8
LC-006-005-----0
  6
CONTINUOUS
  5
50C
 10
291.52447
 20
409.752724
 30
0.0
 11
292.414461
 21
410.642715
 31
0.0
  0
LINE
  8
LC-006-005-----0
  6
CONTINUOUS
  5
50D
 10
291.52447
 20
410.318409
 30
0.0
 11
291.885444
 21
410.679383
 31
0.0
  0
ENDBLK
  8
0
  5
50E
  0
BLOCK
  8
0
  5
510
  2
*X56
 70
    65
 10
297.712249
 20
401.842478
 30
0.0
  3
*X56
  0
LINE
  8
LC-006-005-----0
  6
CONTINUOUS
  5
511
 10
321.034246
 20
401.927262
 30
0.0
 11
321.52447
 21
402.417486
 31
0.0
  0
LINE
  8
LC-006-005-----0
  6
CONTINUOUS
  5
512
 10
320.506884
 20
401.965585
 30
0.0
 11
321.52447
 21
402.983171
 31
0.0
  0
LINE
  8
LC-006-005-----0
  6
CONTINUOUS
  5
513
 10
319.979521
 20
402.003908
 30
0.0
 11
321.52447
 21
403.548857
 31
0.0
  0
LINE
  8
LC-006-005-----0
  6
CONTINUOUS
  5
514
 10
319.452159
 20
402.042231
 30
0.0
 11
321.52447
 21
404.114542
 31
0.0
  0
LINE
  8
LC-006-005-----0
  6
CONTINUOUS
  5
515
 10
318.924797
 20
402.080554
 30
0.0
 11
321.52447
 21
404.680228
 31
0.0
  0
LINE
  8
LC-006-005-----0
  6
CONTINUOUS
  5
516
 10
318.397434
 20
402.118877
 30
0.0
 11
321.52447
 21
405.245913
 31
0.0
  0
LINE
  8
LC-006-005-----0
  6
CONTINUOUS
  5
517
 10
317.870072
 20
402.1572
 30
0.0
 11
321.52447
 21
405.811599
 31
0.0
  0
LINE
  8
LC-006-005-----0
  6
CONTINUOUS
  5
518
 10
317.34271
 20
402.195524
 30
0.0
 11
321.52447
 21
406.377284
 31
0.0
  0
LINE
  8
LC-006-005-----0
  6
CONTINUOUS
  5
519
 10
316.815371
 20
402.23387
 30
0.0
 11
321.206773
 21
406.625272
 31
0.0
  0
LINE
  8
LC-006-005-----0
  6
CONTINUOUS
  5
51A
 10
316.342421
 20
402.326605
 30
0.0
 11
320.679411
 21
406.663595
 31
0.0
  0
LINE
  8
LC-006-005-----0
  6
CONTINUOUS
  5
51B
 10
315.877772
 20
402.427642
 30
0.0
 11
320.152048
 21
406.701918
 31
0.0
  0
LINE
  8
LC-006-005-----0
  6
CONTINUOUS
  5
51C
 10
315.421105
 20
402.536661
 30
0.0
 11
319.624686
 21
406.740242
 31
0.0
  0
LINE
  8
LC-006-005-----0
  6
CONTINUOUS
  5
51D
 10
314.97213
 20
402.653371
 30
0.0
 11
319.097324
 21
406.778565
 31
0.0
  0
LINE
  8
LC-006-005-----0
  6
CONTINUOUS
  5
51E
 10
314.530581
 20
402.777507
 30
0.0
 11
318.569961
 21
406.816888
 31
0.0
  0
LINE
  8
LC-006-005-----0
  6
CONTINUOUS
  5
51F
 10
314.096217
 20
402.908829
 30
0.0
 11
318.042599
 21
406.855211
 31
0.0
  0
LINE
  8
LC-006-005-----0
  6
CONTINUOUS
  5
520
 10
313.668817
 20
403.047114
 30
0.0
 11
317.515237
 21
406.893534
 31
0.0
  0
LINE
  8
LC-006-005-----0
  6
CONTINUOUS
  5
521
 10
313.248178
 20
403.192161
 30
0.0
 11
317.040987
 21
406.98497
 31
0.0
  0
LINE
  8
LC-006-005-----0
  6
CONTINUOUS
  5
522
 10
312.834116
 20
403.343784
 30
0.0
 11
316.5828
 21
407.092468
 31
0.0
  0
LINE
  8
LC-006-005-----0
  6
CONTINUOUS
  5
523
 10
312.426459
 20
403.501812
 30
0.0
 11
316.134266
 21
407.209619
 31
0.0
  0
LINE
  8
LC-006-005-----0
  6
CONTINUOUS
  5
524
 10
312.02505
 20
403.666089
 30
0.0
 11
315.694973
 21
407.336012
 31
0.0
  0
LINE
  8
LC-006-005-----0
  6
CONTINUOUS
  5
525
 10
311.629745
 20
403.836469
 30
0.0
 11
315.264553
 21
407.471277
 31
0.0
  0
LINE
  8
LC-006-005-----0
  6
CONTINUOUS
  5
526
 10
311.52447
 20
404.29688
 30
0.0
 11
314.842676
 21
407.615085
 31
0.0
  0
LINE
  8
LC-006-005-----0
  6
CONTINUOUS
  5
527
 10
311.52447
 20
404.862565
 30
0.0
 11
314.429045
 21
407.76714
 31
0.0
  0
LINE
  8
LC-006-005-----0
  6
CONTINUOUS
  5
528
 10
311.52447
 20
405.428251
 30
0.0
 11
314.023394
 21
407.927175
 31
0.0
  0
LINE
  8
LC-006-005-----0
  6
CONTINUOUS
  5
529
 10
311.52447
 20
405.993936
 30
0.0
 11
313.625485
 21
408.094951
 31
0.0
  0
LINE
  8
LC-006-005-----0
  6
CONTINUOUS
  5
52A
 10
311.52447
 20
406.559622
 30
0.0
 11
313.235102
 21
408.270253
 31
0.0
  0
LINE
  8
LC-006-005-----0
  6
CONTINUOUS
  5
52B
 10
311.52447
 20
407.125307
 30
0.0
 11
312.852049
 21
408.452886
 31
0.0
  0
LINE
  8
LC-006-005-----0
  6
CONTINUOUS
  5
52C
 10
311.52447
 20
407.690992
 30
0.0
 11
312.476153
 21
408.642675
 31
0.0
  0
LINE
  8
LC-006-005-----0
  6
CONTINUOUS
  5
52D
 10
311.52447
 20
408.256678
 30
0.0
 11
312.107254
 21
408.839462
 31
0.0
  0
LINE
  8
LC-006-005-----0
  6
CONTINUOUS
  5
52E
 10
311.52447
 20
408.822363
 30
0.0
 11
311.745212
 21
409.043105
 31
0.0
  0
ENDBLK
  8
0
  5
52F
  0
BLOCK
  8
0
  5
531
  2
*X57
 70
    65
 10
311.972185
 20
376.251449
 30
0.0
  3
*X57
  0
LINE
  8
LC-006-005-----0
  6
CONTINUOUS
  5
532
 10
347.967178
 20
376.251449
 30
0.0
 11
348.371683
 21
376.655954
 31
0.0
  0
LINE
  8
LC-006-005-----0
  6
CONTINUOUS
  5
533
 10
345.188516
 20
376.301214
 30
0.0
 11
345.838751
 21
376.951449
 31
0.0
  0
LINE
  8
LC-006-005-----0
  6
CONTINUOUS
  5
534
 10
344.0999
 20
378.041026
 30
0.0
 11
345.282107
 21
379.223232
 31
0.0
  0
LINE
  8
LC-006-005-----0
  6
CONTINUOUS
  5
535
 10
345.871683
 20
379.812809
 30
0.0
 11
346.571683
 21
380.512809
 31
0.0
  0
LINE
  8
LC-006-005-----0
  6
CONTINUOUS
  5
536
 10
345.386784
 20
382.156337
 30
0.0
 11
345.990476
 21
382.760028
 31
0.0
  0
LINE
  8
LC-006-005-----0
  6
CONTINUOUS
  5
537
 10
343.349454
 20
382.947434
 30
0.0
 11
343.847387
 21
383.445366
 31
0.0
  0
LINE
  8
LC-006-005-----0
  6
CONTINUOUS
  5
538
 10
342.219299
 20
384.645706
 30
0.0
 11
342.803584
 21
385.229991
 31
0.0
  0
LINE
  8
LC-006-005-----0
  6
CONTINUOUS
  5
539
 10
342.071683
 20
387.326517
 30
0.0
 11
342.771683
 21
388.026517
 31
0.0
  0
LINE
  8
LC-006-005-----0
  6
CONTINUOUS
  5
53A
 10
342.071683
 20
390.154944
 30
0.0
 11
342.771683
 21
390.854944
 31
0.0
  0
LINE
  8
LC-006-005-----0
  6
CONTINUOUS
  5
53B
 10
342.071683
 20
392.983371
 30
0.0
 11
342.771683
 21
393.683371
 31
0.0
  0
LINE
  8
LC-006-005-----0
  6
CONTINUOUS
  5
53C
 10
342.071683
 20
395.811799
 30
0.0
 11
342.771683
 21
396.511799
 31
0.0
  0
LINE
  8
LC-006-005-----0
  6
CONTINUOUS
  5
53D
 10
342.071683
 20
398.640226
 30
0.0
 11
342.771674
 21
399.340217
 31
0.0
  0
LINE
  8
LC-006-005-----0
  6
CONTINUOUS
  5
53E
 10
341.793602
 20
401.190572
 30
0.0
 11
342.343256
 21
401.740226
 31
0.0
  0
LINE
  8
LC-006-005-----0
  6
CONTINUOUS
  5
53F
 10
340.846806
 20
403.072203
 30
0.0
 11
341.342348
 21
403.567745
 31
0.0
  0
LINE
  8
LC-006-005-----0
  6
CONTINUOUS
  5
540
 10
339.421049
 20
404.474873
 30
0.0
 11
339.916243
 21
404.970067
 31
0.0
  0
LINE
  8
LC-006-005-----0
  6
CONTINUOUS
  5
541
 10
337.512077
 20
405.394328
 30
0.0
 11
338.061537
 21
405.943788
 31
0.0
  0
LINE
  8
LC-006-005-----0
  6
CONTINUOUS
  5
542
 10
334.99828
 20
405.708958
 30
0.0
 11
335.64424
 21
406.354918
 31
0.0
  0
LINE
  8
LC-006-005-----0
  6
CONTINUOUS
  5
543
 10
332.35471
 20
405.893815
 30
0.0
 11
333.000669
 21
406.539774
 31
0.0
  0
LINE
  8
LC-006-005-----0
  6
CONTINUOUS
  5
544
 10
329.711139
 20
406.078671
 30
0.0
 11
330.357098
 21
406.724631
 31
0.0
  0
LINE
  8
LC-006-005-----0
  6
CONTINUOUS
  5
545
 10
327.067568
 20
406.263528
 30
0.0
 11
327.713528
 21
406.909487
 31
0.0
  0
LINE
  8
LC-006-005-----0
  6
CONTINUOUS
  5
546
 10
324.423998
 20
406.448384
 30
0.0
 11
325.069957
 21
407.094344
 31
0.0
  0
LINE
  8
LC-006-005-----0
  6
CONTINUOUS
  5
547
 10
321.780427
 20
406.633241
 30
0.0
 11
322.426386
 21
407.2792
 31
0.0
  0
LINE
  8
LC-006-005-----0
  6
CONTINUOUS
  5
548
 10
319.136856
 20
406.818097
 30
0.0
 11
319.782816
 21
407.464057
 31
0.0
  0
LINE
  8
LC-006-005-----0
  6
CONTINUOUS
  5
549
 10
316.711975
 20
407.221643
 30
0.0
 11
317.271054
 21
407.780722
 31
0.0
  0
LINE
  8
LC-006-005-----0
  6
CONTINUOUS
  5
54A
 10
314.850628
 20
408.188723
 30
0.0
 11
315.352363
 21
408.690458
 31
0.0
  0
ENDBLK
  8
0
  5
54B
  0
BLOCK
  8
0
  5
54D
  2
*X58
 70
    65
 10
342.834078
 20
382.852116
 30
0.0
  3
*X58
  0
LINE
  8
LC-006-005-----0
  6
CONTINUOUS
  5
54E
 10
351.739418
 20
382.852116
 30
0.0
 11
352.834078
 21
383.946776
 31
0.0
  0
LINE
  8
LC-006-005-----0
  6
CONTINUOUS
  5
54F
 10
348.910991
 20
382.852116
 30
0.0
 11
351.410991
 21
385.352116
 31
0.0
  0
LINE
  8
LC-006-005-----0
  6
CONTINUOUS
  5
550
 10
346.082564
 20
382.852116
 30
0.0
 11
348.582564
 21
385.352116
 31
0.0
  0
LINE
  8
LC-006-005-----0
  6
CONTINUOUS
  5
551
 10
344.544107
 20
384.142087
 30
0.0
 11
345.754137
 21
385.352116
 31
0.0
  0
LINE
  8
LC-006-005-----0
  6
CONTINUOUS
  5
552
 10
343.129894
 20
385.5563
 30
0.0
 11
345.334078
 21
387.760484
 31
0.0
  0
LINE
  8
LC-006-005-----0
  6
CONTINUOUS
  5
553
 10
342.834078
 20
388.088912
 30
0.0
 11
345.334078
 21
390.588912
 31
0.0
  0
LINE
  8
LC-006-005-----0
  6
CONTINUOUS
  5
554
 10
342.834078
 20
390.917339
 30
0.0
 11
345.334078
 21
393.417339
 31
0.0
  0
LINE
  8
LC-006-005-----0
  6
CONTINUOUS
  5
555
 10
342.834078
 20
393.745766
 30
0.0
 11
345.334078
 21
396.245766
 31
0.0
  0
LINE
  8
LC-006-005-----0
  6
CONTINUOUS
  5
556
 10
342.834078
 20
396.574193
 30
0.0
 11
345.334078
 21
399.074193
 31
0.0
  0
LINE
  8
LC-006-005-----0
  6
CONTINUOUS
  5
557
 10
342.834078
 20
399.40262
 30
0.0
 11
345.334078
 21
401.90262
 31
0.0
  0
LINE
  8
LC-006-005-----0
  6
CONTINUOUS
  5
558
 10
342.834078
 20
402.231047
 30
0.0
 11
343.454791
 21
402.851761
 31
0.0
  0
ENDBLK
  8
0
  5
559
  0
BLOCK
  8
0
  5
55B
  2
*X59
 70
    65
 10
661.143685
 20
407.461933
 30
0.0
  3
*X59
  0
LINE
  8
LC-006-005-----0
  6
CONTINUOUS
  5
55C
 10
671.071341
 20
407.461933
 30
0.0
 11
671.143685
 21
407.534277
 31
0.0
  0
LINE
  8
LC-006-005-----0
  6
CONTINUOUS
  5
55D
 10
670.505655
 20
407.461933
 30
0.0
 11
671.143685
 21
408.099962
 31
0.0
  0
LINE
  8
LC-006-005-----0
  6
CONTINUOUS
  5
55E
 10
669.93997
 20
407.461933
 30
0.0
 11
671.143685
 21
408.665648
 31
0.0
  0
LINE
  8
LC-006-005-----0
  6
CONTINUOUS
  5
55F
 10
669.374285
 20
407.461933
 30
0.0
 11
671.143685
 21
409.231333
 31
0.0
  0
LINE
  8
LC-006-005-----0
  6
CONTINUOUS
  5
560
 10
668.808599
 20
407.461933
 30
0.0
 11
671.143685
 21
409.797019
 31
0.0
  0
LINE
  8
LC-006-005-----0
  6
CONTINUOUS
  5
561
 10
668.242914
 20
407.461933
 30
0.0
 11
671.143685
 21
410.362704
 31
0.0
  0
LINE
  8
LC-006-005-----0
  6
CONTINUOUS
  5
562
 10
667.677228
 20
407.461933
 30
0.0
 11
671.143685
 21
410.928389
 31
0.0
  0
LINE
  8
LC-006-005-----0
  6
CONTINUOUS
  5
563
 10
667.111543
 20
407.461933
 30
0.0
 11
671.143685
 21
411.494075
 31
0.0
  0
LINE
  8
LC-006-005-----0
  6
CONTINUOUS
  5
564
 10
666.545858
 20
407.461933
 30
0.0
 11
671.143685
 21
412.05976
 31
0.0
  0
LINE
  8
LC-006-005-----0
  6
CONTINUOUS
  5
565
 10
665.980172
 20
407.461933
 30
0.0
 11
670.680172
 21
412.161933
 31
0.0
  0
LINE
  8
LC-006-005-----0
  6
CONTINUOUS
  5
566
 10
665.414487
 20
407.461933
 30
0.0
 11
670.114487
 21
412.161933
 31
0.0
  0
LINE
  8
LC-006-005-----0
  6
CONTINUOUS
  5
567
 10
664.848801
 20
407.461933
 30
0.0
 11
669.548801
 21
412.161933
 31
0.0
  0
LINE
  8
LC-006-005-----0
  6
CONTINUOUS
  5
568
 10
664.283116
 20
407.461933
 30
0.0
 11
668.983116
 21
412.161933
 31
0.0
  0
LINE
  8
LC-006-005-----0
  6
CONTINUOUS
  5
569
 10
663.71743
 20
407.461933
 30
0.0
 11
668.41743
 21
412.161933
 31
0.0
  0
LINE
  8
LC-006-005-----0
  6
CONTINUOUS
  5
56A
 10
663.151745
 20
407.461933
 30
0.0
 11
667.851745
 21
412.161933
 31
0.0
  0
LINE
  8
LC-006-005-----0
  6
CONTINUOUS
  5
56B
 10
662.58606
 20
407.461933
 30
0.0
 11
667.28606
 21
412.161933
 31
0.0
  0
LINE
  8
LC-006-005-----0
  6
CONTINUOUS
  5
56C
 10
662.020374
 20
407.461933
 30
0.0
 11
666.720374
 21
412.161933
 31
0.0
  0
LINE
  8
LC-006-005-----0
  6
CONTINUOUS
  5
56D
 10
661.454689
 20
407.461933
 30
0.0
 11
666.154689
 21
412.161933
 31
0.0
  0
LINE
  8
LC-006-005-----0
  6
CONTINUOUS
  5
56E
 10
661.143685
 20
407.716615
 30
0.0
 11
665.589003
 21
412.161933
 31
0.0
  0
LINE
  8
LC-006-005-----0
  6
CONTINUOUS
  5
56F
 10
661.143685
 20
408.2823
 30
0.0
 11
665.023318
 21
412.161933
 31
0.0
  0
LINE
  8
LC-006-005-----0
  6
CONTINUOUS
  5
570
 10
661.143685
 20
408.847985
 30
0.0
 11
664.457632
 21
412.161933
 31
0.0
  0
LINE
  8
LC-006-005-----0
  6
CONTINUOUS
  5
571
 10
661.143685
 20
409.413671
 30
0.0
 11
663.891947
 21
412.161933
 31
0.0
  0
LINE
  8
LC-006-005-----0
  6
CONTINUOUS
  5
572
 10
661.143685
 20
409.979356
 30
0.0
 11
663.326262
 21
412.161933
 31
0.0
  0
LINE
  8
LC-006-005-----0
  6
CONTINUOUS
  5
573
 10
661.143685
 20
410.545042
 30
0.0
 11
662.760576
 21
412.161933
 31
0.0
  0
LINE
  8
LC-006-005-----0
  6
CONTINUOUS
  5
574
 10
661.143685
 20
411.110727
 30
0.0
 11
662.194891
 21
412.161933
 31
0.0
  0
LINE
  8
LC-006-005-----0
  6
CONTINUOUS
  5
575
 10
661.143685
 20
411.676413
 30
0.0
 11
661.629205
 21
412.161933
 31
0.0
  0
ENDBLK
  8
0
  5
576
  0
BLOCK
  8
0
  5
578
  2
*X60
 70
    65
 10
641.143685
 20
407.461933
 30
0.0
  3
*X60
  0
LINE
  8
LC-006-005-----0
  6
CONTINUOUS
  5
579
 10
650.706666
 20
407.461933
 30
0.0
 11
651.143685
 21
407.898952
 31
0.0
  0
LINE
  8
LC-006-005-----0
  6
CONTINUOUS
  5
57A
 10
650.14098
 20
407.461933
 30
0.0
 11
651.143685
 21
408.464638
 31
0.0
  0
LINE
  8
LC-006-005-----0
  6
CONTINUOUS
  5
57B
 10
649.575295
 20
407.461933
 30
0.0
 11
651.143685
 21
409.030323
 31
0.0
  0
LINE
  8
LC-006-005-----0
  6
CONTINUOUS
  5
57C
 10
649.009609
 20
407.461933
 30
0.0
 11
651.143685
 21
409.596008
 31
0.0
  0
LINE
  8
LC-006-005-----0
  6
CONTINUOUS
  5
57D
 10
648.443924
 20
407.461933
 30
0.0
 11
651.143685
 21
410.161694
 31
0.0
  0
LINE
  8
LC-006-005-----0
  6
CONTINUOUS
  5
57E
 10
647.878238
 20
407.461933
 30
0.0
 11
651.143685
 21
410.727379
 31
0.0
  0
LINE
  8
LC-006-005-----0
  6
CONTINUOUS
  5
57F
 10
647.312553
 20
407.461933
 30
0.0
 11
651.143685
 21
411.293065
 31
0.0
  0
LINE
  8
LC-006-005-----0
  6
CONTINUOUS
  5
580
 10
646.746868
 20
407.461933
 30
0.0
 11
651.143685
 21
411.85875
 31
0.0
  0
LINE
  8
LC-006-005-----0
  6
CONTINUOUS
  5
581
 10
646.181182
 20
407.461933
 30
0.0
 11
650.881182
 21
412.161933
 31
0.0
  0
LINE
  8
LC-006-005-----0
  6
CONTINUOUS
  5
582
 10
645.615497
 20
407.461933
 30
0.0
 11
650.315497
 21
412.161933
 31
0.0
  0
LINE
  8
LC-006-005-----0
  6
CONTINUOUS
  5
583
 10
645.049811
 20
407.461933
 30
0.0
 11
649.749811
 21
412.161933
 31
0.0
  0
LINE
  8
LC-006-005-----0
  6
CONTINUOUS
  5
584
 10
644.484126
 20
407.461933
 30
0.0
 11
649.184126
 21
412.161933
 31
0.0
  0
LINE
  8
LC-006-005-----0
  6
CONTINUOUS
  5
585
 10
643.918441
 20
407.461933
 30
0.0
 11
648.618441
 21
412.161933
 31
0.0
  0
LINE
  8
LC-006-005-----0
  6
CONTINUOUS
  5
586
 10
643.352755
 20
407.461933
 30
0.0
 11
648.052755
 21
412.161933
 31
0.0
  0
LINE
  8
LC-006-005-----0
  6
CONTINUOUS
  5
587
 10
642.78707
 20
407.461933
 30
0.0
 11
647.48707
 21
412.161933
 31
0.0
  0
LINE
  8
LC-006-005-----0
  6
CONTINUOUS
  5
588
 10
642.221384
 20
407.461933
 30
0.0
 11
646.921384
 21
412.161933
 31
0.0
  0
LINE
  8
LC-006-005-----0
  6
CONTINUOUS
  5
589
 10
641.655699
 20
407.461933
 30
0.0
 11
646.355699
 21
412.161933
 31
0.0
  0
LINE
  8
LC-006-005-----0
  6
CONTINUOUS
  5
58A
 10
641.143685
 20
407.515604
 30
0.0
 11
645.790013
 21
412.161933
 31
0.0
  0
LINE
  8
LC-006-005-----0
  6
CONTINUOUS
  5
58B
 10
641.143685
 20
408.08129
 30
0.0
 11
645.224328
 21
412.161933
 31
0.0
  0
LINE
  8
LC-006-005-----0
  6
CONTINUOUS
  5
58C
 10
641.143685
 20
408.646975
 30
0.0
 11
644.658643
 21
412.161933
 31
0.0
  0
LINE
  8
LC-006-005-----0
  6
CONTINUOUS
  5
58D
 10
641.143685
 20
409.212661
 30
0.0
 11
644.092957
 21
412.161933
 31
0.0
  0
LINE
  8
LC-006-005-----0
  6
CONTINUOUS
  5
58E
 10
641.143685
 20
409.778346
 30
0.0
 11
643.527272
 21
412.161933
 31
0.0
  0
LINE
  8
LC-006-005-----0
  6
CONTINUOUS
  5
58F
 10
641.143685
 20
410.344032
 30
0.0
 11
642.961586
 21
412.161933
 31
0.0
  0
LINE
  8
LC-006-005-----0
  6
CONTINUOUS
  5
590
 10
641.143685
 20
410.909717
 30
0.0
 11
642.395901
 21
412.161933
 31
0.0
  0
LINE
  8
LC-006-005-----0
  6
CONTINUOUS
  5
591
 10
641.143685
 20
411.475402
 30
0.0
 11
641.830215
 21
412.161933
 31
0.0
  0
LINE
  8
LC-006-005-----0
  6
CONTINUOUS
  5
592
 10
641.143685
 20
412.041088
 30
0.0
 11
641.26453
 21
412.161933
 31
0.0
  0
ENDBLK
  8
0
  5
593
  0
BLOCK
  8
0
  5
595
  2
*X61
 70
    65
 10
621.143685
 20
407.461933
 30
0.0
  3
*X61
  0
LINE
  8
LC-006-005-----0
  6
CONTINUOUS
  5
596
 10
630.907676
 20
407.461933
 30
0.0
 11
631.143685
 21
407.697942
 31
0.0
  0
LINE
  8
LC-006-005-----0
  6
CONTINUOUS
  5
597
 10
630.34199
 20
407.461933
 30
0.0
 11
631.143685
 21
408.263628
 31
0.0
  0
LINE
  8
LC-006-005-----0
  6
CONTINUOUS
  5
598
 10
629.776305
 20
407.461933
 30
0.0
 11
631.143685
 21
408.829313
 31
0.0
  0
LINE
  8
LC-006-005-----0
  6
CONTINUOUS
  5
599
 10
629.210619
 20
407.461933
 30
0.0
 11
631.143685
 21
409.394998
 31
0.0
  0
LINE
  8
LC-006-005-----0
  6
CONTINUOUS
  5
59A
 10
628.644934
 20
407.461933
 30
0.0
 11
631.143685
 21
409.960684
 31
0.0
  0
LINE
  8
LC-006-005-----0
  6
CONTINUOUS
  5
59B
 10
628.079249
 20
407.461933
 30
0.0
 11
631.143685
 21
410.526369
 31
0.0
  0
LINE
  8
LC-006-005-----0
  6
CONTINUOUS
  5
59C
 10
627.513563
 20
407.461933
 30
0.0
 11
631.143685
 21
411.092055
 31
0.0
  0
LINE
  8
LC-006-005-----0
  6
CONTINUOUS
  5
59D
 10
626.947878
 20
407.461933
 30
0.0
 11
631.143685
 21
411.65774
 31
0.0
  0
LINE
  8
LC-006-005-----0
  6
CONTINUOUS
  5
59E
 10
626.382192
 20
407.461933
 30
0.0
 11
631.082192
 21
412.161933
 31
0.0
  0
LINE
  8
LC-006-005-----0
  6
CONTINUOUS
  5
59F
 10
625.816507
 20
407.461933
 30
0.0
 11
630.516507
 21
412.161933
 31
0.0
  0
LINE
  8
LC-006-005-----0
  6
CONTINUOUS
  5
5A0
 10
625.250821
 20
407.461933
 30
0.0
 11
629.950821
 21
412.161933
 31
0.0
  0
LINE
  8
LC-006-005-----0
  6
CONTINUOUS
  5
5A1
 10
624.685136
 20
407.461933
 30
0.0
 11
629.385136
 21
412.161933
 31
0.0
  0
LINE
  8
LC-006-005-----0
  6
CONTINUOUS
  5
5A2
 10
624.119451
 20
407.461933
 30
0.0
 11
628.819451
 21
412.161933
 31
0.0
  0
LINE
  8
LC-006-005-----0
  6
CONTINUOUS
  5
5A3
 10
623.553765
 20
407.461933
 30
0.0
 11
628.253765
 21
412.161933
 31
0.0
  0
LINE
  8
LC-006-005-----0
  6
CONTINUOUS
  5
5A4
 10
622.98808
 20
407.461933
 30
0.0
 11
627.68808
 21
412.161933
 31
0.0
  0
LINE
  8
LC-006-005-----0
  6
CONTINUOUS
  5
5A5
 10
622.422394
 20
407.461933
 30
0.0
 11
627.122394
 21
412.161933
 31
0.0
  0
LINE
  8
LC-006-005-----0
  6
CONTINUOUS
  5
5A6
 10
621.856709
 20
407.461933
 30
0.0
 11
626.556709
 21
412.161933
 31
0.0
  0
LINE
  8
LC-006-005-----0
  6
CONTINUOUS
  5
5A7
 10
621.291024
 20
407.461933
 30
0.0
 11
625.991024
 21
412.161933
 31
0.0
  0
LINE
  8
LC-006-005-----0
  6
CONTINUOUS
  5
5A8
 10
621.143685
 20
407.88028
 30
0.0
 11
625.425338
 21
412.161933
 31
0.0
  0
LINE
  8
LC-006-005-----0
  6
CONTINUOUS
  5
5A9
 10
621.143685
 20
408.445965
 30
0.0
 11
624.859653
 21
412.161933
 31
0.0
  0
LINE
  8
LC-006-005-----0
  6
CONTINUOUS
  5
5AA
 10
621.143685
 20
409.011651
 30
0.0
 11
624.293967
 21
412.161933
 31
0.0
  0
LINE
  8
LC-006-005-----0
  6
CONTINUOUS
  5
5AB
 10
621.143685
 20
409.577336
 30
0.0
 11
623.728282
 21
412.161933
 31
0.0
  0
LINE
  8
LC-006-005-----0
  6
CONTINUOUS
  5
5AC
 10
621.143685
 20
410.143021
 30
0.0
 11
623.162596
 21
412.161933
 31
0.0
  0
LINE
  8
LC-006-005-----0
  6
CONTINUOUS
  5
5AD
 10
621.143685
 20
410.708707
 30
0.0
 11
622.596911
 21
412.161933
 31
0.0
  0
LINE
  8
LC-006-005-----0
  6
CONTINUOUS
  5
5AE
 10
621.143685
 20
411.274392
 30
0.0
 11
622.031226
 21
412.161933
 31
0.0
  0
LINE
  8
LC-006-005-----0
  6
CONTINUOUS
  5
5AF
 10
621.143685
 20
411.840078
 30
0.0
 11
621.46554
 21
412.161933
 31
0.0
  0
ENDBLK
  8
0
  5
5B0
  0
BLOCK
  8
0
  5
5B2
  2
*X62
 70
    65
 10
601.143685
 20
407.461933
 30
0.0
  3
*X62
  0
LINE
  8
LC-006-005-----0
  6
CONTINUOUS
  5
5B3
 10
611.108686
 20
407.461933
 30
0.0
 11
611.143685
 21
407.496932
 31
0.0
  0
LINE
  8
LC-006-005-----0
  6
CONTINUOUS
  5
5B4
 10
610.543
 20
407.461933
 30
0.0
 11
611.143685
 21
408.062617
 31
0.0
  0
LINE
  8
LC-006-005-----0
  6
CONTINUOUS
  5
5B5
 10
609.977315
 20
407.461933
 30
0.0
 11
611.143685
 21
408.628303
 31
0.0
  0
LINE
  8
LC-006-005-----0
  6
CONTINUOUS
  5
5B6
 10
609.41163
 20
407.461933
 30
0.0
 11
611.143685
 21
409.193988
 31
0.0
  0
LINE
  8
LC-006-005-----0
  6
CONTINUOUS
  5
5B7
 10
608.845944
 20
407.461933
 30
0.0
 11
611.143685
 21
409.759674
 31
0.0
  0
LINE
  8
LC-006-005-----0
  6
CONTINUOUS
  5
5B8
 10
608.280259
 20
407.461933
 30
0.0
 11
611.143685
 21
410.325359
 31
0.0
  0
LINE
  8
LC-006-005-----0
  6
CONTINUOUS
  5
5B9
 10
607.714573
 20
407.461933
 30
0.0
 11
611.143685
 21
410.891045
 31
0.0
  0
LINE
  8
LC-006-005-----0
  6
CONTINUOUS
  5
5BA
 10
607.148888
 20
407.461933
 30
0.0
 11
611.143685
 21
411.45673
 31
0.0
  0
LINE
  8
LC-006-005-----0
  6
CONTINUOUS
  5
5BB
 10
606.583202
 20
407.461933
 30
0.0
 11
611.143685
 21
412.022415
 31
0.0
  0
LINE
  8
LC-006-005-----0
  6
CONTINUOUS
  5
5BC
 10
606.017517
 20
407.461933
 30
0.0
 11
610.717517
 21
412.161933
 31
0.0
  0
LINE
  8
LC-006-005-----0
  6
CONTINUOUS
  5
5BD
 10
605.451832
 20
407.461933
 30
0.0
 11
610.151832
 21
412.161933
 31
0.0
  0
LINE
  8
LC-006-005-----0
  6
CONTINUOUS
  5
5BE
 10
604.886146
 20
407.461933
 30
0.0
 11
609.586146
 21
412.161933
 31
0.0
  0
LINE
  8
LC-006-005-----0
  6
CONTINUOUS
  5
5BF
 10
604.320461
 20
407.461933
 30
0.0
 11
609.020461
 21
412.161933
 31
0.0
  0
LINE
  8
LC-006-005-----0
  6
CONTINUOUS
  5
5C0
 10
603.754775
 20
407.461933
 30
0.0
 11
608.454775
 21
412.161933
 31
0.0
  0
LINE
  8
LC-006-005-----0
  6
CONTINUOUS
  5
5C1
 10
603.18909
 20
407.461933
 30
0.0
 11
607.88909
 21
412.161933
 31
0.0
  0
LINE
  8
LC-006-005-----0
  6
CONTINUOUS
  5
5C2
 10
602.623404
 20
407.461933
 30
0.0
 11
607.323404
 21
412.161933
 31
0.0
  0
LINE
  8
LC-006-005-----0
  6
CONTINUOUS
  5
5C3
 10
602.057719
 20
407.461933
 30
0.0
 11
606.757719
 21
412.161933
 31
0.0
  0
LINE
  8
LC-006-005-----0
  6
CONTINUOUS
  5
5C4
 10
601.492034
 20
407.461933
 30
0.0
 11
606.192034
 21
412.161933
 31
0.0
  0
LINE
  8
LC-006-005-----0
  6
CONTINUOUS
  5
5C5
 10
601.143685
 20
407.67927
 30
0.0
 11
605.626348
 21
412.161933
 31
0.0
  0
LINE
  8
LC-006-005-----0
  6
CONTINUOUS
  5
5C6
 10
601.143685
 20
408.244955
 30
0.0
 11
605.060663
 21
412.161933
 31
0.0
  0
LINE
  8
LC-006-005-----0
  6
CONTINUOUS
  5
5C7
 10
601.143685
 20
408.81064
 30
0.0
 11
604.494977
 21
412.161933
 31
0.0
  0
LINE
  8
LC-006-005-----0
  6
CONTINUOUS
  5
5C8
 10
601.143685
 20
409.376326
 30
0.0
 11
603.929292
 21
412.161933
 31
0.0
  0
LINE
  8
LC-006-005-----0
  6
CONTINUOUS
  5
5C9
 10
601.143685
 20
409.942011
 30
0.0
 11
603.363607
 21
412.161933
 31
0.0
  0
LINE
  8
LC-006-005-----0
  6
CONTINUOUS
  5
5CA
 10
601.143685
 20
410.507697
 30
0.0
 11
602.797921
 21
412.161933
 31
0.0
  0
LINE
  8
LC-006-005-----0
  6
CONTINUOUS
  5
5CB
 10
601.143685
 20
411.073382
 30
0.0
 11
602.232236
 21
412.161933
 31
0.0
  0
LINE
  8
LC-006-005-----0
  6
CONTINUOUS
  5
5CC
 10
601.143685
 20
411.639068
 30
0.0
 11
601.66655
 21
412.161933
 31
0.0
  0
ENDBLK
  8
0
  5
5CD
  0
BLOCK
  8
0
  5
5CF
  2
*X63
 70
    65
 10
581.143685
 20
407.461933
 30
0.0
  3
*X63
  0
LINE
  8
LC-006-005-----0
  6
CONTINUOUS
  5
5D0
 10
590.744011
 20
407.461933
 30
0.0
 11
591.143685
 21
407.861607
 31
0.0
  0
LINE
  8
LC-006-005-----0
  6
CONTINUOUS
  5
5D1
 10
590.178325
 20
407.461933
 30
0.0
 11
591.143685
 21
408.427293
 31
0.0
  0
LINE
  8
LC-006-005-----0
  6
CONTINUOUS
  5
5D2
 10
589.61264
 20
407.461933
 30
0.0
 11
591.143685
 21
408.992978
 31
0.0
  0
LINE
  8
LC-006-005-----0
  6
CONTINUOUS
  5
5D3
 10
589.046954
 20
407.461933
 30
0.0
 11
591.143685
 21
409.558664
 31
0.0
  0
LINE
  8
LC-006-005-----0
  6
CONTINUOUS
  5
5D4
 10
588.481269
 20
407.461933
 30
0.0
 11
591.143685
 21
410.124349
 31
0.0
  0
LINE
  8
LC-006-005-----0
  6
CONTINUOUS
  5
5D5
 10
587.915583
 20
407.461933
 30
0.0
 11
591.143685
 21
410.690034
 31
0.0
  0
LINE
  8
LC-006-005-----0
  6
CONTINUOUS
  5
5D6
 10
587.349898
 20
407.461933
 30
0.0
 11
591.143685
 21
411.25572
 31
0.0
  0
LINE
  8
LC-006-005-----0
  6
CONTINUOUS
  5
5D7
 10
586.784213
 20
407.461933
 30
0.0
 11
591.143685
 21
411.821405
 31
0.0
  0
LINE
  8
LC-006-005-----0
  6
CONTINUOUS
  5
5D8
 10
586.218527
 20
407.461933
 30
0.0
 11
590.918527
 21
412.161933
 31
0.0
  0
LINE
  8
LC-006-005-----0
  6
CONTINUOUS
  5
5D9
 10
585.652842
 20
407.461933
 30
0.0
 11
590.352842
 21
412.161933
 31
0.0
  0
LINE
  8
LC-006-005-----0
  6
CONTINUOUS
  5
5DA
 10
585.087156
 20
407.461933
 30
0.0
 11
589.787156
 21
412.161933
 31
0.0
  0
LINE
  8
LC-006-005-----0
  6
CONTINUOUS
  5
5DB
 10
584.521471
 20
407.461933
 30
0.0
 11
589.221471
 21
412.161933
 31
0.0
  0
LINE
  8
LC-006-005-----0
  6
CONTINUOUS
  5
5DC
 10
583.955785
 20
407.461933
 30
0.0
 11
588.655785
 21
412.161933
 31
0.0
  0
LINE
  8
LC-006-005-----0
  6
CONTINUOUS
  5
5DD
 10
583.3901
 20
407.461933
 30
0.0
 11
588.0901
 21
412.161933
 31
0.0
  0
LINE
  8
LC-006-005-----0
  6
CONTINUOUS
  5
5DE
 10
582.824415
 20
407.461933
 30
0.0
 11
587.524415
 21
412.161933
 31
0.0
  0
LINE
  8
LC-006-005-----0
  6
CONTINUOUS
  5
5DF
 10
582.258729
 20
407.461933
 30
0.0
 11
586.958729
 21
412.161933
 31
0.0
  0
LINE
  8
LC-006-005-----0
  6
CONTINUOUS
  5
5E0
 10
581.693044
 20
407.461933
 30
0.0
 11
586.393044
 21
412.161933
 31
0.0
  0
LINE
  8
LC-006-005-----0
  6
CONTINUOUS
  5
5E1
 10
581.143685
 20
407.478259
 30
0.0
 11
585.827358
 21
412.161933
 31
0.0
  0
LINE
  8
LC-006-005-----0
  6
CONTINUOUS
  5
5E2
 10
581.143685
 20
408.043945
 30
0.0
 11
585.261673
 21
412.161933
 31
0.0
  0
LINE
  8
LC-006-005-----0
  6
CONTINUOUS
  5
5E3
 10
581.143685
 20
408.60963
 30
0.0
 11
584.695987
 21
412.161933
 31
0.0
  0
LINE
  8
LC-006-005-----0
  6
CONTINUOUS
  5
5E4
 10
581.143685
 20
409.175316
 30
0.0
 11
584.130302
 21
412.161933
 31
0.0
  0
LINE
  8
LC-006-005-----0
  6
CONTINUOUS
  5
5E5
 10
581.143685
 20
409.741001
 30
0.0
 11
583.564617
 21
412.161933
 31
0.0
  0
LINE
  8
LC-006-005-----0
  6
CONTINUOUS
  5
5E6
 10
581.143685
 20
410.306687
 30
0.0
 11
582.998931
 21
412.161933
 31
0.0
  0
LINE
  8
LC-006-005-----0
  6
CONTINUOUS
  5
5E7
 10
581.143685
 20
410.872372
 30
0.0
 11
582.433246
 21
412.161933
 31
0.0
  0
LINE
  8
LC-006-005-----0
  6
CONTINUOUS
  5
5E8
 10
581.143685
 20
411.438057
 30
0.0
 11
581.86756
 21
412.161933
 31
0.0
  0
LINE
  8
LC-006-005-----0
  6
CONTINUOUS
  5
5E9
 10
581.143685
 20
412.003743
 30
0.0
 11
581.301875
 21
412.161933
 31
0.0
  0
ENDBLK
  8
0
  5
5EA
  0
BLOCK
  8
0
  5
5EC
  2
*X64
 70
    65
 10
561.143685
 20
406.686421
 30
0.0
  3
*X64
  0
LINE
  8
LC-006-005-----0
  6
CONTINUOUS
  5
5ED
 10
570.841568
 20
407.35848
 30
0.0
 11
571.143685
 21
407.660597
 31
0.0
  0
LINE
  8
LC-006-005-----0
  6
CONTINUOUS
  5
5EE
 10
570.233752
 20
407.316349
 30
0.0
 11
571.143685
 21
408.226283
 31
0.0
  0
LINE
  8
LC-006-005-----0
  6
CONTINUOUS
  5
5EF
 10
569.625936
 20
407.274219
 30
0.0
 11
571.143685
 21
408.791968
 31
0.0
  0
LINE
  8
LC-006-005-----0
  6
CONTINUOUS
  5
5F0
 10
569.01812
 20
407.232088
 30
0.0
 11
571.143685
 21
409.357653
 31
0.0
  0
LINE
  8
LC-006-005-----0
  6
CONTINUOUS
  5
5F1
 10
568.410304
 20
407.189958
 30
0.0
 11
571.143685
 21
409.923339
 31
0.0
  0
LINE
  8
LC-006-005-----0
  6
CONTINUOUS
  5
5F2
 10
567.802488
 20
407.147827
 30
0.0
 11
571.143685
 21
410.489024
 31
0.0
  0
LINE
  8
LC-006-005-----0
  6
CONTINUOUS
  5
5F3
 10
567.194672
 20
407.105696
 30
0.0
 11
571.143685
 21
411.05471
 31
0.0
  0
LINE
  8
LC-006-005-----0
  6
CONTINUOUS
  5
5F4
 10
566.586856
 20
407.063566
 30
0.0
 11
571.143685
 21
411.620395
 31
0.0
  0
LINE
  8
LC-006-005-----0
  6
CONTINUOUS
  5
5F5
 10
565.97904
 20
407.021435
 30
0.0
 11
571.041199
 21
412.083594
 31
0.0
  0
LINE
  8
LC-006-005-----0
  6
CONTINUOUS
  5
5F6
 10
565.371224
 20
406.979305
 30
0.0
 11
570.433383
 21
412.041464
 31
0.0
  0
LINE
  8
LC-006-005-----0
  6
CONTINUOUS
  5
5F7
 10
564.763408
 20
406.937174
 30
0.0
 11
569.825567
 21
411.999333
 31
0.0
  0
LINE
  8
LC-006-005-----0
  6
CONTINUOUS
  5
5F8
 10
564.155592
 20
406.895044
 30
0.0
 11
569.217751
 21
411.957203
 31
0.0
  0
LINE
  8
LC-006-005-----0
  6
CONTINUOUS
  5
5F9
 10
563.547776
 20
406.852913
 30
0.0
 11
568.609935
 21
411.915072
 31
0.0
  0
LINE
  8
LC-006-005-----0
  6
CONTINUOUS
  5
5FA
 10
562.93996
 20
406.810782
 30
0.0
 11
568.002119
 21
411.872942
 31
0.0
  0
LINE
  8
LC-006-005-----0
  6
CONTINUOUS
  5
5FB
 10
562.332144
 20
406.768652
 30
0.0
 11
567.394303
 21
411.830811
 31
0.0
  0
LINE
  8
LC-006-005-----0
  6
CONTINUOUS
  5
5FC
 10
561.724328
 20
406.726521
 30
0.0
 11
566.786487
 21
411.78868
 31
0.0
  0
LINE
  8
LC-006-005-----0
  6
CONTINUOUS
  5
5FD
 10
561.143685
 20
407.277249
 30
0.0
 11
565.570855
 21
411.704419
 31
0.0
  0
LINE
  8
LC-006-005-----0
  6
CONTINUOUS
  5
5FE
 10
561.143685
 20
407.842935
 30
0.0
 11
564.963039
 21
411.662289
 31
0.0
  0
LINE
  8
LC-006-005-----0
  6
CONTINUOUS
  5
5FF
 10
561.143685
 20
408.40862
 30
0.0
 11
564.355223
 21
411.620158
 31
0.0
  0
LINE
  8
LC-006-005-----0
  6
CONTINUOUS
  5
600
 10
561.143685
 20
408.974306
 30
0.0
 11
563.747407
 21
411.578027
 31
0.0
  0
LINE
  8
LC-006-005-----0
  6
CONTINUOUS
  5
601
 10
561.143685
 20
409.539991
 30
0.0
 11
563.139591
 21
411.535897
 31
0.0
  0
LINE
  8
LC-006-005-----0
  6
CONTINUOUS
  5
602
 10
561.143685
 20
410.105676
 30
0.0
 11
562.531775
 21
411.493766
 31
0.0
  0
LINE
  8
LC-006-005-----0
  6
CONTINUOUS
  5
603
 10
561.143685
 20
410.671362
 30
0.0
 11
561.923959
 21
411.451636
 31
0.0
  0
LINE
  8
LC-006-005-----0
  6
CONTINUOUS
  5
604
 10
561.143685
 20
411.237047
 30
0.0
 11
561.316143
 21
411.409505
 31
0.0
  0
ENDBLK
  8
0
  5
605
  0
BLOCK
  8
0
  5
607
  2
*X65
 70
    65
 10
541.143685
 20
405.300127
 30
0.0
  3
*X65
  0
LINE
  8
LC-006-005-----0
  6
CONTINUOUS
  5
608
 10
550.783639
 20
405.968171
 30
0.0
 11
551.143685
 21
406.328216
 31
0.0
  0
LINE
  8
LC-006-005-----0
  6
CONTINUOUS
  5
609
 10
550.175823
 20
405.92604
 30
0.0
 11
551.143685
 21
406.893902
 31
0.0
  0
LINE
  8
LC-006-005-----0
  6
CONTINUOUS
  5
60A
 10
549.568007
 20
405.883909
 30
0.0
 11
551.143685
 21
407.459587
 31
0.0
  0
LINE
  8
LC-006-005-----0
  6
CONTINUOUS
  5
60B
 10
548.960191
 20
405.841779
 30
0.0
 11
551.143685
 21
408.025272
 31
0.0
  0
LINE
  8
LC-006-005-----0
  6
CONTINUOUS
  5
60C
 10
548.352375
 20
405.799648
 30
0.0
 11
551.143685
 21
408.590958
 31
0.0
  0
LINE
  8
LC-006-005-----0
  6
CONTINUOUS
  5
60D
 10
547.744559
 20
405.757518
 30
0.0
 11
551.143685
 21
409.156643
 31
0.0
  0
LINE
  8
LC-006-005-----0
  6
CONTINUOUS
  5
60E
 10
547.136743
 20
405.715387
 30
0.0
 11
551.143685
 21
409.722329
 31
0.0
  0
LINE
  8
LC-006-005-----0
  6
CONTINUOUS
  5
60F
 10
546.528927
 20
405.673256
 30
0.0
 11
551.143685
 21
410.288014
 31
0.0
  0
LINE
  8
LC-006-005-----0
  6
CONTINUOUS
  5
610
 10
545.921111
 20
405.631126
 30
0.0
 11
550.98327
 21
410.693285
 31
0.0
  0
LINE
  8
LC-006-005-----0
  6
CONTINUOUS
  5
611
 10
545.313295
 20
405.588995
 30
0.0
 11
550.375454
 21
410.651154
 31
0.0
  0
LINE
  8
LC-006-005-----0
  6
CONTINUOUS
  5
612
 10
544.705479
 20
405.546865
 30
0.0
 11
549.767638
 21
410.609024
 31
0.0
  0
LINE
  8
LC-006-005-----0
  6
CONTINUOUS
  5
613
 10
544.097663
 20
405.504734
 30
0.0
 11
549.159822
 21
410.566893
 31
0.0
  0
LINE
  8
LC-006-005-----0
  6
CONTINUOUS
  5
614
 10
543.489847
 20
405.462604
 30
0.0
 11
548.552006
 21
410.524763
 31
0.0
  0
LINE
  8
LC-006-005-----0
  6
CONTINUOUS
  5
615
 10
542.882031
 20
405.420473
 30
0.0
 11
547.94419
 21
410.482632
 31
0.0
  0
LINE
  8
LC-006-005-----0
  6
CONTINUOUS
  5
616
 10
542.274215
 20
405.378342
 30
0.0
 11
547.336374
 21
410.440502
 31
0.0
  0
LINE
  8
LC-006-005-----0
  6
CONTINUOUS
  5
617
 10
541.666399
 20
405.336212
 30
0.0
 11
546.728558
 21
410.398371
 31
0.0
  0
LINE
  8
LC-006-005-----0
  6
CONTINUOUS
  5
618
 10
541.143685
 20
405.379183
 30
0.0
 11
546.120742
 21
410.35624
 31
0.0
  0
LINE
  8
LC-006-005-----0
  6
CONTINUOUS
  5
619
 10
541.143685
 20
405.944868
 30
0.0
 11
545.512926
 21
410.31411
 31
0.0
  0
LINE
  8
LC-006-005-----0
  6
CONTINUOUS
  5
61A
 10
541.143685
 20
406.510554
 30
0.0
 11
544.90511
 21
410.271979
 31
0.0
  0
LINE
  8
LC-006-005-----0
  6
CONTINUOUS
  5
61B
 10
541.143685
 20
407.076239
 30
0.0
 11
544.297294
 21
410.229849
 31
0.0
  0
LINE
  8
LC-006-005-----0
  6
CONTINUOUS
  5
61C
 10
541.143685
 20
407.641925
 30
0.0
 11
543.689478
 21
410.187718
 31
0.0
  0
LINE
  8
LC-006-005-----0
  6
CONTINUOUS
  5
61D
 10
541.143685
 20
408.20761
 30
0.0
 11
543.081662
 21
410.145587
 31
0.0
  0
LINE
  8
LC-006-005-----0
  6
CONTINUOUS
  5
61E
 10
541.143685
 20
408.773295
 30
0.0
 11
542.473846
 21
410.103457
 31
0.0
  0
LINE
  8
LC-006-005-----0
  6
CONTINUOUS
  5
61F
 10
541.143685
 20
409.338981
 30
0.0
 11
541.86603
 21
410.061326
 31
0.0
  0
LINE
  8
LC-006-005-----0
  6
CONTINUOUS
  5
620
 10
541.143685
 20
409.904666
 30
0.0
 11
541.258214
 21
410.019196
 31
0.0
  0
ENDBLK
  8
0
  5
621
  0
BLOCK
  8
0
  5
623
  2
*X66
 70
    65
 10
498.232899
 20
401.842478
 30
0.0
  3
*X66
  0
LINE
  8
LC-006-005-----0
  6
CONTINUOUS
  5
624
 10
530.197979
 20
403.484444
 30
0.0
 11
531.143685
 21
404.43015
 31
0.0
  0
LINE
  8
LC-006-005-----0
  6
CONTINUOUS
  5
625
 10
529.296503
 20
403.148653
 30
0.0
 11
531.143685
 21
404.995835
 31
0.0
  0
LINE
  8
LC-006-005-----0
  6
CONTINUOUS
  5
626
 10
528.454613
 20
402.872449
 30
0.0
 11
531.143685
 21
405.561521
 31
0.0
  0
LINE
  8
LC-006-005-----0
  6
CONTINUOUS
  5
627
 10
527.660182
 20
402.643703
 30
0.0
 11
531.143685
 21
406.127206
 31
0.0
  0
LINE
  8
LC-006-005-----0
  6
CONTINUOUS
  5
628
 10
526.904853
 20
402.454059
 30
0.0
 11
531.143685
 21
406.692891
 31
0.0
  0
LINE
  8
LC-006-005-----0
  6
CONTINUOUS
  5
629
 10
526.182572
 20
402.297464
 30
0.0
 11
531.143685
 21
407.258577
 31
0.0
  0
LINE
  8
LC-006-005-----0
  6
CONTINUOUS
  5
62A
 10
525.529796
 20
402.210374
 30
0.0
 11
531.143685
 21
407.824262
 31
0.0
  0
LINE
  8
LC-006-005-----0
  6
CONTINUOUS
  5
62B
 10
524.919781
 20
402.166044
 30
0.0
 11
531.143685
 21
408.389948
 31
0.0
  0
LINE
  8
LC-006-005-----0
  6
CONTINUOUS
  5
62C
 10
524.309767
 20
402.121715
 30
0.0
 11
531.143685
 21
408.955633
 31
0.0
  0
LINE
  8
LC-006-005-----0
  6
CONTINUOUS
  5
62D
 10
523.699752
 20
402.077385
 30
0.0
 11
530.345788
 21
408.723422
 31
0.0
  0
LINE
  8
LC-006-005-----0
  6
CONTINUOUS
  5
62E
 10
523.089737
 20
402.033056
 30
0.0
 11
529.238001
 21
408.18132
 31
0.0
  0
LINE
  8
LC-006-005-----0
  6
CONTINUOUS
  5
62F
 10
522.479722
 20
401.988727
 30
0.0
 11
528.269899
 21
407.778904
 31
0.0
  0
LINE
  8
LC-006-005-----0
  6
CONTINUOUS
  5
630
 10
521.869707
 20
401.944397
 30
0.0
 11
527.393175
 21
407.467865
 31
0.0
  0
LINE
  8
LC-006-005-----0
  6
CONTINUOUS
  5
631
 10
521.259693
 20
401.900068
 30
0.0
 11
526.582719
 21
407.223095
 31
0.0
  0
LINE
  8
LC-006-005-----0
  6
CONTINUOUS
  5
632
 10
521.143685
 20
402.349746
 30
0.0
 11
525.823473
 21
407.029534
 31
0.0
  0
LINE
  8
LC-006-005-----0
  6
CONTINUOUS
  5
633
 10
521.143685
 20
402.915431
 30
0.0
 11
525.119348
 21
406.891094
 31
0.0
  0
LINE
  8
LC-006-005-----0
  6
CONTINUOUS
  5
634
 10
521.143685
 20
403.481117
 30
0.0
 11
524.509333
 21
406.846765
 31
0.0
  0
LINE
  8
LC-006-005-----0
  6
CONTINUOUS
  5
635
 10
521.143685
 20
404.046802
 30
0.0
 11
523.899319
 21
406.802436
 31
0.0
  0
LINE
  8
LC-006-005-----0
  6
CONTINUOUS
  5
636
 10
521.143685
 20
404.612487
 30
0.0
 11
523.289304
 21
406.758106
 31
0.0
  0
LINE
  8
LC-006-005-----0
  6
CONTINUOUS
  5
637
 10
521.143685
 20
405.178173
 30
0.0
 11
522.679289
 21
406.713777
 31
0.0
  0
LINE
  8
LC-006-005-----0
  6
CONTINUOUS
  5
638
 10
521.143685
 20
405.743858
 30
0.0
 11
522.069274
 21
406.669447
 31
0.0
  0
LINE
  8
LC-006-005-----0
  6
CONTINUOUS
  5
639
 10
521.143685
 20
406.309544
 30
0.0
 11
521.459259
 21
406.625118
 31
0.0
  0
ENDBLK
  8
0
  5
63A
  0
BLOCK
  8
0
  5
63C
  2
*X67
 70
    65
 10
493.596472
 20
376.251449
 30
0.0
  3
*X67
  0
LINE
  8
LC-006-005-----0
  6
CONTINUOUS
  5
63D
 10
495.045389
 20
376.251449
 30
0.0
 11
495.745389
 21
376.951449
 31
0.0
  0
LINE
  8
LC-006-005-----0
  6
CONTINUOUS
  5
63E
 10
497.314972
 20
378.521032
 30
0.0
 11
497.845175
 21
379.051236
 31
0.0
  0
LINE
  8
LC-006-005-----0
  6
CONTINUOUS
  5
63F
 10
526.047412
 20
407.253472
 30
0.0
 11
528.234747
 21
409.440807
 31
0.0
  0
LINE
  8
LC-006-005-----0
  6
CONTINUOUS
  5
640
 10
496.096472
 20
380.13096
 30
0.0
 11
496.796472
 21
380.83096
 31
0.0
  0
LINE
  8
LC-006-005-----0
  6
CONTINUOUS
  5
641
 10
498.348603
 20
382.383091
 30
0.0
 11
500.364831
 21
384.399319
 31
0.0
  0
LINE
  8
LC-006-005-----0
  6
CONTINUOUS
  5
642
 10
522.727395
 20
406.761883
 30
0.0
 11
523.470486
 21
407.504974
 31
0.0
  0
LINE
  8
LC-006-005-----0
  6
CONTINUOUS
  5
643
 10
499.896472
 20
386.759387
 30
0.0
 11
500.596472
 21
387.459387
 31
0.0
  0
LINE
  8
LC-006-005-----0
  6
CONTINUOUS
  5
644
 10
519.686315
 20
406.54923
 30
0.0
 11
520.429406
 21
407.292321
 31
0.0
  0
LINE
  8
LC-006-005-----0
  6
CONTINUOUS
  5
645
 10
499.896472
 20
389.587814
 30
0.0
 11
500.596472
 21
390.287814
 31
0.0
  0
LINE
  8
LC-006-005-----0
  6
CONTINUOUS
  5
646
 10
516.645235
 20
406.336577
 30
0.0
 11
517.388326
 21
407.079668
 31
0.0
  0
LINE
  8
LC-006-005-----0
  6
CONTINUOUS
  5
647
 10
499.896472
 20
392.416241
 30
0.0
 11
500.596472
 21
393.116241
 31
0.0
  0
LINE
  8
LC-006-005-----0
  6
CONTINUOUS
  5
648
 10
513.604154
 20
406.123924
 30
0.0
 11
514.347246
 21
406.867015
 31
0.0
  0
LINE
  8
LC-006-005-----0
  6
CONTINUOUS
  5
649
 10
499.896472
 20
395.244668
 30
0.0
 11
500.596472
 21
395.944668
 31
0.0
  0
LINE
  8
LC-006-005-----0
  6
CONTINUOUS
  5
64A
 10
510.563074
 20
405.911271
 30
0.0
 11
511.306165
 21
406.654362
 31
0.0
  0
LINE
  8
LC-006-005-----0
  6
CONTINUOUS
  5
64B
 10
499.896472
 20
398.073095
 30
0.0
 11
500.596472
 21
398.773095
 31
0.0
  0
LINE
  8
LC-006-005-----0
  6
CONTINUOUS
  5
64C
 10
507.521994
 20
405.698618
 30
0.0
 11
508.265085
 21
406.441709
 31
0.0
  0
LINE
  8
LC-006-005-----0
  6
CONTINUOUS
  5
64D
 10
500.13477
 20
401.139821
 30
0.0
 11
501.383421
 21
402.388472
 31
0.0
  0
LINE
  8
LC-006-005-----0
  6
CONTINUOUS
  5
64E
 10
503.847493
 20
404.852543
 30
0.0
 11
505.085564
 21
406.090615
 31
0.0
  0
ENDBLK
  8
0
  5
64F
  0
BLOCK
  8
0
  5
651
  2
*X68
 70
    65
 10
489.834078
 20
382.852116
 30
0.0
  3
*X68
  0
LINE
  8
LC-006-005-----0
  6
CONTINUOUS
  5
652
 10
495.989201
 20
382.852116
 30
0.0
 11
499.834078
 21
386.696993
 31
0.0
  0
LINE
  8
LC-006-005-----0
  6
CONTINUOUS
  5
653
 10
493.160774
 20
382.852116
 30
0.0
 11
495.660774
 21
385.352116
 31
0.0
  0
LINE
  8
LC-006-005-----0
  6
CONTINUOUS
  5
654
 10
497.334078
 20
387.02542
 30
0.0
 11
499.834078
 21
389.52542
 31
0.0
  0
LINE
  8
LC-006-005-----0
  6
CONTINUOUS
  5
655
 10
490.332347
 20
382.852116
 30
0.0
 11
492.832347
 21
385.352116
 31
0.0
  0
LINE
  8
LC-006-005-----0
  6
CONTINUOUS
  5
656
 10
497.334078
 20
389.853847
 30
0.0
 11
499.834078
 21
392.353847
 31
0.0
  0
LINE
  8
LC-006-005-----0
  6
CONTINUOUS
  5
657
 10
489.834078
 20
385.182274
 30
0.0
 11
490.00392
 21
385.352116
 31
0.0
  0
LINE
  8
LC-006-005-----0
  6
CONTINUOUS
  5
658
 10
497.334078
 20
392.682274
 30
0.0
 11
499.834078
 21
395.182274
 31
0.0
  0
LINE
  8
LC-006-005-----0
  6
CONTINUOUS
  5
659
 10
497.334078
 20
395.510701
 30
0.0
 11
499.834078
 21
398.010701
 31
0.0
  0
LINE
  8
LC-006-005-----0
  6
CONTINUOUS
  5
65A
 10
497.334078
 20
398.339128
 30
0.0
 11
499.834078
 21
400.839128
 31
0.0
  0
LINE
  8
LC-006-005-----0
  6
CONTINUOUS
  5
65B
 10
497.334078
 20
401.167555
 30
0.0
 11
499.018283
 21
402.851761
 31
0.0
  0
ENDBLK
  8
0
  5
65C
  0
BLOCK
  8
0
  5
65E
  2
*D69
 70
    65
 10
0.0
 20
0.0
 30
0.0
  3
*D69
  0
LINE
  8
LC-014-003-MTH-0
  6
CONTINUOUS
  5
65F
 10
171.52447
 20
412.161933
 30
0.0
 11
171.52447
 21
526.4
 31
0.0
  0
LINE
  8
LC-014-003-MTH-0
  6
CONTINUOUS
  5
660
 10
671.143685
 20
412.161933
 30
0.0
 11
671.143685
 21
526.4
 31
0.0
  0
LINE
  8
LC-015-003-MTG-0
  6
CONTINUOUS
  5
661
 10
171.52447
 20
509.6
 30
0.0
 11
671.143685
 21
509.6
 31
0.0
  0
LINE
  8
LC-013-003-----0
  6
CONTINUOUS
  5
662
 10
199.284926
 20
513.254733
 30
0.0
 11
171.52447
 21
509.6
 31
0.0
  0
LINE
  8
LC-013-003-----0
  6
CONTINUOUS
  5
663
 10
171.52447
 20
509.6
 30
0.0
 11
199.284926
 21
505.945267
 31
0.0
  0
LINE
  8
LC-013-003-----0
  6
CONTINUOUS
  5
664
 10
199.284926
 20
505.945267
 30
0.0
 11
199.284926
 21
513.254733
 31
0.0
  0
LINE
  8
LC-013-003-----0
  6
CONTINUOUS
  5
665
 10
199.347208
 20
512.304503
 30
0.0
 11
178.80447
 21
509.6
 31
0.0
  0
LINE
  8
LC-013-003-----0
  6
CONTINUOUS
  5
666
 10
178.80447
 20
509.6
 30
0.0
 11
199.347208
 21
506.895497
 31
0.0
  0
LINE
  8
LC-013-003-----0
  6
CONTINUOUS
  5
667
 10
199.409489
 20
511.354272
 30
0.0
 11
186.08447
 21
509.6
 31
0.0
  0
LINE
  8
LC-013-003-----0
  6
CONTINUOUS
  5
668
 10
186.08447
 20
509.6
 30
0.0
 11
199.409489
 21
507.845728
 31
0.0
  0
LINE
  8
LC-013-003-----0
  6
CONTINUOUS
  5
669
 10
199.471771
 20
510.404041
 30
0.0
 11
193.36447
 21
509.6
 31
0.0
  0
LINE
  8
LC-013-003-----0
  6
CONTINUOUS
  5
66A
 10
193.36447
 20
509.6
 30
0.0
 11
199.471771
 21
508.795959
 31
0.0
  0
LINE
  8
LC-013-003-----0
  6
CONTINUOUS
  5
66B
 10
643.383229
 20
505.945267
 30
0.0
 11
671.143685
 21
509.6
 31
0.0
  0
LINE
  8
LC-013-003-----0
  6
CONTINUOUS
  5
66C
 10
671.143685
 20
509.6
 30
0.0
 11
643.383229
 21
513.254733
 31
0.0
  0
LINE
  8
LC-013-003-----0
  6
CONTINUOUS
  5
66D
 10
643.383229
 20
513.254733
 30
0.0
 11
643.383229
 21
505.945267
 31
0.0
  0
LINE
  8
LC-013-003-----0
  6
CONTINUOUS
  5
66E
 10
643.320947
 20
506.895497
 30
0.0
 11
663.863685
 21
509.6
 31
0.0
  0
LINE
  8
LC-013-003-----0
  6
CONTINUOUS
  5
66F
 10
663.863685
 20
509.6
 30
0.0
 11
643.320947
 21
512.304503
 31
0.0
  0
LINE
  8
LC-013-003-----0
  6
CONTINUOUS
  5
670
 10
643.258666
 20
507.845728
 30
0.0
 11
656.583685
 21
509.6
 31
0.0
  0
LINE
  8
LC-013-003-----0
  6
CONTINUOUS
  5
671
 10
656.583685
 20
509.6
 30
0.0
 11
643.258666
 21
511.354272
 31
0.0
  0
LINE
  8
LC-013-003-----0
  6
CONTINUOUS
  5
672
 10
643.196385
 20
508.795959
 30
0.0
 11
649.303685
 21
509.6
 31
0.0
  0
LINE
  8
LC-013-003-----0
  6
CONTINUOUS
  5
673
 10
649.303685
 20
509.6
 30
0.0
 11
643.196385
 21
510.404041
 31
0.0
  0
TEXT
  8
LC-013-003-----0
  6
CONTINUOUS
 62
     8
  5
674
 10
387.5846
 20
517.427554
 30
0.0
 40
28.0
  1
Ø500
 51
15.0
  7
LC-TXTSTYLE-150-400-0-0-D0
 72
     1
 11
425.682238
 21
517.427554
 31
0.0
  0
ENDBLK
  8
0
  5
675
  0
BLOCK
  8
0
  5
677
  2
*X70
 70
    65
 10
501.092325
 20
385.732081
 30
0.0
  3
*X70
  0
LINE
  8
LC-006-005-----0
  6
CONTINUOUS
  5
678
 10
507.354447
 20
385.732081
 30
0.0
 11
508.365427
 21
386.743061
 31
0.0
  0
LINE
  8
LC-006-005-----0
  6
CONTINUOUS
  5
679
 10
506.108815
 20
387.314875
 30
0.0
 11
508.365427
 21
389.571488
 31
0.0
  0
LINE
  8
LC-006-005-----0
  6
CONTINUOUS
  5
67A
 10
511.497786
 20
392.703846
 30
0.0
 11
513.224753
 21
394.430813
 31
0.0
  0
LINE
  8
LC-006-005-----0
  6
CONTINUOUS
  5
67B
 10
505.193931
 20
389.228419
 30
0.0
 11
508.365427
 21
392.399915
 31
0.0
  0
LINE
  8
LC-006-005-----0
  6
CONTINUOUS
  5
67C
 10
510.083371
 20
394.117859
 30
0.0
 11
513.224753
 21
397.25924
 31
0.0
  0
LINE
  8
LC-006-005-----0
  6
CONTINUOUS
  5
67D
 10
501.179997
 20
388.042912
 30
0.0
 11
508.365427
 21
395.228342
 31
0.0
  0
LINE
  8
LC-006-005-----0
  6
CONTINUOUS
  5
67E
 10
510.083371
 20
396.946286
 30
0.0
 11
513.224753
 21
400.087668
 31
0.0
  0
LINE
  8
LC-006-005-----0
  6
CONTINUOUS
  5
67F
 10
506.00624
 20
395.697582
 30
0.0
 11
508.365427
 21
398.05677
 31
0.0
  0
LINE
  8
LC-006-005-----0
  6
CONTINUOUS
  5
680
 10
508.893157
 20
398.584499
 30
0.0
 11
511.643464
 21
401.334806
 31
0.0
  0
LINE
  8
LC-006-005-----0
  6
CONTINUOUS
  5
681
 10
503.029409
 20
395.549178
 30
0.0
 11
508.602455
 21
401.122224
 31
0.0
  0
ENDBLK
  8
0
  5
682
  0
BLOCK
  8
0
  5
684
  2
BLK12
 70
    64
 10
0.0
 20
0.0
 30
0.0
  3
BLK12
  0
ENDBLK
  8
0
  5
685
  0
BLOCK
  8
0
  5
687
  2
*X72
 70
    65
 10
329.443403
 20
385.732081
 30
0.0
  3
*X72
  0
LINE
  8
LC-006-005-----0
  6
CONTINUOUS
  5
688
 10
340.233651
 20
388.316912
 30
0.0
 11
340.953285
 21
389.036546
 31
0.0
  0
LINE
  8
LC-006-005-----0
  6
CONTINUOUS
  5
689
 10
334.820392
 20
385.732081
 30
0.0
 11
336.559336
 21
387.471024
 31
0.0
  0
LINE
  8
LC-006-005-----0
  6
CONTINUOUS
  5
68A
 10
338.159944
 20
389.071632
 30
0.0
 11
339.588428
 21
390.500117
 31
0.0
  0
LINE
  8
LC-006-005-----0
  6
CONTINUOUS
  5
68B
 10
334.302728
 20
390.87127
 30
0.0
 11
336.858715
 21
393.427257
 31
0.0
  0
LINE
  8
LC-006-005-----0
  6
CONTINUOUS
  5
68C
 10
339.156242
 20
395.724784
 30
0.0
 11
340.24411
 21
396.812653
 31
0.0
  0
LINE
  8
LC-006-005-----0
  6
CONTINUOUS
  5
68D
 10
334.302728
 20
393.699697
 30
0.0
 11
338.879253
 21
398.276223
 31
0.0
  0
LINE
  8
LC-006-005-----0
  6
CONTINUOUS
  5
68E
 10
330.523671
 20
392.749068
 30
0.0
 11
332.584784
 21
394.810181
 31
0.0
  0
LINE
  8
LC-006-005-----0
  6
CONTINUOUS
  5
68F
 10
334.302728
 20
396.528124
 30
0.0
 11
337.514396
 21
399.739793
 31
0.0
  0
LINE
  8
LC-006-005-----0
  6
CONTINUOUS
  5
690
 10
329.443403
 20
394.497227
 30
0.0
 11
332.584784
 21
397.638608
 31
0.0
  0
LINE
  8
LC-006-005-----0
  6
CONTINUOUS
  5
691
 10
333.530675
 20
398.584499
 30
0.0
 11
335.90479
 21
400.958613
 31
0.0
  0
LINE
  8
LC-006-005-----0
  6
CONTINUOUS
  5
692
 10
329.443403
 20
397.325654
 30
0.0
 11
333.293924
 21
401.176175
 31
0.0
  0
LINE
  8
LC-006-005-----0
  6
CONTINUOUS
  5
693
 10
329.443403
 20
400.154081
 30
0.0
 11
330.6503
 21
401.360978
 31
0.0
  0
ENDBLK
  8
0
  5
694
  0
BLOCK
  8
0
  5
696
  2
BLK13
 70
    64
 10
0.0
 20
0.0
 30
0.0
  3
BLK13
  0
ENDBLK
  8
0
  5
697
  0
BLOCK
  8
0
  5
699
  2
*D74
 70
    65
 10
0.0
 20
0.0
 30
0.0
  3
*D74
  0
LINE
  8
LC-014-003-MTH-0
  6
CONTINUOUS
  5
69A
 10
219.477793
 20
338.474788
 30
0.0
 11
122.76607
 21
338.474788
 31
0.0
  0
LINE
  8
LC-014-003-MTH-0
  6
CONTINUOUS
  5
69B
 10
120.76607
 20
338.474788
 30
0.0
 11
100.8
 21
338.474788
 31
0.0
  0
LINE
  8
LC-014-003-MTH-0
  6
CONTINUOUS
  5
69C
 10
219.477793
 20
390.224788
 30
0.0
 11
100.8
 21
390.224788
 31
0.0
  0
LINE
  8
LC-013-003-----0
  6
CONTINUOUS
  5
69D
 10
120.76607
 20
314.426099
 30
0.0
 11
117.6
 21
338.474788
 31
0.0
  0
LINE
  8
LC-013-003-----0
  6
CONTINUOUS
  5
69E
 10
117.6
 20
338.474788
 30
0.0
 11
113.945267
 21
310.714332
 31
0.0
  0
LINE
  8
LC-013-003-----0
  6
CONTINUOUS
  5
69F
 10
113.945267
 20
310.714332
 30
0.0
 11
120.76607
 21
310.714332
 31
0.0
  0
LINE
  8
LC-013-003-----0
  6
CONTINUOUS
  5
6A0
 10
120.304503
 20
310.65205
 30
0.0
 11
117.6
 21
331.194788
 31
0.0
  0
LINE
  8
LC-013-003-----0
  6
CONTINUOUS
  5
6A1
 10
117.6
 20
331.194788
 30
0.0
 11
114.895497
 21
310.65205
 31
0.0
  0
LINE
  8
LC-013-003-----0
  6
CONTINUOUS
  5
6A2
 10
119.354272
 20
310.589769
 30
0.0
 11
117.6
 21
323.914788
 31
0.0
  0
LINE
  8
LC-013-003-----0
  6
CONTINUOUS
  5
6A3
 10
117.6
 20
323.914788
 30
0.0
 11
115.845728
 21
310.589769
 31
0.0
  0
LINE
  8
LC-013-003-----0
  6
CONTINUOUS
  5
6A4
 10
118.404041
 20
310.527487
 30
0.0
 11
117.6
 21
316.634788
 31
0.0
  0
LINE
  8
LC-013-003-----0
  6
CONTINUOUS
  5
6A5
 10
117.6
 20
316.634788
 30
0.0
 11
116.795959
 21
310.527487
 31
0.0
  0
LINE
  8
LC-013-003-----0
  6
CONTINUOUS
  5
6A6
 10
113.945267
 20
417.985244
 30
0.0
 11
117.6
 21
390.224788
 31
0.0
  0
LINE
  8
LC-013-003-----0
  6
CONTINUOUS
  5
6A7
 10
117.6
 20
390.224788
 30
0.0
 11
121.254733
 21
417.985244
 31
0.0
  0
LINE
  8
LC-013-003-----0
  6
CONTINUOUS
  5
6A8
 10
121.254733
 20
417.985244
 30
0.0
 11
113.945267
 21
417.985244
 31
0.0
  0
LINE
  8
LC-013-003-----0
  6
CONTINUOUS
  5
6A9
 10
114.895497
 20
418.047525
 30
0.0
 11
117.6
 21
397.504788
 31
0.0
  0
LINE
  8
LC-013-003-----0
  6
CONTINUOUS
  5
6AA
 10
117.6
 20
397.504788
 30
0.0
 11
120.304503
 21
418.047525
 31
0.0
  0
LINE
  8
LC-013-003-----0
  6
CONTINUOUS
  5
6AB
 10
115.845728
 20
418.109807
 30
0.0
 11
117.6
 21
404.784788
 31
0.0
  0
LINE
  8
LC-013-003-----0
  6
CONTINUOUS
  5
6AC
 10
117.6
 20
404.784788
 30
0.0
 11
119.354272
 21
418.109807
 31
0.0
  0
LINE
  8
LC-013-003-----0
  6
CONTINUOUS
  5
6AD
 10
116.795959
 20
418.172088
 30
0.0
 11
117.6
 21
412.064788
 31
0.0
  0
LINE
  8
LC-013-003-----0
  6
CONTINUOUS
  5
6AE
 10
117.6
 20
412.064788
 30
0.0
 11
118.404041
 21
418.172088
 31
0.0
  0
LINE
  8
LC-015-003-MTG-0
  6
CONTINUOUS
  5
6AF
 10
117.6
 20
299.274788
 30
0.0
 11
117.6
 21
519.194888
 31
0.0
  0
TEXT
  8
LC-013-003-----0
  6
CONTINUOUS
 62
     8
  5
6B0
 10
109.772446
 20
432.652948
 30
0.0
 40
28.0
  1
DN50
 50
90.0
 51
15.0
  7
LC-TXTSTYLE-150-400-0-0-D0
  0
ENDBLK
  8
0
  5
6B1
  0
BLOCK
  8
0
  5
6B3
  2
*D75
 70
    65
 10
0.0
 20
0.0
 30
0.0
  3
*D75
  0
LINE
  8
LC-014-003-MTH-0
  6
CONTINUOUS
  5
6B4
 10
577.8309
 20
334.257368
 30
0.0
 11
722.4
 21
334.257368
 31
0.0
  0
LINE
  8
LC-014-003-MTH-0
  6
CONTINUOUS
  5
6B5
 10
572.334078
 20
404.454735
 30
0.0
 11
722.4
 21
404.454735
 31
0.0
  0
LINE
  8
LC-015-003-MTG-0
  6
CONTINUOUS
  5
6B6
 10
705.6
 20
334.257368
 30
0.0
 11
705.6
 21
404.454735
 31
0.0
  0
LINE
  8
LC-013-003-----0
  6
CONTINUOUS
  5
6B7
 10
701.945267
 20
362.017824
 30
0.0
 11
705.6
 21
334.257368
 31
0.0
  0
LINE
  8
LC-013-003-----0
  6
CONTINUOUS
  5
6B8
 10
705.6
 20
334.257368
 30
0.0
 11
709.254733
 21
362.017824
 31
0.0
  0
LINE
  8
LC-013-003-----0
  6
CONTINUOUS
  5
6B9
 10
709.254733
 20
362.017824
 30
0.0
 11
701.945267
 21
362.017824
 31
0.0
  0
LINE
  8
LC-013-003-----0
  6
CONTINUOUS
  5
6BA
 10
702.895497
 20
362.080106
 30
0.0
 11
705.6
 21
341.537368
 31
0.0
  0
LINE
  8
LC-013-003-----0
  6
CONTINUOUS
  5
6BB
 10
705.6
 20
341.537368
 30
0.0
 11
708.304503
 21
362.080106
 31
0.0
  0
LINE
  8
LC-013-003-----0
  6
CONTINUOUS
  5
6BC
 10
703.845728
 20
362.142387
 30
0.0
 11
705.6
 21
348.817368
 31
0.0
  0
LINE
  8
LC-013-003-----0
  6
CONTINUOUS
  5
6BD
 10
705.6
 20
348.817368
 30
0.0
 11
707.354272
 21
362.142387
 31
0.0
  0
LINE
  8
LC-013-003-----0
  6
CONTINUOUS
  5
6BE
 10
704.795959
 20
362.204668
 30
0.0
 11
705.6
 21
356.097368
 31
0.0
  0
LINE
  8
LC-013-003-----0
  6
CONTINUOUS
  5
6BF
 10
705.6
 20
356.097368
 30
0.0
 11
706.404041
 21
362.204668
 31
0.0
  0
LINE
  8
LC-013-003-----0
  6
CONTINUOUS
  5
6C0
 10
709.254733
 20
376.694279
 30
0.0
 11
705.6
 21
404.454735
 31
0.0
  0
LINE
  8
LC-013-003-----0
  6
CONTINUOUS
  5
6C1
 10
705.6
 20
404.454735
 30
0.0
 11
701.945267
 21
376.694279
 31
0.0
  0
LINE
  8
LC-013-003-----0
  6
CONTINUOUS
  5
6C2
 10
701.945267
 20
376.694279
 30
0.0
 11
709.254733
 21
376.694279
 31
0.0
  0
LINE
  8
LC-013-003-----0
  6
CONTINUOUS
  5
6C3
 10
708.304503
 20
376.631997
 30
0.0
 11
705.6
 21
397.174735
 31
0.0
  0
LINE
  8
LC-013-003-----0
  6
CONTINUOUS
  5
6C4
 10
705.6
 20
397.174735
 30
0.0
 11
702.895497
 21
376.631997
 31
0.0
  0
LINE
  8
LC-013-003-----0
  6
CONTINUOUS
  5
6C5
 10
707.354272
 20
376.569716
 30
0.0
 11
705.6
 21
389.894735
 31
0.0
  0
LINE
  8
LC-013-003-----0
  6
CONTINUOUS
  5
6C6
 10
705.6
 20
389.894735
 30
0.0
 11
703.845728
 21
376.569716
 31
0.0
  0
LINE
  8
LC-013-003-----0
  6
CONTINUOUS
  5
6C7
 10
706.404041
 20
376.507434
 30
0.0
 11
705.6
 21
382.614735
 31
0.0
  0
LINE
  8
LC-013-003-----0
  6
CONTINUOUS
  5
6C8
 10
705.6
 20
382.614735
 30
0.0
 11
704.795959
 21
376.507434
 31
0.0
  0
TEXT
  8
LC-013-003-----0
  6
CONTINUOUS
 62
     8
  5
6C9
 10
697.772446
 20
354.174617
 30
0.0
 40
28.0
  1
70
 50
90.0
 51
15.0
  7
LC-TXTSTYLE-150-400-0-0-D0
 72
     1
 11
697.772446
 21
372.62816
 31
0.0
  0
ENDBLK
  8
0
  5
6CA
  0
ENDSEC
  0
SECTION
  2
ENTITIES
  0
VIEWPORT
  8
LC-000
  5
A28
 67
     1
 68
     1
 10
420.0
 20
297.0
 30
0.0
 40
840.0
 41
594.0
 69
     1
1001
ACAD
1000
MVIEW
1002
{
1070
    16
1010
0.0
1020
0.0
1030
0.0
1010
0.0
1020
0.0
1030
1.0
1040
0.0
1040
594.0
1040
420.0
1040
297.0
1040
50.0
1040
0.0
1040
0.0
1070
     0
1070
   100
1070
     1
1070
     1
1070
     0
1070
     0
1070
     0
1070
     0
1040
0.0
1040
0.0
1040
0.0
1040
1.0
1040
1.0
1040
0.0
1040
0.0
1070
     0
1002
{
1002
}
1002
}
  0
VIEWPORT
  8
0
  5
A29
 67
     1
 68
     1
 10
0.0
 20
0.0
 30
0.0
 40
0.0
 41
0.0
 69
     1
1001
ACAD
1000
MVIEW
1002
{
1070
    16
1010
0.0
1020
0.0
1030
0.0
1010
0.0
1020
0.0
1030
1.0
1040
0.0
1040
594.0
1040
0.0
1040
0.0
1040
50.0
1040
0.0
1040
0.0
1070
     0
1070
   100
1070
     0
1070
     1
1070
     0
1070
     0
1070
     0
1070
     0
1040
0.0
1040
0.0
1040
0.0
1040
0.5
1040
0.5
1040
0.5
1040
0.5
1070
     0
1002
{
1002
}
1002
}
  0
INSERT
  8
0
  5
6CC
  2
BLK1
 10
0.0
 20
0.0
 30
0.0
  0
INSERT
  8
0
  5
6CD
  2
*X1
 10
227.477793
 20
388.224788
 30
0.0
  0
INSERT
  8
0
  5
6CE
  2
*X2
 10
227.477793
 20
333.724788
 30
0.0
  0
INSERT
  8
0
  5
6CF
  2
*X3
 10
420.952424
 20
388.615137
 30
0.0
  0
INSERT
  8
0
  5
6D0
  2
*X4
 10
459.802424
 20
388.615137
 30
0.0
  0
INSERT
  8
0
  5
6D1
  2
BLK2
 10
0.0
 20
0.0
 30
0.0
  0
INSERT
  8
0
  5
6D2
  2
*X6
 10
480.03485
 20
362.972069
 30
0.0
  0
INSERT
  8
0
  5
6D3
  2
*X7
 10
394.492424
 20
383.305137
 30
0.0
  0
INSERT
  8
0
  5
6D4
  2
*X8
 10
394.492424
 20
383.305137
 30
0.0
  0
INSERT
  8
0
  5
6D5
  2
*X9
 10
357.554723
 20
311.742768
 30
0.0
  0
INSERT
  8
0
  5
6D6
  2
*X10
 10
407.184248
 20
311.742768
 30
0.0
  0
INSERT
  8
0
  5
6D7
  2
*X11
 10
459.802424
 20
361.767914
 30
0.0
  0
INSERT
  8
0
  5
6D8
  2
*X12
 10
285.377793
 20
322.137085
 30
0.0
  0
INSERT
  8
0
  5
6D9
  2
*X13
 10
285.377793
 20
322.137085
 30
0.0
  0
INSERT
  8
0
  5
6DA
  2
*X14
 10
334.777793
 20
322.137085
 30
0.0
  0
INSERT
  8
0
  5
6DB
  2
*X15
 10
334.777793
 20
322.137085
 30
0.0
  0
INSERT
  8
0
  5
6DC
  2
*X16
 10
349.807146
 20
289.771462
 30
0.0
  0
INSERT
  8
0
  5
6DD
  2
*X17
 10
482.814103
 20
304.757368
 30
0.0
  0
INSERT
  8
0
  5
6DF
  2
BLK3
 10
0.0
 20
0.0
 30
0.0
  0
INSERT
  8
0
  5
6E0
  2
*X19
 10
527.232037
 20
301.457368
 30
0.0
  0
INSERT
  8
0
  5
6E1
  2
BLK4
 10
0.0
 20
0.0
 30
0.0
  0
INSERT
  8
0
  5
6E2
  2
*X21
 10
527.232037
 20
281.311912
 30
0.0
  0
INSERT
  8
0
  5
6E3
  2
*X22
 10
487.302037
 20
301.257368
 30
0.0
  0
INSERT
  8
0
  5
6E4
  2
*X23
 10
487.302037
 20
301.257368
 30
0.0
  0
INSERT
  8
0
  5
6E5
  2
BLK5
 10
0.0
 20
0.0
 30
0.0
  0
INSERT
  8
0
  5
6E6
  2
BLK6
 10
0.0
 20
0.0
 30
0.0
  0
INSERT
  8
0
  5
6E7
  2
BLK7
 10
0.0
 20
0.0
 30
0.0
  0
INSERT
  8
0
  5
6E8
  2
*X27
 10
526.648195
 20
359.249608
 30
0.0
  0
INSERT
  8
0
  5
6E9
  2
*X28
 10
526.648195
 20
305.265128
 30
0.0
  0
INSERT
  8
0
  5
6EA
  2
*X29
 10
566.5809
 20
359.257708
 30
0.0
  0
INSERT
  8
0
  5
6EB
  2
*X30
 10
566.5809
 20
305.257028
 30
0.0
  0
INSERT
  8
0
  5
6EC
  2
BLK8
 10
0.0
 20
0.0
 30
0.0
  0
INSERT
  8
0
  5
6ED
  2
*X32
 10
217.477793
 20
332.724788
 30
0.0
  0
INSERT
  8
0
  5
6EE
  2
*X33
 10
219.477793
 20
286.474788
 30
0.0
  0
INSERT
  8
0
  5
6EF
  2
*X34
 10
283.02293
 20
291.126667
 30
0.0
  0
INSERT
  8
0
  5
6F0
  2
*X35
 10
332.477793
 20
311.116332
 30
0.0
  0
INSERT
  8
0
  5
6F1
  2
BLK9
 10
0.0
 20
0.0
 30
0.0
  0
DIMENSION
  8
0
  5
6F2
  2
*D37
 10
156.8
 20
384.089761
 30
0.0
 11
156.8
 21
384.089761
 31
0.0
  1
40
 13
270.334078
 23
404.454735
 33
0.0
 14
219.477793
 24
363.724788
 34
0.0
 50
90.0
  3
LC-DIM-L-0140-02-02
  0
DIMENSION
  8
0
  5
6F3
  2
*D38
 10
78.4
 20
348.790701
 30
0.0
 11
78.4
 21
348.790701
 31
0.0
  1
110
 13
270.334078
 23
404.454735
 33
0.0
 14
297.477793
 24
293.126667
 34
0.0
 50
90.0
  3
LC-DIM-L-0140-02-02
  0
DIMENSION
  8
0
  5
6F4
  2
*D39
 10
421.334078
 20
470.4
 30
0.0
 11
421.334078
 21
470.4
 31
0.0
  1
%%c300
 13
270.334078
 23
407.461933
 33
0.0
 14
572.334078
 24
407.461933
 34
0.0
  3
LC-DIM-L-0140-02-02
  0
DIMENSION
  8
0
  5
6F5
  2
*D40
 10
320.405935
 20
235.2
 30
0.0
 11
320.405935
 21
235.2
 31
0.0
  1
200
 13
421.334078
 23
292.771462
 33
0.0
 14
219.477793
 24
332.724788
 34
0.0
  3
LC-DIM-L-0140-02-02
  0
DIMENSION
  8
0
  5
6F6
  2
*D41
 10
437.755071
 20
196.0
 30
0.0
 11
437.755071
 21
196.0
 31
0.0
  1
435
 13
219.477793
 23
332.724788
 33
0.0
 14
656.03235
 24
316.628263
 34
0.0
  3
LC-DIM-L-0140-02-02
  0
INSERT
  8
0
  5
6F7
  2
BLK10
 10
0.0
 20
0.0
 30
0.0
  0
DIMENSION
  8
0
  5
6F8
  2
*D43
 10
470.4
 20
336.755341
 30
0.0
 11
470.4
 21
336.755341
 31
0.0
  1
50
 13
463.834078
 23
361.767914
 33
0.0
 14
409.195384
 24
311.742768
 34
0.0
 50
90.0
  3
LC-DIM-L-0140-02-02
  0
DIMENSION
  8
0
  5
6F9
  2
*D44
 10
769.611293
 20
286.194877
 30
0.0
 11
769.611293
 21
286.194877
 31
0.0
 70
     1
  1
DN70
 13
662.022717
 23
353.949534
 33
0.0
 14
642.559525
 24
281.311912
 34
0.0
  3
LC-DIM-L-0140-02-02
  0
DIMENSION
  8
0
  5
6FA
  2
*D45
 10
759.665091
 20
411.794005
 30
0.0
 11
759.665091
 21
411.794005
 31
0.0
 70
     1
  1
DN50
 13
658.954782
 23
341.778868
 33
0.0
 14
645.987948
 24
293.385984
 34
0.0
  3
LC-DIM-L-0140-02-02
  0
DIMENSION
  8
0
  5
6FB
  2
*D46
 10
805.979618
 20
204.967756
 30
0.0
 11
805.979618
 21
204.967756
 31
0.0
 70
   133
 13
619.742592
 23
245.532234
 33
0.0
 14
577.8309
 24
334.257368
 34
0.0
 15
557.616584
 25
334.257368
 35
0.0
  3
LC-DIM-W-0140-02-02
  0
DIMENSION
  8
0
  5
6FC
  2
*D47
 10
421.334078
 20
431.2
 30
0.0
 11
421.334078
 21
431.2
 31
0.0
  1
%%c190
 13
326.084078
 23
395.034736
 33
0.0
 14
516.584078
 24
395.034736
 34
0.0
  3
LC-DIM-L-0140-02-02
  0
INSERT
  8
0
  5
6FD
  2
BLK11
 10
0.0
 20
0.0
 30
0.0
  0
INSERT
  8
0
  5
6FE
  2
*X49
 10
171.52447
 20
407.461933
 30
0.0
  0
INSERT
  8
0
  5
6FF
  2
*X50
 10
191.52447
 20
407.461933
 30
0.0
  0
INSERT
  8
0
  5
700
  2
*X51
 10
211.52447
 20
407.461933
 30
0.0
  0
INSERT
  8
0
  5
701
  2
*X52
 10
231.52447
 20
407.461933
 30
0.0
  0
INSERT
  8
0
  5
702
  2
*X53
 10
251.52447
 20
407.461933
 30
0.0
  0
INSERT
  8
0
  5
703
  2
*X54
 10
271.52447
 20
406.686421
 30
0.0
  0
INSERT
  8
0
  5
704
  2
*X55
 10
291.52447
 20
405.300127
 30
0.0
  0
INSERT
  8
0
  5
705
  2
*X56
 10
297.712249
 20
401.842478
 30
0.0
  0
INSERT
  8
0
  5
706
  2
*X57
 10
311.972185
 20
376.251449
 30
0.0
  0
INSERT
  8
0
  5
707
  2
*X58
 10
342.834078
 20
382.852116
 30
0.0
  0
INSERT
  8
0
  5
708
  2
*X59
 10
661.143685
 20
407.461933
 30
0.0
  0
INSERT
  8
0
  5
709
  2
*X60
 10
641.143685
 20
407.461933
 30
0.0
  0
INSERT
  8
0
  5
70A
  2
*X61
 10
621.143685
 20
407.461933
 30
0.0
  0
INSERT
  8
0
  5
70B
  2
*X62
 10
601.143685
 20
407.461933
 30
0.0
  0
INSERT
  8
0
  5
70C
  2
*X63
 10
581.143685
 20
407.461933
 30
0.0
  0
INSERT
  8
0
  5
70D
  2
*X64
 10
561.143685
 20
406.686421
 30
0.0
  0
INSERT
  8
0
  5
70E
  2
*X65
 10
541.143685
 20
405.300127
 30
0.0
  0
INSERT
  8
0
  5
70F
  2
*X66
 10
498.232899
 20
401.842478
 30
0.0
  0
INSERT
  8
0
  5
710
  2
*X67
 10
493.596472
 20
376.251449
 30
0.0
  0
INSERT
  8
0
  5
711
  2
*X68
 10
489.834078
 20
382.852116
 30
0.0
  0
DIMENSION
  8
0
  5
712
  2
*D69
 10
421.334078
 20
509.6
 30
0.0
 11
421.334078
 21
509.6
 31
0.0
  1
%%c500
 13
171.52447
 23
412.161933
 33
0.0
 14
671.143685
 24
412.161933
 34
0.0
  3
LC-DIM-L-0140-02-02
  0
INSERT
  8
0
  5
713
  2
*X70
 10
501.092325
 20
385.732081
 30
0.0
  0
INSERT
  8
0
  5
714
  2
BLK12
 10
0.0
 20
0.0
 30
0.0
  0
INSERT
  8
0
  5
715
  2
*X72
 10
329.443403
 20
385.732081
 30
0.0
  0
INSERT
  8
0
  5
716
  2
BLK13
 10
0.0
 20
0.0
 30
0.0
  0
DIMENSION
  8
0
  5
717
  2
*D74
 10
117.6
 20
364.349788
 30
0.0
 11
117.6
 21
364.349788
 31
0.0
  1
DN50
 13
219.477793
 23
390.224788
 33
0.0
 14
219.477793
 24
338.474788
 34
0.0
 50
90.0
  3
LC-DIM-L-0140-02-02
  0
DIMENSION
  8
0
  5
718
  2
*D75
 10
705.6
 20
368.28
 30
0.0
 11
705.6
 21
368.28
 31
0.0
  1
70
 13
577.8309
 23
334.257368
 33
0.0
 14
572.334078
 24
404.454735
 34
0.0
 50
90.0
  3
LC-DIM-L-0140-02-02
  0
LINE
  8
LC-001-205-----0
  6
CONTINUOUS
  5
71A
 10
364.654723
 20
371.77223
 30
0.0
 11
413.527798
 21
371.77223
 31
0.0
  0
LINE
  8
LC-001-205-----0
  6
CONTINUOUS
  5
71B
 10
357.554723
 20
371.77223
 30
0.0
 11
364.654723
 21
371.77223
 31
0.0
  0
LINE
  8
LC-001-205-----0
  6
CONTINUOUS
  5
71C
 10
364.654745
 20
364.272237
 30
0.0
 11
364.654723
 21
371.766962
 31
0.0
  0
LINE
  8
LC-001-205-----0
  6
CONTINUOUS
  5
71D
 10
360.354548
 20
311.742768
 30
0.0
 11
381.334078
 21
311.742768
 31
0.0
  0
LINE
  8
LC-001-205-----0
  6
CONTINUOUS
  5
71E
 10
361.35454
 20
311.742768
 30
0.0
 11
361.354549
 21
326.07784
 31
0.0
  0
LINE
  8
LC-001-205-----0
  6
CONTINUOUS
  5
71F
 10
361.354557
 20
326.07784
 30
0.0
 11
361.35458
 21
361.27223
 31
0.0
  0
LINE
  8
LC-003-002-----0
  6
CONTINUOUS
  5
721
 10
414.881805
 20
384.585296
 30
0.0
 11
407.184248
 21
311.742768
 31
0.0
  0
LINE
  8
LC-003-002-----0
  6
CONTINUOUS
  5
722
 10
416.856888
 20
384.112396
 30
0.0
 11
416.856888
 21
360.932148
 31
0.0
  0
ARC
  8
LC-004-205-RND-0
  6
CONTINUOUS
  5
724
 10
419.356888
 20
384.112396
 30
0.0
 40
2.5
 50
92.0
 51
180.0
  0
ARC
  8
LC-004-205-RND-0
  6
CONTINUOUS
  5
725
 10
419.356888
 20
384.112396
 30
0.0
 40
4.5
 50
88.0
 51
173.967717
  0
LINE
  8
LC-003-002-----0
  6
CONTINUOUS
  5
726
 10
459.802424
 20
386.609047
 30
0.0
 11
471.054593
 21
386.609047
 31
0.0
  0
LINE
  8
LC-003-002-----0
  6
DASHDOT
 62
     2
  5
728
 10
442.452424
 20
392.741665
 30
0.0
 11
442.452424
 21
383.305137
 31
0.0
  0
ARC
  8
LC-005-002-RND-0
  6
CONTINUOUS
  5
72A
 10
471.054593
 20
379.609047
 30
0.0
 40
7.0
 50
359.999987
 51
90.0
  0
LINE
  8
LC-003-002-----0
  6
CONTINUOUS
  5
72B
 10
419.513935
 20
388.615137
 30
0.0
 11
424.902424
 21
388.615137
 31
0.0
  0
LINE
  8
LC-003-002-----0
  6
CONTINUOUS
  5
72C
 10
424.902424
 20
388.615137
 30
0.0
 11
425.102424
 21
388.615137
 31
0.0
  0
LINE
  8
LC-001-205-----0
  6
CONTINUOUS
  5
72D
 10
478.05459
 20
365.86664
 30
0.0
 11
478.054593
 21
379.609046
 31
0.0
  0
LINE
  8
LC-003-002-----0
  6
CONTINUOUS
  5
72E
 10
485.154893
 20
371.772155
 30
0.0
 11
485.154893
 21
371.072145
 31
0.0
  0
ARC
  8
LC-005-002-RND-0
  6
CONTINUOUS
  5
72F
 10
471.680993
 20
379.615137
 30
0.0
 40
9.0
 50
5.652944
 51
90.0
  0
LINE
  8
LC-001-205-----0
  6
CONTINUOUS
  5
730
 10
480.637224
 20
380.50166
 30
0.0
 11
481.501297
 21
371.77223
 31
0.0
  0
ARC
  8
LC-001-205-----0
  6
CONTINUOUS
  5
731
 10
480.554862
 20
364.272146
 30
0.0
 40
2.5
 50
179.999761
 51
270.0
  0
ARC
  8
LC-001-205-----0
  6
CONTINUOUS
  5
732
 10
484.654881
 20
362.472147
 30
0.0
 40
0.5
 50
359.999925
 51
89.999925
  0
LINE
  8
LC-001-205-----0
  6
CONTINUOUS
  5
733
 10
478.054862
 20
364.272157
 30
0.0
 11
478.054893
 21
371.766887
 31
0.0
  0
ARC
  8
LC-001-205-----0
  6
CONTINUOUS
  5
734
 10
480.554858
 20
363.472152
 30
0.0
 40
0.5
 50
179.999761
 51
269.999925
  0
LINE
  8
LC-001-205-----0
  6
CONTINUOUS
  5
735
 10
484.654882
 20
362.972147
 30
0.0
 11
480.554858
 21
362.972152
 31
0.0
  0
ARC
  8
LC-001-205-----0
  6
CONTINUOUS
  5
736
 10
480.554886
 20
370.072152
 30
0.0
 40
0.5
 50
89.999925
 51
179.999761
  0
ARC
  8
LC-001-205-----0
  6
CONTINUOUS
  5
737
 10
484.65489
 20
371.072147
 30
0.0
 40
0.5
 50
269.999925
 51
359.999761
  0
LINE
  8
LC-001-205-----0
  6
CONTINUOUS
  5
738
 10
484.654889
 20
370.572147
 30
0.0
 11
480.554887
 21
370.572152
 31
0.0
  0
LINE
  8
LC-001-205-----0
  6
CONTINUOUS
  5
739
 10
481.501297
 20
371.772155
 30
0.0
 11
485.154893
 21
371.772155
 31
0.0
  0
LINE
  8
LC-003-002-----0
  6
CONTINUOUS
  5
73A
 10
419.339544
 20
386.609047
 30
0.0
 11
425.102424
 21
386.609047
 31
0.0
  0
LINE
  8
LC-003-002-----0
  6
CONTINUOUS
  5
73B
 10
425.102424
 20
386.609047
 30
0.0
 11
422.552424
 21
386.609047
 31
0.0
  0
ARC
  8
LC-001-205-----0
  6
CONTINUOUS
  5
73C
 10
362.154745
 20
364.27223
 30
0.0
 40
2.5
 50
270.0
 51
0.000164
  0
ARC
  8
LC-001-205-----0
  6
CONTINUOUS
  5
73D
 10
362.154747
 20
363.47223
 30
0.0
 40
0.5
 50
270.0
 51
0.000164
  0
ARC
  8
LC-001-205-----0
  6
CONTINUOUS
  5
73E
 10
361.85458
 20
361.27223
 30
0.0
 40
0.5
 50
90.0
 51
179.999963
  0
LINE
  8
LC-001-205-----0
  6
CONTINUOUS
  5
73F
 10
361.85458
 20
361.77223
 30
0.0
 11
362.154745
 21
361.77223
 31
0.0
  0
LINE
  8
LC-001-205-----0
  6
CONTINUOUS
  5
740
 10
358.054723
 20
362.97223
 30
0.0
 11
362.154747
 21
362.97223
 31
0.0
  0
ARC
  8
LC-001-205-----0
  6
CONTINUOUS
  5
741
 10
362.154728
 20
370.07223
 30
0.0
 40
0.5
 50
0.000164
 51
90.0
  0
LINE
  8
LC-001-205-----0
  6
CONTINUOUS
  5
742
 10
358.054725
 20
370.57223
 30
0.0
 11
362.154728
 21
370.57223
 31
0.0
  0
ARC
  8
LC-001-205-----0
  6
CONTINUOUS
  5
743
 10
358.054723
 20
362.47223
 30
0.0
 40
0.5
 50
90.0
 51
180.0
  0
ARC
  8
LC-001-205-----0
  6
CONTINUOUS
  5
744
 10
358.054725
 20
371.07223
 30
0.0
 40
0.5
 50
180.000164
 51
270.0
  0
LINE
  8
LC-001-205-----0
  6
CONTINUOUS
  5
745
 10
360.354548
 20
311.742768
 30
0.0
 11
360.35458
 21
361.272229
 31
0.0
  0
ARC
  8
LC-001-205-----0
  6
CONTINUOUS
  5
746
 10
359.85458
 20
361.27223
 30
0.0
 40
0.5
 50
359.999963
 51
85.018931
  0
LINE
  8
LC-001-205-----0
  6
CONTINUOUS
  5
747
 10
357.554723
 20
361.767914
 30
0.0
 11
357.554723
 21
362.47223
 31
0.0
  0
LINE
  8
LC-001-205-----0
  6
CONTINUOUS
  5
748
 10
357.554725
 20
371.072228
 30
0.0
 11
357.554723
 21
371.766962
 31
0.0
  0
LINE
  8
LC-003-002-----0
  6
CONTINUOUS
  5
749
 10
414.39342
 20
360.932148
 30
0.0
 11
409.195384
 21
311.742768
 31
0.0
  0
LINE
  8
LC-001-205-----0
  6
CONTINUOUS
  5
74A
 10
485.15488
 20
361.772146
 30
0.0
 11
485.154881
 21
362.472146
 31
0.0
  0
LINE
  8
LC-003-002-----0
  6
CONTINUOUS
  5
74B
 10
414.39342
 20
360.932148
 30
0.0
 11
416.856888
 21
360.932148
 31
0.0
  0
LINE
  8
LC-003-002-----0
  6
CONTINUOUS
  5
74C
 10
230.227793
 20
339.224788
 30
0.0
 11
233.227793
 21
339.224788
 31
0.0
  0
LINE
  8
LC-003-002-----0
  6
CONTINUOUS
  5
74D
 10
420.952424
 20
392.805137
 30
0.0
 11
463.952424
 21
392.805137
 31
0.0
  0
LINE
  8
LC-003-002-----0
  6
CONTINUOUS
  5
74E
 10
420.952424
 20
392.805137
 30
0.0
 11
420.952424
 21
388.612396
 31
0.0
  0
LINE
  8
LC-003-002-----0
  6
CONTINUOUS
  5
74F
 10
463.952424
 20
392.805137
 30
0.0
 11
463.952424
 21
388.615137
 31
0.0
  0
LINE
  8
LC-003-002-----0
  6
CONTINUOUS
  5
750
 10
459.802424
 20
389.805137
 30
0.0
 11
459.802424
 21
386.605137
 31
0.0
  0
LINE
  8
LC-003-002-----0
  6
CONTINUOUS
  5
751
 10
425.102424
 20
389.805137
 30
0.0
 11
425.102424
 21
386.605137
 31
0.0
  0
LINE
  8
LC-003-002-----0
  6
CONTINUOUS
  5
752
 10
462.352424
 20
386.605137
 30
0.0
 11
462.352424
 21
383.305137
 31
0.0
  0
LINE
  8
LC-003-002-----0
  6
CONTINUOUS
  5
753
 10
462.352424
 20
383.305137
 30
0.0
 11
422.552424
 21
383.305137
 31
0.0
  0
LINE
  8
LC-003-002-----0
  6
CONTINUOUS
  5
754
 10
422.552424
 20
386.605137
 30
0.0
 11
422.552424
 21
383.305137
 31
0.0
  0
LINE
  8
LC-003-002-----0
  6
CONTINUOUS
  5
755
 10
420.952424
 20
389.805137
 30
0.0
 11
425.102424
 21
389.805137
 31
0.0
  0
LINE
  8
LC-003-002-----0
  6
CONTINUOUS
  5
756
 10
459.802424
 20
389.805137
 30
0.0
 11
463.952424
 21
389.805137
 31
0.0
  0
ARC
  8
LC-003-002-----0
  6
CONTINUOUS
  5
757
 10
230.227793
 20
390.974788
 30
0.0
 40
2.75
 50
90.0
 51
270.0
  0
ARC
  8
LC-003-002-----0
  6
CONTINUOUS
  5
758
 10
233.227793
 20
390.974788
 30
0.0
 40
2.75
 50
270.0
 51
90.0
  0
LINE
  8
LC-003-002-----0
  6
CONTINUOUS
  5
759
 10
230.227793
 20
388.224788
 30
0.0
 11
233.227793
 21
388.224788
 31
0.0
  0
ARC
  8
LC-003-002-----0
  6
CONTINUOUS
  5
75A
 10
230.227793
 20
336.474788
 30
0.0
 40
2.75
 50
90.0
 51
270.0
  0
ARC
  8
LC-003-002-----0
  6
CONTINUOUS
  5
75B
 10
233.227793
 20
336.474788
 30
0.0
 40
2.75
 50
270.0
 51
90.0
  0
LINE
  8
LC-001-205-----0
  6
CONTINUOUS
  5
75C
 10
362.654747
 20
363.472231
 30
0.0
 11
362.654741
 21
365.72223
 31
0.0
  0
LINE
  8
LC-003-002-----0
  6
CONTINUOUS
  5
75D
 10
459.802424
 20
388.615137
 30
0.0
 11
471.680993
 21
388.615137
 31
0.0
  0
ARC
  8
LC-005-002-RND-0
  6
DASHDOT
 62
     2
  5
75E
 10
282.477793
 20
333.724788
 30
0.0
 40
30.0
 50
0.0
 51
90.0
  0
ARC
  8
LC-003-002-----0
  6
CONTINUOUS
  5
75F
 10
359.905075
 20
367.82223
 30
0.0
 40
2.75
 50
0.000164
 51
176.699173
  0
ARC
  8
LC-003-002-----0
  6
CONTINUOUS
  5
760
 10
359.905075
 20
365.72223
 30
0.0
 40
2.75
 50
180.0
 51
0.0
  0
LINE
  8
LC-001-205-----0
  6
CONTINUOUS
  5
761
 10
362.654735
 20
367.822237
 30
0.0
 11
362.654728
 21
370.072231
 31
0.0
  0
LINE
  8
LC-003-002-----0
  6
CONTINUOUS
  5
762
 10
362.655075
 20
367.822237
 30
0.0
 11
362.655075
 21
365.72223
 31
0.0
  0
LINE
  8
LC-006-005-----0
  6
CONTINUOUS
  5
763
 10
357.211289
 20
365.169041
 30
0.0
 11
359.351886
 21
363.028444
 31
0.0
  0
LINE
  8
LC-006-005-----0
  6
CONTINUOUS
  5
764
 10
357.155075
 20
366.639468
 30
0.0
 11
360.703773
 21
363.09077
 31
0.0
  0
LINE
  8
LC-006-005-----0
  6
CONTINUOUS
  5
765
 10
357.164086
 20
368.044671
 30
0.0
 11
361.629051
 21
363.579706
 31
0.0
  0
LINE
  8
LC-006-005-----0
  6
CONTINUOUS
  5
766
 10
357.488407
 20
369.134563
 30
0.0
 11
362.282645
 21
364.340325
 31
0.0
  0
LINE
  8
LC-006-005-----0
  6
CONTINUOUS
  5
767
 10
358.121653
 20
369.91553
 30
0.0
 11
362.636242
 21
365.400942
 31
0.0
  0
LINE
  8
LC-006-005-----0
  6
CONTINUOUS
  5
768
 10
359.024099
 20
370.427298
 30
0.0
 11
362.655075
 21
366.796323
 31
0.0
  0
LINE
  8
LC-006-005-----0
  6
CONTINUOUS
  5
769
 10
360.325747
 20
370.539864
 30
0.0
 11
362.622709
 21
368.242902
 31
0.0
  0
ARC
  8
LC-003-002-----0
  6
CONTINUOUS
  5
76A
 10
482.78485
 20
367.822069
 30
0.0
 40
2.75
 50
352.068577
 51
179.999761
  0
LINE
  8
LC-003-002-----0
  6
CONTINUOUS
  5
76B
 10
457.802424
 20
390.693845
 30
0.0
 11
457.802424
 21
383.305137
 31
0.0
  0
LINE
  8
LC-003-002-----0
  6
CONTINUOUS
  5
76C
 10
427.102424
 20
390.693845
 30
0.0
 11
427.102424
 21
383.305137
 31
0.0
  0
ARC
  8
LC-003-002-----0
  6
CONTINUOUS
  5
76D
 10
442.452424
 20
436.131045
 30
0.0
 40
45.964734
 50
250.491197
 51
289.440613
  0
ARC
  8
LC-003-002-----0
  6
CONTINUOUS
  5
76E
 10
442.452424
 20
436.131045
 30
0.0
 40
47.96
 50
251.333544
 51
288.666456
  0
LINE
  8
LC-003-002-----0
  6
CONTINUOUS
  5
76F
 10
480.054886
 20
370.072154
 30
0.0
 11
480.054886
 21
363.472154
 31
0.0
  0
ARC
  8
LC-003-002-----0
  6
CONTINUOUS
  5
770
 10
482.784858
 20
365.722149
 30
0.0
 40
2.75
 50
180.0
 51
0.0
  0
ARC
  8
LC-007-209-----0
  5
772
 10
520.327898
 20
334.520209
 30
0.0
 40
33.0
 50
28.721796
 51
65.538402
  0
ARC
  8
LC-003-002-----0
  6
DASHED
 62
     2
  5
773
 10
520.293696
 20
334.426239
 30
0.0
 40
29.5
 50
28.811089
 51
82.996787
  0
LINE
  8
LC-003-002-----0
  6
DASHED
 62
     2
  5
774
 10
544.9291
 20
350.672493
 30
0.0
 11
528.654216
 21
305.957616
 31
0.0
  0
LINE
  8
LC-003-002-----0
  6
DASHED
 62
     2
  5
775
 10
530.887893
 20
306.732685
 30
0.0
 11
546.141992
 21
348.642975
 31
0.0
  0
ARC
  8
LC-007-209-----0
  5
776
 10
520.19109
 20
334.144332
 30
0.0
 40
33.0
 50
254.461598
 51
291.278204
  0
LINE
  8
LC-003-002-----0
  6
DASHED
 62
     2
  5
777
 10
501.553262
 20
305.916497
 30
0.0
 11
511.350911
 21
302.350445
 31
0.0
  0
LINE
  8
LC-003-002-----0
  6
DASHED
 62
     2
  5
778
 10
501.553262
 20
305.916497
 30
0.0
 11
502.675543
 21
308.999937
 31
0.0
  0
LINE
  8
LC-008-208-----0
  5
77A
 10
566.691893
 20
293.701094
 30
0.0
 11
530.887893
 21
306.732685
 31
0.0
  0
LINE
  8
LC-008-208-----0
  5
77B
 10
581.945991
 20
335.611385
 30
0.0
 11
546.141992
 21
348.642975
 31
0.0
  0
LINE
  8
LC-008-208-----0
  5
77C
 10
549.26769
 20
350.378594
 30
0.0
 11
551.615905
 21
349.523914
 31
0.0
  0
ARC
  8
LC-003-002-----0
  6
DASHED
 62
     2
  5
77D
 10
557.78142
 20
320.675406
 30
0.0
 40
29.5
 50
62.1854
 51
102.063786
  0
ARC
  8
LC-003-002-----0
  6
DASHED
 62
     2
  5
77E
 10
557.751343
 20
320.692771
 30
0.0
 40
29.5
 50
10.217104
 51
63.4332
  0
ARC
  8
LC-007-209-----0
  5
77F
 10
557.815622
 20
320.769375
 30
0.0
 40
33.0
 50
8.985433
 51
45.538402
  0
LINE
  8
LC-003-002-----0
  6
DASHED
 62
     2
  5
780
 10
572.94273
 20
351.024124
 30
0.0
 11
580.929847
 21
344.322137
 31
0.0
  0
LINE
  8
LC-003-002-----0
  6
DASHED
 62
     2
  5
781
 10
572.94273
 20
351.024124
 30
0.0
 11
570.833533
 21
348.510481
 31
0.0
  0
ARC
  8
LC-005-002-RND-0
  6
DASHED
 62
     2
  5
782
 10
571.599577
 20
347.867693
 30
0.0
 40
1.0
 50
140.0
 51
242.996787
  0
LINE
  8
LC-003-002-----0
  6
DASHED
 62
     2
  5
783
 10
530.518748
 20
300.465191
 30
0.0
 11
538.505864
 21
293.763204
 31
0.0
  0
LINE
  8
LC-003-002-----0
  6
DASHED
 62
     2
  5
784
 10
530.518748
 20
300.465191
 30
0.0
 11
532.627945
 21
302.978834
 31
0.0
  0
ARC
  8
LC-005-002-RND-0
  6
DASHED
 62
     2
  5
785
 10
533.393989
 20
302.336047
 30
0.0
 40
1.0
 50
37.003213
 51
140.0
  0
ARC
  8
LC-007-209-----0
  5
786
 10
557.687064
 20
320.616166
 30
0.0
 40
33.0
 50
234.461598
 51
271.014567
  0
LINE
  8
LC-007-209-----0
  5
787
 10
559.802998
 20
286.336045
 30
0.0
 11
558.271247
 21
287.621337
 31
0.0
  0
LINE
  8
LC-007-209-----0
  5
788
 10
556.879552
 20
269.756359
 30
0.0
 11
559.802998
 21
286.336045
 31
0.0
  0
LINE
  8
LC-003-002-----0
  6
DASHED
 62
     2
  5
789
 10
556.879552
 20
269.756359
 30
0.0
 11
586.720896
 21
227.138504
 31
0.0
  0
LINE
  8
LC-007-209-----0
  5
78A
 10
590.580779
 20
225.112913
 30
0.0
 11
559.925574
 21
270.561124
 31
0.0
  0
LINE
  8
LC-007-209-----0
  5
78B
 10
559.941674
 20
270.537255
 30
0.0
 11
562.297666
 21
283.898749
 31
0.0
  0
LINE
  8
LC-003-002-----0
  6
DASHED
 62
     2
  5
78C
 10
562.297666
 20
283.898749
 30
0.0
 11
597.108285
 21
234.184032
 31
0.0
  0
LINE
  8
LC-007-209-----0
  5
78D
 10
600.739507
 20
232.226131
 30
0.0
 11
565.303496
 21
284.762179
 31
0.0
  0
LINE
  8
LC-003-002-----0
  6
DASHED
 62
     2
  5
78E
 10
595.033644
 20
319.002789
 30
0.0
 11
565.303496
 21
284.762179
 31
0.0
  0
LINE
  8
LC-003-002-----0
  6
DASHED
 62
     2
  5
78F
 10
586.783553
 20
325.925437
 30
0.0
 11
557.639563
 21
291.192982
 31
0.0
  0
LINE
  8
LC-003-002-----0
  6
DASHED
 62
     2
  5
790
 10
582.416445
 20
336.903946
 30
0.0
 11
566.23221
 21
292.438127
 31
0.0
  0
LINE
  8
LC-007-209-----0
  5
791
 10
602.609233
 20
315.687714
 30
0.0
 11
590.322136
 21
325.997813
 31
0.0
  0
LINE
  8
LC-007-209-----0
  5
792
 10
618.479786
 20
312.889307
 30
0.0
 11
602.609233
 21
315.687714
 31
0.0
  0
LINE
  8
LC-007-209-----0
  5
793
 10
616.698677
 20
310.278936
 30
0.0
 11
603.337183
 21
312.634928
 31
0.0
  0
LINE
  8
LC-003-002-----0
  6
DASHED
 62
     2
  5
794
 10
603.337183
 20
312.634928
 30
0.0
 11
638.147802
 21
262.920212
 31
0.0
  0
LINE
  8
LC-007-209-----0
  5
795
 10
638.745677
 20
258.838337
 30
0.0
 11
595.033644
 21
319.002789
 31
0.0
  0
LINE
  8
LC-003-002-----0
  6
DASHED
 62
     2
  5
796
 10
618.479786
 20
312.889307
 30
0.0
 11
648.32113
 21
270.271452
 31
0.0
  0
LINE
  8
LC-007-209-----0
  5
797
 10
648.904405
 20
265.951555
 30
0.0
 11
616.698677
 21
310.278936
 31
0.0
  0
LINE
  8
LC-007-209-----0
  5
798
 10
648.32113
 20
270.271452
 30
0.0
 11
649.692575
 21
266.503438
 31
0.0
  0
LINE
  8
LC-007-209-----0
  5
799
 10
638.147802
 20
262.920212
 30
0.0
 11
639.453174
 21
259.333732
 31
0.0
  0
LINE
  8
LC-007-209-----0
  5
79A
 10
586.720896
 20
227.138504
 30
0.0
 11
589.792609
 21
224.56103
 31
0.0
  0
LINE
  8
LC-007-209-----0
  5
79B
 10
597.108285
 20
234.184032
 30
0.0
 11
600.03201
 21
231.730736
 31
0.0
  0
LINE
  8
LC-007-209-----0
  5
79C
 10
589.845407
 20
224.598
 30
0.0
 11
649.692575
 21
266.503438
 31
0.0
  0
LINE
  8
LC-007-209-----0
  6
DASHDOT
  5
79D
 10
580.452606
 20
301.644149
 30
0.0
 11
619.742592
 21
245.532234
 31
0.0
  0
LINE
  8
LC-007-209-----0
  6
DASHDOT
  5
79E
 10
548.085012
 20
324.20461
 30
0.0
 11
585.628641
 21
310.539846
 31
0.0
  0
LINE
  8
LC-003-002-----0
  6
DASHDOT
 62
     2
  5
79F
 10
548.085012
 20
324.20461
 30
0.0
 11
520.276063
 21
334.326239
 31
0.0
  0
LINE
  8
LC-003-002-----0
  6
DASHED
 62
     2
  5
7A0
 10
524.194996
 20
368.124149
 30
0.0
 11
523.072715
 21
365.040709
 31
0.0
  0
ARC
  8
LC-005-002-RND-0
  6
DASHED
 62
     2
  5
7A1
 10
524.012408
 20
364.698688
 30
0.0
 40
1.0
 50
160.0
 51
262.996787
  0
LINE
  8
LC-003-002-----0
  6
DASHED
 62
     2
  5
7A2
 10
524.194996
 20
368.124149
 30
0.0
 11
533.992645
 21
364.558096
 31
0.0
  0
LINE
  8
LC-003-002-----0
  6
DASHED
 62
     2
  5
7A3
 10
586.783553
 20
325.925437
 30
0.0
 11
595.033644
 21
319.002789
 31
0.0
  0
LINE
  8
LC-003-002-----0
  6
DASHED
 62
     2
  5
7A4
 10
557.751343
 20
291.192771
 30
0.0
 11
565.303496
 21
284.762179
 31
0.0
  0
ARC
  8
LC-003-002-----0
  6
CONTINUOUS
  5
7A5
 10
287.777793
 20
326.837085
 30
0.0
 40
2.4
 50
0.0
 51
176.454881
  0
ARC
  8
LC-003-002-----0
  6
CONTINUOUS
  5
7A6
 10
287.777793
 20
324.537085
 30
0.0
 40
2.4
 50
180.0
 51
0.0
  0
ARC
  8
LC-003-002-----0
  6
CONTINUOUS
  5
7A7
 10
337.177793
 20
326.837085
 30
0.0
 40
2.4
 50
3.545119
 51
180.0
  0
ARC
  8
LC-003-002-----0
  6
CONTINUOUS
  5
7A8
 10
337.177793
 20
324.537085
 30
0.0
 40
2.4
 50
180.0
 51
360.0
  0
ARC
  8
LC-003-002-----0
  6
DASHED
 62
     2
  5
7A9
 10
557.751343
 20
320.692771
 30
0.0
 40
29.5
 50
236.634136
 51
286.707567
  0
LINE
  8
LC-008-208-----0
  5
7AA
 10
532.166683
 20
303.393963
 30
0.0
 11
534.514898
 21
302.539283
 31
0.0
  0
ARC
  8
LC-003-002-----0
  6
DASHED
 62
     2
  5
7AB
 10
557.78142
 20
320.675406
 30
0.0
 40
29.5
 50
216.941149
 51
236.5668
  0
LINE
  8
LC-003-002-----0
  6
CONTINUOUS
  5
7AC
 10
393.073472
 20
295.771462
 30
0.0
 11
393.073472
 21
312.651653
 31
0.0
  0
LINE
  8
LC-003-002-----0
  6
CONTINUOUS
  5
7AD
 10
391.073472
 20
300.771462
 30
0.0
 11
391.073472
 21
312.651653
 31
0.0
  0
LINE
  8
LC-009-207-----0
  6
CONTINUOUS
  5
7AF
 10
393.073472
 20
295.771462
 30
0.0
 11
463.834078
 21
295.771462
 31
0.0
  0
ARC
  8
LC-010-207-RND-0
  6
CONTINUOUS
  5
7B1
 10
386.073472
 20
300.771462
 30
0.0
 40
5.0
 50
270.0
 51
0.0
  0
LINE
  8
LC-003-002-----0
  6
CONTINUOUS
  5
7B2
 10
465.834078
 20
309.98915
 30
0.0
 11
465.834078
 21
292.771462
 31
0.0
  0
LINE
  8
LC-003-002-----0
  6
CONTINUOUS
  5
7B3
 10
381.334078
 20
295.771462
 30
0.0
 11
381.334078
 21
312.651653
 31
0.0
  0
LINE
  8
LC-003-002-----0
  6
CONTINUOUS
  5
7B4
 10
381.334078
 20
312.68363
 30
0.0
 11
391.073472
 21
312.68363
 31
0.0
  0
LINE
  8
LC-003-002-----0
  6
CONTINUOUS
  5
7B5
 10
482.814106
 20
311.964593
 30
0.0
 11
465.834078
 21
312.490482
 31
0.0
  0
LINE
  8
LC-003-002-----0
  6
CONTINUOUS
  5
7B6
 10
485.834078
 20
359.459325
 30
0.0
 11
485.834078
 21
359.249268
 31
0.0
  0
LINE
  8
LC-003-002-----0
  6
CONTINUOUS
  5
7B7
 10
359.834078
 20
315.773446
 30
0.0
 11
360.35455
 21
315.756449
 31
0.0
  0
ARC
  8
LC-003-002-----0
  6
CONTINUOUS
  5
7B8
 10
480.834078
 20
307.523625
 30
0.0
 40
2.0
 50
0.0
 51
88.226057
  0
LINE
  8
LC-003-002-----0
  6
CONTINUOUS
  5
7B9
 10
360.354549
 20
313.25596
 30
0.0
 11
359.854017
 21
313.271462
 31
0.0
  0
ARC
  8
LC-005-002-RND-0
  6
CONTINUOUS
  5
7BA
 10
502.235833
 20
371.959325
 30
0.0
 40
3.0
 50
270.0
 51
335.025313
  0
LINE
  8
LC-003-002-----0
  6
CONTINUOUS
  5
7BB
 10
480.89599
 20
309.522667
 30
0.0
 11
465.834078
 21
309.98915
 31
0.0
  0
LINE
  8
LC-003-002-----0
  6
CONTINUOUS
  5
7BC
 10
482.834078
 20
361.767914
 30
0.0
 11
482.834078
 21
356.550143
 31
0.0
  0
LINE
  8
LC-003-002-----0
  6
CONTINUOUS
  5
7BD
 10
359.834078
 20
361.767914
 30
0.0
 11
359.834078
 21
315.773446
 31
0.0
  0
LINE
  8
LC-003-002-----0
  6
CONTINUOUS
  5
7BE
 10
356.834078
 20
359.459325
 30
0.0
 11
356.834078
 21
317.471462
 31
0.0
  0
ARC
  8
LC-005-002-RND-0
  6
CONTINUOUS
  5
7BF
 10
354.834078
 20
317.471462
 30
0.0
 40
2.0
 50
270.0
 51
0.0
  0
LINE
  8
LC-003-002-----0
  6
CONTINUOUS
  5
7C0
 10
349.807146
 20
313.271462
 30
0.0
 11
349.807146
 21
295.771462
 31
0.0
  0
LINE
  8
LC-003-002-----0
  6
CONTINUOUS
  5
7C1
 10
391.073472
 20
312.68363
 30
0.0
 11
393.073472
 21
312.68363
 31
0.0
  0
LINE
  8
LC-003-002-----0
  6
CONTINUOUS
  5
7C2
 10
349.807146
 20
295.771462
 30
0.0
 11
349.807146
 21
289.771462
 31
0.0
  0
ARC
  8
LC-005-002-RND-0
  6
CONTINUOUS
  5
7C3
 10
326.584078
 20
398.007605
 30
0.0
 40
0.5
 50
0.0
 51
86.000003
  0
LINE
  8
LC-003-002-----0
  6
CONTINUOUS
  5
7C4
 10
337.709324
 20
370.69278
 30
0.0
 11
332.334078
 21
382.240779
 31
0.0
  0
LINE
  8
LC-003-002-----0
  6
CONTINUOUS
  5
7C5
 10
504.955317
 20
370.692671
 30
0.0
 11
510.334078
 21
382.240779
 31
0.0
  0
ARC
  8
LC-005-002-RND-0
  6
CONTINUOUS
  5
7C6
 10
356.834078
 20
362.459325
 30
0.0
 40
3.0
 50
180.0
 51
270.0
  0
LINE
  8
LC-003-002-----0
  6
CONTINUOUS
  5
7C7
 10
482.814103
 20
361.767914
 30
0.0
 11
485.513061
 21
361.767914
 31
0.0
  0
LINE
  8
LC-003-002-----0
  6
CONTINUOUS
  5
7C8
 10
355.655561
 20
371.963676
 30
0.0
 11
345.476901
 21
371.963676
 31
0.0
  0
ARC
  8
LC-005-002-RND-0
  6
CONTINUOUS
  5
7C9
 10
345.476901
 20
373.953031
 30
0.0
 40
1.999352
 50
180.0
 51
270.0
  0
LINE
  8
LC-003-002-----0
  6
CONTINUOUS
  5
7CA
 10
343.477549
 20
377.858693
 30
0.0
 11
343.477549
 21
376.358693
 31
0.0
  0
LINE
  8
LC-003-002-----0
  6
CONTINUOUS
  5
7CB
 10
340.428238
 20
368.959325
 30
0.0
 11
350.334078
 21
368.959325
 31
0.0
  0
ARC
  8
LC-005-002-RND-0
  6
CONTINUOUS
  5
7CC
 10
340.428238
 20
371.958353
 30
0.0
 40
2.999028
 50
204.960562
 51
270.0
  0
LINE
  8
LC-003-002-----0
  6
CONTINUOUS
  5
7CD
 10
498.990606
 20
379.858693
 30
0.0
 11
499.190606
 21
379.858693
 31
0.0
  0
LINE
  8
LC-003-002-----0
  6
CONTINUOUS
  5
7CE
 10
357.454977
 20
361.767914
 30
0.0
 11
359.854052
 21
361.767914
 31
0.0
  0
LINE
  8
LC-003-002-----0
  6
CONTINUOUS
  5
7CF
 10
357.155075
 20
362.067816
 30
0.0
 11
357.155075
 21
365.74549
 31
0.0
  0
LINE
  8
LC-003-002-----0
  6
CONTINUOUS
  5
7D0
 10
270.334078
 20
407.461933
 30
0.0
 11
270.334078
 21
404.454735
 31
0.0
  0
LINE
  8
LC-003-002-----0
  6
CONTINUOUS
  5
7D1
 10
499.190606
 20
377.858693
 30
0.0
 11
498.990606
 21
377.858693
 31
0.0
  0
LINE
  8
LC-003-002-----0
  6
CONTINUOUS
  5
7D2
 10
499.190606
 20
376.358693
 30
0.0
 11
498.990606
 21
376.358693
 31
0.0
  0
LINE
  8
LC-003-002-----0
  6
CONTINUOUS
  5
7D3
 10
504.628654
 20
359.249268
 30
0.0
 11
485.834078
 21
359.249268
 31
0.0
  0
ARC
  8
LC-003-002-----0
  6
CONTINUOUS
  5
7D4
 10
357.454977
 20
362.067816
 30
0.0
 40
0.299903
 50
180.0
 51
270.0
  0
LINE
  8
LC-003-002-----0
  6
CONTINUOUS
  5
7D5
 10
499.190606
 20
374.358693
 30
0.0
 11
498.990606
 21
374.358693
 31
0.0
  0
ARC
  8
LC-003-002-----0
  6
CONTINUOUS
  5
7D6
 10
355.655561
 20
370.464162
 30
0.0
 40
1.499514
 50
0.0
 51
90.0
  0
LINE
  8
LC-003-002-----0
  6
CONTINUOUS
  5
7D7
 10
357.155075
 20
367.980833
 30
0.0
 11
357.155075
 21
370.464162
 31
0.0
  0
LINE
  8
LC-003-002-----0
  6
CONTINUOUS
  5
7D8
 10
526.398924
 20
359.249171
 30
0.0
 11
530.897466
 21
359.250045
 31
0.0
  0
LINE
  8
LC-003-002-----0
  6
CONTINUOUS
  5
7D9
 10
537.895198
 20
357.93712
 30
0.0
 11
537.895198
 21
356.550143
 31
0.0
  0
LINE
  8
LC-003-002-----0
  6
CONTINUOUS
  5
7DA
 10
530.897466
 20
361.788929
 30
0.0
 11
530.897466
 21
359.250045
 31
0.0
  0
LINE
  8
LC-003-002-----0
  6
CONTINUOUS
  5
7DB
 10
526.398924
 20
363.120458
 30
0.0
 11
526.398924
 21
359.249171
 31
0.0
  0
LINE
  8
LC-003-002-----0
  6
CONTINUOUS
  5
7DC
 10
537.895198
 20
356.550143
 30
0.0
 11
482.814106
 21
356.550143
 31
0.0
  0
LINE
  8
LC-003-002-----0
  6
CONTINUOUS
  5
7DD
 10
327.084078
 20
392.302685
 30
0.0
 11
327.084078
 21
392.034736
 31
0.0
  0
ARC
  8
LC-003-002-----0
  6
CONTINUOUS
  5
7DE
 10
500.174826
 20
336.279042
 30
0.0
 40
26.689176
 50
130.577646
 51
245.647084
  0
LINE
  8
LC-003-002-----0
  6
CONTINUOUS
  5
7DF
 10
504.628654
 20
309.265468
 30
0.0
 11
487.834078
 21
309.265468
 31
0.0
  0
LINE
  8
LC-003-002-----0
  6
CONTINUOUS
  5
7E0
 10
537.895198
 20
311.964593
 30
0.0
 11
482.814106
 21
311.964593
 31
0.0
  0
ARC
  8
LC-005-002-RND-0
  6
CONTINUOUS
  5
7E1
 10
343.677549
 20
378.658693
 30
0.0
 40
0.8
 50
270.0
 51
0.0
  0
LINE
  8
LC-003-002-----0
  6
CONTINUOUS
  5
7E2
 10
353.834078
 20
365.459325
 30
0.0
 11
353.834078
 21
362.459325
 31
0.0
  0
LINE
  8
LC-003-002-----0
  6
CONTINUOUS
  5
7E3
 10
310.334078
 20
399.645136
 30
0.0
 11
326.618956
 21
398.506387
 31
0.0
  0
ARC
  8
LC-005-002-RND-0
  6
CONTINUOUS
  5
7E4
 10
329.584078
 20
392.034736
 30
0.0
 40
2.5
 50
180.0
 51
270.0
  0
ARC
  8
LC-005-002-RND-0
  6
CONTINUOUS
  5
7E5
 10
516.084078
 20
398.007605
 30
0.0
 40
0.5
 50
93.999997
 51
180.0
  0
LINE
  8
LC-003-002-----0
  6
CONTINUOUS
  5
7E6
 10
327.084078
 20
398.007605
 30
0.0
 11
327.084078
 21
396.034736
 31
0.0
  0
LINE
  8
LC-003-002-----0
  6
CONTINUOUS
  5
7E7
 10
329.584078
 20
389.534736
 30
0.0
 11
331.334078
 21
389.534736
 31
0.0
  0
ARC
  8
LC-003-002-----0
  6
CONTINUOUS
  5
7E8
 10
321.073752
 20
425.203982
 30
0.0
 40
23.361504
 50
241.241457
 51
259.497843
  0
LINE
  8
LC-003-002-----0
  6
CONTINUOUS
  5
7E9
 10
270.334078
 20
407.461933
 30
0.0
 11
309.834078
 21
404.724002
 31
0.0
  0
LINE
  8
LC-003-002-----0
  6
CONTINUOUS
  5
7EA
 10
329.486166
 20
401.313066
 30
0.0
 11
316.815591
 21
402.233829
 31
0.0
  0
LINE
  8
LC-003-002-----0
  6
CONTINUOUS
  5
7EB
 10
270.334078
 20
404.454735
 30
0.0
 11
302.334078
 21
402.236664
 31
0.0
  0
LINE
  8
LC-003-002-----0
  6
CONTINUOUS
  5
7EC
 10
572.334078
 20
404.454735
 30
0.0
 11
540.334078
 21
402.236664
 31
0.0
  0
LINE
  8
LC-003-002-----0
  6
CONTINUOUS
  5
7ED
 10
572.334078
 20
407.461933
 30
0.0
 11
532.834078
 21
404.724002
 31
0.0
  0
LINE
  8
LC-003-002-----0
  6
CONTINUOUS
  5
7EE
 10
572.334078
 20
407.461933
 30
0.0
 11
572.334078
 21
404.454735
 31
0.0
  0
ARC
  8
LC-003-002-----0
  6
CONTINUOUS
  5
7EF
 10
521.594403
 20
425.203982
 30
0.0
 40
23.361504
 50
280.502157
 51
298.758543
  0
LINE
  8
LC-003-002-----0
  6
CONTINUOUS
  5
7F0
 10
513.181989
 20
401.313066
 30
0.0
 11
525.852564
 21
402.233829
 31
0.0
  0
LINE
  8
LC-003-002-----0
  6
CONTINUOUS
  5
7F1
 10
540.334078
 20
402.236664
 30
0.0
 11
532.334078
 21
399.645136
 31
0.0
  0
LINE
  8
LC-003-002-----0
  6
CONTINUOUS
  5
7F2
 10
532.334078
 20
399.645136
 30
0.0
 11
516.049199
 21
398.506387
 31
0.0
  0
LINE
  8
LC-003-002-----0
  6
CONTINUOUS
  5
7F3
 10
513.181989
 20
401.313066
 30
0.0
 11
513.181989
 21
393.628164
 31
0.0
  0
LINE
  8
LC-003-002-----0
  6
CONTINUOUS
  5
7F4
 10
510.083371
 20
392.478973
 30
0.0
 11
510.083371
 21
398.584499
 31
0.0
  0
LINE
  8
LC-003-002-----0
  6
CONTINUOUS
  5
7F5
 10
334.084784
 20
398.75872
 30
0.0
 11
334.084784
 21
397.25872
 31
0.0
  0
LINE
  8
LC-003-002-----0
  6
CONTINUOUS
  5
7F6
 10
537.895198
 20
357.93712
 30
0.0
 11
537.895198
 21
310.577616
 31
0.0
  0
LINE
  8
LC-003-002-----0
  6
CONTINUOUS
  5
7F7
 10
526.398924
 20
305.394278
 30
0.0
 11
526.398924
 21
309.265565
 31
0.0
  0
LINE
  8
LC-003-002-----0
  6
CONTINUOUS
  5
7F8
 10
526.398924
 20
309.265565
 30
0.0
 11
530.897466
 21
309.264691
 31
0.0
  0
LINE
  8
LC-003-002-----0
  6
CONTINUOUS
  5
7F9
 10
530.897466
 20
306.725807
 30
0.0
 11
530.897466
 21
309.264691
 31
0.0
  0
ARC
  8
LC-005-002-RND-0
  6
CONTINUOUS
  5
7FA
 10
330.486166
 20
393.628164
 30
0.0
 40
1.0
 50
180.0
 51
266.0
  0
LINE
  8
LC-003-002-----0
  6
CONTINUOUS
  5
7FB
 10
357.155075
 20
367.980833
 30
0.0
 11
357.155075
 21
365.745403
 31
0.0
  0
LINE
  8
LC-003-002-----0
  6
CONTINUOUS
  5
7FC
 10
485.513072
 20
370.458839
 30
0.0
 11
485.513072
 21
361.767914
 31
0.0
  0
LINE
  8
LC-003-002-----0
  6
CONTINUOUS
  5
7FD
 10
334.084784
 20
397.25872
 30
0.0
 11
334.584784
 21
396.392694
 31
0.0
  0
LINE
  8
LC-003-002-----0
  6
CONTINUOUS
  5
7FE
 10
332.584784
 20
398.75872
 30
0.0
 11
334.084784
 21
398.75872
 31
0.0
  0
LINE
  8
LC-003-002-----0
  6
CONTINUOUS
  5
7FF
 10
508.083371
 20
396.392694
 30
0.0
 11
508.083371
 21
382.157867
 31
0.0
  0
ARC
  8
LC-005-002-RND-0
  6
CONTINUOUS
  5
800
 10
506.583371
 20
382.157867
 30
0.0
 40
1.5
 50
270.0
 51
0.0
  0
LINE
  8
LC-003-002-----0
  6
CONTINUOUS
  5
801
 10
332.584784
 20
392.478973
 30
0.0
 11
332.584784
 21
398.75872
 31
0.0
  0
LINE
  8
LC-003-002-----0
  6
CONTINUOUS
  5
802
 10
506.583371
 20
380.657867
 30
0.0
 11
499.990606
 21
380.657867
 31
0.0
  0
ARC
  8
LC-005-002-RND-0
  6
CONTINUOUS
  5
803
 10
343.677549
 20
379.058693
 30
0.0
 40
0.8
 50
0.0
 51
90.0
  0
LINE
  8
LC-003-002-----0
  6
CONTINUOUS
  5
804
 10
344.477549
 20
378.658693
 30
0.0
 11
344.477549
 21
379.058693
 31
0.0
  0
ARC
  8
LC-005-002-RND-0
  6
CONTINUOUS
  5
805
 10
343.677549
 20
375.558693
 30
0.0
 40
0.8
 50
0.0
 51
90.0
  0
LINE
  8
LC-003-002-----0
  6
CONTINUOUS
  5
806
 10
344.477549
 20
375.158693
 30
0.0
 11
344.477549
 21
375.558693
 31
0.0
  0
ARC
  8
LC-005-002-RND-0
  6
CONTINUOUS
  5
807
 10
343.677549
 20
375.158693
 30
0.0
 40
0.8
 50
270.0
 51
0.0
  0
LINE
  8
LC-003-002-----0
  6
CONTINUOUS
  5
808
 10
343.477549
 20
376.358693
 30
0.0
 11
343.677549
 21
376.358693
 31
0.0
  0
LINE
  8
LC-003-002-----0
  6
CONTINUOUS
  5
809
 10
343.477549
 20
374.358693
 30
0.0
 11
343.677549
 21
374.358693
 31
0.0
  0
LINE
  8
LC-003-002-----0
  6
CONTINUOUS
  5
80A
 10
343.477549
 20
374.358693
 30
0.0
 11
343.477549
 21
373.953031
 31
0.0
  0
LINE
  8
LC-003-002-----0
  6
CONTINUOUS
  5
80B
 10
510.334078
 20
388.534736
 30
0.0
 11
510.334078
 21
382.240779
 31
0.0
  0
LINE
  8
LC-003-002-----0
  6
CONTINUOUS
  5
80C
 10
513.084078
 20
389.534736
 30
0.0
 11
511.334078
 21
389.534736
 31
0.0
  0
ARC
  8
LC-005-002-RND-0
  6
CONTINUOUS
  5
80D
 10
513.084078
 20
392.034736
 30
0.0
 40
2.5
 50
270.0
 51
0.0
  0
ARC
  8
LC-005-002-RND-0
  6
CONTINUOUS
  5
80E
 10
511.334078
 20
388.534736
 30
0.0
 40
1.0
 50
90.0
 51
180.0
  0
ARC
  8
LC-005-002-RND-0
  6
CONTINUOUS
  5
80F
 10
331.334078
 20
388.534736
 30
0.0
 40
1.0
 50
0.0
 51
90.0
  0
LINE
  8
LC-003-002-----0
  6
CONTINUOUS
  5
810
 10
516.584078
 20
394.034736
 30
0.0
 11
515.584078
 21
392.302685
 31
0.0
  0
LINE
  8
LC-003-002-----0
  6
CONTINUOUS
  5
811
 10
516.584078
 20
395.034736
 30
0.0
 11
516.584078
 21
394.034736
 31
0.0
  0
LINE
  8
LC-003-002-----0
  6
CONTINUOUS
  5
812
 10
515.584078
 20
398.007605
 30
0.0
 11
515.584078
 21
396.034736
 31
0.0
  0
LINE
  8
LC-003-002-----0
  6
CONTINUOUS
  5
813
 10
329.486166
 20
401.313066
 30
0.0
 11
329.486166
 21
393.628164
 31
0.0
  0
LINE
  8
LC-003-002-----0
  6
CONTINUOUS
  5
814
 10
334.584784
 20
396.392694
 30
0.0
 11
334.584784
 21
382.157867
 31
0.0
  0
LINE
  8
LC-003-002-----0
  6
CONTINUOUS
  5
815
 10
336.084784
 20
380.657867
 30
0.0
 11
342.677549
 21
380.657867
 31
0.0
  0
ARC
  8
LC-005-002-RND-0
  6
CONTINUOUS
  5
816
 10
336.084784
 20
382.157867
 30
0.0
 40
1.5
 50
180.0
 51
270.0
  0
LINE
  8
LC-003-002-----0
  6
CONTINUOUS
  5
817
 10
332.584784
 20
392.478973
 30
0.0
 11
330.41641
 21
392.6306
 31
0.0
  0
ARC
  8
LC-005-002-RND-0
  6
CONTINUOUS
  5
818
 10
342.677549
 20
379.857867
 30
0.0
 40
0.8
 50
0.059159
 51
90.0
  0
LINE
  8
LC-003-002-----0
  6
CONTINUOUS
  5
819
 10
343.677549
 20
379.858693
 30
0.0
 11
343.477549
 21
379.858693
 31
0.0
  0
LINE
  8
LC-003-002-----0
  6
CONTINUOUS
  5
81A
 10
343.677549
 20
377.858693
 30
0.0
 11
343.477549
 21
377.858693
 31
0.0
  0
ARC
  8
LC-003-002-----0
  6
CONTINUOUS
  5
81B
 10
516.58343
 20
397.541952
 30
0.0
 40
0.999352
 50
180.0
 51
180.236759
  0
LINE
  8
LC-003-002-----0
  6
CONTINUOUS
  5
81C
 10
515.584078
 20
396.034736
 30
0.0
 11
516.584078
 21
395.034736
 31
0.0
  0
LINE
  8
LC-003-002-----0
  6
CONTINUOUS
  5
81D
 10
510.083371
 20
392.478973
 30
0.0
 11
512.251745
 21
392.6306
 31
0.0
  0
LINE
  8
LC-003-002-----0
  6
CONTINUOUS
  5
81E
 10
502.235833
 20
368.959325
 30
0.0
 11
492.334078
 21
368.959325
 31
0.0
  0
ARC
  8
LC-003-002-----0
  6
CONTINUOUS
  5
81F
 10
487.012595
 20
370.464162
 30
0.0
 40
1.499514
 50
90.0
 51
180.0
  0
LINE
  8
LC-003-002-----0
  6
CONTINUOUS
  5
820
 10
487.012595
 20
371.963676
 30
0.0
 11
497.191254
 21
371.963676
 31
0.0
  0
LINE
  8
LC-003-002-----0
  6
CONTINUOUS
  5
821
 10
492.334078
 20
368.959325
 30
0.0
 11
488.834078
 21
365.459325
 31
0.0
  0
LINE
  8
LC-003-002-----0
  6
CONTINUOUS
  5
822
 10
488.834078
 20
365.459325
 30
0.0
 11
488.834078
 21
362.459325
 31
0.0
  0
ARC
  8
LC-005-002-RND-0
  6
CONTINUOUS
  5
823
 10
485.834078
 20
362.459325
 30
0.0
 40
3.0
 50
270.0
 51
0.0
  0
ARC
  8
LC-003-002-----0
  6
CONTINUOUS
  5
824
 10
520.302037
 20
334.257368
 30
0.0
 40
29.5
 50
78.07248
 51
122.093408
  0
ARC
  8
LC-003-002-----0
  6
CONTINUOUS
  5
825
 10
520.302037
 20
334.257368
 30
0.0
 40
29.5
 50
291.049054
 51
306.610955
  0
ARC
  8
LC-003-002-----0
  6
CONTINUOUS
  5
826
 10
520.302037
 20
334.257368
 30
0.0
 40
29.5
 50
237.906592
 51
281.92752
  0
ARC
  8
LC-003-002-----0
  6
CONTINUOUS
  5
827
 10
520.302037
 20
334.257368
 30
0.0
 40
29.5
 50
53.389045
 51
68.950946
  0
LINE
  8
LC-003-002-----0
  6
CONTINUOUS
  5
828
 10
416.856888
 20
361.767914
 30
0.0
 11
482.814103
 21
361.767914
 31
0.0
  0
ARC
  8
LC-005-002-RND-0
  6
CONTINUOUS
  5
829
 10
512.181989
 20
393.628164
 30
0.0
 40
1.0
 50
274.0
 51
0.0
  0
LINE
  8
LC-003-002-----0
  6
CONTINUOUS
  5
82A
 10
465.834078
 20
361.767914
 30
0.0
 11
465.834078
 21
312.490482
 31
0.0
  0
LINE
  8
LC-003-002-----0
  6
CONTINUOUS
  5
82B
 10
482.834078
 20
307.523625
 30
0.0
 11
482.834078
 21
292.771462
 31
0.0
  0
LINE
  8
LC-003-002-----0
  6
CONTINUOUS
  5
82C
 10
485.834078
 20
307.265468
 30
0.0
 11
485.834078
 21
293.771462
 31
0.0
  0
LINE
  8
LC-003-002-----0
  6
CONTINUOUS
  5
82D
 10
463.834078
 20
361.767914
 30
0.0
 11
463.834078
 21
295.771462
 31
0.0
  0
LINE
  8
LC-003-002-----0
  6
CONTINUOUS
  5
82E
 10
515.584078
 20
392.302685
 30
0.0
 11
515.584078
 21
392.034736
 31
0.0
  0
ARC
  8
LC-005-002-RND-0
  6
CONTINUOUS
  5
82F
 10
487.834078
 20
307.265468
 30
0.0
 40
2.0
 50
90.0
 51
180.0
  0
LINE
  8
LC-009-207-----0
  6
CONTINUOUS
  5
830
 10
465.834078
 20
292.771462
 30
0.0
 11
484.834078
 21
292.771462
 31
0.0
  0
LINE
  8
LC-003-002-----0
  6
CONTINUOUS
  5
831
 10
302.334078
 20
402.236664
 30
0.0
 11
310.334078
 21
399.645136
 31
0.0
  0
LINE
  8
LC-003-002-----0
  6
CONTINUOUS
  5
832
 10
332.334078
 20
388.534736
 30
0.0
 11
332.334078
 21
382.240779
 31
0.0
  0
LINE
  8
LC-003-002-----0
  6
CONTINUOUS
  5
833
 10
326.084078
 20
395.034736
 30
0.0
 11
326.084078
 21
394.034736
 31
0.0
  0
LINE
  8
LC-003-002-----0
  6
CONTINUOUS
  5
834
 10
327.084078
 20
396.034736
 30
0.0
 11
326.084078
 21
395.034736
 31
0.0
  0
LINE
  8
LC-003-002-----0
  6
CONTINUOUS
  5
835
 10
508.583371
 20
398.584499
 30
0.0
 11
508.583371
 21
397.25872
 31
0.0
  0
LINE
  8
LC-003-002-----0
  6
CONTINUOUS
  5
836
 10
350.334078
 20
368.959325
 30
0.0
 11
353.834078
 21
365.459325
 31
0.0
  0
LINE
  8
LC-003-002-----0
  6
CONTINUOUS
  5
837
 10
326.084078
 20
394.034736
 30
0.0
 11
327.084078
 21
392.302685
 31
0.0
  0
LINE
  8
LC-003-002-----0
  6
CONTINUOUS
  5
838
 10
508.583371
 20
397.25872
 30
0.0
 11
508.083371
 21
396.392694
 31
0.0
  0
ARC
  8
LC-005-002-RND-0
  6
CONTINUOUS
  5
839
 10
497.191254
 20
373.953031
 30
0.0
 40
1.999352
 50
270.0
 51
0.0
  0
LINE
  8
LC-003-002-----0
  6
CONTINUOUS
  5
83A
 10
499.190606
 20
374.358693
 30
0.0
 11
499.190606
 21
373.953031
 31
0.0
  0
ARC
  8
LC-005-002-RND-0
  6
CONTINUOUS
  5
83B
 10
498.990606
 20
375.158693
 30
0.0
 40
0.8
 50
180.0
 51
270.0
  0
LINE
  8
LC-003-002-----0
  6
CONTINUOUS
  5
83C
 10
498.190606
 20
375.158693
 30
0.0
 11
498.190606
 21
375.558693
 31
0.0
  0
ARC
  8
LC-005-002-RND-0
  6
CONTINUOUS
  5
83D
 10
498.990606
 20
375.558693
 30
0.0
 40
0.8
 50
90.0
 51
180.0
  0
LINE
  8
LC-003-002-----0
  6
CONTINUOUS
  5
83E
 10
499.190606
 20
377.858693
 30
0.0
 11
499.190606
 21
376.358693
 31
0.0
  0
ARC
  8
LC-005-002-RND-0
  6
CONTINUOUS
  5
83F
 10
498.990606
 20
378.658693
 30
0.0
 40
0.8
 50
180.0
 51
270.0
  0
LINE
  8
LC-003-002-----0
  6
CONTINUOUS
  5
840
 10
498.190606
 20
378.658693
 30
0.0
 11
498.190606
 21
379.058693
 31
0.0
  0
ARC
  8
LC-005-002-RND-0
  6
CONTINUOUS
  5
841
 10
498.990606
 20
379.058693
 30
0.0
 40
0.8
 50
90.0
 51
180.0
  0
ARC
  8
LC-005-002-RND-0
  6
CONTINUOUS
  5
842
 10
499.990606
 20
379.857867
 30
0.0
 40
0.8
 50
90.0
 51
179.940841
  0
ARC
  8
LC-010-207-RND-0
  6
CONTINUOUS
  5
843
 10
484.834078
 20
293.771462
 30
0.0
 40
1.0
 50
270.0
 51
0.0
  0
LINE
  8
LC-003-002-----0
  6
CONTINUOUS
  5
844
 10
351.057146
 20
315.471462
 30
0.0
 11
354.834078
 21
315.471462
 31
0.0
  0
LINE
  8
LC-003-002-----0
  6
CONTINUOUS
  5
845
 10
351.057146
 20
289.771462
 30
0.0
 11
349.807146
 21
289.771462
 31
0.0
  0
LINE
  8
LC-003-002-----0
  6
CONTINUOUS
  5
846
 10
351.057146
 20
289.771462
 30
0.0
 11
351.057146
 21
292.771462
 31
0.0
  0
LINE
  8
LC-003-002-----0
  6
CONTINUOUS
  5
847
 10
351.057146
 20
289.771462
 30
0.0
 11
350.557146
 21
289.771462
 31
0.0
  0
LINE
  8
LC-003-002-----0
  6
CONTINUOUS
  5
848
 10
351.057146
 20
318.471462
 30
0.0
 11
349.807146
 21
318.471462
 31
0.0
  0
LINE
  8
LC-003-002-----0
  6
CONTINUOUS
  5
849
 10
351.057146
 20
315.471462
 30
0.0
 11
351.057146
 21
318.471462
 31
0.0
  0
LINE
  8
LC-009-207-----0
  6
CONTINUOUS
  5
84A
 10
351.057146
 20
292.771462
 30
0.0
 11
465.834078
 21
292.771462
 31
0.0
  0
LINE
  8
LC-009-207-----0
  6
CONTINUOUS
  5
84B
 10
349.807146
 20
295.771462
 30
0.0
 11
386.073472
 21
295.771462
 31
0.0
  0
LINE
  8
LC-003-002-----0
  6
CONTINUOUS
  5
84C
 10
349.807146
 20
313.271462
 30
0.0
 11
359.854017
 21
313.271462
 31
0.0
  0
LINE
  8
LC-003-002-----0
  6
CONTINUOUS
  5
84D
 10
349.807146
 20
318.471462
 30
0.0
 11
349.807146
 21
313.271462
 31
0.0
  0
LINE
  8
LC-003-002-----0
  6
CONTINUOUS
  5
84E
 10
611.768692
 20
367.415059
 30
0.0
 11
662.022717
 21
353.949534
 31
0.0
  0
LINE
  8
LC-003-002-----0
  6
CONTINUOUS
  5
84F
 10
579.108506
 20
357.027368
 30
0.0
 11
579.108506
 21
311.687368
 31
0.0
  0
LINE
  8
LC-003-002-----0
  6
CONTINUOUS
  5
850
 10
592.3055
 20
294.777437
 30
0.0
 11
642.559525
 21
281.311912
 31
0.0
  0
LINE
  8
LC-003-002-----0
  6
CONTINUOUS
  5
851
 10
600.332297
 20
357.486716
 30
0.0
 11
658.954782
 21
341.778868
 31
0.0
  0
LINE
  8
LC-003-002-----0
  6
CONTINUOUS
  5
852
 10
587.365463
 20
309.093832
 30
0.0
 11
645.987948
 21
293.385984
 31
0.0
  0
LINE
  8
LC-007-209-----0
  6
CONTINUOUS
 62
     1
  5
853
 10
579.108506
 20
357.027368
 30
0.0
 11
589.878235
 21
357.027368
 31
0.0
  0
LINE
  8
LC-007-209-----0
  6
CONTINUOUS
 62
     1
  5
854
 10
579.108506
 20
311.687368
 30
0.0
 11
589.11306
 21
311.687368
 31
0.0
  0
LINE
  8
LC-007-209-----0
  6
CONTINUOUS
 62
     1
  5
855
 10
583.887773
 20
309.357368
 30
0.0
 11
581.888213
 21
309.357368
 31
0.0
  0
LINE
  8
LC-007-209-----0
  6
CONTINUOUS
 62
     1
  5
856
 10
594.149271
 20
297.343931
 30
0.0
 11
587.365463
 21
309.093832
 31
0.0
  0
LINE
  8
LC-007-209-----0
  6
CONTINUOUS
 62
     1
  5
857
 10
642.559525
 20
281.311912
 30
0.0
 11
646.569362
 21
281.311912
 31
0.0
  0
ARC
  8
LC-007-209-----0
  6
CONTINUOUS
 62
     1
  5
858
 10
560.232037
 20
334.257368
 30
0.0
 40
33.0
 50
274.461598
 51
311.014567
  0
LINE
  8
LC-003-002-----0
  6
CONTINUOUS
  5
859
 10
589.878235
 20
357.027368
 30
0.0
 11
589.11306
 21
311.687368
 31
0.0
  0
LINE
  8
LC-007-209-----0
  6
CONTINUOUS
 62
     1
  5
85A
 10
662.022717
 20
353.949534
 30
0.0
 11
665.495338
 21
351.944615
 31
0.0
  0
LINE
  8
LC-007-209-----0
  6
CONTINUOUS
 62
     1
  5
85B
 10
611.768692
 20
367.415059
 30
0.0
 11
597.812362
 21
359.357368
 31
0.0
  0
LINE
  8
LC-007-209-----0
  6
CONTINUOUS
 62
     1
  5
85C
 10
592.3055
 20
294.777437
 30
0.0
 11
583.887773
 21
309.357368
 31
0.0
  0
LINE
  8
LC-007-209-----0
  6
CONTINUOUS
 62
     1
  5
85D
 10
665.246308
 20
351.015223
 30
0.0
 11
612.082198
 21
364.270524
 31
0.0
  0
LINE
  8
LC-007-209-----0
  6
CONTINUOUS
 62
     1
  5
85E
 10
658.954782
 20
341.778868
 30
0.0
 11
662.2601
 21
339.870542
 31
0.0
  0
LINE
  8
LC-007-209-----0
  6
CONTINUOUS
 62
     1
  5
85F
 10
645.987948
 20
293.385984
 30
0.0
 11
649.8046
 21
293.385984
 31
0.0
  0
LINE
  8
LC-007-209-----0
  6
CONTINUOUS
 62
     1
  5
860
 10
650.028141
 20
294.22025
 30
0.0
 11
589.11306
 21
311.687368
 31
0.0
  0
LINE
  8
LC-007-209-----0
  6
CONTINUOUS
 62
     1
  5
861
 10
597.812362
 20
359.357368
 30
0.0
 11
581.772696
 21
359.357368
 31
0.0
  0
LINE
  8
LC-007-209-----0
  6
CONTINUOUS
 62
     1
  5
862
 10
646.818392
 20
282.241304
 30
0.0
 11
594.121596
 21
297.351867
 31
0.0
  0
LINE
  8
LC-007-209-----0
  6
CONTINUOUS
 62
     1
  5
863
 10
662.036559
 20
339.036277
 30
0.0
 11
589.878235
 21
357.027368
 31
0.0
  0
LINE
  8
LC-007-209-----0
  6
CONTINUOUS
 62
     1
  5
864
 10
646.586044
 20
281.374169
 30
0.0
 11
649.8046
 21
293.385984
 31
0.0
  0
LINE
  8
LC-007-209-----0
  6
CONTINUOUS
 62
     1
  5
865
 10
612.082198
 20
364.270524
 30
0.0
 11
600.332297
 21
357.486716
 31
0.0
  0
LINE
  8
LC-003-002-----0
  6
CONTINUOUS
  5
866
 10
612.082198
 20
364.270524
 30
0.0
 11
609.586211
 21
354.955373
 31
0.0
  0
LINE
  8
LC-003-002-----0
  6
CONTINUOUS
  5
867
 10
596.645259
 20
306.659082
 30
0.0
 11
594.149271
 21
297.343931
 31
0.0
  0
LINE
  8
LC-003-002-----0
  6
CONTINUOUS
  5
868
 10
552.372696
 20
367.357368
 30
0.0
 11
562.799136
 21
367.357368
 31
0.0
  0
ARC
  8
LC-007-209-----0
  6
CONTINUOUS
 62
     1
  5
869
 10
560.232037
 20
334.457368
 30
0.0
 40
33.0
 50
48.985433
 51
85.538402
  0
LINE
  8
LC-003-002-----0
  6
CONTINUOUS
  5
86A
 10
552.372696
 20
367.357368
 30
0.0
 11
552.372696
 21
364.07604
 31
0.0
  0
ARC
  8
LC-003-002-----0
  6
CONTINUOUS
  5
86B
 10
560.232037
 20
334.357368
 30
0.0
 40
29.5
 50
50.217104
 51
102.996787
  0
ARC
  8
LC-003-002-----0
  6
CONTINUOUS
  5
86C
 10
560.232037
 20
334.357368
 30
0.0
 40
29.5
 50
257.003213
 51
309.782896
  0
ARC
  8
LC-005-002-RND-0
  6
CONTINUOUS
  5
86D
 10
553.372696
 20
364.07604
 30
0.0
 40
1.0
 50
180.0
 51
282.996787
  0
ARC
  8
LC-005-002-RND-0
  6
CONTINUOUS
  5
86E
 10
553.372696
 20
304.638696
 30
0.0
 40
1.0
 50
77.003213
 51
180.0
  0
LINE
  8
LC-003-002-----0
  6
CONTINUOUS
  5
86F
 10
552.372696
 20
301.364183
 30
0.0
 11
552.372696
 21
304.638696
 31
0.0
  0
LINE
  8
LC-003-002-----0
  6
CONTINUOUS
  5
870
 10
552.372696
 20
301.364183
 30
0.0
 11
562.799136
 21
301.364183
 31
0.0
  0
LINE
  8
LC-007-209-----0
  6
CONTINUOUS
 62
     1
  5
871
 10
649.8046
 20
293.385984
 30
0.0
 11
656.03235
 21
316.628263
 31
0.0
  0
LINE
  8
LC-007-209-----0
  6
CONTINUOUS
 62
     1
  5
872
 10
656.03235
 20
316.628263
 30
0.0
 11
665.495338
 21
351.944615
 31
0.0
  0
LINE
  8
LC-003-002-----0
  6
CONTINUOUS
  5
873
 10
552.372696
 20
334.360775
 30
0.0
 11
552.372696
 21
334.357368
 31
0.0
  0
LINE
  8
LC-003-002-----0
  6
CONTINUOUS
  5
874
 10
512.442696
 20
367.257368
 30
0.0
 11
512.442696
 21
364.07604
 31
0.0
  0
LINE
  8
LC-008-208-----0
  6
CONTINUOUS
 62
     1
  5
875
 10
541.842696
 20
359.257368
 30
0.0
 11
544.571577
 21
359.257368
 31
0.0
  0
LINE
  8
LC-008-208-----0
  6
CONTINUOUS
 62
     1
  5
876
 10
566.3309
 20
363.120041
 30
0.0
 11
566.3309
 21
359.257271
 31
0.0
  0
LINE
  8
LC-008-208-----0
  6
CONTINUOUS
 62
     1
  5
877
 10
566.3309
 20
359.257271
 30
0.0
 11
570.8309
 21
359.258145
 31
0.0
  0
LINE
  8
LC-008-208-----0
  6
CONTINUOUS
 62
     1
  5
878
 10
570.8309
 20
361.787608
 30
0.0
 11
570.8309
 21
359.258145
 31
0.0
  0
LINE
  8
LC-008-208-----0
  6
CONTINUOUS
 62
     1
  5
879
 10
577.8309
 20
357.932883
 30
0.0
 11
577.8309
 21
356.557368
 31
0.0
  0
LINE
  8
LC-008-208-----0
  6
CONTINUOUS
 62
     1
  5
87A
 10
577.8309
 20
356.557368
 30
0.0
 11
539.614209
 21
356.557368
 31
0.0
  0
LINE
  8
LC-003-002-----0
  6
CONTINUOUS
  5
87B
 10
512.442696
 20
301.257368
 30
0.0
 11
520.302037
 21
301.257368
 31
0.0
  0
LINE
  8
LC-003-002-----0
  6
CONTINUOUS
  5
87C
 10
512.442696
 20
367.257368
 30
0.0
 11
520.302037
 21
367.257368
 31
0.0
  0
ARC
  8
LC-003-002-----0
  6
CONTINUOUS
  5
87D
 10
520.302037
 20
334.257368
 30
0.0
 40
33.0
 50
270.0
 51
310.749054
  0
LINE
  8
LC-003-002-----0
  6
CONTINUOUS
  5
87E
 10
512.442696
 20
301.257368
 30
0.0
 11
512.442696
 21
304.438696
 31
0.0
  0
LINE
  8
LC-003-002-----0
  6
CONTINUOUS
  5
87F
 10
577.8309
 20
357.932883
 30
0.0
 11
577.8309
 21
334.257368
 31
0.0
  0
ARC
  8
LC-003-002-----0
  6
CONTINUOUS
  5
880
 10
520.302037
 20
334.257368
 30
0.0
 40
29.5
 50
257.003213
 51
310.89311
  0
LINE
  8
LC-008-208-----0
  6
CONTINUOUS
 62
     1
  5
881
 10
541.842696
 20
309.257368
 30
0.0
 11
544.571577
 21
309.257368
 31
0.0
  0
ARC
  8
LC-003-002-----0
  6
CONTINUOUS
  5
882
 10
560.232037
 20
334.257368
 30
0.0
 40
29.5
 50
78.068557
 51
122.063786
  0
LINE
  8
LC-008-208-----0
  6
CONTINUOUS
 62
     1
  5
883
 10
577.8309
 20
311.957368
 30
0.0
 11
539.614209
 21
311.957368
 31
0.0
  0
ARC
  8
LC-003-002-----0
  6
CONTINUOUS
  5
884
 10
560.232037
 20
334.257368
 30
0.0
 40
29.5
 50
237.936214
 51
281.931443
  0
LINE
  8
LC-008-208-----0
  6
CONTINUOUS
 62
     1
  5
885
 10
566.3309
 20
305.394696
 30
0.0
 11
566.3309
 21
309.257465
 31
0.0
  0
LINE
  8
LC-008-208-----0
  6
CONTINUOUS
 62
     1
  5
886
 10
566.3309
 20
309.257465
 30
0.0
 11
570.8309
 21
309.256591
 31
0.0
  0
LINE
  8
LC-008-208-----0
  6
CONTINUOUS
 62
     1
  5
887
 10
570.8309
 20
306.727129
 30
0.0
 11
570.8309
 21
309.256591
 31
0.0
  0
ARC
  8
LC-003-002-----0
  6
CONTINUOUS
  5
888
 10
560.232037
 20
334.257368
 30
0.0
 40
29.5
 50
53.375247
 51
68.943799
  0
ARC
  8
LC-003-002-----0
  6
CONTINUOUS
  5
889
 10
560.232037
 20
334.257368
 30
0.0
 40
29.5
 50
291.056201
 51
306.624753
  0
ARC
  8
LC-003-002-----0
  6
CONTINUOUS
  5
88A
 10
520.302037
 20
334.257368
 30
0.0
 40
33.0
 50
49.250946
 51
90.0
  0
LINE
  8
LC-003-002-----0
  6
CONTINUOUS
  5
88B
 10
577.8309
 20
310.581853
 30
0.0
 11
577.8309
 21
334.257368
 31
0.0
  0
ARC
  8
LC-005-002-RND-0
  6
CONTINUOUS
  5
88C
 10
513.442696
 20
363.97604
 30
0.0
 40
1.0
 50
180.0
 51
282.996787
  0
ARC
  8
LC-005-002-RND-0
  6
CONTINUOUS
  5
88D
 10
513.442696
 20
304.538696
 30
0.0
 40
1.0
 50
77.003213
 51
180.0
  0
ARC
  8
LC-003-002-----0
  6
CONTINUOUS
  5
88E
 10
520.302037
 20
334.257368
 30
0.0
 40
29.5
 50
49.10689
 51
102.996787
  0
LINE
  8
LC-003-002-----0
  6
CONTINUOUS
  5
88F
 10
539.614209
 20
311.957368
 30
0.0
 11
539.614209
 21
356.557368
 31
0.0
  0
CIRCLE
  8
LC-003-002-----0
  6
CONTINUOUS
  5
890
 10
568.5809
 20
361.257708
 30
0.0
 40
2.0
  0
CIRCLE
  8
LC-003-002-----0
  6
CONTINUOUS
  5
891
 10
528.648195
 20
307.265128
 30
0.0
 40
2.0
  0
CIRCLE
  8
LC-003-002-----0
  6
CONTINUOUS
  5
892
 10
528.648195
 20
361.249608
 30
0.0
 40
2.0
  0
CIRCLE
  8
LC-003-002-----0
  6
CONTINUOUS
  5
893
 10
568.5809
 20
307.257028
 30
0.0
 40
2.0
  0
LINE
  8
LC-003-002-----0
  6
CONTINUOUS
  5
894
 10
217.477793
 20
394.724788
 30
0.0
 11
217.477793
 21
332.724788
 31
0.0
  0
LINE
  8
LC-003-002-----0
  6
CONTINUOUS
  5
895
 10
217.477793
 20
332.724788
 30
0.0
 11
219.477793
 21
332.724788
 31
0.0
  0
LINE
  8
LC-003-002-----0
  6
CONTINUOUS
  5
896
 10
219.477793
 20
332.724788
 30
0.0
 11
219.477793
 21
338.724788
 31
0.0
  0
LINE
  8
LC-003-002-----0
  6
CONTINUOUS
  5
897
 10
219.477793
 20
338.724788
 30
0.0
 11
241.477793
 21
338.724788
 31
0.0
  0
LINE
  8
LC-003-002-----0
  6
CONTINUOUS
  5
898
 10
244.477793
 20
339.528635
 30
0.0
 11
244.477793
 21
387.92094
 31
0.0
  0
LINE
  8
LC-003-002-----0
  6
CONTINUOUS
  5
899
 10
241.477793
 20
388.724788
 30
0.0
 11
219.477793
 21
388.724788
 31
0.0
  0
LINE
  8
LC-003-002-----0
  6
CONTINUOUS
  5
89A
 10
219.477793
 20
388.724788
 30
0.0
 11
219.477793
 21
394.724788
 31
0.0
  0
LINE
  8
LC-003-002-----0
  6
CONTINUOUS
  5
89B
 10
219.477793
 20
394.724788
 30
0.0
 11
217.477793
 21
394.724788
 31
0.0
  0
LINE
  8
LC-003-002-----0
  6
CONTINUOUS
  5
89C
 10
242.477793
 20
341.724788
 30
0.0
 11
242.477793
 21
385.724788
 31
0.0
  0
LINE
  8
LC-003-002-----0
  6
CONTINUOUS
  5
89D
 10
241.477793
 20
386.724788
 30
0.0
 11
217.477793
 21
386.724788
 31
0.0
  0
LINE
  8
LC-003-002-----0
  6
CONTINUOUS
  5
89E
 10
217.477793
 20
340.724788
 30
0.0
 11
241.477793
 21
340.724788
 31
0.0
  0
LINE
  8
LC-003-002-----0
  6
CONTINUOUS
  5
89F
 10
244.477793
 20
387.92094
 30
0.0
 11
241.477793
 21
388.724788
 31
0.0
  0
LINE
  8
LC-003-002-----0
  6
CONTINUOUS
  5
8A0
 10
244.477793
 20
339.528635
 30
0.0
 11
241.477793
 21
338.724788
 31
0.0
  0
ARC
  8
LC-005-002-RND-0
  6
CONTINUOUS
  5
8A1
 10
241.477793
 20
385.724788
 30
0.0
 40
1.0
 50
0.0
 51
90.0
  0
ARC
  8
LC-005-002-RND-0
  6
CONTINUOUS
  5
8A2
 10
241.477793
 20
341.724788
 30
0.0
 40
1.0
 50
270.0
 51
0.0
  0
LINE
  8
LC-012-206-----0
  6
CONTINUOUS
  5
8A4
 10
341.577793
 20
338.524788
 30
0.0
 11
341.577793
 21
336.024788
 31
0.0
  0
LINE
  8
LC-012-206-----0
  6
CONTINUOUS
  5
8A5
 10
282.477793
 20
388.974788
 30
0.0
 11
235.977793
 21
388.974788
 31
0.0
  0
LINE
  8
LC-012-206-----0
  6
CONTINUOUS
  5
8A6
 10
292.477793
 20
316.235869
 30
0.0
 11
332.477793
 21
316.235869
 31
0.0
  0
LINE
  8
LC-012-206-----0
  6
CONTINUOUS
  5
8A7
 10
290.177793
 20
317.735869
 30
0.0
 11
290.177793
 21
319.735869
 31
0.0
  0
LINE
  8
LC-012-206-----0
  6
CONTINUOUS
  5
8A8
 10
219.477793
 20
391.474788
 30
0.0
 11
219.477793
 21
388.974788
 31
0.0
  0
LINE
  8
LC-012-206-----0
  6
CONTINUOUS
  5
8A9
 10
288.677793
 20
331.735936
 30
0.0
 11
286.027793
 21
331.735936
 31
0.0
  0
LINE
  8
LC-012-206-----0
  6
CONTINUOUS
  5
8AA
 10
225.977793
 20
393.974788
 30
0.0
 11
223.477793
 21
391.474788
 31
0.0
  0
LINE
  8
LC-012-206-----0
  6
CONTINUOUS
  5
8AB
 10
223.477793
 20
391.474788
 30
0.0
 11
219.477793
 21
391.474788
 31
0.0
  0
LINE
  8
LC-012-206-----0
  6
CONTINUOUS
  5
8AC
 10
290.177793
 20
335.024788
 30
0.0
 11
290.177793
 21
333.235936
 31
0.0
  0
ARC
  8
LC-012-206-----0
  6
CONTINUOUS
  5
8AD
 10
290.477793
 20
336.524788
 30
0.0
 40
2.0
 50
0.0
 51
90.0
  0
ARC
  8
LC-012-206-----0
  6
CONTINUOUS
  5
8AE
 10
289.177793
 20
335.024788
 30
0.0
 40
1.0
 50
0.0
 51
90.0
  0
ARC
  8
LC-012-206-----0
  6
CONTINUOUS
  5
8AF
 10
288.677793
 20
333.235936
 30
0.0
 40
1.5
 50
270.0
 51
0.0
  0
LINE
  8
LC-012-206-----0
  6
CONTINUOUS
  5
8B0
 10
292.477793
 20
336.524788
 30
0.0
 11
292.477793
 21
316.235869
 31
0.0
  0
LINE
  8
LC-012-206-----0
  6
CONTINUOUS
  5
8B1
 10
289.177793
 20
336.024788
 30
0.0
 11
238.477793
 21
336.024788
 31
0.0
  0
LINE
  8
LC-012-206-----0
  6
CONTINUOUS
  5
8B2
 10
335.423786
 20
338.524788
 30
0.0
 11
341.577793
 21
338.524788
 31
0.0
  0
LINE
  8
LC-012-206-----0
  6
CONTINUOUS
  5
8B3
 10
335.277793
 20
336.024788
 30
0.0
 11
341.577793
 21
336.024788
 31
0.0
  0
LINE
  8
LC-012-206-----0
  6
CONTINUOUS
  5
8B4
 10
286.027793
 20
329.235936
 30
0.0
 11
289.177793
 21
329.235936
 31
0.0
  0
ARC
  8
LC-012-206-----0
  6
CONTINUOUS
  5
8B5
 10
335.423786
 20
339.024788
 30
0.0
 40
0.5
 50
180.054053
 51
270.0
  0
ARC
  8
LC-012-206-----0
  6
CONTINUOUS
  5
8B6
 10
291.677793
 20
317.735869
 30
0.0
 40
1.5
 50
180.0
 51
270.0
  0
LINE
  8
LC-012-206-----0
  6
CONTINUOUS
  5
8B7
 10
223.477793
 20
335.974788
 30
0.0
 11
225.977793
 21
333.474788
 31
0.0
  0
LINE
  8
LC-003-002-----0
  6
CONTINUOUS
  5
8B8
 10
228.281346
 20
333.871234
 30
0.0
 11
223.677793
 21
338.474788
 31
0.0
  0
ARC
  8
LC-012-206-----0
  6
CONTINUOUS
  5
8B9
 10
282.42381
 20
338.974788
 30
0.0
 40
52.5
 50
0.054053
 51
17.036286
  0
ARC
  8
LC-012-206-----0
  6
CONTINUOUS
  5
8BA
 10
333.277793
 20
317.735869
 30
0.0
 40
1.5
 50
270.0
 51
0.0
  0
LINE
  8
LC-012-206-----0
  6
CONTINUOUS
  5
8BB
 10
332.477793
 20
316.235869
 30
0.0
 11
333.277793
 21
316.235869
 31
0.0
  0
LINE
  8
LC-012-206-----0
  6
CONTINUOUS
  5
8BC
 10
334.777793
 20
317.735869
 30
0.0
 11
334.777793
 21
319.735869
 31
0.0
  0
LINE
  8
LC-012-206-----0
  6
CONTINUOUS
  5
8BD
 10
332.477793
 20
338.974788
 30
0.0
 11
332.477793
 21
316.235869
 31
0.0
  0
LINE
  8
LC-012-206-----0
  6
CONTINUOUS
  5
8BE
 10
338.927793
 20
329.235936
 30
0.0
 11
335.777793
 21
329.235936
 31
0.0
  0
LINE
  8
LC-003-002-----0
  6
CONTINUOUS
  5
8BF
 10
228.281346
 20
393.578341
 30
0.0
 11
223.677793
 21
388.974788
 31
0.0
  0
ARC
  8
LC-012-206-----0
  6
CONTINUOUS
  5
8C0
 10
338.927793
 20
329.735936
 30
0.0
 40
0.5
 50
270.0
 51
0.0
  0
ARC
  8
LC-012-206-----0
  6
CONTINUOUS
  5
8C1
 10
338.927793
 20
331.235936
 30
0.0
 40
0.5
 50
0.0
 51
90.0
  0
LINE
  8
LC-012-206-----0
  6
CONTINUOUS
  5
8C2
 10
336.277793
 20
331.735936
 30
0.0
 11
338.927793
 21
331.735936
 31
0.0
  0
ARC
  8
LC-012-206-----0
  6
CONTINUOUS
  5
8C3
 10
282.42381
 20
338.974788
 30
0.0
 40
52.5
 50
17.036286
 51
90.0
  0
ARC
  8
LC-012-206-----0
  6
CONTINUOUS
  5
8C4
 10
336.277793
 20
333.235936
 30
0.0
 40
1.5
 50
180.0
 51
270.0
  0
ARC
  8
LC-012-206-----0
  6
CONTINUOUS
  5
8C5
 10
282.477793
 20
338.974788
 30
0.0
 40
50.0
 50
0.0
 51
90.0
  0
LINE
  8
LC-012-206-----0
  6
CONTINUOUS
  5
8C6
 10
339.427793
 20
331.235936
 30
0.0
 11
339.427793
 21
329.735936
 31
0.0
  0
LINE
  8
LC-012-206-----0
  6
CONTINUOUS
  5
8C7
 10
292.477793
 20
316.235869
 30
0.0
 11
291.677793
 21
316.235869
 31
0.0
  0
ARC
  8
LC-012-206-----0
  6
CONTINUOUS
  5
8C8
 10
286.027793
 20
329.735936
 30
0.0
 40
0.5
 50
180.0
 51
270.0
  0
ARC
  8
LC-012-206-----0
  6
CONTINUOUS
  5
8C9
 10
286.027793
 20
331.235936
 30
0.0
 40
0.5
 50
90.0
 51
180.0
  0
LINE
  8
LC-012-206-----0
  6
CONTINUOUS
  5
8CA
 10
285.527793
 20
331.235936
 30
0.0
 11
285.527793
 21
329.735936
 31
0.0
  0
ARC
  8
LC-012-206-----0
  6
CONTINUOUS
  5
8CB
 10
335.277793
 20
335.524788
 30
0.0
 40
0.5
 50
90.0
 51
180.0
  0
LINE
  8
LC-012-206-----0
  6
CONTINUOUS
  5
8CC
 10
334.777793
 20
335.524788
 30
0.0
 11
334.777793
 21
333.235936
 31
0.0
  0
ARC
  8
LC-012-206-----0
  6
CONTINUOUS
  5
8CD
 10
228.634899
 20
393.224788
 30
0.0
 40
0.5
 50
90.0
 51
135.0
  0
LINE
  8
LC-012-206-----0
  6
CONTINUOUS
  5
8CE
 10
235.477793
 20
393.724788
 30
0.0
 11
228.634899
 21
393.724788
 31
0.0
  0
LINE
  8
LC-012-206-----0
  6
CONTINUOUS
  5
8CF
 10
236.977793
 20
396.224788
 30
0.0
 11
226.977793
 21
396.224788
 31
0.0
  0
LINE
  8
LC-012-206-----0
  6
CONTINUOUS
  5
8D0
 10
223.677793
 20
388.974788
 30
0.0
 11
219.477793
 21
388.974788
 31
0.0
  0
LINE
  8
LC-012-206-----0
  6
CONTINUOUS
  5
8D1
 10
238.477793
 20
391.474788
 30
0.0
 11
282.42381
 21
391.474788
 31
0.0
  0
ARC
  8
LC-012-206-----0
  6
CONTINUOUS
  5
8D2
 10
226.977793
 20
395.224788
 30
0.0
 40
1.0
 50
90.0
 51
180.0
  0
ARC
  8
LC-012-206-----0
  6
CONTINUOUS
  5
8D3
 10
236.977793
 20
395.224788
 30
0.0
 40
1.0
 50
0.0
 51
90.0
  0
ARC
  8
LC-012-206-----0
  6
CONTINUOUS
  5
8D4
 10
238.477793
 20
391.974788
 30
0.0
 40
0.5
 50
180.0
 51
270.0
  0
ARC
  8
LC-012-206-----0
  6
CONTINUOUS
  5
8D5
 10
235.477793
 20
393.224788
 30
0.0
 40
0.5
 50
0.0
 51
90.0
  0
LINE
  8
LC-012-206-----0
  6
CONTINUOUS
  5
8D6
 10
235.977793
 20
393.224788
 30
0.0
 11
235.977793
 21
388.974788
 31
0.0
  0
LINE
  8
LC-012-206-----0
  6
CONTINUOUS
  5
8D7
 10
237.977793
 20
395.224788
 30
0.0
 11
237.977793
 21
391.974788
 31
0.0
  0
LINE
  8
LC-012-206-----0
  6
CONTINUOUS
  5
8D8
 10
225.977793
 20
395.224788
 30
0.0
 11
225.977793
 21
393.974788
 31
0.0
  0
LINE
  8
LC-012-206-----0
  6
CONTINUOUS
  5
8D9
 10
290.477793
 20
338.474788
 30
0.0
 11
235.977793
 21
338.474788
 31
0.0
  0
LINE
  8
LC-012-206-----0
  6
CONTINUOUS
  5
8DA
 10
219.477793
 20
335.974788
 30
0.0
 11
219.477793
 21
338.474788
 31
0.0
  0
LINE
  8
LC-012-206-----0
  6
CONTINUOUS
  5
8DB
 10
219.477793
 20
335.974788
 30
0.0
 11
223.477793
 21
335.974788
 31
0.0
  0
ARC
  8
LC-012-206-----0
  6
CONTINUOUS
  5
8DC
 10
228.634899
 20
334.224788
 30
0.0
 40
0.5
 50
225.0
 51
270.0
  0
LINE
  8
LC-012-206-----0
  6
CONTINUOUS
  5
8DD
 10
235.477793
 20
333.724788
 30
0.0
 11
228.634899
 21
333.724788
 31
0.0
  0
LINE
  8
LC-012-206-----0
  6
CONTINUOUS
  5
8DE
 10
236.977793
 20
331.224788
 30
0.0
 11
226.977793
 21
331.224788
 31
0.0
  0
LINE
  8
LC-012-206-----0
  6
CONTINUOUS
  5
8DF
 10
223.677793
 20
338.474788
 30
0.0
 11
219.477793
 21
338.474788
 31
0.0
  0
LINE
  8
LC-003-002-----0
  6
CONTINUOUS
  5
8E0
 10
287.477793
 20
320.735869
 30
0.0
 11
288.477793
 21
319.735869
 31
0.0
  0
ARC
  8
LC-012-206-----0
  6
CONTINUOUS
  5
8E1
 10
226.977793
 20
332.224788
 30
0.0
 40
1.0
 50
180.0
 51
270.0
  0
ARC
  8
LC-012-206-----0
  6
CONTINUOUS
  5
8E2
 10
236.977793
 20
332.224788
 30
0.0
 40
1.0
 50
270.0
 51
0.0
  0
ARC
  8
LC-012-206-----0
  6
CONTINUOUS
  5
8E3
 10
238.477793
 20
335.524788
 30
0.0
 40
0.5
 50
90.0
 51
180.0
  0
ARC
  8
LC-012-206-----0
  6
CONTINUOUS
  5
8E4
 10
235.477793
 20
334.224788
 30
0.0
 40
0.5
 50
270.0
 51
0.0
  0
LINE
  8
LC-012-206-----0
  6
CONTINUOUS
  5
8E5
 10
235.977793
 20
334.224788
 30
0.0
 11
235.977793
 21
338.474788
 31
0.0
  0
LINE
  8
LC-012-206-----0
  6
CONTINUOUS
  5
8E6
 10
237.977793
 20
332.224788
 30
0.0
 11
237.977793
 21
335.524788
 31
0.0
  0
LINE
  8
LC-012-206-----0
  6
CONTINUOUS
  5
8E7
 10
225.977793
 20
333.474788
 30
0.0
 11
225.977793
 21
332.224788
 31
0.0
  0
LINE
  8
LC-003-002-----0
  6
CONTINUOUS
  5
8E8
 10
337.477793
 20
320.735869
 30
0.0
 11
336.477793
 21
319.735869
 31
0.0
  0
LINE
  8
LC-003-002-----0
  6
CONTINUOUS
  5
8E9
 10
288.477793
 20
319.735869
 30
0.0
 11
290.177793
 21
319.735869
 31
0.0
  0
LINE
  8
LC-003-002-----0
  6
CONTINUOUS
  5
8EA
 10
287.477793
 20
322.235869
 30
0.0
 11
287.477793
 21
320.735869
 31
0.0
  0
LINE
  8
LC-003-002-----0
  6
CONTINUOUS
  5
8EB
 10
287.477793
 20
322.235869
 30
0.0
 11
290.177793
 21
322.235869
 31
0.0
  0
LINE
  8
LC-003-002-----0
  6
CONTINUOUS
  5
8EC
 10
336.477793
 20
319.735869
 30
0.0
 11
334.777793
 21
319.735869
 31
0.0
  0
LINE
  8
LC-003-002-----0
  6
CONTINUOUS
  5
8ED
 10
337.477793
 20
322.235869
 30
0.0
 11
337.477793
 21
320.735869
 31
0.0
  0
LINE
  8
LC-003-002-----0
  6
CONTINUOUS
  5
8EE
 10
337.477793
 20
322.235869
 30
0.0
 11
334.777793
 21
322.235869
 31
0.0
  0
LINE
  8
LC-012-206-----0
  6
CONTINUOUS
  5
8EF
 10
334.777793
 20
328.235936
 30
0.0
 11
334.777793
 21
322.235869
 31
0.0
  0
LINE
  8
LC-012-206-----0
  6
CONTINUOUS
  5
8F0
 10
290.177793
 20
328.235936
 30
0.0
 11
290.177793
 21
322.235869
 31
0.0
  0
LINE
  8
LC-012-206-----0
  6
CONTINUOUS
  5
8F1
 10
289.177793
 20
329.235936
 30
0.0
 11
290.177793
 21
328.235936
 31
0.0
  0
LINE
  8
LC-012-206-----0
  6
CONTINUOUS
  5
8F2
 10
335.777793
 20
329.235936
 30
0.0
 11
334.777793
 21
328.235936
 31
0.0
  0
LINE
  8
LC-003-002-----0
  6
CONTINUOUS
  5
8F3
 10
297.477793
 20
296.126611
 30
0.0
 11
349.807146
 21
296.126611
 31
0.0
  0
LINE
  8
LC-003-002-----0
  6
CONTINUOUS
  5
8F4
 10
297.477793
 20
293.126667
 30
0.0
 11
312.477793
 21
293.126667
 31
0.0
  0
LINE
  8
LC-003-002-----0
  6
CONTINUOUS
  5
8F5
 10
283.362978
 20
335.525065
 30
0.0
 11
283.023235
 21
316.061183
 31
0.0
  0
LINE
  8
LC-003-002-----0
  6
CONTINUOUS
  5
8F6
 10
286.878269
 20
332.35559
 30
0.0
 11
286.878269
 21
333.524834
 31
0.0
  0
LINE
  8
LC-003-002-----0
  6
CONTINUOUS
  5
8F7
 10
339.577289
 20
317.496992
 30
0.0
 11
339.577289
 21
332.224858
 31
0.0
  0
LINE
  8
LC-003-002-----0
  6
CONTINUOUS
  5
8F8
 10
285.378297
 20
332.224858
 30
0.0
 11
286.872561
 21
332.35559
 31
0.0
  0
LINE
  8
LC-003-002-----0
  6
CONTINUOUS
  5
8F9
 10
284.378315
 20
336.024788
 30
0.0
 11
283.878325
 21
336.024788
 31
0.0
  0
LINE
  8
LC-003-002-----0
  6
CONTINUOUS
  5
8FA
 10
338.077316
 20
333.524834
 30
0.0
 11
340.57727
 21
336.024788
 31
0.0
  0
LINE
  8
LC-003-002-----0
  6
CONTINUOUS
  5
8FB
 10
338.077316
 20
332.356089
 30
0.0
 11
338.077316
 21
333.524834
 31
0.0
  0
LINE
  8
LC-003-002-----0
  6
CONTINUOUS
  5
8FC
 10
339.577289
 20
332.224858
 30
0.0
 11
338.077316
 21
332.356089
 31
0.0
  0
LINE
  8
LC-003-002-----0
  6
CONTINUOUS
  5
8FD
 10
341.592459
 20
335.533514
 30
0.0
 11
341.940269
 21
315.607531
 31
0.0
  0
ARC
  8
LC-003-002-----0
  6
CONTINUOUS
  5
8FE
 10
283.878325
 20
335.524797
 30
0.0
 40
0.499991
 50
90.0
 51
180.0
  0
LINE
  8
LC-003-002-----0
  6
CONTINUOUS
  5
8FF
 10
285.378297
 20
317.496992
 30
0.0
 11
285.378297
 21
332.224858
 31
0.0
  0
LINE
  8
LC-003-002-----0
  6
CONTINUOUS
  5
900
 10
340.57727
 20
336.024788
 30
0.0
 11
341.092535
 21
336.024788
 31
0.0
  0
LINE
  8
LC-003-002-----0
  6
CONTINUOUS
  5
901
 10
312.477793
 20
293.126667
 30
0.0
 11
347.707146
 21
293.126667
 31
0.0
  0
LINE
  8
LC-003-002-----0
  6
CONTINUOUS
  5
902
 10
286.878269
 20
333.524834
 30
0.0
 11
284.378315
 21
336.024788
 31
0.0
  0
LINE
  8
LC-003-002-----0
  6
CONTINUOUS
  5
903
 10
349.807146
 20
291.126667
 30
0.0
 11
349.807146
 21
317.11622
 31
0.0
  0
LINE
  8
LC-003-002-----0
  6
CONTINUOUS
  5
904
 10
332.477793
 20
312.116313
 30
0.0
 11
349.807146
 21
312.116313
 31
0.0
  0
LINE
  8
LC-003-002-----0
  6
CONTINUOUS
  5
905
 10
349.807146
 20
316.113242
 30
0.0
 11
349.807146
 21
316.557014
 31
0.0
  0
LINE
  8
LC-003-002-----0
  6
CONTINUOUS
  5
906
 10
285.02293
 20
314.026278
 30
0.0
 11
286.477793
 21
314.026278
 31
0.0
  0
LINE
  8
LC-003-002-----0
  6
CONTINUOUS
  5
907
 10
349.807146
 20
296.126629
 30
0.0
 11
349.807146
 21
312.116313
 31
0.0
  0
LINE
  8
LC-003-002-----0
  6
CONTINUOUS
  5
908
 10
349.207146
 20
317.11622
 30
0.0
 11
349.807146
 21
317.11622
 31
0.0
  0
LINE
  8
LC-003-002-----0
  6
CONTINUOUS
  5
909
 10
292.477793
 20
315.724788
 30
0.0
 11
292.477793
 21
301.126611
 31
0.0
  0
LINE
  8
LC-003-002-----0
  6
CONTINUOUS
  5
90A
 10
290.077793
 20
315.724788
 30
0.0
 11
334.877793
 21
315.724788
 31
0.0
  0
LINE
  8
LC-003-002-----0
  6
CONTINUOUS
  5
90B
 10
334.877793
 20
317.496992
 30
0.0
 11
334.877793
 21
315.724788
 31
0.0
  0
LINE
  8
LC-003-002-----0
  6
CONTINUOUS
  5
90C
 10
334.877793
 20
317.496992
 30
0.0
 11
339.577289
 21
317.496992
 31
0.0
  0
LINE
  8
LC-003-002-----0
  6
CONTINUOUS
  5
90D
 10
332.477793
 20
315.724788
 30
0.0
 11
332.477793
 21
312.116313
 31
0.0
  0
LINE
  8
LC-003-002-----0
  6
CONTINUOUS
  5
90E
 10
348.707146
 20
316.116258
 30
0.0
 11
348.707146
 21
316.61622
 31
0.0
  0
LINE
  8
LC-003-002-----0
  6
CONTINUOUS
  5
90F
 10
290.077793
 20
317.496992
 30
0.0
 11
290.077793
 21
315.724788
 31
0.0
  0
LINE
  8
LC-003-002-----0
  6
CONTINUOUS
  5
910
 10
289.477793
 20
311.026278
 30
0.0
 11
289.477793
 21
301.126667
 31
0.0
  0
LINE
  8
LC-003-002-----0
  6
CONTINUOUS
  5
911
 10
290.077793
 20
317.496992
 30
0.0
 11
285.378297
 21
317.496992
 31
0.0
  0
ARC
  8
LC-005-002-RND-0
  6
CONTINUOUS
  5
912
 10
285.02293
 20
316.026278
 30
0.0
 40
2.0
 50
179.0
 51
270.0
  0
ARC
  8
LC-005-002-RND-0
  6
CONTINUOUS
  5
913
 10
286.477793
 20
311.026278
 30
0.0
 40
3.0
 50
0.0
 51
90.0
  0
ARC
  8
LC-005-002-RND-0
  6
CONTINUOUS
  5
914
 10
297.477793
 20
301.126611
 30
0.0
 40
5.0
 50
180.0
 51
270.0
  0
ARC
  8
LC-005-002-RND-0
  6
CONTINUOUS
  5
915
 10
297.477793
 20
301.126667
 30
0.0
 40
8.0
 50
180.0
 51
270.0
  0
LINE
  8
LC-003-002-----0
  6
CONTINUOUS
  5
916
 10
348.707146
 20
292.126667
 30
0.0
 11
348.707146
 21
291.626667
 31
0.0
  0
LINE
  8
LC-003-002-----0
  6
CONTINUOUS
  5
917
 10
349.207146
 20
291.126667
 30
0.0
 11
349.807146
 21
291.126667
 31
0.0
  0
ARC
  8
LC-005-002-RND-0
  6
CONTINUOUS
  5
918
 10
347.707146
 20
292.126667
 30
0.0
 40
1.0
 50
0.0
 51
90.0
  0
ARC
  8
LC-005-002-RND-0
  6
CONTINUOUS
  5
919
 10
349.207146
 20
291.626667
 30
0.0
 40
0.5
 50
180.0
 51
270.0
  0
ARC
  8
LC-005-002-RND-0
  6
CONTINUOUS
  5
91A
 10
341.092535
 20
335.524788
 30
0.0
 40
0.5
 50
1.0
 51
90.0
  0
LINE
  8
LC-003-002-----0
  6
CONTINUOUS
  5
91B
 10
342.440192
 20
315.116258
 30
0.0
 11
347.707146
 21
315.116258
 31
0.0
  0
ARC
  8
LC-005-002-RND-0
  6
CONTINUOUS
  5
91C
 10
349.207146
 20
316.61622
 30
0.0
 40
0.5
 50
90.0
 51
180.0
  0
ARC
  8
LC-005-002-RND-0
  6
CONTINUOUS
  5
91D
 10
347.707146
 20
316.116258
 30
0.0
 40
1.0
 50
270.0
 51
0.0
  0
ARC
  8
LC-005-002-RND-0
  6
CONTINUOUS
  5
91E
 10
342.440192
 20
315.616258
 30
0.0
 40
0.5
 50
181.0
 51
270.0
  0
LINE
  8
LC-003-002-----0
  6
DASHDOT
 62
     2
  5
91F
 10
312.477793
 20
333.724788
 30
0.0
 11
312.477793
 21
316.235869
 31
0.0
  0
LINE
  8
LC-003-002-----0
  6
DASHDOT
 62
     2
  5
920
 10
282.477793
 20
363.724788
 30
0.0
 11
219.477793
 21
363.724788
 31
0.0
  0
LINE
  8
LC-001-205-----0
  6
CONTINUOUS
  5
921
 10
393.073472
 20
311.742768
 30
0.0
 11
409.195384
 21
311.742768
 31
0.0
  0
LINE
  8
LC-006-005-----0
  6
CONTINUOUS
  5
922
 10
356.843366
 20
313.271462
 30
0.0
 11
359.834078
 21
316.262174
 31
0.0
  0
LINE
  8
LC-006-005-----0
  6
CONTINUOUS
  5
923
 10
354.014938
 20
313.271462
 30
0.0
 11
359.834078
 21
319.090601
 31
0.0
  0
LINE
  8
LC-006-005-----0
  6
CONTINUOUS
  5
924
 10
351.186511
 20
313.271462
 30
0.0
 11
353.386511
 21
315.471462
 31
0.0
  0
LINE
  8
LC-006-005-----0
  6
CONTINUOUS
  5
925
 10
356.834078
 20
318.919028
 30
0.0
 11
359.834078
 21
321.919028
 31
0.0
  0
LINE
  8
LC-006-005-----0
  6
CONTINUOUS
  5
926
 10
349.807146
 20
314.720524
 30
0.0
 11
351.057146
 21
315.970524
 31
0.0
  0
LINE
  8
LC-006-005-----0
  6
CONTINUOUS
  5
927
 10
356.834078
 20
321.747455
 30
0.0
 11
359.834078
 21
324.747455
 31
0.0
  0
LINE
  8
LC-006-005-----0
  6
CONTINUOUS
  5
928
 10
349.807146
 20
317.548951
 30
0.0
 11
350.729657
 21
318.471462
 31
0.0
  0
LINE
  8
LC-006-005-----0
  6
CONTINUOUS
  5
929
 10
356.834078
 20
324.575883
 30
0.0
 11
359.834078
 21
327.575883
 31
0.0
  0
LINE
  8
LC-006-005-----0
  6
CONTINUOUS
  5
92A
 10
356.834078
 20
327.40431
 30
0.0
 11
359.834078
 21
330.40431
 31
0.0
  0
LINE
  8
LC-006-005-----0
  6
CONTINUOUS
  5
92B
 10
356.834078
 20
330.232737
 30
0.0
 11
359.834078
 21
333.232737
 31
0.0
  0
LINE
  8
LC-006-005-----0
  6
CONTINUOUS
  5
92C
 10
356.834078
 20
333.061164
 30
0.0
 11
359.834078
 21
336.061164
 31
0.0
  0
LINE
  8
LC-006-005-----0
  6
CONTINUOUS
  5
92D
 10
356.834078
 20
335.889591
 30
0.0
 11
359.834078
 21
338.889591
 31
0.0
  0
LINE
  8
LC-006-005-----0
  6
CONTINUOUS
  5
92E
 10
356.834078
 20
338.718018
 30
0.0
 11
359.834078
 21
341.718018
 31
0.0
  0
LINE
  8
LC-006-005-----0
  6
CONTINUOUS
  5
92F
 10
356.834078
 20
341.546445
 30
0.0
 11
359.834078
 21
344.546445
 31
0.0
  0
LINE
  8
LC-006-005-----0
  6
CONTINUOUS
  5
930
 10
356.834078
 20
344.374872
 30
0.0
 11
359.834078
 21
347.374872
 31
0.0
  0
LINE
  8
LC-006-005-----0
  6
CONTINUOUS
  5
931
 10
356.834078
 20
347.2033
 30
0.0
 11
359.834078
 21
350.2033
 31
0.0
  0
LINE
  8
LC-006-005-----0
  6
CONTINUOUS
  5
932
 10
356.834078
 20
350.031727
 30
0.0
 11
359.834078
 21
353.031727
 31
0.0
  0
LINE
  8
LC-006-005-----0
  6
CONTINUOUS
  5
933
 10
356.834078
 20
352.860154
 30
0.0
 11
359.834078
 21
355.860154
 31
0.0
  0
LINE
  8
LC-006-005-----0
  6
CONTINUOUS
  5
934
 10
356.834078
 20
355.688581
 30
0.0
 11
359.834078
 21
358.688581
 31
0.0
  0
LINE
  8
LC-006-005-----0
  6
CONTINUOUS
  5
935
 10
356.834078
 20
358.517008
 30
0.0
 11
359.834078
 21
361.517008
 31
0.0
  0
LINE
  8
LC-006-005-----0
  6
CONTINUOUS
  5
936
 10
355.344119
 20
359.855477
 30
0.0
 11
357.299815
 21
361.811172
 31
0.0
  0
LINE
  8
LC-006-005-----0
  6
CONTINUOUS
  5
937
 10
354.036425
 20
361.376209
 30
0.0
 11
357.155075
 21
364.494859
 31
0.0
  0
LINE
  8
LC-006-005-----0
  6
CONTINUOUS
  5
938
 10
353.834078
 20
364.002289
 30
0.0
 11
357.155075
 21
367.323287
 31
0.0
  0
LINE
  8
LC-006-005-----0
  6
CONTINUOUS
  5
939
 10
353.148382
 20
366.145021
 30
0.0
 11
357.155075
 21
370.151714
 31
0.0
  0
LINE
  8
LC-006-005-----0
  6
CONTINUOUS
  5
93A
 10
351.734168
 20
367.559234
 30
0.0
 11
356.077904
 21
371.90297
 31
0.0
  0
LINE
  8
LC-006-005-----0
  6
CONTINUOUS
  5
93B
 10
350.305831
 20
368.959325
 30
0.0
 11
353.310183
 21
371.963676
 31
0.0
  0
LINE
  8
LC-006-005-----0
  6
CONTINUOUS
  5
93C
 10
347.477404
 20
368.959325
 30
0.0
 11
350.481756
 21
371.963676
 31
0.0
  0
LINE
  8
LC-006-005-----0
  6
CONTINUOUS
  5
93D
 10
344.648977
 20
368.959325
 30
0.0
 11
347.653328
 21
371.963676
 31
0.0
  0
LINE
  8
LC-006-005-----0
  6
CONTINUOUS
  5
93E
 10
341.82055
 20
368.959325
 30
0.0
 11
344.899957
 21
372.038731
 31
0.0
  0
LINE
  8
LC-006-005-----0
  6
CONTINUOUS
  5
93F
 10
339.238296
 20
369.205498
 30
0.0
 11
343.530166
 21
373.497368
 31
0.0
  0
LINE
  8
LC-006-005-----0
  6
CONTINUOUS
  5
940
 10
337.77145
 20
370.567079
 30
0.0
 11
343.563064
 21
376.358693
 31
0.0
  0
LINE
  8
LC-006-005-----0
  6
CONTINUOUS
  5
941
 10
336.872598
 20
372.496654
 30
0.0
 11
344.108586
 21
379.732642
 31
0.0
  0
LINE
  8
LC-006-005-----0
  6
CONTINUOUS
  5
942
 10
335.973824
 20
374.426307
 30
0.0
 11
342.205383
 21
380.657867
 31
0.0
  0
LINE
  8
LC-006-005-----0
  6
CONTINUOUS
  5
943
 10
335.075049
 20
376.35596
 30
0.0
 11
339.376956
 21
380.657867
 31
0.0
  0
LINE
  8
LC-006-005-----0
  6
CONTINUOUS
  5
944
 10
334.176275
 20
378.285613
 30
0.0
 11
336.548529
 21
380.657867
 31
0.0
  0
LINE
  8
LC-006-005-----0
  6
CONTINUOUS
  5
945
 10
333.277501
 20
380.215265
 30
0.0
 11
334.683897
 21
381.621662
 31
0.0
  0
LINE
  8
LC-006-005-----0
  6
CONTINUOUS
  5
946
 10
332.378727
 20
382.144918
 30
0.0
 11
334.584784
 21
384.350976
 31
0.0
  0
LINE
  8
LC-006-005-----0
  6
CONTINUOUS
  5
947
 10
332.334078
 20
384.928696
 30
0.0
 11
334.584784
 21
387.179403
 31
0.0
  0
LINE
  8
LC-006-005-----0
  6
CONTINUOUS
  5
948
 10
332.334078
 20
387.757123
 30
0.0
 11
334.584784
 21
390.00783
 31
0.0
  0
LINE
  8
LC-006-005-----0
  6
CONTINUOUS
  5
949
 10
331.283263
 20
389.534736
 30
0.0
 11
334.584784
 21
392.836258
 31
0.0
  0
LINE
  8
LC-006-005-----0
  6
CONTINUOUS
  5
94A
 10
328.639961
 20
389.719861
 30
0.0
 11
331.476567
 21
392.556467
 31
0.0
  0
LINE
  8
LC-006-005-----0
  6
CONTINUOUS
  5
94B
 10
332.584784
 20
393.664685
 30
0.0
 11
334.584784
 21
395.664685
 31
0.0
  0
LINE
  8
LC-006-005-----0
  6
CONTINUOUS
  5
94C
 10
327.244715
 20
391.153042
 30
0.0
 11
329.508708
 21
393.417035
 31
0.0
  0
LINE
  8
LC-006-005-----0
  6
CONTINUOUS
  5
94D
 10
332.584784
 20
396.493112
 30
0.0
 11
334.084784
 21
397.993112
 31
0.0
  0
LINE
  8
LC-006-005-----0
  6
CONTINUOUS
  5
94E
 10
326.528397
 20
393.265152
 30
0.0
 11
329.486166
 21
396.222921
 31
0.0
  0
LINE
  8
LC-006-005-----0
  6
CONTINUOUS
  5
94F
 10
327.084078
 20
396.649259
 30
0.0
 11
329.486166
 21
399.051348
 31
0.0
  0
LINE
  8
LC-006-005-----0
  6
CONTINUOUS
  5
950
 10
326.145861
 20
398.539469
 30
0.0
 11
328.95785
 21
401.351459
 31
0.0
  0
LINE
  8
LC-006-005-----0
  6
CONTINUOUS
  5
951
 10
323.50229
 20
398.724326
 30
0.0
 11
326.321038
 21
401.543074
 31
0.0
  0
LINE
  8
LC-006-005-----0
  6
CONTINUOUS
  5
952
 10
320.858719
 20
398.909182
 30
0.0
 11
323.684227
 21
401.73469
 31
0.0
  0
LINE
  8
LC-006-005-----0
  6
CONTINUOUS
  5
953
 10
318.215148
 20
399.094038
 30
0.0
 11
321.047415
 21
401.926305
 31
0.0
  0
LINE
  8
LC-006-005-----0
  6
CONTINUOUS
  5
954
 10
315.571577
 20
399.278894
 30
0.0
 11
318.410603
 21
402.11792
 31
0.0
  0
LINE
  8
LC-006-005-----0
  6
CONTINUOUS
  5
955
 10
312.928007
 20
399.463751
 30
0.0
 11
315.889276
 21
402.425021
 31
0.0
  0
LINE
  8
LC-006-005-----0
  6
CONTINUOUS
  5
956
 10
310.29396
 20
399.658132
 30
0.0
 11
313.679406
 21
403.043578
 31
0.0
  0
LINE
  8
LC-006-005-----0
  6
CONTINUOUS
  5
957
 10
308.157591
 20
400.350189
 30
0.0
 11
311.639543
 21
403.832142
 31
0.0
  0
LINE
  8
LC-006-005-----0
  6
CONTINUOUS
  5
958
 10
306.021221
 20
401.042247
 30
0.0
 11
309.711475
 21
404.7325
 31
0.0
  0
LINE
  8
LC-006-005-----0
  6
CONTINUOUS
  5
959
 10
303.884852
 20
401.734305
 30
0.0
 11
307.066391
 21
404.915843
 31
0.0
  0
LINE
  8
LC-006-005-----0
  6
CONTINUOUS
  5
95A
 10
301.60904
 20
402.28692
 30
0.0
 11
304.421307
 21
405.099187
 31
0.0
  0
LINE
  8
LC-006-005-----0
  6
CONTINUOUS
  5
95B
 10
298.963956
 20
402.470263
 30
0.0
 11
301.776223
 21
405.28253
 31
0.0
  0
LINE
  8
LC-006-005-----0
  6
CONTINUOUS
  5
95C
 10
296.318872
 20
402.653606
 30
0.0
 11
299.131139
 21
405.465873
 31
0.0
  0
LINE
  8
LC-006-005-----0
  6
CONTINUOUS
  5
95D
 10
293.673788
 20
402.83695
 30
0.0
 11
296.486055
 21
405.649216
 31
0.0
  0
LINE
  8
LC-006-005-----0
  6
CONTINUOUS
  5
95E
 10
291.028704
 20
403.020293
 30
0.0
 11
293.840971
 21
405.832559
 31
0.0
  0
LINE
  8
LC-006-005-----0
  6
CONTINUOUS
  5
95F
 10
288.38362
 20
403.203636
 30
0.0
 11
291.195887
 21
406.015903
 31
0.0
  0
LINE
  8
LC-006-005-----0
  6
CONTINUOUS
  5
960
 10
285.738537
 20
403.386979
 30
0.0
 11
288.550803
 21
406.199246
 31
0.0
  0
LINE
  8
LC-006-005-----0
  6
CONTINUOUS
  5
961
 10
283.093453
 20
403.570322
 30
0.0
 11
285.905719
 21
406.382589
 31
0.0
  0
LINE
  8
LC-006-005-----0
  6
CONTINUOUS
  5
962
 10
280.448369
 20
403.753666
 30
0.0
 11
283.260635
 21
406.565932
 31
0.0
  0
LINE
  8
LC-006-005-----0
  6
CONTINUOUS
  5
963
 10
277.803285
 20
403.937009
 30
0.0
 11
280.615552
 21
406.749276
 31
0.0
  0
LINE
  8
LC-006-005-----0
  6
CONTINUOUS
  5
964
 10
275.158201
 20
404.120352
 30
0.0
 11
277.970468
 21
406.932619
 31
0.0
  0
LINE
  8
LC-006-005-----0
  6
CONTINUOUS
  5
965
 10
272.513117
 20
404.303695
 30
0.0
 11
275.325384
 21
407.115962
 31
0.0
  0
LINE
  8
LC-006-005-----0
  6
CONTINUOUS
  5
966
 10
270.334078
 20
404.953083
 30
0.0
 11
272.6803
 21
407.299305
 31
0.0
  0
LINE
  8
LC-003-002-----0
  6
DASHDOT
 62
     2
  5
967
 10
421.334078
 20
409.440807
 30
0.0
 11
421.334078
 21
358.182
 31
0.0
  0
LINE
  8
LC-003-002-----0
  6
DASHDOT
 62
     2
  5
968
 10
473.56233
 20
334.257368
 30
0.0
 11
577.8309
 21
334.257368
 31
0.0
  0
LINE
  8
LC-003-002-----0
  6
DASHDOT
 62
     2
  5
969
 10
656.03235
 20
316.628263
 30
0.0
 11
589.853714
 21
334.360775
 31
0.0
  0
LINE
  8
LC-003-002-----0
  6
DASHDOT
 62
     2
  5
96A
 10
421.334078
 20
358.182
 30
0.0
 11
421.334078
 21
292.771462
 31
0.0
  0
LINE
  8
LC-003-002-----0
  6
CONTINUOUS
  5
96B
 10
423.834078
 20
401.851761
 30
0.0
 11
421.334078
 21
401.851761
 31
0.0
  0
ARC
  8
LC-003-002-----0
  6
CONTINUOUS
  5
96C
 10
484.83358
 20
399.851761
 30
0.0
 40
2.0
 50
90.0
 51
180.0
  0
LINE
  8
LC-003-002-----0
  6
CONTINUOUS
  5
96D
 10
488.366389
 20
401.851761
 30
0.0
 11
484.83358
 21
401.851761
 31
0.0
  0
LINE
  8
LC-003-002-----0
  6
CONTINUOUS
  5
96E
 10
488.366389
 20
385.352116
 30
0.0
 11
488.366389
 21
401.851761
 31
0.0
  0
LINE
  8
LC-003-002-----0
  6
CONTINUOUS
  5
96F
 10
423.834078
 20
392.80271
 30
0.0
 11
423.834078
 21
401.851761
 31
0.0
  0
LINE
  8
LC-003-002-----0
  6
CONTINUOUS
  5
970
 10
485.33358
 20
385.352116
 30
0.0
 11
485.33358
 21
399.851761
 31
0.0
  0
LINE
  8
LC-003-002-----0
  6
CONTINUOUS
  5
971
 10
482.83358
 20
385.352116
 30
0.0
 11
482.83358
 21
399.851761
 31
0.0
  0
ARC
  8
LC-003-002-----0
  6
CONTINUOUS
  5
972
 10
487.33358
 20
399.851761
 30
0.0
 40
2.0
 50
90.0
 51
180.0
  0
LINE
  8
LC-003-002-----0
  6
CONTINUOUS
  5
973
 10
459.727583
 20
392.80271
 30
0.0
 11
459.727583
 21
399.851761
 31
0.0
  0
LINE
  8
LC-003-002-----0
  6
CONTINUOUS
  5
974
 10
455.397456
 20
392.80271
 30
0.0
 11
455.397456
 21
399.851761
 31
0.0
  0
LINE
  8
LC-003-002-----0
  6
CONTINUOUS
  5
975
 10
461.478576
 20
401.851761
 30
0.0
 11
457.397456
 21
401.851761
 31
0.0
  0
ARC
  8
LC-003-002-----0
  6
CONTINUOUS
  5
976
 10
457.397456
 20
399.851761
 30
0.0
 40
2.0
 50
90.0
 51
180.0
  0
ARC
  8
LC-003-002-----0
  6
CONTINUOUS
  5
977
 10
461.727583
 20
399.851761
 30
0.0
 40
2.0
 50
97.096995
 51
180.0
  0
LINE
  8
LC-003-002-----0
  6
CONTINUOUS
  5
978
 10
461.478576
 20
392.80271
 30
0.0
 11
461.478576
 21
401.851761
 31
0.0
  0
LINE
  8
LC-003-002-----0
  6
CONTINUOUS
  5
979
 10
418.834078
 20
401.851761
 30
0.0
 11
421.334078
 21
401.851761
 31
0.0
  0
ARC
  8
LC-003-002-----0
  6
CONTINUOUS
  5
97A
 10
357.834576
 20
399.851761
 30
0.0
 40
2.0
 50
0.0
 51
90.0
  0
LINE
  8
LC-003-002-----0
  6
CONTINUOUS
  5
97B
 10
354.301766
 20
401.851761
 30
0.0
 11
357.834576
 21
401.851761
 31
0.0
  0
LINE
  8
LC-003-002-----0
  6
CONTINUOUS
  5
97C
 10
354.301766
 20
385.352116
 30
0.0
 11
354.301766
 21
401.851761
 31
0.0
  0
LINE
  8
LC-003-002-----0
  6
CONTINUOUS
  5
97D
 10
418.834078
 20
388.581871
 30
0.0
 11
418.834078
 21
401.851761
 31
0.0
  0
LINE
  8
LC-003-002-----0
  6
CONTINUOUS
  5
97E
 10
357.334576
 20
385.352116
 30
0.0
 11
357.334576
 21
399.851761
 31
0.0
  0
LINE
  8
LC-003-002-----0
  6
CONTINUOUS
  5
97F
 10
359.834576
 20
385.352116
 30
0.0
 11
359.834576
 21
399.851761
 31
0.0
  0
ARC
  8
LC-003-002-----0
  6
CONTINUOUS
  5
980
 10
355.334576
 20
399.851761
 30
0.0
 40
2.0
 50
0.0
 51
90.0
  0
LINE
  8
LC-003-002-----0
  6
CONTINUOUS
  5
981
 10
382.940572
 20
385.352116
 30
0.0
 11
382.940572
 21
399.851761
 31
0.0
  0
LINE
  8
LC-003-002-----0
  6
CONTINUOUS
  5
982
 10
387.270699
 20
385.352116
 30
0.0
 11
387.270699
 21
399.851761
 31
0.0
  0
LINE
  8
LC-003-002-----0
  6
CONTINUOUS
  5
983
 10
381.189579
 20
401.851761
 30
0.0
 11
385.270699
 21
401.851761
 31
0.0
  0
ARC
  8
LC-003-002-----0
  6
CONTINUOUS
  5
984
 10
385.270699
 20
399.851761
 30
0.0
 40
2.0
 50
0.0
 51
90.0
  0
ARC
  8
LC-003-002-----0
  6
CONTINUOUS
  5
985
 10
380.940572
 20
399.851761
 30
0.0
 40
2.0
 50
0.0
 51
82.903005
  0
LINE
  8
LC-003-002-----0
  6
CONTINUOUS
  5
986
 10
381.189579
 20
385.352116
 30
0.0
 11
381.189579
 21
401.851761
 31
0.0
  0
LINE
  8
LC-003-002-----0
  6
CONTINUOUS
  5
987
 10
171.52447
 20
412.161933
 30
0.0
 11
171.52447
 21
407.461933
 31
0.0
  0
LINE
  8
LC-003-002-----0
  6
CONTINUOUS
  5
988
 10
181.52447
 20
412.161933
 30
0.0
 11
181.52447
 21
407.461933
 31
0.0
  0
LINE
  8
LC-003-002-----0
  6
CONTINUOUS
  5
989
 10
191.52447
 20
412.161933
 30
0.0
 11
191.52447
 21
407.461933
 31
0.0
  0
LINE
  8
LC-003-002-----0
  6
CONTINUOUS
  5
98A
 10
201.52447
 20
412.161933
 30
0.0
 11
201.52447
 21
407.461933
 31
0.0
  0
LINE
  8
LC-003-002-----0
  6
CONTINUOUS
  5
98B
 10
211.52447
 20
412.161933
 30
0.0
 11
211.52447
 21
407.461933
 31
0.0
  0
LINE
  8
LC-003-002-----0
  6
CONTINUOUS
  5
98C
 10
221.52447
 20
412.161933
 30
0.0
 11
221.52447
 21
407.461933
 31
0.0
  0
LINE
  8
LC-003-002-----0
  6
CONTINUOUS
  5
98D
 10
231.52447
 20
412.161933
 30
0.0
 11
231.52447
 21
407.461933
 31
0.0
  0
LINE
  8
LC-003-002-----0
  6
CONTINUOUS
  5
98E
 10
241.52447
 20
412.161933
 30
0.0
 11
241.52447
 21
407.461933
 31
0.0
  0
LINE
  8
LC-003-002-----0
  6
CONTINUOUS
  5
98F
 10
251.52447
 20
412.161933
 30
0.0
 11
251.52447
 21
407.461933
 31
0.0
  0
LINE
  8
LC-003-002-----0
  6
CONTINUOUS
  5
990
 10
261.52447
 20
412.161933
 30
0.0
 11
261.52447
 21
407.461933
 31
0.0
  0
LINE
  8
LC-003-002-----0
  6
CONTINUOUS
  5
991
 10
270.870202
 20
407.461933
 30
0.0
 11
171.52447
 21
407.461933
 31
0.0
  0
LINE
  8
LC-003-002-----0
  6
CONTINUOUS
  5
992
 10
270.496772
 20
412.161933
 30
0.0
 11
171.52447
 21
412.161933
 31
0.0
  0
LINE
  8
LC-003-002-----0
  6
CONTINUOUS
  5
993
 10
271.52447
 20
412.090698
 30
0.0
 11
271.52447
 21
407.416182
 31
0.0
  0
LINE
  8
LC-003-002-----0
  6
CONTINUOUS
  5
994
 10
281.52447
 20
411.397551
 30
0.0
 11
281.52447
 21
406.716914
 31
0.0
  0
LINE
  8
LC-003-002-----0
  6
CONTINUOUS
  5
995
 10
270.496772
 20
412.161933
 30
0.0
 11
311.25386
 21
409.336867
 31
0.0
  0
LINE
  8
LC-003-002-----0
  6
CONTINUOUS
  5
996
 10
291.52447
 20
410.704404
 30
0.0
 11
291.52447
 21
406.017647
 31
0.0
  0
LINE
  8
LC-003-002-----0
  6
CONTINUOUS
  5
997
 10
301.52447
 20
410.011257
 30
0.0
 11
301.52447
 21
405.318379
 31
0.0
  0
LINE
  8
LC-003-002-----0
  6
CONTINUOUS
  5
998
 10
311.52447
 20
409.17255
 30
0.0
 11
311.52447
 21
403.883309
 31
0.0
  0
LINE
  8
LC-003-002-----0
  6
CONTINUOUS
  5
999
 10
321.52447
 20
406.602185
 30
0.0
 11
321.52447
 21
401.891638
 31
0.0
  0
LINE
  8
LC-003-002-----0
  6
CONTINUOUS
  5
99A
 10
329.486166
 20
401.313066
 30
0.0
 11
329.486166
 21
406.023503
 31
0.0
  0
ARC
  8
LC-003-002-----0
  6
CONTINUOUS
  5
99B
 10
321.073752
 20
425.203982
 30
0.0
 40
18.66
 50
238.247327
 51
258.82592
  0
LINE
  8
LC-003-002-----0
  6
CONTINUOUS
  5
99C
 10
329.487689
 20
406.023503
 30
0.0
 11
317.457621
 21
406.897721
 31
0.0
  0
LINE
  8
LC-003-002-----0
  6
CONTINUOUS
  5
99D
 10
313.532694
 20
409.440807
 30
0.0
 11
529.135461
 21
409.440807
 31
0.0
  0
ARC
  8
LC-003-002-----0
  6
CONTINUOUS
  5
99E
 10
318.972185
 20
413.846706
 30
0.0
 40
7.0
 50
219.006904
 51
266.0
  0
ARC
  8
LC-003-002-----0
  6
CONTINUOUS
  5
99F
 10
318.972185
 20
413.846706
 30
0.0
 40
6.3
 50
224.378071
 51
266.0
  0
LINE
  8
LC-003-002-----0
  6
CONTINUOUS
  5
9A0
 10
318.530503
 20
407.551627
 30
0.0
 11
336.259979
 21
406.311861
 31
0.0
  0
LINE
  8
LC-003-002-----0
  6
CONTINUOUS
  5
9A1
 10
318.48389
 20
406.863757
 30
0.0
 11
336.211149
 21
405.624146
 31
0.0
  0
ARC
  8
LC-005-002-RND-0
  6
CONTINUOUS
  5
9A2
 10
335.771683
 20
399.328913
 30
0.0
 40
7.0
 50
0.0
 51
86.0
  0
ARC
  8
LC-005-002-RND-0
  6
CONTINUOUS
  5
9A3
 10
335.771683
 20
399.339493
 30
0.0
 40
6.3
 50
0.0
 51
86.0
  0
LINE
  8
LC-003-002-----0
  6
CONTINUOUS
  5
9A4
 10
342.071683
 20
399.339493
 30
0.0
 11
342.071683
 21
385.651449
 31
0.0
  0
LINE
  8
LC-003-002-----0
  6
CONTINUOUS
  5
9A5
 10
342.771683
 20
399.328913
 30
0.0
 11
342.771683
 21
385.651449
 31
0.0
  0
ARC
  8
LC-003-002-----0
  6
CONTINUOUS
  5
9A6
 10
345.571683
 20
385.651449
 30
0.0
 40
2.8
 50
180.0
 51
270.0
  0
ARC
  8
LC-003-002-----0
  6
CONTINUOUS
  5
9A7
 10
345.571683
 20
385.651449
 30
0.0
 40
3.5
 50
180.0
 51
270.0
  0
ARC
  8
LC-003-002-----0
  6
CONTINUOUS
  5
9A8
 10
345.571963
 20
381.851817
 30
0.0
 40
1.0
 50
359.99972
 51
89.99972
  0
ARC
  8
LC-003-002-----0
  6
CONTINUOUS
  5
9A9
 10
345.571963
 20
381.851817
 30
0.0
 40
0.3
 50
359.99972
 51
89.99972
  0
LINE
  8
LC-003-002-----0
  6
CONTINUOUS
  5
9AA
 10
346.571683
 20
381.851449
 30
0.0
 11
346.571683
 21
379.551449
 31
0.0
  0
LINE
  8
LC-003-002-----0
  6
CONTINUOUS
  5
9AB
 10
345.871683
 20
381.851449
 30
0.0
 11
345.871683
 21
379.551449
 31
0.0
  0
ARC
  8
LC-003-002-----0
  6
CONTINUOUS
  5
9AC
 10
345.571683
 20
379.551449
 30
0.0
 40
1.0
 50
270.0
 51
0.0
  0
ARC
  8
LC-003-002-----0
  6
CONTINUOUS
  5
9AD
 10
345.572206
 20
379.551449
 30
0.0
 40
0.3
 50
270.0
 51
0.0
  0
ARC
  8
LC-003-002-----0
  6
CONTINUOUS
  5
9AE
 10
345.571683
 20
379.551449
 30
0.0
 40
1.0
 50
270.0
 51
0.0
  0
ARC
  8
LC-003-002-----0
  6
CONTINUOUS
  5
9AF
 10
345.571683
 20
377.751449
 30
0.0
 40
1.5
 50
90.0
 51
180.0
  0
ARC
  8
LC-003-002-----0
  6
CONTINUOUS
  5
9B0
 10
345.571683
 20
377.751449
 30
0.0
 40
1.5
 50
180.0
 51
270.0
  0
ARC
  8
LC-003-002-----0
  6
CONTINUOUS
  5
9B1
 10
345.571683
 20
377.751449
 30
0.0
 40
0.8
 50
180.0
 51
270.0
  0
LINE
  8
LC-003-002-----0
  6
CONTINUOUS
  5
9B2
 10
345.571683
 20
376.951449
 30
0.0
 11
348.371683
 21
376.951449
 31
0.0
  0
LINE
  8
LC-003-002-----0
  6
CONTINUOUS
  5
9B3
 10
345.571683
 20
376.251449
 30
0.0
 11
348.371683
 21
376.251449
 31
0.0
  0
LINE
  8
LC-003-002-----0
  6
CONTINUOUS
  5
9B4
 10
348.371683
 20
376.251449
 30
0.0
 11
348.371683
 21
376.951449
 31
0.0
  0
LINE
  8
LC-003-002-----0
  6
CONTINUOUS
  5
9B5
 10
345.334078
 20
401.851761
 30
0.0
 11
346.834078
 21
401.851761
 31
0.0
  0
ARC
  8
LC-005-002-RND-0
  6
CONTINUOUS
  5
9B6
 10
346.834078
 20
399.851761
 30
0.0
 40
2.0
 50
0.0
 51
90.0
  0
LINE
  8
LC-003-002-----0
  6
CONTINUOUS
  5
9B7
 10
348.834078
 20
399.851761
 30
0.0
 11
348.834078
 21
385.352116
 31
0.0
  0
LINE
  8
LC-003-002-----0
  6
CONTINUOUS
  5
9B8
 10
365.761337
 20
385.352116
 30
0.0
 11
345.334078
 21
385.352116
 31
0.0
  0
LINE
  8
LC-003-002-----0
  6
CONTINUOUS
  5
9B9
 10
352.834078
 20
382.852116
 30
0.0
 11
352.834078
 21
385.352116
 31
0.0
  0
LINE
  8
LC-003-002-----0
  6
CONTINUOUS
  5
9BA
 10
351.084078
 20
382.852116
 30
0.0
 11
345.834078
 21
382.852116
 31
0.0
  0
LINE
  8
LC-003-002-----0
  6
CONTINUOUS
  5
9BB
 10
342.834078
 20
385.852116
 30
0.0
 11
345.834078
 21
382.852116
 31
0.0
  0
LINE
  8
LC-003-002-----0
  6
CONTINUOUS
  5
9BC
 10
345.334078
 20
385.352116
 30
0.0
 11
345.334078
 21
402.851761
 31
0.0
  0
LINE
  8
LC-003-002-----0
  6
CONTINUOUS
  5
9BD
 10
342.834078
 20
402.851761
 30
0.0
 11
421.334078
 21
402.851761
 31
0.0
  0
LINE
  8
LC-003-002-----0
  6
CONTINUOUS
  5
9BE
 10
342.834078
 20
402.851761
 30
0.0
 11
342.834078
 21
385.852116
 31
0.0
  0
LINE
  8
LC-003-002-----0
  6
CONTINUOUS
  5
9BF
 10
365.761337
 20
382.852116
 30
0.0
 11
365.761337
 21
385.352116
 31
0.0
  0
LINE
  8
LC-003-002-----0
  6
CONTINUOUS
  5
9C0
 10
358.261337
 20
382.852116
 30
0.0
 11
358.261337
 21
385.352116
 31
0.0
  0
LINE
  8
LC-003-002-----0
  6
CONTINUOUS
  5
9C1
 10
351.084078
 20
382.852116
 30
0.0
 11
414.578504
 21
382.852116
 31
0.0
  0
LINE
  8
LC-003-002-----0
  6
CONTINUOUS
  5
9C2
 10
393.579268
 20
385.352116
 30
0.0
 11
377.024373
 21
385.352116
 31
0.0
  0
LINE
  8
LC-003-002-----0
  6
CONTINUOUS
  5
9C3
 10
377.024373
 20
382.852116
 30
0.0
 11
377.024373
 21
385.352116
 31
0.0
  0
LINE
  8
LC-003-002-----0
  6
CONTINUOUS
  5
9C4
 10
380.588887
 20
382.852116
 30
0.0
 11
380.588887
 21
385.352116
 31
0.0
  0
LINE
  8
LC-003-002-----0
  6
CONTINUOUS
  5
9C5
 10
393.579268
 20
382.852116
 30
0.0
 11
393.579268
 21
385.352116
 31
0.0
  0
ARC
  8
LC-003-002-----0
  6
CONTINUOUS
  5
9C6
 10
345.571683
 20
377.751449
 30
0.0
 40
0.8
 50
90.0
 51
180.0
  0
LINE
  8
LC-003-002-----0
  6
CONTINUOUS
  5
9C7
 10
671.143685
 20
412.161933
 30
0.0
 11
671.143685
 21
407.461933
 31
0.0
  0
LINE
  8
LC-003-002-----0
  6
CONTINUOUS
  5
9C8
 10
661.143685
 20
412.161933
 30
0.0
 11
661.143685
 21
407.461933
 31
0.0
  0
LINE
  8
LC-003-002-----0
  6
CONTINUOUS
  5
9C9
 10
651.143685
 20
412.161933
 30
0.0
 11
651.143685
 21
407.461933
 31
0.0
  0
LINE
  8
LC-003-002-----0
  6
CONTINUOUS
  5
9CA
 10
641.143685
 20
412.161933
 30
0.0
 11
641.143685
 21
407.461933
 31
0.0
  0
LINE
  8
LC-003-002-----0
  6
CONTINUOUS
  5
9CB
 10
631.143685
 20
412.161933
 30
0.0
 11
631.143685
 21
407.461933
 31
0.0
  0
LINE
  8
LC-003-002-----0
  6
CONTINUOUS
  5
9CC
 10
621.143685
 20
412.161933
 30
0.0
 11
621.143685
 21
407.461933
 31
0.0
  0
LINE
  8
LC-003-002-----0
  6
CONTINUOUS
  5
9CD
 10
611.143685
 20
412.161933
 30
0.0
 11
611.143685
 21
407.461933
 31
0.0
  0
LINE
  8
LC-003-002-----0
  6
CONTINUOUS
  5
9CE
 10
601.143685
 20
412.161933
 30
0.0
 11
601.143685
 21
407.461933
 31
0.0
  0
LINE
  8
LC-003-002-----0
  6
CONTINUOUS
  5
9CF
 10
591.143685
 20
412.161933
 30
0.0
 11
591.143685
 21
407.461933
 31
0.0
  0
LINE
  8
LC-003-002-----0
  6
CONTINUOUS
  5
9D0
 10
581.143685
 20
412.161933
 30
0.0
 11
581.143685
 21
407.461933
 31
0.0
  0
LINE
  8
LC-003-002-----0
  6
CONTINUOUS
  5
9D1
 10
571.797954
 20
407.461933
 30
0.0
 11
671.143685
 21
407.461933
 31
0.0
  0
LINE
  8
LC-003-002-----0
  6
CONTINUOUS
  5
9D2
 10
572.171383
 20
412.161933
 30
0.0
 11
671.143685
 21
412.161933
 31
0.0
  0
LINE
  8
LC-003-002-----0
  6
CONTINUOUS
  5
9D3
 10
572.171383
 20
412.161933
 30
0.0
 11
531.414295
 21
409.336867
 31
0.0
  0
LINE
  8
LC-003-002-----0
  6
CONTINUOUS
  5
9D4
 10
571.143685
 20
412.090698
 30
0.0
 11
571.143685
 21
407.416182
 31
0.0
  0
LINE
  8
LC-003-002-----0
  6
CONTINUOUS
  5
9D5
 10
561.143685
 20
411.397551
 30
0.0
 11
561.143685
 21
406.716914
 31
0.0
  0
LINE
  8
LC-003-002-----0
  6
CONTINUOUS
  5
9D6
 10
551.143685
 20
410.704404
 30
0.0
 11
551.143685
 21
406.017647
 31
0.0
  0
LINE
  8
LC-003-002-----0
  6
CONTINUOUS
  5
9D7
 10
541.143685
 20
410.011257
 30
0.0
 11
541.143685
 21
405.318379
 31
0.0
  0
LINE
  8
LC-003-002-----0
  6
CONTINUOUS
  5
9D8
 10
531.143685
 20
409.17255
 30
0.0
 11
531.143685
 21
403.883309
 31
0.0
  0
LINE
  8
LC-003-002-----0
  6
CONTINUOUS
  5
9D9
 10
521.143685
 20
406.602185
 30
0.0
 11
521.143685
 21
401.891638
 31
0.0
  0
ARC
  8
LC-003-002-----0
  6
CONTINUOUS
  5
9DA
 10
521.594403
 20
425.203982
 30
0.0
 40
18.66
 50
281.17408
 51
301.752673
  0
LINE
  8
LC-003-002-----0
  6
CONTINUOUS
  5
9DB
 10
513.180466
 20
406.023503
 30
0.0
 11
525.210535
 21
406.897721
 31
0.0
  0
LINE
  8
LC-003-002-----0
  6
CONTINUOUS
  5
9DC
 10
513.181989
 20
401.313066
 30
0.0
 11
513.181989
 21
406.023503
 31
0.0
  0
ARC
  8
LC-003-002-----0
  6
CONTINUOUS
  5
9DD
 10
523.69597
 20
413.846706
 30
0.0
 40
6.3
 50
274.0
 51
315.621929
  0
ARC
  8
LC-003-002-----0
  6
CONTINUOUS
  5
9DE
 10
523.69597
 20
413.846706
 30
0.0
 40
7.0
 50
274.0
 51
320.993096
  0
LINE
  8
LC-003-002-----0
  6
CONTINUOUS
  5
9DF
 10
524.137652
 20
407.551627
 30
0.0
 11
506.408177
 21
406.311861
 31
0.0
  0
LINE
  8
LC-003-002-----0
  6
CONTINUOUS
  5
9E0
 10
524.184265
 20
406.863757
 30
0.0
 11
506.457006
 21
405.624146
 31
0.0
  0
ARC
  8
LC-005-002-RND-0
  6
CONTINUOUS
  5
9E1
 10
506.896472
 20
399.328913
 30
0.0
 40
7.0
 50
94.0
 51
180.0
  0
ARC
  8
LC-005-002-RND-0
  6
CONTINUOUS
  5
9E2
 10
506.896472
 20
399.339493
 30
0.0
 40
6.3
 50
94.0
 51
180.0
  0
LINE
  8
LC-003-002-----0
  6
CONTINUOUS
  5
9E3
 10
500.596472
 20
399.339493
 30
0.0
 11
500.596472
 21
385.651449
 31
0.0
  0
LINE
  8
LC-003-002-----0
  6
CONTINUOUS
  5
9E4
 10
499.896472
 20
399.328913
 30
0.0
 11
499.896472
 21
385.651449
 31
0.0
  0
ARC
  8
LC-003-002-----0
  6
CONTINUOUS
  5
9E5
 10
497.096472
 20
385.651449
 30
0.0
 40
2.8
 50
270.0
 51
0.0
  0
ARC
  8
LC-003-002-----0
  6
CONTINUOUS
  5
9E6
 10
497.096472
 20
385.651449
 30
0.0
 40
3.5
 50
270.0
 51
0.0
  0
ARC
  8
LC-003-002-----0
  6
CONTINUOUS
  5
9E7
 10
497.096192
 20
381.851817
 30
0.0
 40
1.0
 50
90.00028
 51
180.00028
  0
ARC
  8
LC-003-002-----0
  6
CONTINUOUS
  5
9E8
 10
497.096192
 20
381.851817
 30
0.0
 40
0.3
 50
90.00028
 51
180.00028
  0
LINE
  8
LC-003-002-----0
  6
CONTINUOUS
  5
9E9
 10
496.096472
 20
381.851449
 30
0.0
 11
496.096472
 21
379.551449
 31
0.0
  0
LINE
  8
LC-003-002-----0
  6
CONTINUOUS
  5
9EA
 10
496.796472
 20
381.851449
 30
0.0
 11
496.796472
 21
379.551449
 31
0.0
  0
ARC
  8
LC-003-002-----0
  6
CONTINUOUS
  5
9EB
 10
497.096472
 20
379.551449
 30
0.0
 40
1.0
 50
180.0
 51
270.0
  0
ARC
  8
LC-003-002-----0
  6
CONTINUOUS
  5
9EC
 10
497.095949
 20
379.551449
 30
0.0
 40
0.3
 50
180.0
 51
270.0
  0
ARC
  8
LC-003-002-----0
  6
CONTINUOUS
  5
9ED
 10
497.096472
 20
377.751449
 30
0.0
 40
0.8
 50
0.0
 51
90.0
  0
ARC
  8
LC-003-002-----0
  6
CONTINUOUS
  5
9EE
 10
497.096472
 20
377.751449
 30
0.0
 40
1.5
 50
0.0
 51
90.0
  0
ARC
  8
LC-003-002-----0
  6
CONTINUOUS
  5
9EF
 10
497.096472
 20
377.751449
 30
0.0
 40
1.5
 50
270.0
 51
0.0
  0
ARC
  8
LC-003-002-----0
  6
CONTINUOUS
  5
9F0
 10
497.096472
 20
377.751449
 30
0.0
 40
0.8
 50
270.0
 51
0.0
  0
LINE
  8
LC-003-002-----0
  6
CONTINUOUS
  5
9F1
 10
497.096472
 20
376.951449
 30
0.0
 11
494.296472
 21
376.951449
 31
0.0
  0
LINE
  8
LC-003-002-----0
  6
CONTINUOUS
  5
9F2
 10
497.096472
 20
376.251449
 30
0.0
 11
494.296472
 21
376.251449
 31
0.0
  0
LINE
  8
LC-003-002-----0
  6
CONTINUOUS
  5
9F3
 10
494.296472
 20
376.251449
 30
0.0
 11
494.296472
 21
376.951449
 31
0.0
  0
LINE
  8
LC-003-002-----0
  6
CONTINUOUS
  5
9F4
 10
499.834078
 20
402.851761
 30
0.0
 11
421.334078
 21
402.851761
 31
0.0
  0
LINE
  8
LC-003-002-----0
  6
CONTINUOUS
  5
9F5
 10
499.834078
 20
402.851761
 30
0.0
 11
499.834078
 21
385.852116
 31
0.0
  0
LINE
  8
LC-003-002-----0
  6
CONTINUOUS
  5
9F6
 10
497.334078
 20
385.352116
 30
0.0
 11
497.334078
 21
402.851761
 31
0.0
  0
LINE
  8
LC-003-002-----0
  6
CONTINUOUS
  5
9F7
 10
493.834078
 20
399.851761
 30
0.0
 11
493.834078
 21
385.352116
 31
0.0
  0
ARC
  8
LC-005-002-RND-0
  6
CONTINUOUS
  5
9F8
 10
495.834078
 20
399.851761
 30
0.0
 40
2.0
 50
90.0
 51
180.0
  0
LINE
  8
LC-003-002-----0
  6
CONTINUOUS
  5
9F9
 10
497.334078
 20
401.851761
 30
0.0
 11
495.834078
 21
401.851761
 31
0.0
  0
LINE
  8
LC-003-002-----0
  6
CONTINUOUS
  5
9FA
 10
478.615477
 20
385.352116
 30
0.0
 11
497.096472
 21
385.352116
 31
0.0
  0
LINE
  8
LC-003-002-----0
  6
CONTINUOUS
  5
9FB
 10
480.078729
 20
382.852116
 30
0.0
 11
496.834078
 21
382.852116
 31
0.0
  0
LINE
  8
LC-003-002-----0
  6
CONTINUOUS
  5
9FC
 10
489.834078
 20
382.852116
 30
0.0
 11
489.834078
 21
385.352116
 31
0.0
  0
LINE
  8
LC-003-002-----0
  6
CONTINUOUS
  5
9FD
 10
484.406818
 20
382.852116
 30
0.0
 11
484.406818
 21
385.352116
 31
0.0
  0
LINE
  8
LC-003-002-----0
  6
CONTINUOUS
  5
9FE
 10
499.834078
 20
385.852116
 30
0.0
 11
496.834078
 21
382.852116
 31
0.0
  0
LINE
  8
LC-003-002-----0
  6
CONTINUOUS
  5
9FF
 10
513.2245
 20
401.445328
 30
0.0
 11
507.288848
 21
401.030268
 31
0.0
  0
LINE
  8
LC-003-002-----0
  6
CONTINUOUS
  5
A00
 10
508.365427
 20
398.584499
 30
0.0
 11
508.365427
 21
385.732081
 31
0.0
  0
LINE
  8
LC-003-002-----0
  6
CONTINUOUS
  5
A01
 10
508.365427
 20
398.584499
 30
0.0
 11
510.083371
 21
398.584499
 31
0.0
  0
LINE
  8
LC-003-002-----0
  6
CONTINUOUS
  5
A02
 10
513.224753
 20
401.441724
 30
0.0
 11
513.224753
 21
393.818751
 31
0.0
  0
ARC
  8
LC-005-002-RND-0
  6
CONTINUOUS
  5
A03
 10
512.144903
 20
393.831584
 30
0.0
 40
1.07985
 50
273.999997
 51
0.0
  0
LINE
  8
LC-003-002-----0
  6
CONTINUOUS
  5
A04
 10
512.220229
 20
392.754365
 30
0.0
 11
510.083371
 21
392.604941
 31
0.0
  0
LINE
  8
LC-003-002-----0
  6
CONTINUOUS
  5
A05
 10
510.083371
 20
392.604941
 30
0.0
 11
510.083371
 21
398.584499
 31
0.0
  0
ARC
  8
LC-003-002-----0
  6
CONTINUOUS
  5
A06
 10
507.569519
 20
397.016482
 30
0.0
 40
4.023715
 50
93.998836
 51
111.246312
  0
LINE
  8
LC-003-002-----0
  6
CONTINUOUS
  5
A07
 10
501.171539
 20
395.469558
 30
0.0
 11
506.111413
 21
400.76671
 31
0.0
  0
ARC
  8
LC-003-002-----0
  6
CONTINUOUS
  5
A08
 10
501.388768
 20
395.269181
 30
0.0
 40
0.296443
 50
137.000136
 51
290.000136
  0
LINE
  8
LC-003-002-----0
  6
CONTINUOUS
  5
A09
 10
501.489723
 20
394.988813
 30
0.0
 11
504.782914
 21
396.187361
 31
0.0
  0
ARC
  8
LC-003-002-----0
  6
CONTINUOUS
  5
A0A
 10
505.120859
 20
395.258804
 30
0.0
 40
0.988142
 50
359.998586
 51
109.998839
  0
LINE
  8
LC-003-002-----0
  6
CONTINUOUS
  5
A0B
 10
506.109001
 20
395.258804
 30
0.0
 11
506.108971
 21
393.943066
 31
0.0
  0
ARC
  8
LC-003-002-----0
  6
CONTINUOUS
  5
A0C
 10
505.6149
 20
393.943077
 30
0.0
 40
0.494071
 50
316.998839
 51
359.998703
  0
LINE
  8
LC-003-002-----0
  6
CONTINUOUS
  5
A0D
 10
501.17138
 20
388.453748
 30
0.0
 11
505.976234
 21
393.606114
 31
0.0
  0
ARC
  8
LC-003-002-----0
  6
CONTINUOUS
  5
A0E
 10
501.388768
 20
388.253371
 30
0.0
 40
0.296443
 50
137.000136
 51
290.000136
  0
LINE
  8
LC-003-002-----0
  6
CONTINUOUS
  5
A0F
 10
501.489564
 20
387.973003
 30
0.0
 11
504.782755
 21
389.171551
 31
0.0
  0
ARC
  8
LC-003-002-----0
  6
CONTINUOUS
  5
A10
 10
505.1207
 20
388.242994
 30
0.0
 40
0.988142
 50
359.998586
 51
109.998839
  0
LINE
  8
LC-003-002-----0
  6
CONTINUOUS
  5
A11
 10
506.108828
 20
388.242972
 30
0.0
 11
506.108766
 21
385.730173
 31
0.0
  0
LINE
  8
LC-003-002-----0
  6
CONTINUOUS
  5
A12
 10
508.364899
 20
385.732081
 30
0.0
 11
506.108766
 21
385.732081
 31
0.0
  0
LINE
  8
LC-003-002-----0
  6
CONTINUOUS
  5
A13
 10
329.443655
 20
401.445328
 30
0.0
 11
335.379307
 21
401.030268
 31
0.0
  0
LINE
  8
LC-003-002-----0
  6
CONTINUOUS
  5
A14
 10
334.302728
 20
398.584499
 30
0.0
 11
334.302728
 21
385.732081
 31
0.0
  0
LINE
  8
LC-003-002-----0
  6
CONTINUOUS
  5
A15
 10
334.302728
 20
398.584499
 30
0.0
 11
332.584784
 21
398.584499
 31
0.0
  0
LINE
  8
LC-003-002-----0
  6
CONTINUOUS
  5
A16
 10
329.443403
 20
401.441724
 30
0.0
 11
329.443403
 21
393.818751
 31
0.0
  0
ARC
  8
LC-005-002-RND-0
  6
CONTINUOUS
  5
A17
 10
330.523253
 20
393.831584
 30
0.0
 40
1.07985
 50
180.0
 51
266.000003
  0
LINE
  8
LC-003-002-----0
  6
CONTINUOUS
  5
A18
 10
330.447926
 20
392.754365
 30
0.0
 11
332.584784
 21
392.604941
 31
0.0
  0
LINE
  8
LC-003-002-----0
  6
CONTINUOUS
  5
A19
 10
332.584784
 20
392.604941
 30
0.0
 11
332.584784
 21
398.584499
 31
0.0
  0
ARC
  8
LC-003-002-----0
  6
CONTINUOUS
  5
A1A
 10
335.098636
 20
397.016482
 30
0.0
 40
4.023715
 50
68.753688
 51
86.001164
  0
LINE
  8
LC-003-002-----0
  6
CONTINUOUS
  5
A1B
 10
341.496617
 20
395.469558
 30
0.0
 11
336.556742
 21
400.76671
 31
0.0
  0
ARC
  8
LC-003-002-----0
  6
CONTINUOUS
  5
A1C
 10
341.279388
 20
395.269181
 30
0.0
 40
0.296443
 50
249.999864
 51
42.999864
  0
LINE
  8
LC-003-002-----0
  6
CONTINUOUS
  5
A1D
 10
341.178432
 20
394.988813
 30
0.0
 11
337.885242
 21
396.187361
 31
0.0
  0
ARC
  8
LC-003-002-----0
  6
CONTINUOUS
  5
A1E
 10
337.547296
 20
395.258804
 30
0.0
 40
0.988142
 50
70.001161
 51
180.001414
  0
LINE
  8
LC-003-002-----0
  6
CONTINUOUS
  5
A1F
 10
336.559154
 20
395.258804
 30
0.0
 11
336.559184
 21
393.943066
 31
0.0
  0
ARC
  8
LC-003-002-----0
  6
CONTINUOUS
  5
A20
 10
337.053255
 20
393.943077
 30
0.0
 40
0.494071
 50
180.001297
 51
223.001161
  0
LINE
  8
LC-003-002-----0
  6
CONTINUOUS
  5
A21
 10
341.496775
 20
388.453748
 30
0.0
 11
336.691921
 21
393.606114
 31
0.0
  0
ARC
  8
LC-003-002-----0
  6
CONTINUOUS
  5
A22
 10
341.279388
 20
388.253371
 30
0.0
 40
0.296443
 50
249.999864
 51
42.999864
  0
LINE
  8
LC-003-002-----0
  6
CONTINUOUS
  5
A23
 10
341.178591
 20
387.973003
 30
0.0
 11
337.8854
 21
389.171551
 31
0.0
  0
ARC
  8
LC-003-002-----0
  6
CONTINUOUS
  5
A24
 10
337.547455
 20
388.242994
 30
0.0
 40
0.988142
 50
70.001161
 51
180.001414
  0
LINE
  8
LC-003-002-----0
  6
CONTINUOUS
  5
A25
 10
336.559327
 20
388.242972
 30
0.0
 11
336.559389
 21
385.730173
 31
0.0
  0
LINE
  8
LC-003-002-----0
  6
CONTINUOUS
  5
A26
 10
334.303256
 20
385.732081
 30
0.0
 11
336.559389
 21
385.732081
 31
0.0
  0
ENDSEC
  0
EOF
