  0
SECTION
  2
HEADER
  9
$ACADVER
  1
AC1015
  9
$ACADMAINTVER
 70
     6
  9
$DWGCODEPAGE
  3
DOS850
  9
$INSBASE
 10
0.0
 20
0.0
 30
0.0
  9
$EXTMIN
 10
0.0
 20
0.0
 30
0.0
  9
$EXTMAX
 10
840.0
 20
594.0
 30
0.0
  9
$LIMMIN
 10
0.0
 20
0.0
  9
$LIMMAX
 10
840.0
 20
594.0
  9
$ORTHOMODE
 70
     0
  9
$REGENMODE
 70
     1
  9
$FILLMODE
 70
     1
  9
$QTEXTMODE
 70
     0
  9
$MIRRTEXT
 70
     1
  9
$LTSCALE
 40
2.0
  9
$ATTMODE
 70
     1
  9
$TEXTSIZE
 40
2.5
  9
$TRACEWID
 40
1.0
  9
$TEXTSTYLE
  7
Standard
  9
$CLAYER
  8
0
  9
$CELTYPE
  6
ByLayer
  9
$CECOLOR
 62
     7
  9
$CELTSCALE
 40
1.0
  9
$DISPSILH
 70
     0
  9
$DIMSCALE
 40
2.0
  9
$DIMASZ
 40
3.5
  9
$DIMEXO
 40
0.625
  9
$DIMDLI
 40
3.75
  9
$DIMRND
 40
0.0
  9
$DIMDLE
 40
0.0
  9
$DIMEXE
 40
1.25
  9
$DIMTP
 40
0.0
  9
$DIMTM
 40
0.0
  9
$DIMTXT
 40
3.5
  9
$DIMCEN
 40
2.5
  9
$DIMTSZ
 40
0.0
  9
$DIMTOL
 70
     0
  9
$DIMLIM
 70
     0
  9
$DIMTIH
 70
     0
  9
$DIMTOH
 70
     0
  9
$DIMSE1
 70
     0
  9
$DIMSE2
 70
     0
  9
$DIMTAD
 70
     1
  9
$DIMZIN
 70
     8
  9
$DIMBLK
  1

  9
$DIMASO
 70
     1
  9
$DIMSHO
 70
     1
  9
$DIMPOST
  1

  9
$DIMAPOST
  1

  9
$DIMALT
 70
     0
  9
$DIMALTD
 70
     3
  9
$DIMALTF
 40
0.03937
  9
$DIMLFAC
 40
1.0
  9
$DIMTOFL
 70
     1
  9
$DIMTVP
 40
0.0
  9
$DIMTIX
 70
     0
  9
$DIMSOXD
 70
     0
  9
$DIMSAH
 70
     0
  9
$DIMBLK1
  1

  9
$DIMBLK2
  1

  9
$DIMSTYLE
  2
ISO-25
  9
$DIMCLRD
 70
     0
  9
$DIMCLRE
 70
     0
  9
$DIMCLRT
 70
     0
  9
$DIMTFAC
 40
1.0
  9
$DIMGAP
 40
0.625
  9
$DIMJUST
 70
     0
  9
$DIMSD1
 70
     0
  9
$DIMSD2
 70
     0
  9
$DIMTOLJ
 70
     0
  9
$DIMTZIN
 70
     8
  9
$DIMALTZ
 70
     0
  9
$DIMALTTZ
 70
     0
  9
$DIMUPT
 70
     0
  9
$DIMDEC
 70
     2
  9
$DIMTDEC
 70
     2
  9
$DIMALTU
 70
     2
  9
$DIMALTTD
 70
     3
  9
$DIMTXSTY
  7
Standard
  9
$DIMAUNIT
 70
     0
  9
$DIMADEC
 70
     0
  9
$DIMALTRND
 40
0.0
  9
$DIMAZIN
 70
     0
  9
$DIMDSEP
 70
    44
  9
$DIMATFIT
 70
     3
  9
$DIMFRAC
 70
     0
  9
$DIMLDRBLK
  1

  9
$DIMLUNIT
 70
     2
  9
$DIMLWD
 70
    -2
  9
$DIMLWE
 70
    -2
  9
$DIMTMOVE
 70
     0
  9
$LUNITS
 70
     2
  9
$LUPREC
 70
     4
  9
$SKETCHINC
 40
1.0
  9
$FILLETRAD
 40
10.0
  9
$AUNITS
 70
     0
  9
$AUPREC
 70
     0
  9
$MENU
  1
.
  9
$ELEVATION
 40
0.0
  9
$PELEVATION
 40
0.0
  9
$THICKNESS
 40
0.0
  9
$LIMCHECK
 70
     0
  9
$CHAMFERA
 40
10.0
  9
$CHAMFERB
 40
10.0
  9
$CHAMFERC
 40
20.0
  9
$CHAMFERD
 40
0.0
  9
$SKPOLY
 70
     0
  9
$TDCREATE
 40
2454434.229025509
  9
$TDUCREATE
 40
2454434.187358843
  9
$TDUPDATE
 40
2454434.229025521
  9
$TDUUPDATE
 40
2454434.187358854
  9
$TDINDWG
 40
0.0000000116
  9
$TDUSRTIMER
 40
0.0000000116
  9
$USRTIMER
 70
     1
  9
$ANGBASE
 50
0.0
  9
$ANGDIR
 70
     0
  9
$PDMODE
 70
     0
  9
$PDSIZE
 40
0.0
  9
$PLINEWID
 40
0.0
  9
$SPLFRAME
 70
     0
  9
$SPLINETYPE
 70
     6
  9
$SPLINESEGS
 70
     8
  9
$HANDSEED
  5
1EF
  9
$SURFTAB1
 70
     6
  9
$SURFTAB2
 70
     6
  9
$SURFTYPE
 70
     6
  9
$SURFU
 70
     6
  9
$SURFV
 70
     6
  9
$UCSBASE
  2

  9
$UCSNAME
  2

  9
$UCSORG
 10
0.0
 20
0.0
 30
0.0
  9
$UCSXDIR
 10
1.0
 20
0.0
 30
0.0
  9
$UCSYDIR
 10
0.0
 20
1.0
 30
0.0
  9
$UCSORTHOREF
  2

  9
$UCSORTHOVIEW
 70
     0
  9
$UCSORGTOP
 10
0.0
 20
0.0
 30
0.0
  9
$UCSORGBOTTOM
 10
0.0
 20
0.0
 30
0.0
  9
$UCSORGLEFT
 10
0.0
 20
0.0
 30
0.0
  9
$UCSORGRIGHT
 10
0.0
 20
0.0
 30
0.0
  9
$UCSORGFRONT
 10
0.0
 20
0.0
 30
0.0
  9
$UCSORGBACK
 10
0.0
 20
0.0
 30
0.0
  9
$PUCSBASE
  2

  9
$PUCSNAME
  2

  9
$PUCSORG
 10
0.0
 20
0.0
 30
0.0
  9
$PUCSXDIR
 10
1.0
 20
0.0
 30
0.0
  9
$PUCSYDIR
 10
0.0
 20
1.0
 30
0.0
  9
$PUCSORTHOREF
  2

  9
$PUCSORTHOVIEW
 70
     0
  9
$PUCSORGTOP
 10
0.0
 20
0.0
 30
0.0
  9
$PUCSORGBOTTOM
 10
0.0
 20
0.0
 30
0.0
  9
$PUCSORGLEFT
 10
0.0
 20
0.0
 30
0.0
  9
$PUCSORGRIGHT
 10
0.0
 20
0.0
 30
0.0
  9
$PUCSORGFRONT
 10
0.0
 20
0.0
 30
0.0
  9
$PUCSORGBACK
 10
0.0
 20
0.0
 30
0.0
  9
$USERI1
 70
     0
  9
$USERI2
 70
     0
  9
$USERI3
 70
     0
  9
$USERI4
 70
     0
  9
$USERI5
 70
     0
  9
$USERR1
 40
0.0
  9
$USERR2
 40
0.0
  9
$USERR3
 40
0.0
  9
$USERR4
 40
0.0
  9
$USERR5
 40
0.0
  9
$WORLDVIEW
 70
     1
  9
$SHADEDGE
 70
     3
  9
$SHADEDIF
 70
    70
  9
$TILEMODE
 70
     1
  9
$MAXACTVP
 70
    64
  9
$PINSBASE
 10
0.0
 20
0.0
 30
0.0
  9
$PLIMCHECK
 70
     0
  9
$PEXTMIN
 10
0.0
 20
0.0
 30
0.0
  9
$PEXTMAX
 10
840.0
 20
594.0
 30
0.0
  9
$PLIMMIN
 10
0.0
 20
0.0
  9
$PLIMMAX
 10
840.0
 20
594.0
  9
$UNITMODE
 70
     0
  9
$VISRETAIN
 70
     1
  9
$PLINEGEN
 70
     0
  9
$PSLTSCALE
 70
     1
  9
$TREEDEPTH
 70
  3020
  9
$CMLSTYLE
  2
Standard
  9
$CMLJUST
 70
     0
  9
$CMLSCALE
 40
20.0
  9
$PROXYGRAPHICS
 70
     1
  9
$MEASUREMENT
 70
     1
  9
$CELWEIGHT
370
    -1
  9
$ENDCAPS
280
     0
  9
$JOINSTYLE
280
     0
  9
$LWDISPLAY
290
     0
  9
$INSUNITS
 70
     4
  9
$HYPERLINKBASE
  1

  9
$STYLESHEET
  1

  9
$XEDIT
290
     1
  9
$CEPSNTYPE
380
     0
  9
$PSTYLEMODE
290
     1
  9
$FINGERPRINTGUID
  2
{FAEB1C30-E019-11D5-929B-00C0DF256EC4}
  9
$VERSIONGUID
  2
{FAEB1C32-E019-11D5-929B-00C0DF256EC4}
  9
$EXTNAMES
290
     1
  9
$PSVPSCALE
 40
0.0
  9
$OLESTARTUP
290
     0
  0
ENDSEC
  0
SECTION
  2
CLASSES
  0
CLASS
  1
ACDBDICTIONARYWDFLT
  2
AcDbDictionaryWithDefault
  3
ObjectDBX Classes
 90
        0
280
     0
281
     0
  0
CLASS
  1
ACDBPLACEHOLDER
  2
AcDbPlaceHolder
  3
ObjectDBX Classes
 90
        0
280
     0
281
     0
  0
CLASS
  1
LAYOUT
  2
AcDbLayout
  3
ObjectDBX Classes
 90
        0
280
     0
281
     0
  0
ENDSEC
  0
SECTION
  2
TABLES
  0
TABLE
  2
VPORT
  5
8
330
0
100
AcDbSymbolTable
 70
     2
  0
VPORT
  5
29
330
8
100
AcDbSymbolTableRecord
100
AcDbViewportTableRecord
  2
*ACTIVE
 70
     0
 10
0.0
 20
0.0
 11
1.0
 21
1.0
 12
420.0
 22
297.0
 13
0.0
 23
0.0
 14
1.0
 24
1.0
 15
0.0
 25
0.0
 16
0.0
 26
0.0
 36
1.0
 17
0.0
 27
0.0
 37
0.0
 40
594.0
 41
1.414141
 42
50.0
 43
0.0
 44
0.0
 50
0.0
 51
0.0
 71
    16
 72
   100
 73
     1
 74
     0
 75
     0
 76
     0
 77
     0
 78
     0
281
     0
 65
     0
110
0.0
120
0.0
130
0.0
111
1.0
121
0.0
131
0.0
112
0.0
122
1.0
132
0.0
 79
     0
146
0.0
  0
ENDTAB
  0
TABLE
  2
LTYPE
  5
5
330
0
100
AcDbSymbolTable
 70
     3
  0
LTYPE
  5
14
330
5
100
AcDbSymbolTableRecord
100
AcDbLinetypeTableRecord
  2
ByBlock
 70
     0
  3

 72
    65
 73
     0
 40
0.0
  0
LTYPE
  5
15
330
5
100
AcDbSymbolTableRecord
100
AcDbLinetypeTableRecord
  2
ByLayer
 70
     0
  3

 72
    65
 73
     0
 40
0.0
  0
LTYPE
  5
16
330
5
100
AcDbSymbolTableRecord
100
AcDbLinetypeTableRecord
  2
Continuous
 70
     0
  3
Solid line
 72
    65
 73
     0
 40
0.0
  0
LTYPE
  5
2A
330
5
100
AcDbSymbolTableRecord
100
AcDbLinetypeTableRecord
  2
DASHED
 70
     0
  3
__ __ __ __ __
 72
    65
 73
     2
 40
6.25
 49
5.0
 74
     4
 75
     0
340
0
 46
1.0
 50
0.0
 44
0.0
 45
0.0
 49
-1.25
 74
     4
 75
     0
340
0
 46
1.0
 50
0.0
 44
0.0
 45
0.0
  0
LTYPE
  5
4C
330
5
100
AcDbSymbolTableRecord
100
AcDbLinetypeTableRecord
  2
DASHDOT
 70
     0
  3
__ . __ . __ . __ . __
 72
    65
 73
     4
 40
7.5
 49
5.0
 74
     4
 75
     0
340
0
 46
1.0
 50
0.0
 44
0.0
 45
0.0
 49
-1.25
 74
     4
 75
     0
340
0
 46
1.0
 50
0.0
 44
0.0
 45
0.0
 49
0.0
 74
     4
 75
     0
340
0
 46
1.0
 50
0.0
 44
0.0
 45
0.0
 49
-1.25
 74
     4
 75
     0
340
0
 46
1.0
 50
0.0
 44
0.0
 45
0.0
  0
ENDTAB
  0
TABLE
  2
LAYER
  5
2
330
0
100
AcDbSymbolTable
 70
    10
  0
LAYER
  5
10
330
2
100
AcDbSymbolTableRecord
100
AcDbLayerTableRecord
  2
0
 70
     0
 62
     7
  6
Continuous
370
    -3
390
F
  0
LAYER
  5
2B
330
2
100
AcDbSymbolTableRecord
100
AcDbLayerTableRecord
  2
LC-INFO-1-2-mm-A3-0
 70
     1
 62
     7
  6
ByBlock
370
    -3
390
F
  0
LAYER
  5
2C
330
2
100
AcDbSymbolTableRecord
100
AcDbLayerTableRecord
  2
LC-CUT-HIDDEN
 70
     0
 62
     7
  6
DASHED
370
    -3
390
F
  0
LAYER
  5
2D
330
2
100
AcDbSymbolTableRecord
100
AcDbLayerTableRecord
  2
LC-VIEWPORT
 70
     0
 62
     7
  6
ByBlock
370
    -3
390
F
  0
LAYER
  5
2E
330
2
100
AcDbSymbolTableRecord
100
AcDbLayerTableRecord
  2
LC-3D-HIDDEN
 70
     0
 62
     9
  6
DASHED
370
    -3
390
F
  0
LAYER
  5
30
330
2
100
AcDbSymbolTableRecord
100
AcDbLayerTableRecord
  2
LC-001-002-----0
 70
     0
 62
     1
  6
ByBlock
370
    -3
390
F
  0
LAYER
  5
36
330
2
100
AcDbSymbolTableRecord
100
AcDbLayerTableRecord
  2
LC-002-003-----0
 70
     0
 62
     2
  6
ByBlock
370
    -3
390
F
  0
LAYER
  5
38
330
2
100
AcDbSymbolTableRecord
100
AcDbLayerTableRecord
  2
Defpoints
 70
     0
 62
     7
  6
Continuous
290
     0
370
    -3
390
F
  0
LAYER
  5
55
330
2
100
AcDbSymbolTableRecord
100
AcDbLayerTableRecord
  2
LC-003-005-----0
 70
     0
 62
     2
  6
ByBlock
370
    -3
390
F
  0
LAYER
  5
146
330
2
100
AcDbSymbolTableRecord
100
AcDbLayerTableRecord
  2
LC-004-001-----0
 70
     0
 62
     1
  6
ByBlock
370
    -3
390
F
  0
ENDTAB
  0
TABLE
  2
STYLE
  5
3
330
0
100
AcDbSymbolTable
 70
     3
  0
STYLE
  5
11
330
3
100
AcDbSymbolTableRecord
100
AcDbTextStyleTableRecord
  2
Standard
 70
     0
 40
0.0
 41
1.0
 50
0.0
 71
     0
 42
2.5
  3
txt
  4

  0
STYLE
  5
2F
330
3
100
AcDbSymbolTableRecord
100
AcDbTextStyleTableRecord
  2
LCTX15-400-0-0-Arial
 70
     0
 40
0.0
 41
0.9
 50
0.0
 71
     0
 42
3.5
  3

  4

1001
ACAD
1000
Arial
1071
 16777218
  0
STYLE
  5
34
330
3
100
AcDbSymbolTableRecord
100
AcDbTextStyleTableRecord
  2
LCTX15-400-0-0pDIN-Schrift
 70
     0
 40
2.5
 41
0.8
 50
15.0
 71
     0
 42
3.5
  3
STANDARD
  4

  0
ENDTAB
  0
TABLE
  2
VIEW
  5
6
330
0
100
AcDbSymbolTable
 70
     0
  0
ENDTAB
  0
TABLE
  2
UCS
  5
7
330
0
100
AcDbSymbolTable
 70
     0
  0
ENDTAB
  0
TABLE
  2
APPID
  5
9
330
0
100
AcDbSymbolTable
 70
     1
  0
APPID
  5
12
330
9
100
AcDbSymbolTableRecord
100
AcDbRegAppTableRecord
  2
ACAD
 70
     0
  0
ENDTAB
  0
TABLE
  2
DIMSTYLE
  5
A
330
0
100
AcDbSymbolTable
 70
     2
100
AcDbDimStyleTable
  0
DIMSTYLE
105
27
330
A
100
AcDbSymbolTableRecord
100
AcDbDimStyleTableRecord
  2
ISO-25
 70
     0
 41
2.5
 42
0.625
 43
3.75
 44
1.25
 73
     0
 74
     0
 77
     1
 78
     8
140
2.5
141
2.5
143
0.03937
147
0.625
171
     3
172
     1
271
     2
272
     2
274
     3
278
    44
283
     0
284
     8
340
11
  0
DIMSTYLE
105
35
102
{ACAD_REACTORS
330
37
330
11D
330
14A
330
1AF
330
1BD
102
}
330
A
100
AcDbSymbolTableRecord
100
AcDbDimStyleTableRecord
  2
LC-DIM-L-0140-02-02
 70
     0
 40
2.0
 41
14.0
 42
0.0
 43
7.5
 44
1.8
 73
     0
 74
     0
 77
     1
 78
     8
 79
     2
140
14.0
141
0.0
146
0.71
147
1.5
176
     2
177
     2
178
     2
179
     2
271
     2
278
    44
289
     1
340
34
  0
ENDTAB
  0
TABLE
  2
BLOCK_RECORD
  5
1
330
0
100
AcDbSymbolTable
 70
    12
  0
BLOCK_RECORD
  5
1F
330
1
100
AcDbSymbolTableRecord
100
AcDbBlockTableRecord
  2
*Model_Space
340
22
  0
BLOCK_RECORD
  5
1B
330
1
100
AcDbSymbolTableRecord
100
AcDbBlockTableRecord
  2
*Paper_Space
340
1E
  0
BLOCK_RECORD
  5
23
330
1
100
AcDbSymbolTableRecord
100
AcDbBlockTableRecord
  2
*Paper_Space0
340
26
  0
BLOCK_RECORD
  5
39
330
1
100
AcDbSymbolTableRecord
100
AcDbBlockTableRecord
  2
*D1
340
0
  0
BLOCK_RECORD
  5
52
330
1
100
AcDbSymbolTableRecord
100
AcDbBlockTableRecord
  2
*X12
340
0
102
{BLKREFS
331
A2
102
}
  0
BLOCK_RECORD
  5
A4
330
1
100
AcDbSymbolTableRecord
100
AcDbBlockTableRecord
  2
*X23
340
0
102
{BLKREFS
331
B5
102
}
  0
BLOCK_RECORD
  5
B6
330
1
100
AcDbSymbolTableRecord
100
AcDbBlockTableRecord
  2
*X34
340
0
102
{BLKREFS
331
C8
102
}
  0
BLOCK_RECORD
  5
CD
330
1
100
AcDbSymbolTableRecord
100
AcDbBlockTableRecord
  2
*X45
340
0
102
{BLKREFS
331
11A
102
}
  0
BLOCK_RECORD
  5
11E
330
1
100
AcDbSymbolTableRecord
100
AcDbBlockTableRecord
  2
*D6
340
0
  0
BLOCK_RECORD
  5
14B
330
1
100
AcDbSymbolTableRecord
100
AcDbBlockTableRecord
  2
*D7
340
0
  0
BLOCK_RECORD
  5
166
330
1
100
AcDbSymbolTableRecord
100
AcDbBlockTableRecord
  2
*X58
340
0
102
{BLKREFS
331
18A
102
}
  0
BLOCK_RECORD
  5
18B
330
1
100
AcDbSymbolTableRecord
100
AcDbBlockTableRecord
  2
*X69
340
0
102
{BLKREFS
331
1AE
102
}
  0
BLOCK_RECORD
  5
1B0
330
1
100
AcDbSymbolTableRecord
100
AcDbBlockTableRecord
  2
*D10
340
0
  0
BLOCK_RECORD
  5
1BE
330
1
100
AcDbSymbolTableRecord
100
AcDbBlockTableRecord
  2
*D11
340
0
  0
ENDTAB
  0
ENDSEC
  0
SECTION
  2
BLOCKS
  0
BLOCK
  5
20
330
1F
100
AcDbEntity
  8
0
100
AcDbBlockBegin
  2
*Model_Space
 70
     0
 71
     0
 10
0.0
 20
0.0
 30
0.0
  3
*Model_Space
  1

  0
ENDBLK
  5
21
330
1F
100
AcDbEntity
  8
0
100
AcDbBlockEnd
  0
BLOCK
  5
1C
330
1B
100
AcDbEntity
 67
     1
  8
0
100
AcDbBlockBegin
  2
*Paper_Space
 70
     0
 71
     0
 10
0.0
 20
0.0
 30
0.0
  3
*Paper_Space
  1

  0
ENDBLK
  5
1D
330
1B
100
AcDbEntity
 67
     1
  8
0
100
AcDbBlockEnd
  0
BLOCK
  5
24
330
23
100
AcDbEntity
  8
0
100
AcDbBlockBegin
  2
*Paper_Space0
 70
     0
 71
     0
 10
0.0
 20
0.0
 30
0.0
  3
*Paper_Space0
  1

  0
ENDBLK
  5
25
330
23
100
AcDbEntity
  8
0
100
AcDbBlockEnd
  0
BLOCK
  5
44
330
39
100
AcDbEntity
  8
0
100
AcDbBlockBegin
  2
*D1
 70
     1
 71
     0
 10
0.0
 20
0.0
 30
0.0
  3
*D1
  1

  0
LINE
  5
3A
330
39
100
AcDbEntity
  8
LC-002-003-----0
 62
     2
370
    -2
100
AcDbLine
 10
212.388995
 20
451.763697
 30
0.0
 11
188.576101
 21
451.763697
 31
0.0
  0
LINE
  5
3B
330
39
100
AcDbEntity
  8
LC-002-003-----0
 62
     2
370
    -2
100
AcDbLine
 10
207.335736
 20
436.763743
 30
0.0
 11
188.576101
 21
436.763743
 31
0.0
  0
LINE
  5
3C
330
39
100
AcDbEntity
  8
LC-002-003-----0
 62
     2
370
    -2
100
AcDbLine
 10
192.176101
 20
479.763697
 30
0.0
 11
192.176101
 21
507.763697
 31
0.0
  0
LINE
  5
3D
330
39
100
AcDbEntity
  8
LC-002-003-----0
 62
     2
370
    -2
100
AcDbLine
 10
192.176101
 20
408.763743
 30
0.0
 11
192.176101
 21
369.518711
 31
0.0
  0
SOLID
  5
3E
330
39
100
AcDbEntity
  8
LC-002-003-----0
 62
     2
100
AcDbTrace
 10
187.509434
 20
479.763697
 30
0.0
 11
196.842768
 21
479.763697
 31
0.0
 12
192.176101
 22
451.763697
 32
0.0
 13
192.176101
 23
451.763697
 33
0.0
  0
SOLID
  5
3F
330
39
100
AcDbEntity
  8
LC-002-003-----0
 62
     2
100
AcDbTrace
 10
196.842768
 20
408.763743
 30
0.0
 11
187.509434
 21
408.763743
 31
0.0
 12
192.176101
 22
436.763743
 32
0.0
 13
192.176101
 23
436.763743
 33
0.0
  0
MTEXT
  5
40
330
39
100
AcDbEntity
  8
LC-002-003-----0
 62
     2
100
AcDbMText
 10
161.376101
 20
389.07
 30
0.0
 40
28.0
 41
0.0
 71
     5
 72
     1
  1
\A1;15
  7
LCTX15-400-0-0pDIN-Schrift
 11
6.123031769111886E-17
 21
1.0
 31
0.0
 73
     1
 44
1.0
  0
POINT
  5
41
330
39
100
AcDbEntity
  8
Defpoints
 62
     0
100
AcDbPoint
 10
212.388995
 20
451.763697
 30
0.0
  0
POINT
  5
42
330
39
100
AcDbEntity
  8
Defpoints
 62
     0
100
AcDbPoint
 10
207.335736
 20
436.763743
 30
0.0
  0
POINT
  5
43
330
39
100
AcDbEntity
  8
Defpoints
 62
     0
100
AcDbPoint
 10
192.176101
 20
436.763743
 30
0.0
  0
ENDBLK
  5
45
330
39
100
AcDbEntity
  8
0
100
AcDbBlockEnd
  0
BLOCK
  5
53
330
52
100
AcDbEntity
  8
0
100
AcDbBlockBegin
  2
*X12
 70
     1
 71
     0
 10
0.0
 20
0.0
 30
0.0
  3
*X12
  1

  4
*X1
  0
LINE
  5
56
330
52
100
AcDbEntity
  8
LC-003-005-----0
 62
     7
370
    25
100
AcDbLine
 10
213.335736
 20
448.516211
 30
0.0
 11
211.088315
 21
450.763632
 31
0.0
  0
LINE
  5
57
330
52
100
AcDbEntity
  8
LC-003-005-----0
 62
     7
370
    25
100
AcDbLine
 10
213.335736
 20
445.687784
 30
0.0
 11
209.835736
 21
449.187784
 31
0.0
  0
LINE
  5
58
330
52
100
AcDbEntity
  8
LC-003-005-----0
 62
     7
370
    25
100
AcDbLine
 10
213.335736
 20
442.859357
 30
0.0
 11
209.835736
 21
446.359357
 31
0.0
  0
LINE
  5
59
330
52
100
AcDbEntity
  8
LC-003-005-----0
 62
     7
370
    25
100
AcDbLine
 10
213.335736
 20
440.03093
 30
0.0
 11
209.835736
 21
443.53093
 31
0.0
  0
LINE
  5
5A
330
52
100
AcDbEntity
  8
LC-003-005-----0
 62
     7
370
    25
100
AcDbLine
 10
213.335736
 20
437.202502
 30
0.0
 11
209.835736
 21
440.702502
 31
0.0
  0
LINE
  5
5B
330
52
100
AcDbEntity
  8
LC-003-005-----0
 62
     7
370
    25
100
AcDbLine
 10
213.335736
 20
434.374075
 30
0.0
 11
211.335906
 21
436.373905
 31
0.0
  0
LINE
  5
5C
330
52
100
AcDbEntity
  8
LC-003-005-----0
 62
     7
370
    25
100
AcDbLine
 10
210.946069
 20
436.763743
 30
0.0
 11
209.44618
 21
438.263632
 31
0.0
  0
LINE
  5
5D
330
52
100
AcDbEntity
  8
LC-003-005-----0
 62
     7
370
    25
100
AcDbLine
 10
208.835736
 20
438.874075
 30
0.0
 11
207.831736
 21
439.878075
 31
0.0
  0
LINE
  5
5E
330
52
100
AcDbEntity
  8
LC-003-005-----0
 62
     7
370
    25
100
AcDbLine
 10
213.335736
 20
431.545648
 30
0.0
 11
211.335906
 21
433.545478
 31
0.0
  0
LINE
  5
5F
330
52
100
AcDbEntity
  8
LC-003-005-----0
 62
     7
370
    25
100
AcDbLine
 10
208.117642
 20
436.763743
 30
0.0
 11
207.335736
 21
437.545648
 31
0.0
  0
LINE
  5
60
330
52
100
AcDbEntity
  8
LC-003-005-----0
 62
     7
370
    25
100
AcDbLine
 10
213.335736
 20
428.717221
 30
0.0
 11
211.335906
 21
430.717051
 31
0.0
  0
LINE
  5
61
330
52
100
AcDbEntity
  8
LC-003-005-----0
 62
     7
370
    25
100
AcDbLine
 10
214.335736
 20
424.888794
 30
0.0
 11
213.398317
 21
425.826214
 31
0.0
  0
LINE
  5
62
330
52
100
AcDbEntity
  8
LC-003-005-----0
 62
     7
370
    25
100
AcDbLine
 10
212.69121
 20
426.53332
 30
0.0
 11
211.335906
 21
427.888624
 31
0.0
  0
LINE
  5
63
330
52
100
AcDbEntity
  8
LC-003-005-----0
 62
     7
370
    25
100
AcDbLine
 10
214.335736
 20
422.060367
 30
0.0
 11
211.335906
 21
425.060197
 31
0.0
  0
LINE
  5
64
330
52
100
AcDbEntity
  8
LC-003-005-----0
 62
     7
370
    25
100
AcDbLine
 10
214.335736
 20
419.23194
 30
0.0
 11
211.335906
 21
422.23177
 31
0.0
  0
LINE
  5
65
330
52
100
AcDbEntity
  8
LC-003-005-----0
 62
     7
370
    25
100
AcDbLine
 10
214.335736
 20
416.403513
 30
0.0
 11
211.335906
 21
419.403343
 31
0.0
  0
LINE
  5
66
330
52
100
AcDbEntity
  8
LC-003-005-----0
 62
     7
370
    25
100
AcDbLine
 10
214.335736
 20
413.575085
 30
0.0
 11
211.335906
 21
416.574916
 31
0.0
  0
LINE
  5
67
330
52
100
AcDbEntity
  8
LC-003-005-----0
 62
     7
370
    25
100
AcDbLine
 10
214.335736
 20
410.746658
 30
0.0
 11
211.335906
 21
413.746488
 31
0.0
  0
LINE
  5
68
330
52
100
AcDbEntity
  8
LC-003-005-----0
 62
     7
370
    25
100
AcDbLine
 10
214.335736
 20
407.918231
 30
0.0
 11
211.335906
 21
410.918061
 31
0.0
  0
LINE
  5
69
330
52
100
AcDbEntity
  8
LC-003-005-----0
 62
     7
370
    25
100
AcDbLine
 10
214.335736
 20
405.089804
 30
0.0
 11
211.335906
 21
408.089634
 31
0.0
  0
LINE
  5
6A
330
52
100
AcDbEntity
  8
LC-003-005-----0
 62
     7
370
    25
100
AcDbLine
 10
214.335736
 20
402.261377
 30
0.0
 11
211.335906
 21
405.261207
 31
0.0
  0
LINE
  5
6B
330
52
100
AcDbEntity
  8
LC-003-005-----0
 62
     7
370
    25
100
AcDbLine
 10
214.335736
 20
399.43295
 30
0.0
 11
211.335906
 21
402.43278
 31
0.0
  0
LINE
  5
6C
330
52
100
AcDbEntity
  8
LC-003-005-----0
 62
     7
370
    25
100
AcDbLine
 10
214.335736
 20
396.604523
 30
0.0
 11
211.335906
 21
399.604353
 31
0.0
  0
LINE
  5
6D
330
52
100
AcDbEntity
  8
LC-003-005-----0
 62
     7
370
    25
100
AcDbLine
 10
214.335736
 20
393.776096
 30
0.0
 11
211.335906
 21
396.775926
 31
0.0
  0
LINE
  5
6E
330
52
100
AcDbEntity
  8
LC-003-005-----0
 62
     7
370
    25
100
AcDbLine
 10
214.335736
 20
390.947668
 30
0.0
 11
211.335906
 21
393.947499
 31
0.0
  0
LINE
  5
6F
330
52
100
AcDbEntity
  8
LC-003-005-----0
 62
     7
370
    25
100
AcDbLine
 10
214.335736
 20
388.119241
 30
0.0
 11
211.335906
 21
391.119071
 31
0.0
  0
LINE
  5
70
330
52
100
AcDbEntity
  8
LC-003-005-----0
 62
     7
370
    25
100
AcDbLine
 10
214.335736
 20
385.290814
 30
0.0
 11
211.335906
 21
388.290644
 31
0.0
  0
LINE
  5
71
330
52
100
AcDbEntity
  8
LC-003-005-----0
 62
     7
370
    25
100
AcDbLine
 10
214.335736
 20
382.462387
 30
0.0
 11
211.335906
 21
385.462217
 31
0.0
  0
LINE
  5
72
330
52
100
AcDbEntity
  8
LC-003-005-----0
 62
     7
370
    25
100
AcDbLine
 10
214.335736
 20
379.63396
 30
0.0
 11
211.335906
 21
382.63379
 31
0.0
  0
LINE
  5
73
330
52
100
AcDbEntity
  8
LC-003-005-----0
 62
     7
370
    25
100
AcDbLine
 10
214.335736
 20
376.805533
 30
0.0
 11
211.335906
 21
379.805363
 31
0.0
  0
LINE
  5
74
330
52
100
AcDbEntity
  8
LC-003-005-----0
 62
     7
370
    25
100
AcDbLine
 10
214.335736
 20
373.977106
 30
0.0
 11
211.335906
 21
376.976936
 31
0.0
  0
LINE
  5
75
330
52
100
AcDbEntity
  8
LC-003-005-----0
 62
     7
370
    25
100
AcDbLine
 10
214.335736
 20
371.148679
 30
0.0
 11
211.335906
 21
374.148509
 31
0.0
  0
LINE
  5
76
330
52
100
AcDbEntity
  8
LC-003-005-----0
 62
     7
370
    25
100
AcDbLine
 10
214.335736
 20
368.320251
 30
0.0
 11
211.335906
 21
371.320082
 31
0.0
  0
LINE
  5
77
330
52
100
AcDbEntity
  8
LC-003-005-----0
 62
     7
370
    25
100
AcDbLine
 10
214.335736
 20
365.491824
 30
0.0
 11
211.335906
 21
368.491654
 31
0.0
  0
LINE
  5
78
330
52
100
AcDbEntity
  8
LC-003-005-----0
 62
     7
370
    25
100
AcDbLine
 10
214.335736
 20
362.663397
 30
0.0
 11
211.335906
 21
365.663227
 31
0.0
  0
LINE
  5
79
330
52
100
AcDbEntity
  8
LC-003-005-----0
 62
     7
370
    25
100
AcDbLine
 10
214.335736
 20
359.83497
 30
0.0
 11
211.335906
 21
362.8348
 31
0.0
  0
LINE
  5
7A
330
52
100
AcDbEntity
  8
LC-003-005-----0
 62
     7
370
    25
100
AcDbLine
 10
214.335736
 20
357.006543
 30
0.0
 11
211.335906
 21
360.006373
 31
0.0
  0
LINE
  5
7B
330
52
100
AcDbEntity
  8
LC-003-005-----0
 62
     7
370
    25
100
AcDbLine
 10
214.335736
 20
354.178116
 30
0.0
 11
211.335906
 21
357.177946
 31
0.0
  0
LINE
  5
7C
330
52
100
AcDbEntity
  8
LC-003-005-----0
 62
     7
370
    25
100
AcDbLine
 10
214.335736
 20
351.349689
 30
0.0
 11
211.335906
 21
354.349519
 31
0.0
  0
LINE
  5
7D
330
52
100
AcDbEntity
  8
LC-003-005-----0
 62
     7
370
    25
100
AcDbLine
 10
214.335736
 20
348.521262
 30
0.0
 11
211.335906
 21
351.521092
 31
0.0
  0
LINE
  5
7E
330
52
100
AcDbEntity
  8
LC-003-005-----0
 62
     7
370
    25
100
AcDbLine
 10
214.335736
 20
345.692834
 30
0.0
 11
211.335906
 21
348.692665
 31
0.0
  0
LINE
  5
7F
330
52
100
AcDbEntity
  8
LC-003-005-----0
 62
     7
370
    25
100
AcDbLine
 10
214.335736
 20
342.864407
 30
0.0
 11
211.335906
 21
345.864237
 31
0.0
  0
LINE
  5
80
330
52
100
AcDbEntity
  8
LC-003-005-----0
 62
     7
370
    25
100
AcDbLine
 10
214.335736
 20
340.03598
 30
0.0
 11
211.335906
 21
343.03581
 31
0.0
  0
LINE
  5
81
330
52
100
AcDbEntity
  8
LC-003-005-----0
 62
     7
370
    25
100
AcDbLine
 10
214.335736
 20
337.207553
 30
0.0
 11
211.335906
 21
340.207383
 31
0.0
  0
LINE
  5
82
330
52
100
AcDbEntity
  8
LC-003-005-----0
 62
     7
370
    25
100
AcDbLine
 10
214.335736
 20
334.379126
 30
0.0
 11
211.335906
 21
337.378956
 31
0.0
  0
LINE
  5
83
330
52
100
AcDbEntity
  8
LC-003-005-----0
 62
     7
370
    25
100
AcDbLine
 10
214.335736
 20
331.550699
 30
0.0
 11
211.335906
 21
334.550529
 31
0.0
  0
LINE
  5
84
330
52
100
AcDbEntity
  8
LC-003-005-----0
 62
     7
370
    25
100
AcDbLine
 10
214.335736
 20
328.722272
 30
0.0
 11
211.335906
 21
331.722102
 31
0.0
  0
LINE
  5
85
330
52
100
AcDbEntity
  8
LC-003-005-----0
 62
     7
370
    25
100
AcDbLine
 10
214.335736
 20
325.893845
 30
0.0
 11
211.335906
 21
328.893675
 31
0.0
  0
LINE
  5
86
330
52
100
AcDbEntity
  8
LC-003-005-----0
 62
     7
370
    25
100
AcDbLine
 10
214.335736
 20
323.065417
 30
0.0
 11
211.335906
 21
326.065248
 31
0.0
  0
LINE
  5
87
330
52
100
AcDbEntity
  8
LC-003-005-----0
 62
     7
370
    25
100
AcDbLine
 10
214.335736
 20
320.23699
 30
0.0
 11
211.335906
 21
323.23682
 31
0.0
  0
LINE
  5
88
330
52
100
AcDbEntity
  8
LC-003-005-----0
 62
     7
370
    25
100
AcDbLine
 10
214.335736
 20
317.408563
 30
0.0
 11
211.335906
 21
320.408393
 31
0.0
  0
LINE
  5
89
330
52
100
AcDbEntity
  8
LC-003-005-----0
 62
     7
370
    25
100
AcDbLine
 10
214.335736
 20
314.580136
 30
0.0
 11
211.335906
 21
317.579966
 31
0.0
  0
LINE
  5
8A
330
52
100
AcDbEntity
  8
LC-003-005-----0
 62
     7
370
    25
100
AcDbLine
 10
214.335736
 20
311.751709
 30
0.0
 11
211.335906
 21
314.751539
 31
0.0
  0
LINE
  5
8B
330
52
100
AcDbEntity
  8
LC-003-005-----0
 62
     7
370
    25
100
AcDbLine
 10
214.335736
 20
308.923282
 30
0.0
 11
211.335906
 21
311.923112
 31
0.0
  0
LINE
  5
8C
330
52
100
AcDbEntity
  8
LC-003-005-----0
 62
     7
370
    25
100
AcDbLine
 10
214.335736
 20
306.094855
 30
0.0
 11
211.335906
 21
309.094685
 31
0.0
  0
LINE
  5
8D
330
52
100
AcDbEntity
  8
LC-003-005-----0
 62
     7
370
    25
100
AcDbLine
 10
214.335736
 20
303.266428
 30
0.0
 11
211.335906
 21
306.266258
 31
0.0
  0
LINE
  5
8E
330
52
100
AcDbEntity
  8
LC-003-005-----0
 62
     7
370
    25
100
AcDbLine
 10
214.335736
 20
300.438001
 30
0.0
 11
211.335906
 21
303.437831
 31
0.0
  0
LINE
  5
8F
330
52
100
AcDbEntity
  8
LC-003-005-----0
 62
     7
370
    25
100
AcDbLine
 10
214.335736
 20
297.609573
 30
0.0
 11
211.335906
 21
300.609403
 31
0.0
  0
LINE
  5
90
330
52
100
AcDbEntity
  8
LC-003-005-----0
 62
     7
370
    25
100
AcDbLine
 10
214.335736
 20
294.781146
 30
0.0
 11
211.335906
 21
297.780976
 31
0.0
  0
LINE
  5
91
330
52
100
AcDbEntity
  8
LC-003-005-----0
 62
     7
370
    25
100
AcDbLine
 10
214.335736
 20
291.952719
 30
0.0
 11
211.335906
 21
294.952549
 31
0.0
  0
LINE
  5
92
330
52
100
AcDbEntity
  8
LC-003-005-----0
 62
     7
370
    25
100
AcDbLine
 10
214.335736
 20
289.124292
 30
0.0
 11
211.335906
 21
292.124122
 31
0.0
  0
LINE
  5
93
330
52
100
AcDbEntity
  8
LC-003-005-----0
 62
     7
370
    25
100
AcDbLine
 10
214.335736
 20
286.295865
 30
0.0
 11
211.335906
 21
289.295695
 31
0.0
  0
LINE
  5
94
330
52
100
AcDbEntity
  8
LC-003-005-----0
 62
     7
370
    25
100
AcDbLine
 10
214.335736
 20
283.467438
 30
0.0
 11
211.335906
 21
286.467268
 31
0.0
  0
LINE
  5
95
330
52
100
AcDbEntity
  8
LC-003-005-----0
 62
     7
370
    25
100
AcDbLine
 10
214.335736
 20
280.639011
 30
0.0
 11
211.335906
 21
283.638841
 31
0.0
  0
LINE
  5
96
330
52
100
AcDbEntity
  8
LC-003-005-----0
 62
     7
370
    25
100
AcDbLine
 10
214.335736
 20
277.810584
 30
0.0
 11
211.335906
 21
280.810414
 31
0.0
  0
LINE
  5
97
330
52
100
AcDbEntity
  8
LC-003-005-----0
 62
     7
370
    25
100
AcDbLine
 10
214.335736
 20
274.982156
 30
0.0
 11
211.335906
 21
277.981986
 31
0.0
  0
LINE
  5
98
330
52
100
AcDbEntity
  8
LC-003-005-----0
 62
     7
370
    25
100
AcDbLine
 10
214.335736
 20
272.153729
 30
0.0
 11
211.335906
 21
275.153559
 31
0.0
  0
LINE
  5
99
330
52
100
AcDbEntity
  8
LC-003-005-----0
 62
     7
370
    25
100
AcDbLine
 10
214.335736
 20
269.325302
 30
0.0
 11
211.335906
 21
272.325132
 31
0.0
  0
LINE
  5
9A
330
52
100
AcDbEntity
  8
LC-003-005-----0
 62
     7
370
    25
100
AcDbLine
 10
214.335736
 20
266.496875
 30
0.0
 11
211.335906
 21
269.496705
 31
0.0
  0
LINE
  5
9B
330
52
100
AcDbEntity
  8
LC-003-005-----0
 62
     7
370
    25
100
AcDbLine
 10
214.335736
 20
263.668448
 30
0.0
 11
211.335906
 21
266.668278
 31
0.0
  0
LINE
  5
9C
330
52
100
AcDbEntity
  8
LC-003-005-----0
 62
     7
370
    25
100
AcDbLine
 10
214.335736
 20
260.840021
 30
0.0
 11
211.335906
 21
263.839851
 31
0.0
  0
LINE
  5
9D
330
52
100
AcDbEntity
  8
LC-003-005-----0
 62
     7
370
    25
100
AcDbLine
 10
214.335736
 20
258.011594
 30
0.0
 11
211.335906
 21
261.011424
 31
0.0
  0
LINE
  5
9E
330
52
100
AcDbEntity
  8
LC-003-005-----0
 62
     7
370
    25
100
AcDbLine
 10
214.335736
 20
255.183167
 30
0.0
 11
211.335906
 21
258.182997
 31
0.0
  0
LINE
  5
9F
330
52
100
AcDbEntity
  8
LC-003-005-----0
 62
     7
370
    25
100
AcDbLine
 10
214.335736
 20
252.354739
 30
0.0
 11
211.335906
 21
255.354569
 31
0.0
  0
LINE
  5
A0
330
52
100
AcDbEntity
  8
LC-003-005-----0
 62
     7
370
    25
100
AcDbLine
 10
214.335736
 20
249.526312
 30
0.0
 11
211.335906
 21
252.526142
 31
0.0
  0
LINE
  5
A1
330
52
100
AcDbEntity
  8
LC-003-005-----0
 62
     7
370
    25
100
AcDbLine
 10
214.335736
 20
246.697885
 30
0.0
 11
212.018648
 21
249.014974
 31
0.0
  0
ENDBLK
  5
54
330
52
100
AcDbEntity
  8
0
100
AcDbBlockEnd
  0
BLOCK
  5
A5
330
A4
100
AcDbEntity
  8
0
100
AcDbBlockBegin
  2
*X23
 70
     1
 71
     0
 10
0.0
 20
0.0
 30
0.0
  3
*X23
  1

  4
*X2
  0
LINE
  5
A7
330
A4
100
AcDbEntity
  8
LC-003-005-----0
 62
     7
370
    25
100
AcDbLine
 10
213.335736
 20
428.296198
 30
0.0
 11
214.335736
 21
429.296198
 31
0.0
  0
LINE
  5
A8
330
A4
100
AcDbEntity
  8
LC-003-005-----0
 62
     7
370
    25
100
AcDbLine
 10
213.335736
 20
431.124625
 30
0.0
 11
214.335736
 21
432.124625
 31
0.0
  0
LINE
  5
A9
330
A4
100
AcDbEntity
  8
LC-003-005-----0
 62
     7
370
    25
100
AcDbLine
 10
213.335736
 20
433.953052
 30
0.0
 11
214.335736
 21
434.953052
 31
0.0
  0
LINE
  5
AA
330
A4
100
AcDbEntity
  8
LC-003-005-----0
 62
     7
370
    25
100
AcDbLine
 10
213.335736
 20
436.781479
 30
0.0
 11
214.335736
 21
437.781479
 31
0.0
  0
LINE
  5
AB
330
A4
100
AcDbEntity
  8
LC-003-005-----0
 62
     7
370
    25
100
AcDbLine
 10
213.335736
 20
439.609906
 30
0.0
 11
214.335736
 21
440.609906
 31
0.0
  0
LINE
  5
AC
330
A4
100
AcDbEntity
  8
LC-003-005-----0
 62
     7
370
    25
100
AcDbLine
 10
209.161035
 20
438.263632
 30
0.0
 11
209.835736
 21
438.938333
 31
0.0
  0
LINE
  5
AD
330
A4
100
AcDbEntity
  8
LC-003-005-----0
 62
     7
370
    25
100
AcDbLine
 10
213.335736
 20
442.438333
 30
0.0
 11
214.335736
 21
443.438333
 31
0.0
  0
LINE
  5
AE
330
A4
100
AcDbEntity
  8
LC-003-005-----0
 62
     7
370
    25
100
AcDbLine
 10
208.835736
 20
440.76676
 30
0.0
 11
209.835736
 21
441.76676
 31
0.0
  0
LINE
  5
AF
330
A4
100
AcDbEntity
  8
LC-003-005-----0
 62
     7
370
    25
100
AcDbLine
 10
213.335736
 20
445.26676
 30
0.0
 11
214.335736
 21
446.26676
 31
0.0
  0
LINE
  5
B0
330
A4
100
AcDbEntity
  8
LC-003-005-----0
 62
     7
370
    25
100
AcDbLine
 10
208.835736
 20
443.595188
 30
0.0
 11
209.835736
 21
444.595188
 31
0.0
  0
LINE
  5
B1
330
A4
100
AcDbEntity
  8
LC-003-005-----0
 62
     7
370
    25
100
AcDbLine
 10
213.335736
 20
448.095188
 30
0.0
 11
214.335736
 21
449.095188
 31
0.0
  0
LINE
  5
B2
330
A4
100
AcDbEntity
  8
LC-003-005-----0
 62
     7
370
    25
100
AcDbLine
 10
208.835736
 20
446.423615
 30
0.0
 11
209.835736
 21
447.423615
 31
0.0
  0
LINE
  5
B3
330
A4
100
AcDbEntity
  8
LC-003-005-----0
 62
     7
370
    25
100
AcDbLine
 10
212.958313
 20
450.546191
 30
0.0
 11
213.667694
 21
451.255573
 31
0.0
  0
LINE
  5
B4
330
A4
100
AcDbEntity
  8
LC-003-005-----0
 62
     7
370
    25
100
AcDbLine
 10
208.835736
 20
449.252042
 30
0.0
 11
211.347326
 21
451.763632
 31
0.0
  0
ENDBLK
  5
A6
330
A4
100
AcDbEntity
  8
0
100
AcDbBlockEnd
  0
BLOCK
  5
B7
330
B6
100
AcDbEntity
  8
0
100
AcDbBlockBegin
  2
*X34
 70
     1
 71
     0
 10
0.0
 20
0.0
 30
0.0
  3
*X34
  1

  4
*X3
  0
LINE
  5
B9
330
B6
100
AcDbEntity
  8
LC-003-005-----0
 62
     7
370
    25
100
AcDbLine
 10
354.694516
 20
425.405194
 30
0.0
 11
355.401623
 21
426.112301
 31
0.0
  0
LINE
  5
BA
330
B6
100
AcDbEntity
  8
LC-003-005-----0
 62
     7
370
    25
100
AcDbLine
 10
353.336076
 20
426.875181
 30
0.0
 11
354.336076
 21
427.875181
 31
0.0
  0
LINE
  5
BB
330
B6
100
AcDbEntity
  8
LC-003-005-----0
 62
     7
370
    25
100
AcDbLine
 10
353.336076
 20
429.703608
 30
0.0
 11
354.336076
 21
430.703608
 31
0.0
  0
LINE
  5
BC
330
B6
100
AcDbEntity
  8
LC-003-005-----0
 62
     7
370
    25
100
AcDbLine
 10
353.336076
 20
432.532035
 30
0.0
 11
354.336076
 21
433.532035
 31
0.0
  0
LINE
  5
BD
330
B6
100
AcDbEntity
  8
LC-003-005-----0
 62
     7
370
    25
100
AcDbLine
 10
353.336076
 20
435.360463
 30
0.0
 11
354.336076
 21
436.360463
 31
0.0
  0
LINE
  5
BE
330
B6
100
AcDbEntity
  8
LC-003-005-----0
 62
     7
370
    25
100
AcDbLine
 10
357.836076
 20
439.860463
 30
0.0
 11
358.836076
 21
440.860463
 31
0.0
  0
LINE
  5
BF
330
B6
100
AcDbEntity
  8
LC-003-005-----0
 62
     7
370
    25
100
AcDbLine
 10
353.336076
 20
438.18889
 30
0.0
 11
354.336076
 21
439.18889
 31
0.0
  0
LINE
  5
C0
330
B6
100
AcDbEntity
  8
LC-003-005-----0
 62
     7
370
    25
100
AcDbLine
 10
357.836076
 20
442.68889
 30
0.0
 11
358.836076
 21
443.68889
 31
0.0
  0
LINE
  5
C1
330
B6
100
AcDbEntity
  8
LC-003-005-----0
 62
     7
370
    25
100
AcDbLine
 10
353.336076
 20
441.017317
 30
0.0
 11
354.336076
 21
442.017317
 31
0.0
  0
LINE
  5
C2
330
B6
100
AcDbEntity
  8
LC-003-005-----0
 62
     7
370
    25
100
AcDbLine
 10
357.836076
 20
445.517317
 30
0.0
 11
358.836076
 21
446.517317
 31
0.0
  0
LINE
  5
C3
330
B6
100
AcDbEntity
  8
LC-003-005-----0
 62
     7
370
    25
100
AcDbLine
 10
353.336076
 20
443.845744
 30
0.0
 11
354.336076
 21
444.845744
 31
0.0
  0
LINE
  5
C4
330
B6
100
AcDbEntity
  8
LC-003-005-----0
 62
     7
370
    25
100
AcDbLine
 10
357.836076
 20
448.345744
 30
0.0
 11
358.836076
 21
449.345744
 31
0.0
  0
LINE
  5
C5
330
B6
100
AcDbEntity
  8
LC-003-005-----0
 62
     7
370
    25
100
AcDbLine
 10
353.336076
 20
446.674171
 30
0.0
 11
354.336076
 21
447.674171
 31
0.0
  0
LINE
  5
C6
330
B6
100
AcDbEntity
  8
LC-003-005-----0
 62
     7
370
    25
100
AcDbLine
 10
357.307463
 20
450.645558
 30
0.0
 11
358.030044
 21
451.368139
 31
0.0
  0
LINE
  5
C7
330
B6
100
AcDbEntity
  8
LC-003-005-----0
 62
     7
370
    25
100
AcDbLine
 10
353.336076
 20
449.502598
 30
0.0
 11
355.59711
 21
451.763632
 31
0.0
  0
ENDBLK
  5
B8
330
B6
100
AcDbEntity
  8
0
100
AcDbBlockEnd
  0
BLOCK
  5
CE
330
CD
100
AcDbEntity
  8
0
100
AcDbBlockBegin
  2
*X45
 70
     1
 71
     0
 10
0.0
 20
0.0
 30
0.0
  3
*X45
  1

  4
*X4
  0
LINE
  5
D0
330
CD
100
AcDbEntity
  8
LC-003-005-----0
 62
     7
370
    25
100
AcDbLine
 10
357.836076
 20
448.265655
 30
0.0
 11
355.338099
 21
450.763632
 31
0.0
  0
LINE
  5
D1
330
CD
100
AcDbEntity
  8
LC-003-005-----0
 62
     7
370
    25
100
AcDbLine
 10
357.836076
 20
445.437227
 30
0.0
 11
354.336076
 21
448.937227
 31
0.0
  0
LINE
  5
D2
330
CD
100
AcDbEntity
  8
LC-003-005-----0
 62
     7
370
    25
100
AcDbLine
 10
357.836076
 20
442.6088
 30
0.0
 11
354.336076
 21
446.1088
 31
0.0
  0
LINE
  5
D3
330
CD
100
AcDbEntity
  8
LC-003-005-----0
 62
     7
370
    25
100
AcDbLine
 10
360.336076
 20
437.280373
 30
0.0
 11
358.836076
 21
438.780373
 31
0.0
  0
LINE
  5
D4
330
CD
100
AcDbEntity
  8
LC-003-005-----0
 62
     7
370
    25
100
AcDbLine
 10
357.836076
 20
439.780373
 30
0.0
 11
354.336076
 21
443.280373
 31
0.0
  0
LINE
  5
D5
330
CD
100
AcDbEntity
  8
LC-003-005-----0
 62
     7
370
    25
100
AcDbLine
 10
358.024279
 20
436.763743
 30
0.0
 11
354.336076
 21
440.451946
 31
0.0
  0
LINE
  5
D6
330
CD
100
AcDbEntity
  8
LC-003-005-----0
 62
     7
370
    25
100
AcDbLine
 10
356.335906
 20
435.623689
 30
0.0
 11
354.336076
 21
437.623519
 31
0.0
  0
LINE
  5
D7
330
CD
100
AcDbEntity
  8
LC-003-005-----0
 62
     7
370
    25
100
AcDbLine
 10
356.335906
 20
432.795262
 30
0.0
 11
354.336076
 21
434.795092
 31
0.0
  0
LINE
  5
D8
330
CD
100
AcDbEntity
  8
LC-003-005-----0
 62
     7
370
    25
100
AcDbLine
 10
356.335906
 20
429.966835
 30
0.0
 11
354.336076
 21
431.966665
 31
0.0
  0
LINE
  5
D9
330
CD
100
AcDbEntity
  8
LC-003-005-----0
 62
     7
370
    25
100
AcDbLine
 10
356.335906
 20
427.138407
 30
0.0
 11
354.336076
 21
429.138238
 31
0.0
  0
LINE
  5
DA
330
CD
100
AcDbEntity
  8
LC-003-005-----0
 62
     7
370
    25
100
AcDbLine
 10
356.335906
 20
424.30998
 30
0.0
 11
355.109164
 21
425.536722
 31
0.0
  0
LINE
  5
DB
330
CD
100
AcDbEntity
  8
LC-003-005-----0
 62
     7
370
    25
100
AcDbLine
 10
356.335906
 20
421.481553
 30
0.0
 11
353.336076
 21
424.481383
 31
0.0
  0
LINE
  5
DC
330
CD
100
AcDbEntity
  8
LC-003-005-----0
 62
     7
370
    25
100
AcDbLine
 10
356.335906
 20
418.653126
 30
0.0
 11
353.336076
 21
421.652956
 31
0.0
  0
LINE
  5
DD
330
CD
100
AcDbEntity
  8
LC-003-005-----0
 62
     7
370
    25
100
AcDbLine
 10
356.335906
 20
415.824699
 30
0.0
 11
353.336076
 21
418.824529
 31
0.0
  0
LINE
  5
DE
330
CD
100
AcDbEntity
  8
LC-003-005-----0
 62
     7
370
    25
100
AcDbLine
 10
356.335906
 20
412.996272
 30
0.0
 11
353.336076
 21
415.996102
 31
0.0
  0
LINE
  5
DF
330
CD
100
AcDbEntity
  8
LC-003-005-----0
 62
     7
370
    25
100
AcDbLine
 10
356.335906
 20
410.167845
 30
0.0
 11
353.336076
 21
413.167675
 31
0.0
  0
LINE
  5
E0
330
CD
100
AcDbEntity
  8
LC-003-005-----0
 62
     7
370
    25
100
AcDbLine
 10
356.335906
 20
407.339418
 30
0.0
 11
353.336076
 21
410.339248
 31
0.0
  0
LINE
  5
E1
330
CD
100
AcDbEntity
  8
LC-003-005-----0
 62
     7
370
    25
100
AcDbLine
 10
356.335906
 20
404.51099
 30
0.0
 11
353.336076
 21
407.510821
 31
0.0
  0
LINE
  5
E2
330
CD
100
AcDbEntity
  8
LC-003-005-----0
 62
     7
370
    25
100
AcDbLine
 10
356.335906
 20
401.682563
 30
0.0
 11
353.336076
 21
404.682393
 31
0.0
  0
LINE
  5
E3
330
CD
100
AcDbEntity
  8
LC-003-005-----0
 62
     7
370
    25
100
AcDbLine
 10
356.335906
 20
398.854136
 30
0.0
 11
353.336076
 21
401.853966
 31
0.0
  0
LINE
  5
E4
330
CD
100
AcDbEntity
  8
LC-003-005-----0
 62
     7
370
    25
100
AcDbLine
 10
356.335906
 20
396.025709
 30
0.0
 11
353.336076
 21
399.025539
 31
0.0
  0
LINE
  5
E5
330
CD
100
AcDbEntity
  8
LC-003-005-----0
 62
     7
370
    25
100
AcDbLine
 10
356.335906
 20
393.197282
 30
0.0
 11
353.336076
 21
396.197112
 31
0.0
  0
LINE
  5
E6
330
CD
100
AcDbEntity
  8
LC-003-005-----0
 62
     7
370
    25
100
AcDbLine
 10
356.335906
 20
390.368855
 30
0.0
 11
353.336076
 21
393.368685
 31
0.0
  0
LINE
  5
E7
330
CD
100
AcDbEntity
  8
LC-003-005-----0
 62
     7
370
    25
100
AcDbLine
 10
356.335906
 20
387.540428
 30
0.0
 11
353.336076
 21
390.540258
 31
0.0
  0
LINE
  5
E8
330
CD
100
AcDbEntity
  8
LC-003-005-----0
 62
     7
370
    25
100
AcDbLine
 10
356.335906
 20
384.712001
 30
0.0
 11
353.336076
 21
387.711831
 31
0.0
  0
LINE
  5
E9
330
CD
100
AcDbEntity
  8
LC-003-005-----0
 62
     7
370
    25
100
AcDbLine
 10
356.335906
 20
381.883573
 30
0.0
 11
353.336076
 21
384.883404
 31
0.0
  0
LINE
  5
EA
330
CD
100
AcDbEntity
  8
LC-003-005-----0
 62
     7
370
    25
100
AcDbLine
 10
356.335906
 20
379.055146
 30
0.0
 11
353.336076
 21
382.054976
 31
0.0
  0
LINE
  5
EB
330
CD
100
AcDbEntity
  8
LC-003-005-----0
 62
     7
370
    25
100
AcDbLine
 10
356.335906
 20
376.226719
 30
0.0
 11
353.336076
 21
379.226549
 31
0.0
  0
LINE
  5
EC
330
CD
100
AcDbEntity
  8
LC-003-005-----0
 62
     7
370
    25
100
AcDbLine
 10
356.335906
 20
373.398292
 30
0.0
 11
353.336076
 21
376.398122
 31
0.0
  0
LINE
  5
ED
330
CD
100
AcDbEntity
  8
LC-003-005-----0
 62
     7
370
    25
100
AcDbLine
 10
356.335906
 20
370.569865
 30
0.0
 11
353.336076
 21
373.569695
 31
0.0
  0
LINE
  5
EE
330
CD
100
AcDbEntity
  8
LC-003-005-----0
 62
     7
370
    25
100
AcDbLine
 10
356.335906
 20
367.741438
 30
0.0
 11
353.336076
 21
370.741268
 31
0.0
  0
LINE
  5
EF
330
CD
100
AcDbEntity
  8
LC-003-005-----0
 62
     7
370
    25
100
AcDbLine
 10
356.335906
 20
364.913011
 30
0.0
 11
353.336076
 21
367.912841
 31
0.0
  0
LINE
  5
F0
330
CD
100
AcDbEntity
  8
LC-003-005-----0
 62
     7
370
    25
100
AcDbLine
 10
356.335906
 20
362.084584
 30
0.0
 11
353.336076
 21
365.084414
 31
0.0
  0
LINE
  5
F1
330
CD
100
AcDbEntity
  8
LC-003-005-----0
 62
     7
370
    25
100
AcDbLine
 10
356.335906
 20
359.256156
 30
0.0
 11
353.336076
 21
362.255987
 31
0.0
  0
LINE
  5
F2
330
CD
100
AcDbEntity
  8
LC-003-005-----0
 62
     7
370
    25
100
AcDbLine
 10
356.335906
 20
356.427729
 30
0.0
 11
353.336076
 21
359.427559
 31
0.0
  0
LINE
  5
F3
330
CD
100
AcDbEntity
  8
LC-003-005-----0
 62
     7
370
    25
100
AcDbLine
 10
356.335906
 20
353.599302
 30
0.0
 11
353.336076
 21
356.599132
 31
0.0
  0
LINE
  5
F4
330
CD
100
AcDbEntity
  8
LC-003-005-----0
 62
     7
370
    25
100
AcDbLine
 10
356.335906
 20
350.770875
 30
0.0
 11
353.336076
 21
353.770705
 31
0.0
  0
LINE
  5
F5
330
CD
100
AcDbEntity
  8
LC-003-005-----0
 62
     7
370
    25
100
AcDbLine
 10
356.335906
 20
347.942448
 30
0.0
 11
353.336076
 21
350.942278
 31
0.0
  0
LINE
  5
F6
330
CD
100
AcDbEntity
  8
LC-003-005-----0
 62
     7
370
    25
100
AcDbLine
 10
356.335906
 20
345.114021
 30
0.0
 11
353.336076
 21
348.113851
 31
0.0
  0
LINE
  5
F7
330
CD
100
AcDbEntity
  8
LC-003-005-----0
 62
     7
370
    25
100
AcDbLine
 10
356.335906
 20
342.285594
 30
0.0
 11
353.336076
 21
345.285424
 31
0.0
  0
LINE
  5
F8
330
CD
100
AcDbEntity
  8
LC-003-005-----0
 62
     7
370
    25
100
AcDbLine
 10
356.335906
 20
339.457167
 30
0.0
 11
353.336076
 21
342.456997
 31
0.0
  0
LINE
  5
F9
330
CD
100
AcDbEntity
  8
LC-003-005-----0
 62
     7
370
    25
100
AcDbLine
 10
356.335906
 20
336.628739
 30
0.0
 11
353.336076
 21
339.62857
 31
0.0
  0
LINE
  5
FA
330
CD
100
AcDbEntity
  8
LC-003-005-----0
 62
     7
370
    25
100
AcDbLine
 10
356.335906
 20
333.800312
 30
0.0
 11
353.336076
 21
336.800142
 31
0.0
  0
LINE
  5
FB
330
CD
100
AcDbEntity
  8
LC-003-005-----0
 62
     7
370
    25
100
AcDbLine
 10
356.335906
 20
330.971885
 30
0.0
 11
353.336076
 21
333.971715
 31
0.0
  0
LINE
  5
FC
330
CD
100
AcDbEntity
  8
LC-003-005-----0
 62
     7
370
    25
100
AcDbLine
 10
356.335906
 20
328.143458
 30
0.0
 11
353.336076
 21
331.143288
 31
0.0
  0
LINE
  5
FD
330
CD
100
AcDbEntity
  8
LC-003-005-----0
 62
     7
370
    25
100
AcDbLine
 10
356.335906
 20
325.315031
 30
0.0
 11
353.336076
 21
328.314861
 31
0.0
  0
LINE
  5
FE
330
CD
100
AcDbEntity
  8
LC-003-005-----0
 62
     7
370
    25
100
AcDbLine
 10
356.335906
 20
322.486604
 30
0.0
 11
353.336076
 21
325.486434
 31
0.0
  0
LINE
  5
FF
330
CD
100
AcDbEntity
  8
LC-003-005-----0
 62
     7
370
    25
100
AcDbLine
 10
356.335906
 20
319.658177
 30
0.0
 11
353.336076
 21
322.658007
 31
0.0
  0
LINE
  5
100
330
CD
100
AcDbEntity
  8
LC-003-005-----0
 62
     7
370
    25
100
AcDbLine
 10
356.335906
 20
316.82975
 30
0.0
 11
353.336076
 21
319.82958
 31
0.0
  0
LINE
  5
101
330
CD
100
AcDbEntity
  8
LC-003-005-----0
 62
     7
370
    25
100
AcDbLine
 10
356.335906
 20
314.001322
 30
0.0
 11
353.336076
 21
317.001153
 31
0.0
  0
LINE
  5
102
330
CD
100
AcDbEntity
  8
LC-003-005-----0
 62
     7
370
    25
100
AcDbLine
 10
356.335906
 20
311.172895
 30
0.0
 11
353.336076
 21
314.172725
 31
0.0
  0
LINE
  5
103
330
CD
100
AcDbEntity
  8
LC-003-005-----0
 62
     7
370
    25
100
AcDbLine
 10
356.335906
 20
308.344468
 30
0.0
 11
353.336076
 21
311.344298
 31
0.0
  0
LINE
  5
104
330
CD
100
AcDbEntity
  8
LC-003-005-----0
 62
     7
370
    25
100
AcDbLine
 10
356.335906
 20
305.516041
 30
0.0
 11
353.336076
 21
308.515871
 31
0.0
  0
LINE
  5
105
330
CD
100
AcDbEntity
  8
LC-003-005-----0
 62
     7
370
    25
100
AcDbLine
 10
356.335906
 20
302.687614
 30
0.0
 11
353.336076
 21
305.687444
 31
0.0
  0
LINE
  5
106
330
CD
100
AcDbEntity
  8
LC-003-005-----0
 62
     7
370
    25
100
AcDbLine
 10
356.335906
 20
299.859187
 30
0.0
 11
353.336076
 21
302.859017
 31
0.0
  0
LINE
  5
107
330
CD
100
AcDbEntity
  8
LC-003-005-----0
 62
     7
370
    25
100
AcDbLine
 10
356.335906
 20
297.03076
 30
0.0
 11
353.336076
 21
300.03059
 31
0.0
  0
LINE
  5
108
330
CD
100
AcDbEntity
  8
LC-003-005-----0
 62
     7
370
    25
100
AcDbLine
 10
356.335906
 20
294.202333
 30
0.0
 11
353.336076
 21
297.202163
 31
0.0
  0
LINE
  5
109
330
CD
100
AcDbEntity
  8
LC-003-005-----0
 62
     7
370
    25
100
AcDbLine
 10
356.335906
 20
291.373905
 30
0.0
 11
353.336076
 21
294.373736
 31
0.0
  0
LINE
  5
10A
330
CD
100
AcDbEntity
  8
LC-003-005-----0
 62
     7
370
    25
100
AcDbLine
 10
356.335906
 20
288.545478
 30
0.0
 11
353.336076
 21
291.545308
 31
0.0
  0
LINE
  5
10B
330
CD
100
AcDbEntity
  8
LC-003-005-----0
 62
     7
370
    25
100
AcDbLine
 10
356.335906
 20
285.717051
 30
0.0
 11
353.336076
 21
288.716881
 31
0.0
  0
LINE
  5
10C
330
CD
100
AcDbEntity
  8
LC-003-005-----0
 62
     7
370
    25
100
AcDbLine
 10
356.335906
 20
282.888624
 30
0.0
 11
353.336076
 21
285.888454
 31
0.0
  0
LINE
  5
10D
330
CD
100
AcDbEntity
  8
LC-003-005-----0
 62
     7
370
    25
100
AcDbLine
 10
356.335906
 20
280.060197
 30
0.0
 11
353.336076
 21
283.060027
 31
0.0
  0
LINE
  5
10E
330
CD
100
AcDbEntity
  8
LC-003-005-----0
 62
     7
370
    25
100
AcDbLine
 10
356.335906
 20
277.23177
 30
0.0
 11
353.336076
 21
280.2316
 31
0.0
  0
LINE
  5
10F
330
CD
100
AcDbEntity
  8
LC-003-005-----0
 62
     7
370
    25
100
AcDbLine
 10
356.335906
 20
274.403343
 30
0.0
 11
353.336076
 21
277.403173
 31
0.0
  0
LINE
  5
110
330
CD
100
AcDbEntity
  8
LC-003-005-----0
 62
     7
370
    25
100
AcDbLine
 10
356.335906
 20
271.574916
 30
0.0
 11
353.336076
 21
274.574746
 31
0.0
  0
LINE
  5
111
330
CD
100
AcDbEntity
  8
LC-003-005-----0
 62
     7
370
    25
100
AcDbLine
 10
356.335906
 20
268.746488
 30
0.0
 11
353.336076
 21
271.746319
 31
0.0
  0
LINE
  5
112
330
CD
100
AcDbEntity
  8
LC-003-005-----0
 62
     7
370
    25
100
AcDbLine
 10
356.335906
 20
265.918061
 30
0.0
 11
353.336076
 21
268.917891
 31
0.0
  0
LINE
  5
113
330
CD
100
AcDbEntity
  8
LC-003-005-----0
 62
     7
370
    25
100
AcDbLine
 10
356.335906
 20
263.089634
 30
0.0
 11
353.336076
 21
266.089464
 31
0.0
  0
LINE
  5
114
330
CD
100
AcDbEntity
  8
LC-003-005-----0
 62
     7
370
    25
100
AcDbLine
 10
356.335906
 20
260.261207
 30
0.0
 11
353.336076
 21
263.261037
 31
0.0
  0
LINE
  5
115
330
CD
100
AcDbEntity
  8
LC-003-005-----0
 62
     7
370
    25
100
AcDbLine
 10
356.335906
 20
257.43278
 30
0.0
 11
353.336076
 21
260.43261
 31
0.0
  0
LINE
  5
116
330
CD
100
AcDbEntity
  8
LC-003-005-----0
 62
     7
370
    25
100
AcDbLine
 10
356.335906
 20
254.604353
 30
0.0
 11
353.336076
 21
257.604183
 31
0.0
  0
LINE
  5
117
330
CD
100
AcDbEntity
  8
LC-003-005-----0
 62
     7
370
    25
100
AcDbLine
 10
356.335906
 20
251.775926
 30
0.0
 11
353.336076
 21
254.775756
 31
0.0
  0
LINE
  5
118
330
CD
100
AcDbEntity
  8
LC-003-005-----0
 62
     7
370
    25
100
AcDbLine
 10
355.783186
 20
249.500219
 30
0.0
 11
353.336076
 21
251.947329
 31
0.0
  0
LINE
  5
119
330
CD
100
AcDbEntity
  8
LC-003-005-----0
 62
     7
370
    25
100
AcDbLine
 10
355.185469
 20
247.269509
 30
0.0
 11
353.336076
 21
249.118902
 31
0.0
  0
ENDBLK
  5
CF
330
CD
100
AcDbEntity
  8
0
100
AcDbBlockEnd
  0
BLOCK
  5
128
330
11E
100
AcDbEntity
  8
0
100
AcDbBlockBegin
  2
*D6
 70
     1
 71
     0
 10
0.0
 20
0.0
 30
0.0
  3
*D6
  1

  0
LINE
  5
11F
330
11E
100
AcDbEntity
  8
LC-002-003-----0
 62
     2
370
    -2
100
AcDbLine
 10
211.335906
 20
251.563
 30
0.0
 11
211.335906
 21
196.4
 31
0.0
  0
LINE
  5
120
330
11E
100
AcDbEntity
  8
LC-002-003-----0
 62
     2
370
    -2
100
AcDbLine
 10
356.335906
 20
251.563
 30
0.0
 11
356.335906
 21
196.4
 31
0.0
  0
LINE
  5
121
330
11E
100
AcDbEntity
  8
LC-002-003-----0
 62
     2
370
    -2
100
AcDbLine
 10
239.335906
 20
200.0
 30
0.0
 11
328.335906
 21
200.0
 31
0.0
  0
SOLID
  5
122
330
11E
100
AcDbEntity
  8
LC-002-003-----0
 62
     2
100
AcDbTrace
 10
239.335906
 20
204.666667
 30
0.0
 11
239.335906
 21
195.333333
 31
0.0
 12
211.335906
 22
200.0
 32
0.0
 13
211.335906
 23
200.0
 33
0.0
  0
SOLID
  5
123
330
11E
100
AcDbEntity
  8
LC-002-003-----0
 62
     2
100
AcDbTrace
 10
328.335906
 20
195.333333
 30
0.0
 11
328.335906
 21
204.666667
 31
0.0
 12
356.335906
 22
200.0
 32
0.0
 13
356.335906
 23
200.0
 33
0.0
  0
MTEXT
  5
124
330
11E
100
AcDbEntity
  8
LC-002-003-----0
 62
     2
100
AcDbMText
 10
283.835906
 20
230.8
 30
0.0
 40
28.0
 41
0.0
 71
     5
 72
     1
  1
%%c\A1;145
  7
LCTX15-400-0-0pDIN-Schrift
 73
     1
 44
1.0
  0
POINT
  5
125
330
11E
100
AcDbEntity
  8
Defpoints
 62
     0
100
AcDbPoint
 10
211.335906
 20
251.563
 30
0.0
  0
POINT
  5
126
330
11E
100
AcDbEntity
  8
Defpoints
 62
     0
100
AcDbPoint
 10
356.335906
 20
251.563
 30
0.0
  0
POINT
  5
127
330
11E
100
AcDbEntity
  8
Defpoints
 62
     0
100
AcDbPoint
 10
356.335906
 20
200.0
 30
0.0
  0
ENDBLK
  5
129
330
11E
100
AcDbEntity
  8
0
100
AcDbBlockEnd
  0
BLOCK
  5
155
330
14B
100
AcDbEntity
  8
0
100
AcDbBlockBegin
  2
*D7
 70
     1
 71
     0
 10
0.0
 20
0.0
 30
0.0
  3
*D7
  1

  0
LINE
  5
14C
330
14B
100
AcDbEntity
  8
LC-002-003-----0
 62
     2
370
    -2
100
AcDbLine
 10
208.835736
 20
449.763632
 30
0.0
 11
208.835736
 21
484.146
 31
0.0
  0
LINE
  5
14D
330
14B
100
AcDbEntity
  8
LC-002-003-----0
 62
     2
370
    -2
100
AcDbLine
 10
358.782818
 20
449.763696
 30
0.0
 11
358.782818
 21
484.146
 31
0.0
  0
LINE
  5
14E
330
14B
100
AcDbEntity
  8
LC-002-003-----0
 62
     2
370
    -2
100
AcDbLine
 10
236.835736
 20
480.546
 30
0.0
 11
330.782818
 21
480.546
 31
0.0
  0
SOLID
  5
14F
330
14B
100
AcDbEntity
  8
LC-002-003-----0
 62
     2
100
AcDbTrace
 10
236.835736
 20
485.212667
 30
0.0
 11
236.835736
 21
475.879333
 31
0.0
 12
208.835736
 22
480.546
 32
0.0
 13
208.835736
 23
480.546
 33
0.0
  0
SOLID
  5
150
330
14B
100
AcDbEntity
  8
LC-002-003-----0
 62
     2
100
AcDbTrace
 10
330.782818
 20
475.879333
 30
0.0
 11
330.782818
 21
485.212667
 31
0.0
 12
358.782818
 22
480.546
 32
0.0
 13
358.782818
 23
480.546
 33
0.0
  0
MTEXT
  5
151
330
14B
100
AcDbEntity
  8
LC-002-003-----0
 62
     2
100
AcDbMText
 10
297.666544
 20
511.346
 30
0.0
 40
28.0
 41
0.0
 71
     5
 72
     1
  1
\A1;150
  7
LCTX15-400-0-0pDIN-Schrift
 73
     1
 44
1.0
  0
POINT
  5
152
330
14B
100
AcDbEntity
  8
Defpoints
 62
     0
100
AcDbPoint
 10
208.835736
 20
449.763632
 30
0.0
  0
POINT
  5
153
330
14B
100
AcDbEntity
  8
Defpoints
 62
     0
100
AcDbPoint
 10
358.782818
 20
449.763696
 30
0.0
  0
POINT
  5
154
330
14B
100
AcDbEntity
  8
Defpoints
 62
     0
100
AcDbPoint
 10
358.782818
 20
480.546
 30
0.0
  0
ENDBLK
  5
156
330
14B
100
AcDbEntity
  8
0
100
AcDbBlockEnd
  0
BLOCK
  5
167
330
166
100
AcDbEntity
  8
0
100
AcDbBlockBegin
  2
*X58
 70
     1
 71
     0
 10
0.0
 20
0.0
 30
0.0
  3
*X58
  1

  4
*X5
  0
LINE
  5
169
330
166
100
AcDbEntity
  8
LC-003-005-----0
 62
     7
370
    25
100
AcDbLine
 10
348.386376
 20
246.563
 30
0.0
 11
353.335906
 21
251.51253
 31
0.0
  0
LINE
  5
16A
330
166
100
AcDbEntity
  8
LC-003-005-----0
 62
     7
370
    25
100
AcDbLine
 10
342.729522
 20
246.563
 30
0.0
 11
353.335906
 21
257.169384
 31
0.0
  0
LINE
  5
16B
330
166
100
AcDbEntity
  8
LC-003-005-----0
 62
     7
370
    25
100
AcDbLine
 10
337.072668
 20
246.563
 30
0.0
 11
353.335906
 21
262.826238
 31
0.0
  0
LINE
  5
16C
330
166
100
AcDbEntity
  8
LC-003-005-----0
 62
     7
370
    25
100
AcDbLine
 10
331.415814
 20
246.563
 30
0.0
 11
353.335906
 21
268.483092
 31
0.0
  0
LINE
  5
16D
330
166
100
AcDbEntity
  8
LC-003-005-----0
 62
     7
370
    25
100
AcDbLine
 10
325.758959
 20
246.563
 30
0.0
 11
348.758959
 21
269.563
 31
0.0
  0
LINE
  5
16E
330
166
100
AcDbEntity
  8
LC-003-005-----0
 62
     7
370
    25
100
AcDbLine
 10
320.102105
 20
246.563
 30
0.0
 11
343.102105
 21
269.563
 31
0.0
  0
LINE
  5
16F
330
166
100
AcDbEntity
  8
LC-003-005-----0
 62
     7
370
    25
100
AcDbLine
 10
314.445251
 20
246.563
 30
0.0
 11
337.445251
 21
269.563
 31
0.0
  0
LINE
  5
170
330
166
100
AcDbEntity
  8
LC-003-005-----0
 62
     7
370
    25
100
AcDbLine
 10
308.788397
 20
246.563
 30
0.0
 11
331.788397
 21
269.563
 31
0.0
  0
LINE
  5
171
330
166
100
AcDbEntity
  8
LC-003-005-----0
 62
     7
370
    25
100
AcDbLine
 10
303.131542
 20
246.563
 30
0.0
 11
326.131542
 21
269.563
 31
0.0
  0
LINE
  5
172
330
166
100
AcDbEntity
  8
LC-003-005-----0
 62
     7
370
    25
100
AcDbLine
 10
297.474688
 20
246.563
 30
0.0
 11
320.474688
 21
269.563
 31
0.0
  0
LINE
  5
173
330
166
100
AcDbEntity
  8
LC-003-005-----0
 62
     7
370
    25
100
AcDbLine
 10
291.817834
 20
246.563
 30
0.0
 11
314.817834
 21
269.563
 31
0.0
  0
LINE
  5
174
330
166
100
AcDbEntity
  8
LC-003-005-----0
 62
     7
370
    25
100
AcDbLine
 10
286.16098
 20
246.563
 30
0.0
 11
309.16098
 21
269.563
 31
0.0
  0
LINE
  5
175
330
166
100
AcDbEntity
  8
LC-003-005-----0
 62
     7
370
    25
100
AcDbLine
 10
283.835906
 20
249.894781
 30
0.0
 11
303.504125
 21
269.563
 31
0.0
  0
LINE
  5
176
330
166
100
AcDbEntity
  8
LC-003-005-----0
 62
     7
370
    25
100
AcDbLine
 10
283.835906
 20
255.551635
 30
0.0
 11
297.847271
 21
269.563
 31
0.0
  0
LINE
  5
177
330
166
100
AcDbEntity
  8
LC-003-005-----0
 62
     7
370
    25
100
AcDbLine
 10
283.835906
 20
261.208489
 30
0.0
 11
292.190417
 21
269.563
 31
0.0
  0
LINE
  5
178
330
166
100
AcDbEntity
  8
LC-003-005-----0
 62
     7
370
    25
100
AcDbLine
 10
283.835906
 20
266.865343
 30
0.0
 11
286.533563
 21
269.563
 31
0.0
  0
LINE
  5
179
330
166
100
AcDbEntity
  8
LC-003-005-----0
 62
     7
370
    25
100
AcDbLine
 10
353.335906
 20
268.918061
 30
0.0
 11
352.690968
 21
269.563
 31
0.0
  0
LINE
  5
17A
330
166
100
AcDbEntity
  8
LC-003-005-----0
 62
     7
370
    25
100
AcDbLine
 10
353.335906
 20
263.261207
 30
0.0
 11
347.034113
 21
269.563
 31
0.0
  0
LINE
  5
17B
330
166
100
AcDbEntity
  8
LC-003-005-----0
 62
     7
370
    25
100
AcDbLine
 10
353.335906
 20
257.604353
 30
0.0
 11
341.377259
 21
269.563
 31
0.0
  0
LINE
  5
17C
330
166
100
AcDbEntity
  8
LC-003-005-----0
 62
     7
370
    25
100
AcDbLine
 10
353.335906
 20
251.947499
 30
0.0
 11
335.720405
 21
269.563
 31
0.0
  0
LINE
  5
17D
330
166
100
AcDbEntity
  8
LC-003-005-----0
 62
     7
370
    25
100
AcDbLine
 10
353.063551
 20
246.563
 30
0.0
 11
330.063551
 21
269.563
 31
0.0
  0
LINE
  5
17E
330
166
100
AcDbEntity
  8
LC-003-005-----0
 62
     7
370
    25
100
AcDbLine
 10
347.406696
 20
246.563
 30
0.0
 11
324.406696
 21
269.563
 31
0.0
  0
LINE
  5
17F
330
166
100
AcDbEntity
  8
LC-003-005-----0
 62
     7
370
    25
100
AcDbLine
 10
341.749842
 20
246.563
 30
0.0
 11
318.749842
 21
269.563
 31
0.0
  0
LINE
  5
180
330
166
100
AcDbEntity
  8
LC-003-005-----0
 62
     7
370
    25
100
AcDbLine
 10
336.092988
 20
246.563
 30
0.0
 11
313.092988
 21
269.563
 31
0.0
  0
LINE
  5
181
330
166
100
AcDbEntity
  8
LC-003-005-----0
 62
     7
370
    25
100
AcDbLine
 10
330.436134
 20
246.563
 30
0.0
 11
307.436134
 21
269.563
 31
0.0
  0
LINE
  5
182
330
166
100
AcDbEntity
  8
LC-003-005-----0
 62
     7
370
    25
100
AcDbLine
 10
324.779279
 20
246.563
 30
0.0
 11
301.779279
 21
269.563
 31
0.0
  0
LINE
  5
183
330
166
100
AcDbEntity
  8
LC-003-005-----0
 62
     7
370
    25
100
AcDbLine
 10
319.122425
 20
246.563
 30
0.0
 11
296.122425
 21
269.563
 31
0.0
  0
LINE
  5
184
330
166
100
AcDbEntity
  8
LC-003-005-----0
 62
     7
370
    25
100
AcDbLine
 10
313.465571
 20
246.563
 30
0.0
 11
290.465571
 21
269.563
 31
0.0
  0
LINE
  5
185
330
166
100
AcDbEntity
  8
LC-003-005-----0
 62
     7
370
    25
100
AcDbLine
 10
307.808717
 20
246.563
 30
0.0
 11
284.808717
 21
269.563
 31
0.0
  0
LINE
  5
186
330
166
100
AcDbEntity
  8
LC-003-005-----0
 62
     7
370
    25
100
AcDbLine
 10
302.151862
 20
246.563
 30
0.0
 11
283.835906
 21
264.878956
 31
0.0
  0
LINE
  5
187
330
166
100
AcDbEntity
  8
LC-003-005-----0
 62
     7
370
    25
100
AcDbLine
 10
296.495008
 20
246.563
 30
0.0
 11
283.835906
 21
259.222102
 31
0.0
  0
LINE
  5
188
330
166
100
AcDbEntity
  8
LC-003-005-----0
 62
     7
370
    25
100
AcDbLine
 10
290.838154
 20
246.563
 30
0.0
 11
283.835906
 21
253.565248
 31
0.0
  0
LINE
  5
189
330
166
100
AcDbEntity
  8
LC-003-005-----0
 62
     7
370
    25
100
AcDbLine
 10
285.1813
 20
246.563
 30
0.0
 11
283.835906
 21
247.908393
 31
0.0
  0
ENDBLK
  5
168
330
166
100
AcDbEntity
  8
0
100
AcDbBlockEnd
  0
BLOCK
  5
18C
330
18B
100
AcDbEntity
  8
0
100
AcDbBlockBegin
  2
*X69
 70
     1
 71
     0
 10
0.0
 20
0.0
 30
0.0
  3
*X69
  1

  4
*X6
  0
LINE
  5
18E
330
18B
100
AcDbEntity
  8
LC-003-005-----0
 62
     7
370
    25
100
AcDbLine
 10
280.504125
 20
246.563
 30
0.0
 11
283.835906
 21
249.894781
 31
0.0
  0
LINE
  5
18F
330
18B
100
AcDbEntity
  8
LC-003-005-----0
 62
     7
370
    25
100
AcDbLine
 10
274.847271
 20
246.563
 30
0.0
 11
283.835906
 21
255.551635
 31
0.0
  0
LINE
  5
190
330
18B
100
AcDbEntity
  8
LC-003-005-----0
 62
     7
370
    25
100
AcDbLine
 10
269.190417
 20
246.563
 30
0.0
 11
283.835906
 21
261.208489
 31
0.0
  0
LINE
  5
191
330
18B
100
AcDbEntity
  8
LC-003-005-----0
 62
     7
370
    25
100
AcDbLine
 10
263.533563
 20
246.563
 30
0.0
 11
283.835906
 21
266.865343
 31
0.0
  0
LINE
  5
192
330
18B
100
AcDbEntity
  8
LC-003-005-----0
 62
     7
370
    25
100
AcDbLine
 10
257.876708
 20
246.563
 30
0.0
 11
280.876708
 21
269.563
 31
0.0
  0
LINE
  5
193
330
18B
100
AcDbEntity
  8
LC-003-005-----0
 62
     7
370
    25
100
AcDbLine
 10
252.219854
 20
246.563
 30
0.0
 11
275.219854
 21
269.563
 31
0.0
  0
LINE
  5
194
330
18B
100
AcDbEntity
  8
LC-003-005-----0
 62
     7
370
    25
100
AcDbLine
 10
246.563
 20
246.563
 30
0.0
 11
269.563
 21
269.563
 31
0.0
  0
LINE
  5
195
330
18B
100
AcDbEntity
  8
LC-003-005-----0
 62
     7
370
    25
100
AcDbLine
 10
240.906146
 20
246.563
 30
0.0
 11
263.906146
 21
269.563
 31
0.0
  0
LINE
  5
196
330
18B
100
AcDbEntity
  8
LC-003-005-----0
 62
     7
370
    25
100
AcDbLine
 10
235.249291
 20
246.563
 30
0.0
 11
258.249291
 21
269.563
 31
0.0
  0
LINE
  5
197
330
18B
100
AcDbEntity
  8
LC-003-005-----0
 62
     7
370
    25
100
AcDbLine
 10
229.592437
 20
246.563
 30
0.0
 11
252.592437
 21
269.563
 31
0.0
  0
LINE
  5
198
330
18B
100
AcDbEntity
  8
LC-003-005-----0
 62
     7
370
    25
100
AcDbLine
 10
223.935583
 20
246.563
 30
0.0
 11
246.935583
 21
269.563
 31
0.0
  0
LINE
  5
199
330
18B
100
AcDbEntity
  8
LC-003-005-----0
 62
     7
370
    25
100
AcDbLine
 10
218.278729
 20
246.563
 30
0.0
 11
241.278729
 21
269.563
 31
0.0
  0
LINE
  5
19A
330
18B
100
AcDbEntity
  8
LC-003-005-----0
 62
     7
370
    25
100
AcDbLine
 10
214.335906
 20
248.277032
 30
0.0
 11
235.621874
 21
269.563
 31
0.0
  0
LINE
  5
19B
330
18B
100
AcDbEntity
  8
LC-003-005-----0
 62
     7
370
    25
100
AcDbLine
 10
214.335906
 20
253.933886
 30
0.0
 11
229.96502
 21
269.563
 31
0.0
  0
LINE
  5
19C
330
18B
100
AcDbEntity
  8
LC-003-005-----0
 62
     7
370
    25
100
AcDbLine
 10
214.335906
 20
259.59074
 30
0.0
 11
224.308166
 21
269.563
 31
0.0
  0
LINE
  5
19D
330
18B
100
AcDbEntity
  8
LC-003-005-----0
 62
     7
370
    25
100
AcDbLine
 10
214.335906
 20
265.247594
 30
0.0
 11
218.651312
 21
269.563
 31
0.0
  0
LINE
  5
19E
330
18B
100
AcDbEntity
  8
LC-003-005-----0
 62
     7
370
    25
100
AcDbLine
 10
283.835906
 20
264.878956
 30
0.0
 11
279.151862
 21
269.563
 31
0.0
  0
LINE
  5
19F
330
18B
100
AcDbEntity
  8
LC-003-005-----0
 62
     7
370
    25
100
AcDbLine
 10
283.835906
 20
259.222102
 30
0.0
 11
273.495008
 21
269.563
 31
0.0
  0
LINE
  5
1A0
330
18B
100
AcDbEntity
  8
LC-003-005-----0
 62
     7
370
    25
100
AcDbLine
 10
283.835906
 20
253.565248
 30
0.0
 11
267.838154
 21
269.563
 31
0.0
  0
LINE
  5
1A1
330
18B
100
AcDbEntity
  8
LC-003-005-----0
 62
     7
370
    25
100
AcDbLine
 10
283.835906
 20
247.908393
 30
0.0
 11
262.1813
 21
269.563
 31
0.0
  0
LINE
  5
1A2
330
18B
100
AcDbEntity
  8
LC-003-005-----0
 62
     7
370
    25
100
AcDbLine
 10
279.524445
 20
246.563
 30
0.0
 11
256.524445
 21
269.563
 31
0.0
  0
LINE
  5
1A3
330
18B
100
AcDbEntity
  8
LC-003-005-----0
 62
     7
370
    25
100
AcDbLine
 10
273.867591
 20
246.563
 30
0.0
 11
250.867591
 21
269.563
 31
0.0
  0
LINE
  5
1A4
330
18B
100
AcDbEntity
  8
LC-003-005-----0
 62
     7
370
    25
100
AcDbLine
 10
268.210737
 20
246.563
 30
0.0
 11
245.210737
 21
269.563
 31
0.0
  0
LINE
  5
1A5
330
18B
100
AcDbEntity
  8
LC-003-005-----0
 62
     7
370
    25
100
AcDbLine
 10
262.553883
 20
246.563
 30
0.0
 11
239.553883
 21
269.563
 31
0.0
  0
LINE
  5
1A6
330
18B
100
AcDbEntity
  8
LC-003-005-----0
 62
     7
370
    25
100
AcDbLine
 10
256.897028
 20
246.563
 30
0.0
 11
233.897028
 21
269.563
 31
0.0
  0
LINE
  5
1A7
330
18B
100
AcDbEntity
  8
LC-003-005-----0
 62
     7
370
    25
100
AcDbLine
 10
251.240174
 20
246.563
 30
0.0
 11
228.240174
 21
269.563
 31
0.0
  0
LINE
  5
1A8
330
18B
100
AcDbEntity
  8
LC-003-005-----0
 62
     7
370
    25
100
AcDbLine
 10
245.58332
 20
246.563
 30
0.0
 11
222.58332
 21
269.563
 31
0.0
  0
LINE
  5
1A9
330
18B
100
AcDbEntity
  8
LC-003-005-----0
 62
     7
370
    25
100
AcDbLine
 10
239.926466
 20
246.563
 30
0.0
 11
216.926466
 21
269.563
 31
0.0
  0
LINE
  5
1AA
330
18B
100
AcDbEntity
  8
LC-003-005-----0
 62
     7
370
    25
100
AcDbLine
 10
234.269611
 20
246.563
 30
0.0
 11
214.335906
 21
266.496705
 31
0.0
  0
LINE
  5
1AB
330
18B
100
AcDbEntity
  8
LC-003-005-----0
 62
     7
370
    25
100
AcDbLine
 10
228.612757
 20
246.563
 30
0.0
 11
214.335906
 21
260.839851
 31
0.0
  0
LINE
  5
1AC
330
18B
100
AcDbEntity
  8
LC-003-005-----0
 62
     7
370
    25
100
AcDbLine
 10
222.955903
 20
246.563
 30
0.0
 11
214.335906
 21
255.182997
 31
0.0
  0
LINE
  5
1AD
330
18B
100
AcDbEntity
  8
LC-003-005-----0
 62
     7
370
    25
100
AcDbLine
 10
217.299049
 20
246.563
 30
0.0
 11
214.335906
 21
249.526142
 31
0.0
  0
ENDBLK
  5
18D
330
18B
100
AcDbEntity
  8
0
100
AcDbBlockEnd
  0
BLOCK
  5
1BB
330
1B0
100
AcDbEntity
  8
0
100
AcDbBlockBegin
  2
*D10
 70
     1
 71
     0
 10
0.0
 20
0.0
 30
0.0
  3
*D10
  1

  0
LINE
  5
1B1
330
1B0
100
AcDbEntity
  8
LC-002-003-----0
 62
     2
370
    -2
100
AcDbLine
 10
353.335906
 20
269.563
 30
0.0
 11
413.848783
 21
269.563
 31
0.0
  0
LINE
  5
1B2
330
1B0
100
AcDbEntity
  8
LC-002-003-----0
 62
     2
370
    -2
100
AcDbLine
 10
353.335906
 20
246.563
 30
0.0
 11
413.848783
 21
246.563
 31
0.0
  0
LINE
  5
1B3
330
1B0
100
AcDbEntity
  8
LC-002-003-----0
 62
     2
370
    -2
100
AcDbLine
 10
410.248783
 20
297.563
 30
0.0
 11
410.248783
 21
325.563
 31
0.0
  0
LINE
  5
1B4
330
1B0
100
AcDbEntity
  8
LC-002-003-----0
 62
     2
370
    -2
100
AcDbLine
 10
410.248783
 20
218.563
 30
0.0
 11
410.248783
 21
215.030711
 31
0.0
  0
SOLID
  5
1B5
330
1B0
100
AcDbEntity
  8
LC-002-003-----0
 62
     2
100
AcDbTrace
 10
405.582116
 20
297.563
 30
0.0
 11
414.915449
 21
297.563
 31
0.0
 12
410.248783
 22
269.563
 32
0.0
 13
410.248783
 23
269.563
 33
0.0
  0
SOLID
  5
1B6
330
1B0
100
AcDbEntity
  8
LC-002-003-----0
 62
     2
100
AcDbTrace
 10
414.915449
 20
218.563
 30
0.0
 11
405.582116
 21
218.563
 31
0.0
 12
410.248783
 22
246.563
 32
0.0
 13
410.248783
 23
246.563
 33
0.0
  0
MTEXT
  5
1B7
330
1B0
100
AcDbEntity
  8
LC-002-003-----0
 62
     2
100
AcDbMText
 10
379.448783
 20
239.382
 30
0.0
 40
28.0
 41
0.0
 71
     5
 72
     1
  1
\A1;23
  7
LCTX15-400-0-0pDIN-Schrift
 11
6.123031769111886E-17
 21
1.0
 31
0.0
 73
     1
 44
1.0
  0
POINT
  5
1B8
330
1B0
100
AcDbEntity
  8
Defpoints
 62
     0
100
AcDbPoint
 10
353.335906
 20
269.563
 30
0.0
  0
POINT
  5
1B9
330
1B0
100
AcDbEntity
  8
Defpoints
 62
     0
100
AcDbPoint
 10
353.335906
 20
246.563
 30
0.0
  0
POINT
  5
1BA
330
1B0
100
AcDbEntity
  8
Defpoints
 62
     0
100
AcDbPoint
 10
410.248783
 20
246.563
 30
0.0
  0
ENDBLK
  5
1BC
330
1B0
100
AcDbEntity
  8
0
100
AcDbBlockEnd
  0
BLOCK
  5
1C8
330
1BE
100
AcDbEntity
  8
0
100
AcDbBlockBegin
  2
*D11
 70
     1
 71
     0
 10
0.0
 20
0.0
 30
0.0
  3
*D11
  1

  0
LINE
  5
1BF
330
1BE
100
AcDbEntity
  8
LC-002-003-----0
 62
     2
370
    -2
100
AcDbLine
 10
353.335906
 20
269.563
 30
0.0
 11
446.648332
 21
269.563
 31
0.0
  0
LINE
  5
1C0
330
1BE
100
AcDbEntity
  8
LC-002-003-----0
 62
     2
370
    -2
100
AcDbLine
 10
355.311114
 20
449.063
 30
0.0
 11
446.648332
 21
449.063
 31
0.0
  0
LINE
  5
1C1
330
1BE
100
AcDbEntity
  8
LC-002-003-----0
 62
     2
370
    -2
100
AcDbLine
 10
443.048332
 20
297.563
 30
0.0
 11
443.048332
 21
421.063
 31
0.0
  0
SOLID
  5
1C2
330
1BE
100
AcDbEntity
  8
LC-002-003-----0
 62
     2
100
AcDbTrace
 10
438.381666
 20
297.563
 30
0.0
 11
447.714999
 21
297.563
 31
0.0
 12
443.048332
 22
269.563
 32
0.0
 13
443.048332
 23
269.563
 33
0.0
  0
SOLID
  5
1C3
330
1BE
100
AcDbEntity
  8
LC-002-003-----0
 62
     2
100
AcDbTrace
 10
447.714999
 20
421.063
 30
0.0
 11
438.381666
 21
421.063
 31
0.0
 12
443.048332
 22
449.063
 32
0.0
 13
443.048332
 23
449.063
 33
0.0
  0
MTEXT
  5
1C4
330
1BE
100
AcDbEntity
  8
LC-002-003-----0
 62
     2
100
AcDbMText
 10
412.248332
 20
354.618
 30
0.0
 40
28.0
 41
0.0
 71
     5
 72
     1
  1
\A1;10-180
  7
LCTX15-400-0-0pDIN-Schrift
 11
6.123031769111886E-17
 21
1.0
 31
0.0
 73
     1
 44
1.0
  0
POINT
  5
1C5
330
1BE
100
AcDbEntity
  8
Defpoints
 62
     0
100
AcDbPoint
 10
353.335906
 20
269.563
 30
0.0
  0
POINT
  5
1C6
330
1BE
100
AcDbEntity
  8
Defpoints
 62
     0
100
AcDbPoint
 10
355.311114
 20
449.063
 30
0.0
  0
POINT
  5
1C7
330
1BE
100
AcDbEntity
  8
Defpoints
 62
     0
100
AcDbPoint
 10
443.048332
 20
449.063
 30
0.0
  0
ENDBLK
  5
1C9
330
1BE
100
AcDbEntity
  8
0
100
AcDbBlockEnd
  0
ENDSEC
  0
SECTION
  2
ENTITIES
  0
LINE
  5
31
330
1F
100
AcDbEntity
  8
LC-001-002-----0
 62
     7
370
    50
100
AcDbLine
 10
212.335736
 20
451.763632
 30
0.0
 11
356.782818
 21
451.763697
 31
0.0
  0
LINE
  5
32
330
1F
100
AcDbEntity
  8
LC-001-002-----0
 62
     7
370
    25
100
AcDbLine
 10
238.228449
 20
507.151773
 30
0.0
 11
253.228449
 21
507.151773
 31
0.0
  0
LINE
  5
33
330
1F
100
AcDbEntity
  8
LC-001-002-----0
 62
     7
370
    25
100
AcDbLine
 10
253.228449
 20
492.151773
 30
0.0
 11
253.228449
 21
507.151773
 31
0.0
  0
DIMENSION
  5
37
330
1F
100
AcDbEntity
  8
LC-002-003-----0
 62
     7
370
    25
100
AcDbDimension
  2
*D1
 10
192.176101
 20
436.763743
 30
0.0
 11
161.376101
 21
389.07
 31
0.0
 70
   160
 71
     5
 42
14.999955
 53
90.0
  3
LC-DIM-L-0140-02-02
100
AcDbAlignedDimension
 13
212.388995
 23
451.763697
 33
0.0
 14
207.335736
 24
436.763743
 34
0.0
 50
90.0
100
AcDbRotatedDimension
  0
LINE
  5
46
330
1F
100
AcDbEntity
  8
LC-001-002-----0
 62
     7
370
    50
100
AcDbLine
 10
211.335906
 20
251.563
 30
0.0
 11
211.335906
 21
436.763743
 31
0.0
  0
LINE
  5
47
330
1F
100
AcDbEntity
  8
LC-001-002-----0
 62
     7
370
    50
100
AcDbLine
 10
212.610687
 20
246.563
 30
0.0
 11
353.282775
 21
246.563
 31
0.0
  0
LINE
  5
48
330
1F
100
AcDbEntity
  8
LC-001-002-----0
 62
     7
370
    50
100
AcDbLine
 10
356.335906
 20
251.563
 30
0.0
 11
354.99616
 21
246.563
 31
0.0
  0
LINE
  5
49
330
1F
100
AcDbEntity
  8
LC-001-002-----0
 62
     7
370
    50
100
AcDbLine
 10
211.335906
 20
251.563
 30
0.0
 11
212.675652
 21
246.563
 31
0.0
  0
LINE
  5
4A
102
{ACAD_REACTORS
330
1D2
102
}
330
1F
100
AcDbEntity
  8
LC-001-002-----0
 62
     7
370
    50
100
AcDbLine
 10
354.810402
 20
246.564139
 30
0.0
 11
353.282775
 21
246.56414
 31
0.0
  0
LINE
  5
4B
102
{ACAD_REACTORS
330
1D2
102
}
330
1F
100
AcDbEntity
  8
LC-001-002-----0
 62
     7
370
    50
100
AcDbLine
 10
353.282775
 20
246.56414
 30
0.0
 11
353.2828
 21
422.263698
 31
0.0
  0
LINE
  5
4D
330
1F
100
AcDbEntity
  8
LC-001-002-----0
  6
DASHDOT
 62
     7
370
    25
100
AcDbLine
 10
283.835906
 20
246.563
 30
0.0
 11
283.835906
 21
452.063743
 31
0.0
  0
LINE
  5
4E
102
{ACAD_REACTORS
330
1D1
102
}
330
1F
100
AcDbEntity
  8
LC-001-002-----0
 62
     7
370
    50
100
AcDbLine
 10
214.335736
 20
426.763632
 30
0.0
 11
212.835736
 21
425.263634
 31
0.0
  0
LINE
  5
4F
102
{ACAD_REACTORS
330
1D0
102
}
330
1F
100
AcDbEntity
  8
LC-001-002-----0
 62
     7
370
    50
100
AcDbLine
 10
212.12863
 20
425.970741
 30
0.0
 11
213.335736
 21
427.177846
 31
0.0
  0
LINE
  5
50
102
{ACAD_REACTORS
330
1CF
102
}
330
1F
100
AcDbEntity
  8
LC-001-002-----0
 62
     7
370
    50
100
AcDbLine
 10
212.835736
 20
425.263634
 30
0.0
 11
212.12863
 21
425.970741
 31
0.0
  0
LINE
  5
51
102
{ACAD_REACTORS
330
1CE
102
}
330
1F
100
AcDbEntity
  8
LC-001-002-----0
 62
     7
370
    50
100
AcDbLine
 10
214.335736
 20
246.563
 30
0.0
 11
214.335736
 21
426.763632
 31
0.0
  0
INSERT
  5
A2
330
1F
100
AcDbEntity
  8
LC-003-005-----0
 62
     7
370
    25
100
AcDbBlockReference
  2
*X12
 10
0.0
 20
0.0
 30
0.0
  0
LINE
  5
A3
102
{ACAD_REACTORS
330
1E2
102
}
330
1F
100
AcDbEntity
  8
LC-001-002-----0
 62
     7
370
    50
100
AcDbLine
 10
214.335736
 20
421.504863
 30
0.0
 11
214.335736
 21
426.763632
 31
0.0
  0
INSERT
  5
B5
330
1F
100
AcDbEntity
  8
LC-003-005-----0
 62
     7
370
    25
100
AcDbBlockReference
  2
*X23
 10
0.0
 20
0.0
 30
0.0
  0
INSERT
  5
C8
330
1F
100
AcDbEntity
  8
LC-003-005-----0
 62
     7
370
    25
100
AcDbBlockReference
  2
*X34
 10
0.0
 20
0.0
 30
0.0
  0
LINE
  5
C9
102
{ACAD_REACTORS
330
1CD
102
}
330
1F
100
AcDbEntity
  8
LC-001-002-----0
 62
     7
370
    50
100
AcDbLine
 10
353.282803
 20
426.763698
 30
0.0
 11
354.782802
 21
425.263699
 31
0.0
  0
LINE
  5
CA
102
{ACAD_REACTORS
330
1CC
102
}
330
1F
100
AcDbEntity
  8
LC-001-002-----0
 62
     7
370
    50
100
AcDbLine
 10
355.489909
 20
425.970805
 30
0.0
 11
354.282803
 21
427.177911
 31
0.0
  0
LINE
  5
CB
102
{ACAD_REACTORS
330
1CB
102
}
330
1F
100
AcDbEntity
  8
LC-001-002-----0
 62
     7
370
    50
100
AcDbLine
 10
354.782802
 20
425.263699
 30
0.0
 11
355.489909
 21
425.970805
 31
0.0
  0
LINE
  5
CC
102
{ACAD_REACTORS
330
1CA
102
}
330
1F
100
AcDbEntity
  8
LC-001-002-----0
 62
     7
370
    50
100
AcDbLine
 10
353.2828
 20
422.263698
 30
0.0
 11
353.282803
 21
426.763698
 31
0.0
  0
INSERT
  5
11A
330
1F
100
AcDbEntity
  8
LC-003-005-----0
 62
     7
370
    25
100
AcDbBlockReference
  2
*X45
 10
0.0
 20
0.0
 30
0.0
  0
LINE
  5
11B
330
1F
100
AcDbEntity
  8
LC-001-002-----0
 62
     7
370
    50
100
AcDbLine
 10
356.335906
 20
251.563
 30
0.0
 11
356.335906
 21
436.763743
 31
0.0
  0
LINE
  5
11C
330
1F
100
AcDbEntity
  8
LC-001-002-----0
 62
     7
370
    50
100
AcDbLine
 10
356.335906
 20
436.763743
 30
0.0
 11
360.336076
 21
436.763743
 31
0.0
  0
DIMENSION
  5
11D
330
1F
100
AcDbEntity
  8
LC-002-003-----0
 62
     7
370
    25
100
AcDbDimension
  2
*D6
 10
356.335906
 20
200.0
 30
0.0
 11
283.835906
 21
230.8
 31
0.0
 70
   160
  1
%%c<>
 71
     5
 42
145.0
  3
LC-DIM-L-0140-02-02
100
AcDbAlignedDimension
 13
211.335906
 23
251.563
 33
0.0
 14
356.335906
 24
251.563
 34
0.0
100
AcDbRotatedDimension
  0
LINE
  5
12A
102
{ACAD_REACTORS
330
1E1
102
}
330
1F
100
AcDbEntity
  8
LC-001-002-----0
 62
     7
370
    50
100
AcDbLine
 10
208.835736
 20
449.763632
 30
0.0
 11
208.835736
 21
438.263632
 31
0.0
  0
ARC
  5
12B
102
{ACAD_REACTORS
330
1E0
102
}
330
1F
100
AcDbEntity
  8
LC-001-002-----0
 62
     7
370
    50
100
AcDbCircle
 10
210.835736
 20
449.763632
 30
0.0
 40
2.000000000000107
100
AcDbArc
 50
89.999981
 51
180.0
  0
ARC
  5
12C
102
{ACAD_REACTORS
330
1DF
102
}
330
1F
100
AcDbEntity
  8
LC-001-002-----0
 62
     7
370
    50
100
AcDbCircle
 10
212.335736
 20
449.763632
 30
0.0
 40
2.000000000000114
100
AcDbArc
 50
0.0
 51
90.0
  0
LINE
  5
12D
102
{ACAD_REACTORS
330
1E2
102
}
330
1F
100
AcDbEntity
  8
LC-001-002-----0
 62
     7
370
    50
100
AcDbLine
 10
214.335736
 20
449.763632
 30
0.0
 11
214.335736
 21
426.587366
 31
0.0
  0
ARC
  5
12E
102
{ACAD_REACTORS
330
1DE
102
}
330
1F
100
AcDbEntity
  8
LC-001-002-----0
 62
     7
370
    50
100
AcDbCircle
 10
210.835736
 20
449.763632
 30
0.0
 40
1.0
100
AcDbArc
 50
90.0
 51
179.999848
  0
LINE
  5
12F
102
{ACAD_REACTORS
330
1DD
102
}
330
1F
100
AcDbEntity
  8
LC-001-002-----0
 62
     7
370
    50
100
AcDbLine
 10
209.835736
 20
438.263632
 30
0.0
 11
209.835736
 21
449.763632
 31
0.0
  0
LINE
  5
130
102
{ACAD_REACTORS
330
1DC
102
}
330
1F
100
AcDbEntity
  8
LC-001-002-----0
 62
     7
370
    50
100
AcDbLine
 10
213.335736
 20
449.763632
 30
0.0
 11
213.335736
 21
427.177846
 31
0.0
  0
ARC
  5
131
102
{ACAD_REACTORS
330
1DB
102
}
330
1F
100
AcDbEntity
  8
LC-001-002-----0
 62
     7
370
    50
100
AcDbCircle
 10
212.335736
 20
449.763632
 30
0.0
 40
1.0
100
AcDbArc
 50
0.0
 51
89.999981
  0
LINE
  5
132
102
{ACAD_REACTORS
330
1DA
102
}
330
1F
100
AcDbEntity
  8
LC-001-002-----0
 62
     7
370
    50
100
AcDbLine
 10
210.835736
 20
450.763632
 30
0.0
 11
212.335736
 21
450.763632
 31
0.0
  0
LINE
  5
133
102
{ACAD_REACTORS
330
1D9
102
}
330
1F
100
AcDbEntity
  8
LC-001-002-----0
 62
     7
370
    50
100
AcDbLine
 10
353.282818
 20
449.763697
 30
0.0
 11
353.282803
 21
426.763698
 31
0.0
  0
LINE
  5
134
102
{ACAD_REACTORS
330
1D8
102
}
330
1F
100
AcDbEntity
  8
LC-001-002-----0
 62
     7
370
    50
100
AcDbLine
 10
353.335904
 20
449.763697
 30
0.0
 11
353.335904
 21
449.763697
 31
0.0
  0
ARC
  5
135
102
{ACAD_REACTORS
330
1D7
102
}
330
1F
100
AcDbEntity
  8
LC-001-002-----0
 62
     7
370
    50
100
AcDbCircle
 10
355.282818
 20
449.763697
 30
0.0
 40
2.000000000000107
100
AcDbArc
 50
89.999981
 51
180.0
  0
LINE
  5
136
102
{ACAD_REACTORS
330
1D6
102
}
330
1F
100
AcDbEntity
  8
LC-001-002-----0
 62
     7
370
    50
100
AcDbLine
 10
358.782818
 20
449.763696
 30
0.0
 11
358.782811
 21
438.263695
 31
0.0
  0
ARC
  5
137
102
{ACAD_REACTORS
330
1D5
102
}
330
1F
100
AcDbEntity
  8
LC-001-002-----0
 62
     7
370
    50
100
AcDbCircle
 10
356.782818
 20
449.763697
 30
0.0
 40
2.0000000000002
100
AcDbArc
 50
359.999963
 51
89.999677
  0
LINE
  5
138
102
{ACAD_REACTORS
330
1D4
102
}
330
1F
100
AcDbEntity
  8
LC-001-002-----0
 62
     7
370
    50
100
AcDbLine
 10
355.335905
 20
451.763697
 30
0.0
 11
356.835904
 21
451.763697
 31
0.0
  0
ARC
  5
139
102
{ACAD_REACTORS
330
1D3
102
}
330
1F
100
AcDbEntity
  8
LC-001-002-----0
 62
     7
370
    50
100
AcDbCircle
 10
355.282818
 20
449.763696
 30
0.0
 40
0.9999999999999862
100
AcDbArc
 50
89.999963
 51
179.999944
  0
LINE
  5
13A
102
{ACAD_REACTORS
330
1EE
102
}
330
1F
100
AcDbEntity
  8
LC-001-002-----0
 62
     7
370
    50
100
AcDbLine
 10
354.282818
 20
449.763697
 30
0.0
 11
354.282803
 21
427.177911
 31
0.0
  0
LINE
  5
13B
102
{ACAD_REACTORS
330
1ED
102
}
330
1F
100
AcDbEntity
  8
LC-001-002-----0
 62
     7
370
    50
100
AcDbLine
 10
357.782811
 20
438.263695
 30
0.0
 11
357.782818
 21
449.763694
 31
0.0
  0
ARC
  5
13C
102
{ACAD_REACTORS
330
1EC
102
}
330
1F
100
AcDbEntity
  8
LC-001-002-----0
 62
     7
370
    50
100
AcDbCircle
 10
356.782818
 20
449.763695
 30
0.0
 40
0.9999999999999862
100
AcDbArc
 50
359.999963
 51
89.999658
  0
LINE
  5
13D
102
{ACAD_REACTORS
330
1EB
102
}
330
1F
100
AcDbEntity
  8
LC-001-002-----0
 62
     7
370
    50
100
AcDbLine
 10
356.782819
 20
450.763695
 30
0.0
 11
355.282819
 21
450.763696
 31
0.0
  0
LINE
  5
13E
102
{ACAD_REACTORS
330
1EA
102
}
330
1F
100
AcDbEntity
  8
LC-001-002-----0
 62
     7
370
    50
100
AcDbLine
 10
358.835895
 20
440.263694
 30
0.0
 11
358.835895
 21
440.263694
 31
0.0
  0
ARC
  5
13F
102
{ACAD_REACTORS
330
1E9
102
}
330
1F
100
AcDbEntity
  8
LC-001-002-----0
 62
     7
370
    50
100
AcDbCircle
 10
358.782809
 20
438.763694
 30
0.0
 40
1.5
100
AcDbArc
 50
0.0
 51
90.0
  0
LINE
  5
140
102
{ACAD_REACTORS
330
1E8
102
}
330
1F
100
AcDbEntity
  8
LC-001-002-----0
 62
     7
370
    50
100
AcDbLine
 10
360.282809
 20
436.763743
 30
0.0
 11
360.282809
 21
438.763694
 31
0.0
  0
LINE
  5
141
102
{ACAD_REACTORS
330
1E7
102
}
330
1F
100
AcDbEntity
  8
LC-001-002-----0
 62
     7
370
    50
100
AcDbLine
 10
357.782809
 20
438.263695
 30
0.0
 11
358.782809
 21
438.263695
 31
0.0
  0
LINE
  5
142
102
{ACAD_REACTORS
330
1E6
102
}
330
1F
100
AcDbEntity
  8
LC-001-002-----0
 62
     7
370
    50
100
AcDbLine
 10
207.335736
 20
438.763632
 30
0.0
 11
207.335736
 21
436.763743
 31
0.0
  0
ARC
  5
143
102
{ACAD_REACTORS
330
1E5
102
}
330
1F
100
AcDbEntity
  8
LC-001-002-----0
 62
     7
370
    50
100
AcDbCircle
 10
208.835736
 20
438.763632
 30
0.0
 40
1.500000000000341
100
AcDbArc
 50
90.0
 51
180.0
  0
LINE
  5
144
102
{ACAD_REACTORS
330
1E4
102
}
330
1F
100
AcDbEntity
  8
LC-001-002-----0
 62
     7
370
    50
100
AcDbLine
 10
208.835736
 20
440.263632
 30
0.0
 11
208.835736
 21
440.263632
 31
0.0
  0
LINE
  5
145
102
{ACAD_REACTORS
330
1E3
102
}
330
1F
100
AcDbEntity
  8
LC-001-002-----0
 62
     7
370
    50
100
AcDbLine
 10
208.835736
 20
438.263632
 30
0.0
 11
209.835736
 21
438.263632
 31
0.0
  0
LINE
  5
147
330
1F
100
AcDbEntity
  8
LC-004-001-----0
 62
     7
370
    50
100
AcDbLine
 10
214.335736
 20
446.263632
 30
0.0
 11
283.835736
 21
446.263632
 31
0.0
  0
LINE
  5
148
330
1F
100
AcDbEntity
  8
LC-004-001-----0
 62
     7
370
    50
100
AcDbLine
 10
353.335902
 20
446.263697
 30
0.0
 11
283.835903
 21
446.263743
 31
0.0
  0
LINE
  5
149
330
1F
100
AcDbEntity
  8
LC-001-002-----0
 62
     7
370
    50
100
AcDbLine
 10
210.835736
 20
451.763632
 30
0.0
 11
212.335736
 21
451.763632
 31
0.0
  0
DIMENSION
  5
14A
330
1F
100
AcDbEntity
  8
LC-002-003-----0
 62
     7
370
    25
100
AcDbDimension
  2
*D7
 10
358.782818
 20
480.546
 30
0.0
 11
297.666544
 21
511.346
 31
0.0
 70
   160
  1
150
 71
     5
 42
149.947082
  3
LC-DIM-L-0140-02-02
100
AcDbAlignedDimension
 13
208.835736
 23
449.763632
 33
0.0
 14
358.782818
 24
449.763696
 34
0.0
100
AcDbRotatedDimension
  0
LINE
  5
157
330
1F
100
AcDbEntity
  8
LC-001-002-----0
 62
     7
370
    25
100
AcDbLine
 10
238.228449
 20
492.151773
 30
0.0
 11
238.228449
 21
507.151773
 31
0.0
  0
LINE
  5
158
330
1F
100
AcDbEntity
  8
LC-001-002-----0
 62
     7
370
    25
100
AcDbLine
 10
238.228449
 20
492.151773
 30
0.0
 11
253.228449
 21
492.151773
 31
0.0
  0
LINE
  5
159
330
1F
100
AcDbEntity
  8
LC-001-002-----0
 62
     7
370
    50
100
AcDbLine
 10
211.335906
 20
436.763743
 30
0.0
 11
207.335736
 21
436.763743
 31
0.0
  0
LINE
  5
15A
330
1F
100
AcDbEntity
  8
LC-001-002-----0
 62
     7
370
    50
100
AcDbLine
 10
456.335906
 20
424.159415
 30
0.0
 11
606.335906
 21
424.159415
 31
0.0
  0
LINE
  5
15B
330
1F
100
AcDbEntity
  8
LC-001-002-----0
 62
     7
370
    50
100
AcDbLine
 10
606.335906
 20
424.159415
 30
0.0
 11
606.335906
 21
274.159415
 31
0.0
  0
LINE
  5
15C
330
1F
100
AcDbEntity
  8
LC-001-002-----0
 62
     7
370
    50
100
AcDbLine
 10
606.335906
 20
274.159415
 30
0.0
 11
456.335906
 21
274.159415
 31
0.0
  0
LINE
  5
15D
330
1F
100
AcDbEntity
  8
LC-001-002-----0
 62
     7
370
    50
100
AcDbLine
 10
456.335906
 20
274.159415
 30
0.0
 11
456.335906
 21
424.159415
 31
0.0
  0
LINE
  5
15E
330
1F
100
AcDbEntity
  8
LC-001-002-----0
 62
     7
370
    50
100
AcDbLine
 10
461.835906
 20
418.659415
 30
0.0
 11
461.835906
 21
279.659415
 31
0.0
  0
LINE
  5
15F
330
1F
100
AcDbEntity
  8
LC-001-002-----0
 62
     7
370
    50
100
AcDbLine
 10
461.835906
 20
279.659415
 30
0.0
 11
600.835906
 21
279.659415
 31
0.0
  0
LINE
  5
160
330
1F
100
AcDbEntity
  8
LC-001-002-----0
 62
     7
370
    50
100
AcDbLine
 10
600.835906
 20
279.659415
 30
0.0
 11
600.835906
 21
418.659415
 31
0.0
  0
LINE
  5
161
330
1F
100
AcDbEntity
  8
LC-001-002-----0
 62
     7
370
    50
100
AcDbLine
 10
600.835906
 20
418.659415
 30
0.0
 11
461.835906
 21
418.659415
 31
0.0
  0
CIRCLE
  5
162
330
1F
100
AcDbEntity
  8
LC-001-002-----0
 62
     7
370
    50
100
AcDbCircle
 10
531.335906
 20
349.159415
 30
0.0
 40
69.5
  0
CIRCLE
  5
163
330
1F
100
AcDbEntity
  8
LC-001-002-----0
 62
     7
370
    50
100
AcDbCircle
 10
471.23183
 20
409.263492
 30
0.0
 40
2.5
  0
CIRCLE
  5
164
330
1F
100
AcDbEntity
  8
LC-001-002-----0
 62
     7
370
    50
100
AcDbCircle
 10
591.439982
 20
289.055339
 30
0.0
 40
2.5
  0
LINE
  5
165
330
1F
100
AcDbEntity
  8
LC-001-002-----0
 62
     7
370
    25
100
AcDbLine
 10
214.335906
 20
269.563
 30
0.0
 11
353.335906
 21
269.563
 31
0.0
  0
INSERT
  5
18A
330
1F
100
AcDbEntity
  8
LC-003-005-----0
 62
     7
370
    25
100
AcDbBlockReference
  2
*X58
 10
0.0
 20
0.0
 30
0.0
  0
INSERT
  5
1AE
330
1F
100
AcDbEntity
  8
LC-003-005-----0
 62
     7
370
    25
100
AcDbBlockReference
  2
*X69
 10
0.0
 20
0.0
 30
0.0
  0
DIMENSION
  5
1AF
330
1F
100
AcDbEntity
  8
LC-002-003-----0
 62
     7
370
    25
100
AcDbDimension
  2
*D10
 10
410.248783
 20
246.563
 30
0.0
 11
379.448783
 21
239.382
 31
0.0
 70
   160
 71
     5
 42
23.0
 53
90.0
  3
LC-DIM-L-0140-02-02
100
AcDbAlignedDimension
 13
353.335906
 23
269.563
 33
0.0
 14
353.335906
 24
246.563
 34
0.0
 50
90.0
100
AcDbRotatedDimension
  0
DIMENSION
  5
1BD
330
1F
100
AcDbEntity
  8
LC-002-003-----0
 62
     7
370
    25
100
AcDbDimension
  2
*D11
 10
443.048332
 20
449.063
 30
0.0
 11
412.248332
 21
354.618
 31
0.0
 70
   160
  1
10-180
 71
     5
 42
179.5
 53
90.0
  3
LC-DIM-L-0140-02-02
100
AcDbAlignedDimension
 13
353.335906
 23
269.563
 33
0.0
 14
355.311114
 24
449.063
 34
0.0
 50
90.0
100
AcDbRotatedDimension
  0
ENDSEC
  0
SECTION
  2
OBJECTS
  0
DICTIONARY
  5
C
330
0
100
AcDbDictionary
281
     1
  3
ACAD_GROUP
350
D
  3
ACAD_LAYOUT
350
1A
  3
ACAD_MLINESTYLE
350
17
  3
ACAD_PLOTSETTINGS
350
19
  3
ACAD_PLOTSTYLENAME
350
E
  0
DICTIONARY
  5
D
102
{ACAD_REACTORS
330
C
102
}
330
C
100
AcDbDictionary
281
     1
  3
LCGROUP119
350
1D2
  3
LCGROUP120
350
1D1
  3
LCGROUP121
350
1D0
  3
LCGROUP122
350
1CF
  3
LCGROUP123
350
1CE
  3
LCGROUP124
350
1CD
  3
LCGROUP125
350
1CC
  3
LCGROUP126
350
1CB
  3
LCGROUP127
350
1CA
  3
LCGROUP128
350
1E1
  3
LCGROUP129
350
1E0
  3
LCGROUP130
350
1DF
  3
LCGROUP131
350
1E2
  3
LCGROUP132
350
1DE
  3
LCGROUP133
350
1DD
  3
LCGROUP134
350
1DC
  3
LCGROUP135
350
1DB
  3
LCGROUP136
350
1DA
  3
LCGROUP137
350
1D9
  3
LCGROUP138
350
1D8
  3
LCGROUP139
350
1D7
  3
LCGROUP140
350
1D6
  3
LCGROUP141
350
1D5
  3
LCGROUP142
350
1D4
  3
LCGROUP143
350
1D3
  3
LCGROUP144
350
1EE
  3
LCGROUP145
350
1ED
  3
LCGROUP146
350
1EC
  3
LCGROUP147
350
1EB
  3
LCGROUP148
350
1EA
  3
LCGROUP149
350
1E9
  3
LCGROUP150
350
1E8
  3
LCGROUP151
350
1E7
  3
LCGROUP152
350
1E6
  3
LCGROUP153
350
1E5
  3
LCGROUP154
350
1E4
  3
LCGROUP155
350
1E3
  0
DICTIONARY
  5
1A
102
{ACAD_REACTORS
330
C
102
}
330
C
100
AcDbDictionary
281
     1
  3
Layout1
350
1E
  3
Layout2
350
26
  3
Model
350
22
  0
DICTIONARY
  5
17
102
{ACAD_REACTORS
330
C
102
}
330
C
100
AcDbDictionary
281
     1
  3
Standard
350
18
  0
DICTIONARY
  5
19
102
{ACAD_REACTORS
330
C
102
}
330
C
100
AcDbDictionary
281
     1
  0
ACDBDICTIONARYWDFLT
  5
E
102
{ACAD_REACTORS
330
C
102
}
330
C
100
AcDbDictionary
281
     1
  3
Normal
350
F
100
AcDbDictionaryWithDefault
340
F
  0
GROUP
  5
1D2
102
{ACAD_REACTORS
330
D
102
}
330
D
100
AcDbGroup
300
GRP119
 70
     1
 71
     1
340
4A
340
4B
  0
GROUP
  5
1D1
102
{ACAD_REACTORS
330
D
102
}
330
D
100
AcDbGroup
300
GRP120
 70
     1
 71
     1
340
4E
  0
GROUP
  5
1D0
102
{ACAD_REACTORS
330
D
102
}
330
D
100
AcDbGroup
300
GRP121
 70
     1
 71
     1
340
4F
  0
GROUP
  5
1CF
102
{ACAD_REACTORS
330
D
102
}
330
D
100
AcDbGroup
300
GRP122
 70
     1
 71
     1
340
50
  0
GROUP
  5
1CE
102
{ACAD_REACTORS
330
D
102
}
330
D
100
AcDbGroup
300
GRP123
 70
     1
 71
     1
340
51
  0
GROUP
  5
1CD
102
{ACAD_REACTORS
330
D
102
}
330
D
100
AcDbGroup
300
GRP124
 70
     1
 71
     1
340
C9
  0
GROUP
  5
1CC
102
{ACAD_REACTORS
330
D
102
}
330
D
100
AcDbGroup
300
GRP125
 70
     1
 71
     1
340
CA
  0
GROUP
  5
1CB
102
{ACAD_REACTORS
330
D
102
}
330
D
100
AcDbGroup
300
GRP126
 70
     1
 71
     1
340
CB
  0
GROUP
  5
1CA
102
{ACAD_REACTORS
330
D
102
}
330
D
100
AcDbGroup
300
GRP127
 70
     1
 71
     1
340
CC
  0
GROUP
  5
1E1
102
{ACAD_REACTORS
330
D
102
}
330
D
100
AcDbGroup
300
GRP128
 70
     1
 71
     1
340
12A
  0
GROUP
  5
1E0
102
{ACAD_REACTORS
330
D
102
}
330
D
100
AcDbGroup
300
GRP129
 70
     1
 71
     1
340
12B
  0
GROUP
  5
1DF
102
{ACAD_REACTORS
330
D
102
}
330
D
100
AcDbGroup
300
GRP130
 70
     1
 71
     1
340
12C
  0
GROUP
  5
1E2
102
{ACAD_REACTORS
330
D
102
}
330
D
100
AcDbGroup
300
GRP131
 70
     1
 71
     1
340
A3
340
12D
  0
GROUP
  5
1DE
102
{ACAD_REACTORS
330
D
102
}
330
D
100
AcDbGroup
300
GRP132
 70
     1
 71
     1
340
12E
  0
GROUP
  5
1DD
102
{ACAD_REACTORS
330
D
102
}
330
D
100
AcDbGroup
300
GRP133
 70
     1
 71
     1
340
12F
  0
GROUP
  5
1DC
102
{ACAD_REACTORS
330
D
102
}
330
D
100
AcDbGroup
300
GRP134
 70
     1
 71
     1
340
130
  0
GROUP
  5
1DB
102
{ACAD_REACTORS
330
D
102
}
330
D
100
AcDbGroup
300
GRP135
 70
     1
 71
     1
340
131
  0
GROUP
  5
1DA
102
{ACAD_REACTORS
330
D
102
}
330
D
100
AcDbGroup
300
GRP136
 70
     1
 71
     1
340
132
  0
GROUP
  5
1D9
102
{ACAD_REACTORS
330
D
102
}
330
D
100
AcDbGroup
300
GRP137
 70
     1
 71
     1
340
133
  0
GROUP
  5
1D8
102
{ACAD_REACTORS
330
D
102
}
330
D
100
AcDbGroup
300
GRP138
 70
     1
 71
     1
340
134
  0
GROUP
  5
1D7
102
{ACAD_REACTORS
330
D
102
}
330
D
100
AcDbGroup
300
GRP139
 70
     1
 71
     1
340
135
  0
GROUP
  5
1D6
102
{ACAD_REACTORS
330
D
102
}
330
D
100
AcDbGroup
300
GRP140
 70
     1
 71
     1
340
136
  0
GROUP
  5
1D5
102
{ACAD_REACTORS
330
D
102
}
330
D
100
AcDbGroup
300
GRP141
 70
     1
 71
     1
340
137
  0
GROUP
  5
1D4
102
{ACAD_REACTORS
330
D
102
}
330
D
100
AcDbGroup
300
GRP142
 70
     1
 71
     1
340
138
  0
GROUP
  5
1D3
102
{ACAD_REACTORS
330
D
102
}
330
D
100
AcDbGroup
300
GRP143
 70
     1
 71
     1
340
139
  0
GROUP
  5
1EE
102
{ACAD_REACTORS
330
D
102
}
330
D
100
AcDbGroup
300
GRP144
 70
     1
 71
     1
340
13A
  0
GROUP
  5
1ED
102
{ACAD_REACTORS
330
D
102
}
330
D
100
AcDbGroup
300
GRP145
 70
     1
 71
     1
340
13B
  0
GROUP
  5
1EC
102
{ACAD_REACTORS
330
D
102
}
330
D
100
AcDbGroup
300
GRP146
 70
     1
 71
     1
340
13C
  0
GROUP
  5
1EB
102
{ACAD_REACTORS
330
D
102
}
330
D
100
AcDbGroup
300
GRP147
 70
     1
 71
     1
340
13D
  0
GROUP
  5
1EA
102
{ACAD_REACTORS
330
D
102
}
330
D
100
AcDbGroup
300
GRP148
 70
     1
 71
     1
340
13E
  0
GROUP
  5
1E9
102
{ACAD_REACTORS
330
D
102
}
330
D
100
AcDbGroup
300
GRP149
 70
     1
 71
     1
340
13F
  0
GROUP
  5
1E8
102
{ACAD_REACTORS
330
D
102
}
330
D
100
AcDbGroup
300
GRP150
 70
     1
 71
     1
340
140
  0
GROUP
  5
1E7
102
{ACAD_REACTORS
330
D
102
}
330
D
100
AcDbGroup
300
GRP151
 70
     1
 71
     1
340
141
  0
GROUP
  5
1E6
102
{ACAD_REACTORS
330
D
102
}
330
D
100
AcDbGroup
300
GRP152
 70
     1
 71
     1
340
142
  0
GROUP
  5
1E5
102
{ACAD_REACTORS
330
D
102
}
330
D
100
AcDbGroup
300
GRP153
 70
     1
 71
     1
340
143
  0
GROUP
  5
1E4
102
{ACAD_REACTORS
330
D
102
}
330
D
100
AcDbGroup
300
GRP154
 70
     1
 71
     1
340
144
  0
GROUP
  5
1E3
102
{ACAD_REACTORS
330
D
102
}
330
D
100
AcDbGroup
300
GRP155
 70
     1
 71
     1
340
145
  0
LAYOUT
  5
1E
102
{ACAD_REACTORS
330
1A
102
}
330
1A
100
AcDbPlotSettings
  1

  2

  4

  6

 40
0.0
 41
0.0
 42
0.0
 43
0.0
 44
0.0
 45
0.0
 46
0.0
 47
0.0
 48
0.0
 49
0.0
140
0.0
141
0.0
142
1.0
143
1.0
 70
   688
 72
     0
 73
     0
 74
     5
  7

 75
    16
147
1.0
148
0.0
149
0.0
100
AcDbLayout
  1
Layout1
 70
     1
 71
     1
 10
0.0
 20
0.0
 11
840.0
 21
594.0
 12
0.0
 22
0.0
 32
0.0
 14
0.0
 24
0.0
 34
0.0
 15
840.0
 25
594.0
 35
0.0
146
0.0
 13
0.0
 23
0.0
 33
0.0
 16
1.0
 26
0.0
 36
0.0
 17
0.0
 27
1.0
 37
0.0
 76
     0
330
1B
  0
LAYOUT
  5
26
102
{ACAD_REACTORS
330
1A
102
}
330
1A
100
AcDbPlotSettings
  1

  2

  4

  6

 40
0.0
 41
0.0
 42
0.0
 43
0.0
 44
0.0
 45
0.0
 46
0.0
 47
0.0
 48
0.0
 49
0.0
140
0.0
141
0.0
142
1.0
143
1.0
 70
   688
 72
     0
 73
     0
 74
     5
  7

 75
    16
147
1.0
148
0.0
149
0.0
100
AcDbLayout
  1
Layout2
 70
     1
 71
     2
 10
0.0
 20
0.0
 11
0.0
 21
0.0
 12
0.0
 22
0.0
 32
0.0
 14
0.0
 24
0.0
 34
0.0
 15
0.0
 25
0.0
 35
0.0
146
0.0
 13
0.0
 23
0.0
 33
0.0
 16
1.0
 26
0.0
 36
0.0
 17
0.0
 27
1.0
 37
0.0
 76
     0
330
23
  0
LAYOUT
  5
22
102
{ACAD_REACTORS
330
1A
102
}
330
1A
100
AcDbPlotSettings
  1

  2

  4

  6

 40
0.0
 41
0.0
 42
0.0
 43
0.0
 44
0.0
 45
0.0
 46
0.0
 47
0.0
 48
0.0
 49
0.0
140
0.0
141
0.0
142
1.0
143
1.0
 70
  1776
 72
     0
 73
     0
 74
     0
  7

 75
     0
147
1.0
148
0.0
149
0.0
100
AcDbLayout
  1
Model
 70
     1
 71
     0
 10
0.0
 20
0.0
 11
840.0
 21
594.0
 12
0.0
 22
0.0
 32
0.0
 14
0.0
 24
0.0
 34
0.0
 15
840.0
 25
594.0
 35
0.0
146
0.0
 13
0.0
 23
0.0
 33
0.0
 16
1.0
 26
0.0
 36
0.0
 17
0.0
 27
1.0
 37
0.0
 76
     0
330
1F
  0
MLINESTYLE
  5
18
102
{ACAD_REACTORS
330
17
102
}
330
17
100
AcDbMlineStyle
  2
Standard
 70
     0
  3

 62
   256
 51
90.0
 52
90.0
 71
     2
 49
0.5
 62
   256
  6
BYLAYER
 49
-0.5
 62
   256
  6
BYLAYER
  0
ACDBPLACEHOLDER
  5
F
102
{ACAD_REACTORS
330
E
102
}
330
E
  0
ENDSEC
  0
EOF
