  0
SECTION
  2
HEADER
  9
$ACADVER
  1
AC1009
  9
$INSBASE
 10
0.0
 20
0.0
 30
0.0
  9
$EXTMIN
 10
-210.0
 20
-148.5
 30
0.0
  9
$EXTMAX
 10
630.0
 20
445.5
 30
0.0
  9
$LIMMIN
 10
-210.0
 20
-148.5
  9
$LIMMAX
 10
630.0
 20
445.5
  9
$ORTHOMODE
 70
     0
  9
$REGENMODE
 70
     1
  9
$FILLMODE
 70
     1
  9
$QTEXTMODE
 70
     0
  9
$MIRRTEXT
 70
     1
  9
$DRAGMODE
 70
     2
  9
$LTSCALE
 40
2.0
  9
$OSMODE
 70
     0
  9
$ATTMODE
 70
     1
  9
$TEXTSIZE
 40
0.2
  9
$TRACEWID
 40
0.05
  9
$TEXTSTYLE
  7
STANDARD
  9
$CLAYER
  8
0
  9
$CELTYPE
  6
BYLAYER
  9
$CECOLOR
 62
     7
  9
$DIMSCALE
 40
2.0
  9
$DIMASZ
 40
3.5
  9
$DIMEXO
 40
0.0625
  9
$DIMDLI
 40
0.38
  9
$DIMRND
 40
0.0
  9
$DIMDLE
 40
0.0
  9
$DIMEXE
 40
0.18
  9
$DIMTP
 40
0.0
  9
$DIMTM
 40
0.0
  9
$DIMTXT
 40
3.5
  9
$DIMCEN
 40
0.09
  9
$DIMTSZ
 40
0.0
  9
$DIMTOL
 70
     0
  9
$DIMLIM
 70
     0
  9
$DIMTIH
 70
     1
  9
$DIMTOH
 70
     1
  9
$DIMSE1
 70
     0
  9
$DIMSE2
 70
     0
  9
$DIMTAD
 70
     1
  9
$DIMZIN
 70
     0
  9
$DIMBLK
  1

  9
$DIMASO
 70
     1
  9
$DIMSHO
 70
     1
  9
$DIMPOST
  1

  9
$DIMAPOST
  1

  9
$DIMALT
 70
     0
  9
$DIMALTD
 70
     2
  9
$DIMALTF
 40
25.4
  9
$DIMLFAC
 40
1.0
  9
$DIMTOFL
 70
     0
  9
$DIMTVP
 40
0.0
  9
$DIMTIX
 70
     0
  9
$DIMSOXD
 70
     0
  9
$DIMSAH
 70
     0
  9
$DIMBLK1
  1

  9
$DIMBLK2
  1

  9
$DIMSTYLE
  2
STANDARD
  9
$DIMCLRD
 70
     0
  9
$DIMCLRE
 70
     0
  9
$DIMCLRT
 70
     0
  9
$DIMTFAC
 40
1.0
  9
$DIMGAP
 40
0.09
  9
$LUNITS
 70
     2
  9
$LUPREC
 70
     2
  9
$AXISMODE
 70
     0
  9
$AXISUNIT
 10
0.0
 20
0.0
  9
$SKETCHINC
 40
0.1
  9
$FILLETRAD
 40
0.0
  9
$AUNITS
 70
     0
  9
$AUPREC
 70
     0
  9
$MENU
  1
acad
  9
$ELEVATION
 40
0.0
  9
$PELEVATION
 40
0.0
  9
$THICKNESS
 40
0.0
  9
$LIMCHECK
 70
     0
  9
$BLIPMODE
 70
     1
  9
$CHAMFERA
 40
0.0
  9
$CHAMFERB
 40
0.0
  9
$SKPOLY
 70
     0
  9
$TDCREATE
 40
0.000000000
  9
$TDUPDATE
 40
0.000000000
  9
$TDINDWG
 40
0.0000000000
  9
$TDUSRTIMER
 40
0.0000000000
  9
$USRTIMER
 70
     1
  9
$ANGBASE
 50
0.0
  9
$ANGDIR
 70
     0
  9
$PDMODE
 70
     0
  9
$PDSIZE
 40
0.0
  9
$PLINEWID
 40
0.0
  9
$COORDS
 70
     0
  9
$SPLFRAME
 70
     0
  9
$SPLINETYPE
 70
     6
  9
$SPLINESEGS
 70
     8
  9
$ATTDIA
 70
     0
  9
$ATTREQ
 70
     1
  9
$HANDLING
 70
     1
  9
$HANDSEED
  5
2CC
  9
$SURFTAB1
 70
     6
  9
$SURFTAB2
 70
     6
  9
$SURFTYPE
 70
     6
  9
$SURFU
 70
     6
  9
$SURFV
 70
     6
  9
$UCSNAME
  2

  9
$UCSORG
 10
0.0
 20
0.0
 30
0.0
  9
$UCSXDIR
 10
1.0
 20
0.0
 30
0.0
  9
$UCSYDIR
 10
0.0
 20
1.0
 30
0.0
  9
$PUCSNAME
  2

  9
$PUCSORG
 10
0.0
 20
0.0
 30
0.0
  9
$PUCSXDIR
 10
1.0
 20
0.0
 30
0.0
  9
$PUCSYDIR
 10
0.0
 20
1.0
 30
0.0
  9
$USERI1
 70
     0
  9
$USERI2
 70
     0
  9
$USERI3
 70
     0
  9
$USERI4
 70
     0
  9
$USERI5
 70
     0
  9
$USERR1
 40
0.0
  9
$USERR2
 40
0.0
  9
$USERR3
 40
0.0
  9
$USERR4
 40
0.0
  9
$USERR5
 40
0.0
  9
$WORLDVIEW
 70
     1
  9
$SHADEDGE
 70
     3
  9
$SHADEDIF
 70
    70
  9
$TILEMODE
 70
     1
  9
$MAXACTVP
 70
    16
  9
$PINSBASE
 10
0.0
 20
0.0
 30
0.0
  9
$PLIMCHECK
 70
     0
  9
$PEXTMIN
 10
1.000000E+20
 20
1.000000E+20
 30
1.000000E+20
  9
$PEXTMAX
 10
-1.000000E+20
 20
-1.000000E+20
 30
-1.000000E+20
  9
$PLIMMIN
 10
-210.0
 20
-148.5
  9
$PLIMMAX
 10
630.0
 20
445.5
  9
$UNITMODE
 70
     0
  9
$VISRETAIN
 70
     0
  9
$PLINEGEN
 70
     1
  9
$PSLTSCALE
 70
     0
  9
$TREEDEPTH
 70
  3020
  9
$DWGCODEPAGE
  3
dos850
  0
ENDSEC
  0
SECTION
  2
TABLES
  0
TABLE
  2
VPORT
 70
     1
  0
VPORT
  2
*ACTIVE
 70
     0
 10
0.0
 20
0.0
 11
1.0
 21
1.0
 12
420.0
 22
297.0
 13
0.0
 23
0.0
 14
1.0
 24
1.0
 15
0.0
 25
0.0
 16
0.0
 26
0.0
 36
1.0
 17
-210.0
 27
-148.5
 37
0.0
 40
594.0
 41
1.604229
 42
50.0
 43
0.0
 44
0.0
 50
0.0
 51
0.0
 71
     0
 72
   100
 73
     1
 74
     1
 75
     0
 76
     0
 77
     0
 78
     0
  0
ENDTAB
  0
TABLE
  2
LTYPE
 70
     3
  0
LTYPE
  2
CONTINUOUS
 70
    64
  3
Solid line
 72
    65
 73
     0
 40
0.0
  0
LTYPE
  2
DASHDOT
 70
    64
  3
__ . __ . __ . __ . __
 72
    65
 73
     4
 40
7.5
 49
5.0
 49
-1.25
 49
0.0
 49
-1.25
  0
LTYPE
  2
DASHED
 70
    64
  3
__ __ __ __ __
 72
    65
 73
     2
 40
6.25
 49
5.0
 49
-1.25
  0
ENDTAB
  0
TABLE
  2
LAYER
 70
    13
  0
LAYER
  2
0
 70
     0
 62
     7
  6
CONTINUOUS
  0
LAYER
  2
LC-INFO-1-2-MM-A3-0
 70
     1
 62
    -1
  6
CONTINUOUS
  0
LAYER
  2
LC-005-003-MTH-0
 70
     0
 62
     2
  6
CONTINUOUS
  0
LAYER
  2
LC-006-003-MTG-0
 70
     0
 62
     2
  6
CONTINUOUS
  0
LAYER
  2
LC-004-003-----0
 70
     0
 62
     2
  6
CONTINUOUS
  0
LAYER
  2
LC-008-005-----0
 70
     0
 62
     2
  6
CONTINUOUS
  0
LAYER
  2
LC-007-000-----0
 70
     0
 62
     7
  6
CONTINUOUS
  0
LAYER
  2
LC-009-000-----0
 70
     0
 62
     7
  6
CONTINUOUS
  0
LAYER
  2
LC-001-002-----0
 70
     0
 62
     1
  6
CONTINUOUS
  0
LAYER
  2
LC-002-002-RND-0
 70
     0
 62
     1
  6
CONTINUOUS
  0
LAYER
  2
LC-003-002-___-0
 70
     0
 62
     1
  6
CONTINUOUS
  0
LAYER
  2
LC-011-007-KH--0
 70
     0
 62
     7
  6
DASHDOT
  0
LAYER
  2
LC-000
 70
     0
 62
     7
  6
CONTINUOUS
  0
ENDTAB
  0
TABLE
  2
STYLE
 70
     5
  0
STYLE
  2
STANDARD
 70
     0
 40
0.0
 41
1.0
 50
0.0
 71
     0
 42
0.0
  3
txt
  4

  0
STYLE
  2
LC-STANDARD
 70
    64
 40
0.0
 41
1.0
 50
0.0
 71
     0
 42
3.5
  3
MONOTXT
  4

  0
STYLE
  2
LC-TXTSTYLE-150-400-0-0-A2
 70
    64
 40
0.0
 41
1.0
 50
15.0
 71
     0
 42
3.5
  3
MONOTXT
  4

  0
STYLE
  2
LC-TXTSTYLE-0-400-0-0-DIN3
 70
    64
 40
0.0
 41
1.0
 50
0.0
 71
     0
 42
3.5
  3
MONOTXT
  4

  0
STYLE
  2
LC-TXTSTYLE-150-400-0-0-D4
 70
    64
 40
0.0
 41
1.0
 50
15.0
 71
     0
 42
3.5
  3
LC-STANDARD
  4

  0
ENDTAB
  0
TABLE
  2
VIEW
 70
     0
  0
ENDTAB
  0
TABLE
  2
UCS
 70
     0
  0
ENDTAB
  0
TABLE
  2
APPID
 70
     1
  0
APPID
  2
ACAD
 70
     0
  0
ENDTAB
  0
TABLE
  2
DIMSTYLE
 70
     3
  0
DIMSTYLE
  2
STANDARD
 70
     0
  3

  4

  5

  6

  7

 40
1.0
 41
0.18
 42
0.0625
 43
0.38
 44
0.18
 45
0.0
 46
0.0
 47
0.0
 48
0.0
 71
     0
 72
     0
 73
     1
 74
     1
 75
     0
 76
     0
 77
     0
 78
     0
140
0.18
141
0.09
142
0.0
143
25.4
144
1.0
145
0.0
146
1.0
147
0.09
170
     0
171
     2
172
     0
173
     0
174
     0
175
     0
176
     0
177
     0
178
     0
  0
DIMSTYLE
  2
LC-STANDARD
 70
     0
  3

  4

  5

  6

  7

 40
1.0
 41
3.5
 42
0.0
 43
7.5
 44
1.8
 45
0.0
 46
0.0
 47
0.0
 48
0.0
 71
     0
 72
     0
 73
     0
 74
     0
 75
     0
 76
     0
 77
     1
 78
     8
140
3.5
141
0.0
142
0.0
143
25.4
144
1.0
145
0.0
146
0.71
147
1.5
170
     0
171
     2
172
     1
173
     0
174
     0
175
     0
176
     0
177
     0
178
     3
  0
DIMSTYLE
  2
LC-DIM-L-0140-02-02
 70
     0
  3

  4

  5

  6

  7

 40
2.0
 41
3.5
 42
0.0
 43
7.5
 44
1.8
 45
0.0
 46
0.0
 47
0.0
 48
0.0
 71
     0
 72
     0
 73
     0
 74
     0
 75
     0
 76
     0
 77
     1
 78
     8
140
14.0
141
0.0
142
0.0
143
25.4
144
1.0
145
0.0
146
0.71
147
1.5
170
     0
171
     2
172
     0
173
     0
174
     0
175
     0
176
     2
177
     2
178
     8
  0
ENDTAB
  0
ENDSEC
  0
SECTION
  2
BLOCKS
  0
BLOCK
  8
0
  5
24
  2
*D0
 70
    65
 10
0.0
 20
0.0
 30
0.0
  3
*D0
  0
LINE
  8
LC-005-003-MTH-0
  6
CONTINUOUS
  5
26
 10
-73.722155
 20
227.577875
 30
0.0
 11
-73.722155
 21
252.0
 31
0.0
  0
LINE
  8
LC-005-003-MTH-0
  6
CONTINUOUS
  5
27
 10
72.277845
 20
227.577875
 30
0.0
 11
72.277845
 21
252.0
 31
0.0
  0
LINE
  8
LC-006-003-MTG-0
  6
CONTINUOUS
  5
29
 10
-73.722155
 20
235.2
 30
0.0
 11
72.277845
 21
235.2
 31
0.0
  0
LINE
  8
LC-004-003-----0
  6
CONTINUOUS
  5
2B
 10
-45.961699
 20
238.854733
 30
0.0
 11
-73.722155
 21
235.2
 31
0.0
  0
LINE
  8
LC-004-003-----0
  6
CONTINUOUS
  5
2C
 10
-73.722155
 20
235.2
 30
0.0
 11
-45.961699
 21
231.545267
 31
0.0
  0
LINE
  8
LC-004-003-----0
  6
CONTINUOUS
  5
2D
 10
-45.961699
 20
231.545267
 30
0.0
 11
-45.961699
 21
238.854733
 31
0.0
  0
LINE
  8
LC-004-003-----0
  6
CONTINUOUS
  5
2E
 10
-45.899417
 20
237.904503
 30
0.0
 11
-66.442155
 21
235.2
 31
0.0
  0
LINE
  8
LC-004-003-----0
  6
CONTINUOUS
  5
2F
 10
-66.442155
 20
235.2
 30
0.0
 11
-45.899417
 21
232.495497
 31
0.0
  0
LINE
  8
LC-004-003-----0
  6
CONTINUOUS
  5
30
 10
-45.837136
 20
236.954272
 30
0.0
 11
-59.162155
 21
235.2
 31
0.0
  0
LINE
  8
LC-004-003-----0
  6
CONTINUOUS
  5
31
 10
-59.162155
 20
235.2
 30
0.0
 11
-45.837136
 21
233.445728
 31
0.0
  0
LINE
  8
LC-004-003-----0
  6
CONTINUOUS
  5
32
 10
-45.774855
 20
236.004041
 30
0.0
 11
-51.882155
 21
235.2
 31
0.0
  0
LINE
  8
LC-004-003-----0
  6
CONTINUOUS
  5
33
 10
-51.882155
 20
235.2
 30
0.0
 11
-45.774855
 21
234.395959
 31
0.0
  0
LINE
  8
LC-004-003-----0
  6
CONTINUOUS
  5
34
 10
44.517389
 20
231.545267
 30
0.0
 11
72.277845
 21
235.2
 31
0.0
  0
LINE
  8
LC-004-003-----0
  6
CONTINUOUS
  5
35
 10
72.277845
 20
235.2
 30
0.0
 11
44.517389
 21
238.854733
 31
0.0
  0
LINE
  8
LC-004-003-----0
  6
CONTINUOUS
  5
36
 10
44.517389
 20
238.854733
 30
0.0
 11
44.517389
 21
231.545267
 31
0.0
  0
LINE
  8
LC-004-003-----0
  6
CONTINUOUS
  5
37
 10
44.455108
 20
232.495497
 30
0.0
 11
64.997845
 21
235.2
 31
0.0
  0
LINE
  8
LC-004-003-----0
  6
CONTINUOUS
  5
38
 10
64.997845
 20
235.2
 30
0.0
 11
44.455108
 21
237.904503
 31
0.0
  0
LINE
  8
LC-004-003-----0
  6
CONTINUOUS
  5
39
 10
44.392826
 20
233.445728
 30
0.0
 11
57.717845
 21
235.2
 31
0.0
  0
LINE
  8
LC-004-003-----0
  6
CONTINUOUS
  5
3A
 10
57.717845
 20
235.2
 30
0.0
 11
44.392826
 21
236.954272
 31
0.0
  0
LINE
  8
LC-004-003-----0
  6
CONTINUOUS
  5
3B
 10
44.330545
 20
234.395959
 30
0.0
 11
50.437845
 21
235.2
 31
0.0
  0
LINE
  8
LC-004-003-----0
  6
CONTINUOUS
  5
3C
 10
50.437845
 20
235.2
 30
0.0
 11
44.330545
 21
236.004041
 31
0.0
  0
TEXT
  8
LC-004-003-----0
  6
CONTINUOUS
 62
     8
  5
3E
 10
-26.137774
 20
243.027554
 30
0.0
 40
28.0
  1
146
 41
0.9
 51
15.0
  7
LC-TXTSTYLE-150-400-0-0-D0
 72
     1
 11
3.626005
 21
243.027554
 31
0.0
  0
ENDBLK
  8
0
  5
3F
  0
BLOCK
  8
0
  5
41
  2
*D1
 70
    65
 10
0.0
 20
0.0
 30
0.0
  3
*D1
  0
LINE
  8
LC-005-003-MTH-0
  6
CONTINUOUS
  5
42
 10
-103.722155
 20
225.577875
 30
0.0
 11
-103.722155
 21
291.2
 31
0.0
  0
LINE
  8
LC-005-003-MTH-0
  6
CONTINUOUS
  5
43
 10
102.277845
 20
225.577875
 30
0.0
 11
102.277845
 21
291.2
 31
0.0
  0
LINE
  8
LC-006-003-MTG-0
  6
CONTINUOUS
  5
44
 10
-103.722155
 20
274.4
 30
0.0
 11
102.277845
 21
274.4
 31
0.0
  0
LINE
  8
LC-004-003-----0
  6
CONTINUOUS
  5
45
 10
-75.961699
 20
278.054733
 30
0.0
 11
-103.722155
 21
274.4
 31
0.0
  0
LINE
  8
LC-004-003-----0
  6
CONTINUOUS
  5
46
 10
-103.722155
 20
274.4
 30
0.0
 11
-75.961699
 21
270.745267
 31
0.0
  0
LINE
  8
LC-004-003-----0
  6
CONTINUOUS
  5
47
 10
-75.961699
 20
270.745267
 30
0.0
 11
-75.961699
 21
278.054733
 31
0.0
  0
LINE
  8
LC-004-003-----0
  6
CONTINUOUS
  5
48
 10
-75.899417
 20
277.104503
 30
0.0
 11
-96.442155
 21
274.4
 31
0.0
  0
LINE
  8
LC-004-003-----0
  6
CONTINUOUS
  5
49
 10
-96.442155
 20
274.4
 30
0.0
 11
-75.899417
 21
271.695497
 31
0.0
  0
LINE
  8
LC-004-003-----0
  6
CONTINUOUS
  5
4A
 10
-75.837136
 20
276.154272
 30
0.0
 11
-89.162155
 21
274.4
 31
0.0
  0
LINE
  8
LC-004-003-----0
  6
CONTINUOUS
  5
4B
 10
-89.162155
 20
274.4
 30
0.0
 11
-75.837136
 21
272.645728
 31
0.0
  0
LINE
  8
LC-004-003-----0
  6
CONTINUOUS
  5
4C
 10
-75.774855
 20
275.204041
 30
0.0
 11
-81.882155
 21
274.4
 31
0.0
  0
LINE
  8
LC-004-003-----0
  6
CONTINUOUS
  5
4D
 10
-81.882155
 20
274.4
 30
0.0
 11
-75.774855
 21
273.595959
 31
0.0
  0
LINE
  8
LC-004-003-----0
  6
CONTINUOUS
  5
4E
 10
74.517389
 20
270.745267
 30
0.0
 11
102.277845
 21
274.4
 31
0.0
  0
LINE
  8
LC-004-003-----0
  6
CONTINUOUS
  5
4F
 10
102.277845
 20
274.4
 30
0.0
 11
74.517389
 21
278.054733
 31
0.0
  0
LINE
  8
LC-004-003-----0
  6
CONTINUOUS
  5
50
 10
74.517389
 20
278.054733
 30
0.0
 11
74.517389
 21
270.745267
 31
0.0
  0
LINE
  8
LC-004-003-----0
  6
CONTINUOUS
  5
51
 10
74.455108
 20
271.695497
 30
0.0
 11
94.997845
 21
274.4
 31
0.0
  0
LINE
  8
LC-004-003-----0
  6
CONTINUOUS
  5
52
 10
94.997845
 20
274.4
 30
0.0
 11
74.455108
 21
277.104503
 31
0.0
  0
LINE
  8
LC-004-003-----0
  6
CONTINUOUS
  5
53
 10
74.392826
 20
272.645728
 30
0.0
 11
87.717845
 21
274.4
 31
0.0
  0
LINE
  8
LC-004-003-----0
  6
CONTINUOUS
  5
54
 10
87.717845
 20
274.4
 30
0.0
 11
74.392826
 21
276.154272
 31
0.0
  0
LINE
  8
LC-004-003-----0
  6
CONTINUOUS
  5
55
 10
74.330545
 20
273.595959
 30
0.0
 11
80.437845
 21
274.4
 31
0.0
  0
LINE
  8
LC-004-003-----0
  6
CONTINUOUS
  5
56
 10
80.437845
 20
274.4
 30
0.0
 11
74.330545
 21
275.204041
 31
0.0
  0
TEXT
  8
LC-004-003-----0
  6
CONTINUOUS
 62
     8
  5
57
 10
-26.137774
 20
282.227554
 30
0.0
 40
28.0
  1
206
 51
15.0
  7
LC-TXTSTYLE-150-400-0-0-D0
 72
     1
 11
3.626005
 21
282.227554
 31
0.0
  0
ENDBLK
  8
0
  5
58
  0
BLOCK
  8
0
  5
5A
  2
*D2
 70
    65
 10
0.0
 20
0.0
 30
0.0
  3
*D2
  0
LINE
  8
LC-005-003-MTH-0
  6
CONTINUOUS
  5
5B
 10
-73.222155
 20
139.577875
 30
0.0
 11
-73.222155
 21
39.2
 31
0.0
  0
LINE
  8
LC-005-003-MTH-0
  6
CONTINUOUS
  5
5C
 10
71.777845
 20
139.577875
 30
0.0
 11
71.777845
 21
39.2
 31
0.0
  0
LINE
  8
LC-006-003-MTG-0
  6
CONTINUOUS
  5
5D
 10
-73.222155
 20
56.0
 30
0.0
 11
71.777845
 21
56.0
 31
0.0
  0
LINE
  8
LC-004-003-----0
  6
CONTINUOUS
  5
5E
 10
-45.461699
 20
59.654733
 30
0.0
 11
-73.222155
 21
56.0
 31
0.0
  0
LINE
  8
LC-004-003-----0
  6
CONTINUOUS
  5
5F
 10
-73.222155
 20
56.0
 30
0.0
 11
-45.461699
 21
52.345267
 31
0.0
  0
LINE
  8
LC-004-003-----0
  6
CONTINUOUS
  5
60
 10
-45.461699
 20
52.345267
 30
0.0
 11
-45.461699
 21
59.654733
 31
0.0
  0
LINE
  8
LC-004-003-----0
  6
CONTINUOUS
  5
61
 10
-45.399417
 20
58.704503
 30
0.0
 11
-65.942155
 21
56.0
 31
0.0
  0
LINE
  8
LC-004-003-----0
  6
CONTINUOUS
  5
62
 10
-65.942155
 20
56.0
 30
0.0
 11
-45.399417
 21
53.295497
 31
0.0
  0
LINE
  8
LC-004-003-----0
  6
CONTINUOUS
  5
63
 10
-45.337136
 20
57.754272
 30
0.0
 11
-58.662155
 21
56.0
 31
0.0
  0
LINE
  8
LC-004-003-----0
  6
CONTINUOUS
  5
64
 10
-58.662155
 20
56.0
 30
0.0
 11
-45.337136
 21
54.245728
 31
0.0
  0
LINE
  8
LC-004-003-----0
  6
CONTINUOUS
  5
65
 10
-45.274855
 20
56.804041
 30
0.0
 11
-51.382155
 21
56.0
 31
0.0
  0
LINE
  8
LC-004-003-----0
  6
CONTINUOUS
  5
66
 10
-51.382155
 20
56.0
 30
0.0
 11
-45.274855
 21
55.195959
 31
0.0
  0
LINE
  8
LC-004-003-----0
  6
CONTINUOUS
  5
67
 10
44.017389
 20
52.345267
 30
0.0
 11
71.777845
 21
56.0
 31
0.0
  0
LINE
  8
LC-004-003-----0
  6
CONTINUOUS
  5
68
 10
71.777845
 20
56.0
 30
0.0
 11
44.017389
 21
59.654733
 31
0.0
  0
LINE
  8
LC-004-003-----0
  6
CONTINUOUS
  5
69
 10
44.017389
 20
59.654733
 30
0.0
 11
44.017389
 21
52.345267
 31
0.0
  0
LINE
  8
LC-004-003-----0
  6
CONTINUOUS
  5
6A
 10
43.955108
 20
53.295497
 30
0.0
 11
64.497845
 21
56.0
 31
0.0
  0
LINE
  8
LC-004-003-----0
  6
CONTINUOUS
  5
6B
 10
64.497845
 20
56.0
 30
0.0
 11
43.955108
 21
58.704503
 31
0.0
  0
LINE
  8
LC-004-003-----0
  6
CONTINUOUS
  5
6C
 10
43.892826
 20
54.245728
 30
0.0
 11
57.217845
 21
56.0
 31
0.0
  0
LINE
  8
LC-004-003-----0
  6
CONTINUOUS
  5
6D
 10
57.217845
 20
56.0
 30
0.0
 11
43.892826
 21
57.754272
 31
0.0
  0
LINE
  8
LC-004-003-----0
  6
CONTINUOUS
  5
6E
 10
43.830545
 20
55.195959
 30
0.0
 11
49.937845
 21
56.0
 31
0.0
  0
LINE
  8
LC-004-003-----0
  6
CONTINUOUS
  5
6F
 10
49.937845
 20
56.0
 30
0.0
 11
43.830545
 21
56.804041
 31
0.0
  0
TEXT
  8
LC-004-003-----0
  6
CONTINUOUS
 62
     8
  5
70
 10
-42.805491
 20
72.227554
 30
0.0
 40
28.0
  1
Ø145 
 51
15.0
  7
LC-TXTSTYLE-150-400-0-0-D0
 72
     1
 11
3.626005
 21
72.227554
 31
0.0
  0
ENDBLK
  8
0
  5
71
  0
BLOCK
  8
0
  5
73
  2
BLK1
 70
    64
 10
0.0
 20
0.0
 30
0.0
  3
BLK1
  0
ENDBLK
  8
0
  5
74
  0
BLOCK
  8
0
  5
76
  2
BLK2
 70
    64
 10
0.0
 20
0.0
 30
0.0
  3
BLK2
  0
ENDBLK
  8
0
  5
77
  0
BLOCK
  8
0
  5
79
  2
BLK3
 70
    64
 10
0.0
 20
0.0
 30
0.0
  3
BLK3
  0
ENDBLK
  8
0
  5
7A
  0
BLOCK
  8
0
  5
7C
  2
BLK4
 70
    64
 10
0.0
 20
0.0
 30
0.0
  3
BLK4
  0
ENDBLK
  8
0
  5
7D
  0
BLOCK
  8
0
  5
7F
  2
BLK5
 70
    64
 10
0.0
 20
0.0
 30
0.0
  3
BLK5
  0
ENDBLK
  8
0
  5
80
  0
BLOCK
  8
0
  5
82
  2
BLK6
 70
    64
 10
0.0
 20
0.0
 30
0.0
  3
BLK6
  0
ENDBLK
  8
0
  5
83
  0
BLOCK
  8
0
  5
85
  2
BLK7
 70
    64
 10
0.0
 20
0.0
 30
0.0
  3
BLK7
  0
ENDBLK
  8
0
  5
86
  0
BLOCK
  8
0
  5
88
  2
BLK8
 70
    64
 10
0.0
 20
0.0
 30
0.0
  3
BLK8
  0
ENDBLK
  8
0
  5
89
  0
BLOCK
  8
0
  5
8B
  2
BLK9
 70
    64
 10
0.0
 20
0.0
 30
0.0
  3
BLK9
  0
ENDBLK
  8
0
  5
8C
  0
BLOCK
  8
0
  5
8E
  2
BLK10
 70
    64
 10
0.0
 20
0.0
 30
0.0
  3
BLK10
  0
ENDBLK
  8
0
  5
8F
  0
BLOCK
  8
0
  5
91
  2
BLK11
 70
    64
 10
0.0
 20
0.0
 30
0.0
  3
BLK11
  0
ENDBLK
  8
0
  5
92
  0
BLOCK
  8
0
  5
94
  2
BLK12
 70
    64
 10
0.0
 20
0.0
 30
0.0
  3
BLK12
  0
ENDBLK
  8
0
  5
95
  0
BLOCK
  8
0
  5
97
  2
*X15
 70
    65
 10
-70.222155
 20
137.577875
 30
0.0
  3
*X15
  0
LINE
  8
LC-008-005-----0
  6
CONTINUOUS
  5
99
 10
-3.843481
 20
137.577875
 30
0.0
 11
-0.722155
 21
140.699201
 31
0.0
  0
LINE
  8
LC-008-005-----0
  6
CONTINUOUS
  5
9A
 10
-9.500335
 20
137.577875
 30
0.0
 11
-0.722155
 21
146.356056
 31
0.0
  0
LINE
  8
LC-008-005-----0
  6
CONTINUOUS
  5
9B
 10
-15.15719
 20
137.577875
 30
0.0
 11
-0.722155
 21
152.01291
 31
0.0
  0
LINE
  8
LC-008-005-----0
  6
CONTINUOUS
  5
9C
 10
-20.814044
 20
137.577875
 30
0.0
 11
-0.722155
 21
157.669764
 31
0.0
  0
LINE
  8
LC-008-005-----0
  6
CONTINUOUS
  5
9D
 10
-26.470898
 20
137.577875
 30
0.0
 11
-3.470898
 21
160.577875
 31
0.0
  0
LINE
  8
LC-008-005-----0
  6
CONTINUOUS
  5
9E
 10
-32.127752
 20
137.577875
 30
0.0
 11
-9.127752
 21
160.577875
 31
0.0
  0
LINE
  8
LC-008-005-----0
  6
CONTINUOUS
  5
9F
 10
-37.784607
 20
137.577875
 30
0.0
 11
-14.784607
 21
160.577875
 31
0.0
  0
LINE
  8
LC-008-005-----0
  6
CONTINUOUS
  5
A0
 10
-43.441461
 20
137.577875
 30
0.0
 11
-20.441461
 21
160.577875
 31
0.0
  0
LINE
  8
LC-008-005-----0
  6
CONTINUOUS
  5
A1
 10
-49.098315
 20
137.577875
 30
0.0
 11
-26.098315
 21
160.577875
 31
0.0
  0
LINE
  8
LC-008-005-----0
  6
CONTINUOUS
  5
A2
 10
-54.755169
 20
137.577875
 30
0.0
 11
-31.755169
 21
160.577875
 31
0.0
  0
LINE
  8
LC-008-005-----0
  6
CONTINUOUS
  5
A3
 10
-60.412024
 20
137.577875
 30
0.0
 11
-37.412024
 21
160.577875
 31
0.0
  0
LINE
  8
LC-008-005-----0
  6
CONTINUOUS
  5
A4
 10
-66.068878
 20
137.577875
 30
0.0
 11
-43.068878
 21
160.577875
 31
0.0
  0
LINE
  8
LC-008-005-----0
  6
CONTINUOUS
  5
A5
 10
-70.222155
 20
139.081452
 30
0.0
 11
-48.725732
 21
160.577875
 31
0.0
  0
LINE
  8
LC-008-005-----0
  6
CONTINUOUS
  5
A6
 10
-70.222155
 20
144.738307
 30
0.0
 11
-54.382586
 21
160.577875
 31
0.0
  0
LINE
  8
LC-008-005-----0
  6
CONTINUOUS
  5
A7
 10
-70.222155
 20
150.395161
 30
0.0
 11
-60.039441
 21
160.577875
 31
0.0
  0
LINE
  8
LC-008-005-----0
  6
CONTINUOUS
  5
A8
 10
-70.222155
 20
156.052015
 30
0.0
 11
-65.696295
 21
160.577875
 31
0.0
  0
LINE
  8
LC-008-005-----0
  6
CONTINUOUS
  5
A9
 10
-0.722155
 20
159.114074
 30
0.0
 11
-2.185956
 21
160.577875
 31
0.0
  0
LINE
  8
LC-008-005-----0
  6
CONTINUOUS
  5
AA
 10
-0.722155
 20
153.45722
 30
0.0
 11
-7.84281
 21
160.577875
 31
0.0
  0
LINE
  8
LC-008-005-----0
  6
CONTINUOUS
  5
AB
 10
-0.722155
 20
147.800365
 30
0.0
 11
-13.499665
 21
160.577875
 31
0.0
  0
LINE
  8
LC-008-005-----0
  6
CONTINUOUS
  5
AC
 10
-0.722155
 20
142.143511
 30
0.0
 11
-19.156519
 21
160.577875
 31
0.0
  0
LINE
  8
LC-008-005-----0
  6
CONTINUOUS
  5
AD
 10
-1.813373
 20
137.577875
 30
0.0
 11
-24.813373
 21
160.577875
 31
0.0
  0
LINE
  8
LC-008-005-----0
  6
CONTINUOUS
  5
AE
 10
-7.470227
 20
137.577875
 30
0.0
 11
-30.470227
 21
160.577875
 31
0.0
  0
LINE
  8
LC-008-005-----0
  6
CONTINUOUS
  5
AF
 10
-13.127082
 20
137.577875
 30
0.0
 11
-36.127082
 21
160.577875
 31
0.0
  0
LINE
  8
LC-008-005-----0
  6
CONTINUOUS
  5
B0
 10
-18.783936
 20
137.577875
 30
0.0
 11
-41.783936
 21
160.577875
 31
0.0
  0
LINE
  8
LC-008-005-----0
  6
CONTINUOUS
  5
B1
 10
-24.44079
 20
137.577875
 30
0.0
 11
-47.44079
 21
160.577875
 31
0.0
  0
LINE
  8
LC-008-005-----0
  6
CONTINUOUS
  5
B2
 10
-30.097644
 20
137.577875
 30
0.0
 11
-53.097644
 21
160.577875
 31
0.0
  0
LINE
  8
LC-008-005-----0
  6
CONTINUOUS
  5
B3
 10
-35.754499
 20
137.577875
 30
0.0
 11
-58.754499
 21
160.577875
 31
0.0
  0
LINE
  8
LC-008-005-----0
  6
CONTINUOUS
  5
B4
 10
-41.411353
 20
137.577875
 30
0.0
 11
-64.411353
 21
160.577875
 31
0.0
  0
LINE
  8
LC-008-005-----0
  6
CONTINUOUS
  5
B5
 10
-47.068207
 20
137.577875
 30
0.0
 11
-70.068207
 21
160.577875
 31
0.0
  0
LINE
  8
LC-008-005-----0
  6
CONTINUOUS
  5
B6
 10
-52.725061
 20
137.577875
 30
0.0
 11
-70.222155
 21
155.074969
 31
0.0
  0
LINE
  8
LC-008-005-----0
  6
CONTINUOUS
  5
B7
 10
-58.381916
 20
137.577875
 30
0.0
 11
-70.222155
 21
149.418114
 31
0.0
  0
LINE
  8
LC-008-005-----0
  6
CONTINUOUS
  5
B8
 10
-64.03877
 20
137.577875
 30
0.0
 11
-70.222155
 21
143.76126
 31
0.0
  0
LINE
  8
LC-008-005-----0
  6
CONTINUOUS
  5
B9
 10
-69.695624
 20
137.577875
 30
0.0
 11
-70.222155
 21
138.104406
 31
0.0
  0
ENDBLK
  8
0
  5
BA
  0
BLOCK
  8
0
  5
BC
  2
*X16
 70
    65
 10
-0.722155
 20
137.577875
 30
0.0
  3
*X16
  0
LINE
  8
LC-008-005-----0
  6
CONTINUOUS
  5
BD
 10
64.03877
 20
137.577875
 30
0.0
 11
68.777845
 21
142.31695
 31
0.0
  0
LINE
  8
LC-008-005-----0
  6
CONTINUOUS
  5
BE
 10
58.381916
 20
137.577875
 30
0.0
 11
68.777845
 21
147.973805
 31
0.0
  0
LINE
  8
LC-008-005-----0
  6
CONTINUOUS
  5
BF
 10
52.725061
 20
137.577875
 30
0.0
 11
68.777845
 21
153.630659
 31
0.0
  0
LINE
  8
LC-008-005-----0
  6
CONTINUOUS
  5
C0
 10
47.068207
 20
137.577875
 30
0.0
 11
68.777845
 21
159.287513
 31
0.0
  0
LINE
  8
LC-008-005-----0
  6
CONTINUOUS
  5
C1
 10
41.411353
 20
137.577875
 30
0.0
 11
64.411353
 21
160.577875
 31
0.0
  0
LINE
  8
LC-008-005-----0
  6
CONTINUOUS
  5
C2
 10
35.754499
 20
137.577875
 30
0.0
 11
58.754499
 21
160.577875
 31
0.0
  0
LINE
  8
LC-008-005-----0
  6
CONTINUOUS
  5
C3
 10
30.097644
 20
137.577875
 30
0.0
 11
53.097644
 21
160.577875
 31
0.0
  0
LINE
  8
LC-008-005-----0
  6
CONTINUOUS
  5
C4
 10
24.44079
 20
137.577875
 30
0.0
 11
47.44079
 21
160.577875
 31
0.0
  0
LINE
  8
LC-008-005-----0
  6
CONTINUOUS
  5
C5
 10
18.783936
 20
137.577875
 30
0.0
 11
41.783936
 21
160.577875
 31
0.0
  0
LINE
  8
LC-008-005-----0
  6
CONTINUOUS
  5
C6
 10
13.127082
 20
137.577875
 30
0.0
 11
36.127082
 21
160.577875
 31
0.0
  0
LINE
  8
LC-008-005-----0
  6
CONTINUOUS
  5
C7
 10
7.470227
 20
137.577875
 30
0.0
 11
30.470227
 21
160.577875
 31
0.0
  0
LINE
  8
LC-008-005-----0
  6
CONTINUOUS
  5
C8
 10
1.813373
 20
137.577875
 30
0.0
 11
24.813373
 21
160.577875
 31
0.0
  0
LINE
  8
LC-008-005-----0
  6
CONTINUOUS
  5
C9
 10
-0.722155
 20
140.699201
 30
0.0
 11
19.156519
 21
160.577875
 31
0.0
  0
LINE
  8
LC-008-005-----0
  6
CONTINUOUS
  5
CA
 10
-0.722155
 20
146.356056
 30
0.0
 11
13.499665
 21
160.577875
 31
0.0
  0
LINE
  8
LC-008-005-----0
  6
CONTINUOUS
  5
CB
 10
-0.722155
 20
152.01291
 30
0.0
 11
7.84281
 21
160.577875
 31
0.0
  0
LINE
  8
LC-008-005-----0
  6
CONTINUOUS
  5
CC
 10
-0.722155
 20
157.669764
 30
0.0
 11
2.185956
 21
160.577875
 31
0.0
  0
LINE
  8
LC-008-005-----0
  6
CONTINUOUS
  5
CD
 10
68.777845
 20
157.496325
 30
0.0
 11
65.696295
 21
160.577875
 31
0.0
  0
LINE
  8
LC-008-005-----0
  6
CONTINUOUS
  5
CE
 10
68.777845
 20
151.839471
 30
0.0
 11
60.039441
 21
160.577875
 31
0.0
  0
LINE
  8
LC-008-005-----0
  6
CONTINUOUS
  5
CF
 10
68.777845
 20
146.182616
 30
0.0
 11
54.382586
 21
160.577875
 31
0.0
  0
LINE
  8
LC-008-005-----0
  6
CONTINUOUS
  5
D0
 10
68.777845
 20
140.525762
 30
0.0
 11
48.725732
 21
160.577875
 31
0.0
  0
LINE
  8
LC-008-005-----0
  6
CONTINUOUS
  5
D1
 10
66.068878
 20
137.577875
 30
0.0
 11
43.068878
 21
160.577875
 31
0.0
  0
LINE
  8
LC-008-005-----0
  6
CONTINUOUS
  5
D2
 10
60.412024
 20
137.577875
 30
0.0
 11
37.412024
 21
160.577875
 31
0.0
  0
LINE
  8
LC-008-005-----0
  6
CONTINUOUS
  5
D3
 10
54.755169
 20
137.577875
 30
0.0
 11
31.755169
 21
160.577875
 31
0.0
  0
LINE
  8
LC-008-005-----0
  6
CONTINUOUS
  5
D4
 10
49.098315
 20
137.577875
 30
0.0
 11
26.098315
 21
160.577875
 31
0.0
  0
LINE
  8
LC-008-005-----0
  6
CONTINUOUS
  5
D5
 10
43.441461
 20
137.577875
 30
0.0
 11
20.441461
 21
160.577875
 31
0.0
  0
LINE
  8
LC-008-005-----0
  6
CONTINUOUS
  5
D6
 10
37.784607
 20
137.577875
 30
0.0
 11
14.784607
 21
160.577875
 31
0.0
  0
LINE
  8
LC-008-005-----0
  6
CONTINUOUS
  5
D7
 10
32.127752
 20
137.577875
 30
0.0
 11
9.127752
 21
160.577875
 31
0.0
  0
LINE
  8
LC-008-005-----0
  6
CONTINUOUS
  5
D8
 10
26.470898
 20
137.577875
 30
0.0
 11
3.470898
 21
160.577875
 31
0.0
  0
LINE
  8
LC-008-005-----0
  6
CONTINUOUS
  5
D9
 10
20.814044
 20
137.577875
 30
0.0
 11
-0.722155
 21
159.114074
 31
0.0
  0
LINE
  8
LC-008-005-----0
  6
CONTINUOUS
  5
DA
 10
15.15719
 20
137.577875
 30
0.0
 11
-0.722155
 21
153.45722
 31
0.0
  0
LINE
  8
LC-008-005-----0
  6
CONTINUOUS
  5
DB
 10
9.500335
 20
137.577875
 30
0.0
 11
-0.722155
 21
147.800365
 31
0.0
  0
LINE
  8
LC-008-005-----0
  6
CONTINUOUS
  5
DC
 10
3.843481
 20
137.577875
 30
0.0
 11
-0.722155
 21
142.143511
 31
0.0
  0
ENDBLK
  8
0
  5
DD
  0
BLOCK
  8
0
  5
DF
  2
*D17
 70
    65
 10
0.0
 20
0.0
 30
0.0
  3
*D17
  0
LINE
  8
LC-005-003-MTH-0
  6
CONTINUOUS
  5
E0
 10
68.777845
 20
137.577875
 30
0.0
 11
134.4
 21
137.577875
 31
0.0
  0
LINE
  8
LC-005-003-MTH-0
  6
CONTINUOUS
  5
E1
 10
68.777845
 20
160.577875
 30
0.0
 11
134.4
 21
160.577875
 31
0.0
  0
LINE
  8
LC-004-003-----0
  6
CONTINUOUS
  5
E2
 10
121.254733
 20
109.817419
 30
0.0
 11
117.6
 21
137.577875
 31
0.0
  0
LINE
  8
LC-004-003-----0
  6
CONTINUOUS
  5
E3
 10
117.6
 20
137.577875
 30
0.0
 11
113.945267
 21
109.817419
 31
0.0
  0
LINE
  8
LC-004-003-----0
  6
CONTINUOUS
  5
E4
 10
113.945267
 20
109.817419
 30
0.0
 11
121.254733
 21
109.817419
 31
0.0
  0
LINE
  8
LC-004-003-----0
  6
CONTINUOUS
  5
E5
 10
120.304503
 20
109.755137
 30
0.0
 11
117.6
 21
130.297875
 31
0.0
  0
LINE
  8
LC-004-003-----0
  6
CONTINUOUS
  5
E6
 10
117.6
 20
130.297875
 30
0.0
 11
114.895497
 21
109.755137
 31
0.0
  0
LINE
  8
LC-004-003-----0
  6
CONTINUOUS
  5
E7
 10
119.354272
 20
109.692856
 30
0.0
 11
117.6
 21
123.017875
 31
0.0
  0
LINE
  8
LC-004-003-----0
  6
CONTINUOUS
  5
E8
 10
117.6
 20
123.017875
 30
0.0
 11
115.845728
 21
109.692856
 31
0.0
  0
LINE
  8
LC-004-003-----0
  6
CONTINUOUS
  5
E9
 10
118.404041
 20
109.630575
 30
0.0
 11
117.6
 21
115.737875
 31
0.0
  0
LINE
  8
LC-004-003-----0
  6
CONTINUOUS
  5
EA
 10
117.6
 20
115.737875
 30
0.0
 11
116.795959
 21
109.630575
 31
0.0
  0
LINE
  8
LC-004-003-----0
  6
CONTINUOUS
  5
EB
 10
113.945267
 20
188.338331
 30
0.0
 11
117.6
 21
160.577875
 31
0.0
  0
LINE
  8
LC-004-003-----0
  6
CONTINUOUS
  5
EC
 10
117.6
 20
160.577875
 30
0.0
 11
121.254733
 21
188.338331
 31
0.0
  0
LINE
  8
LC-004-003-----0
  6
CONTINUOUS
  5
ED
 10
121.254733
 20
188.338331
 30
0.0
 11
113.945267
 21
188.338331
 31
0.0
  0
LINE
  8
LC-004-003-----0
  6
CONTINUOUS
  5
EE
 10
114.895497
 20
188.400613
 30
0.0
 11
117.6
 21
167.857875
 31
0.0
  0
LINE
  8
LC-004-003-----0
  6
CONTINUOUS
  5
EF
 10
117.6
 20
167.857875
 30
0.0
 11
120.304503
 21
188.400613
 31
0.0
  0
LINE
  8
LC-004-003-----0
  6
CONTINUOUS
  5
F0
 10
115.845728
 20
188.462894
 30
0.0
 11
117.6
 21
175.137875
 31
0.0
  0
LINE
  8
LC-004-003-----0
  6
CONTINUOUS
  5
F1
 10
117.6
 20
175.137875
 30
0.0
 11
119.354272
 21
188.462894
 31
0.0
  0
LINE
  8
LC-004-003-----0
  6
CONTINUOUS
  5
F2
 10
116.795959
 20
188.525175
 30
0.0
 11
117.6
 21
182.417875
 31
0.0
  0
LINE
  8
LC-004-003-----0
  6
CONTINUOUS
  5
F3
 10
117.6
 20
182.417875
 30
0.0
 11
118.404041
 21
188.525175
 31
0.0
  0
LINE
  8
LC-006-003-MTG-0
  6
CONTINUOUS
  5
F4
 10
117.6
 20
98.377875
 30
0.0
 11
117.6
 21
243.942275
 31
0.0
  0
TEXT
  8
LC-004-003-----0
  6
CONTINUOUS
 62
     8
  5
F5
 10
109.772446
 20
203.006035
 30
0.0
 40
28.0
  1
23
 50
90.0
 51
15.0
  7
LC-TXTSTYLE-150-400-0-0-D0
  0
ENDBLK
  8
0
  5
F6
  0
BLOCK
  8
0
  5
F8
  2
*D18
 70
    65
 10
0.0
 20
0.0
 30
0.0
  3
*D18
  0
LINE
  8
LC-005-003-MTH-0
  6
CONTINUOUS
  5
F9
 10
68.777845
 20
160.577875
 30
0.0
 11
173.6
 21
160.577875
 31
0.0
  0
LINE
  8
LC-005-003-MTH-0
  6
CONTINUOUS
  5
FA
 10
102.277845
 20
225.577875
 30
0.0
 11
173.6
 21
225.577875
 31
0.0
  0
LINE
  8
LC-006-003-MTG-0
  6
CONTINUOUS
  5
FB
 10
156.8
 20
160.577875
 30
0.0
 11
156.8
 21
225.577875
 31
0.0
  0
LINE
  8
LC-004-003-----0
  6
CONTINUOUS
  5
FC
 10
153.145267
 20
188.338331
 30
0.0
 11
156.8
 21
160.577875
 31
0.0
  0
LINE
  8
LC-004-003-----0
  6
CONTINUOUS
  5
FD
 10
156.8
 20
160.577875
 30
0.0
 11
160.454733
 21
188.338331
 31
0.0
  0
LINE
  8
LC-004-003-----0
  6
CONTINUOUS
  5
FE
 10
160.454733
 20
188.338331
 30
0.0
 11
153.145267
 21
188.338331
 31
0.0
  0
LINE
  8
LC-004-003-----0
  6
CONTINUOUS
  5
FF
 10
154.095497
 20
188.400613
 30
0.0
 11
156.8
 21
167.857875
 31
0.0
  0
LINE
  8
LC-004-003-----0
  6
CONTINUOUS
  5
100
 10
156.8
 20
167.857875
 30
0.0
 11
159.504503
 21
188.400613
 31
0.0
  0
LINE
  8
LC-004-003-----0
  6
CONTINUOUS
  5
101
 10
155.045728
 20
188.462894
 30
0.0
 11
156.8
 21
175.137875
 31
0.0
  0
LINE
  8
LC-004-003-----0
  6
CONTINUOUS
  5
102
 10
156.8
 20
175.137875
 30
0.0
 11
158.554272
 21
188.462894
 31
0.0
  0
LINE
  8
LC-004-003-----0
  6
CONTINUOUS
  5
103
 10
155.995959
 20
188.525175
 30
0.0
 11
156.8
 21
182.417875
 31
0.0
  0
LINE
  8
LC-004-003-----0
  6
CONTINUOUS
  5
104
 10
156.8
 20
182.417875
 30
0.0
 11
157.604041
 21
188.525175
 31
0.0
  0
LINE
  8
LC-004-003-----0
  6
CONTINUOUS
  5
105
 10
160.454733
 20
197.817419
 30
0.0
 11
156.8
 21
225.577875
 31
0.0
  0
LINE
  8
LC-004-003-----0
  6
CONTINUOUS
  5
106
 10
156.8
 20
225.577875
 30
0.0
 11
153.145267
 21
197.817419
 31
0.0
  0
LINE
  8
LC-004-003-----0
  6
CONTINUOUS
  5
107
 10
153.145267
 20
197.817419
 30
0.0
 11
160.454733
 21
197.817419
 31
0.0
  0
LINE
  8
LC-004-003-----0
  6
CONTINUOUS
  5
108
 10
159.504503
 20
197.755137
 30
0.0
 11
156.8
 21
218.297875
 31
0.0
  0
LINE
  8
LC-004-003-----0
  6
CONTINUOUS
  5
109
 10
156.8
 20
218.297875
 30
0.0
 11
154.095497
 21
197.755137
 31
0.0
  0
LINE
  8
LC-004-003-----0
  6
CONTINUOUS
  5
10A
 10
158.554272
 20
197.692856
 30
0.0
 11
156.8
 21
211.017875
 31
0.0
  0
LINE
  8
LC-004-003-----0
  6
CONTINUOUS
  5
10B
 10
156.8
 20
211.017875
 30
0.0
 11
155.045728
 21
197.692856
 31
0.0
  0
LINE
  8
LC-004-003-----0
  6
CONTINUOUS
  5
10C
 10
157.604041
 20
197.630575
 30
0.0
 11
156.8
 21
203.737875
 31
0.0
  0
LINE
  8
LC-004-003-----0
  6
CONTINUOUS
  5
10D
 10
156.8
 20
203.737875
 30
0.0
 11
155.995959
 21
197.630575
 31
0.0
  0
TEXT
  8
LC-004-003-----0
  6
CONTINUOUS
 62
     8
  5
10E
 10
148.972446
 20
164.476429
 30
0.0
 40
28.0
  1
6-65
 50
90.0
 51
15.0
  7
LC-TXTSTYLE-150-400-0-0-D0
 72
     1
 11
148.972446
 21
197.426035
 31
0.0
  0
ENDBLK
  8
0
  5
10F
  0
ENDSEC
  0
SECTION
  2
ENTITIES
  0
VIEWPORT
  8
LC-000
  5
2BC
 67
     1
 68
     1
 10
420.0
 20
297.0
 30
0.0
 40
840.0
 41
594.0
 69
     1
1001
ACAD
1000
MVIEW
1002
{
1070
    16
1010
0.0
1020
0.0
1030
0.0
1010
0.0
1020
0.0
1030
1.0
1040
0.0
1040
594.0
1040
420.0
1040
297.0
1040
50.0
1040
0.0
1040
0.0
1070
     0
1070
   100
1070
     1
1070
     1
1070
     0
1070
     0
1070
     0
1070
     0
1040
0.0
1040
0.0
1040
0.0
1040
1.0
1040
1.0
1040
0.0
1040
0.0
1070
     0
1002
{
1002
}
1002
}
  0
VIEWPORT
  8
0
  5
2BD
 67
     1
 68
     1
 10
0.0
 20
0.0
 30
0.0
 40
0.0
 41
0.0
 69
     1
1001
ACAD
1000
MVIEW
1002
{
1070
    16
1010
0.0
1020
0.0
1030
0.0
1010
0.0
1020
0.0
1030
1.0
1040
0.0
1040
594.0
1040
0.0
1040
0.0
1040
50.0
1040
0.0
1040
0.0
1070
     0
1070
   100
1070
     0
1070
     1
1070
     0
1070
     0
1070
     0
1070
     0
1040
0.0
1040
0.0
1040
0.0
1040
0.5
1040
0.5
1040
0.5
1040
0.5
1070
     0
1002
{
1002
}
1002
}
  0
DIMENSION
  8
0
  5
110
  2
*D0
 10
-0.722155
 20
235.2
 30
0.0
 11
-0.722155
 21
235.2
 31
0.0
  1
146
 13
-73.722155
 23
227.577875
 33
0.0
 14
72.277845
 24
227.577875
 34
0.0
  3
LC-DIM-L-0140-02-02
  0
DIMENSION
  8
0
  5
111
  2
*D1
 10
-0.722155
 20
274.4
 30
0.0
 11
-0.722155
 21
274.4
 31
0.0
 13
-103.722155
 23
225.577875
 33
0.0
 14
102.277845
 24
225.577875
 34
0.0
  3
LC-DIM-L-0140-02-02
  0
DIMENSION
  8
0
  5
112
  2
*D2
 10
-0.722155
 20
56.0
 30
0.0
 11
-0.722155
 21
56.0
 31
0.0
  1
%%c<> 
 13
-73.222155
 23
139.577875
 33
0.0
 14
71.777845
 24
139.577875
 34
0.0
  3
LC-DIM-L-0140-02-02
  0
INSERT
  8
0
  5
114
  2
BLK1
 10
0.0
 20
0.0
 30
0.0
  0
INSERT
  8
0
  5
116
  2
BLK2
 10
0.0
 20
0.0
 30
0.0
  0
INSERT
  8
0
  5
117
  2
BLK3
 10
0.0
 20
0.0
 30
0.0
  0
INSERT
  8
0
  5
118
  2
BLK4
 10
0.0
 20
0.0
 30
0.0
  0
INSERT
  8
0
  5
119
  2
BLK5
 10
0.0
 20
0.0
 30
0.0
  0
INSERT
  8
0
  5
11A
  2
BLK6
 10
0.0
 20
0.0
 30
0.0
  0
INSERT
  8
0
  5
11B
  2
BLK7
 10
0.0
 20
0.0
 30
0.0
  0
INSERT
  8
0
  5
11C
  2
BLK8
 10
0.0
 20
0.0
 30
0.0
  0
INSERT
  8
0
  5
11D
  2
BLK9
 10
0.0
 20
0.0
 30
0.0
  0
INSERT
  8
0
  5
11E
  2
BLK10
 10
0.0
 20
0.0
 30
0.0
  0
INSERT
  8
0
  5
11F
  2
BLK11
 10
0.0
 20
0.0
 30
0.0
  0
INSERT
  8
0
  5
120
  2
BLK12
 10
0.0
 20
0.0
 30
0.0
  0
INSERT
  8
0
  5
121
  2
*X15
 10
-70.222155
 20
137.577875
 30
0.0
  0
INSERT
  8
0
  5
122
  2
*X16
 10
-0.722155
 20
137.577875
 30
0.0
  0
DIMENSION
  8
0
  5
123
  2
*D17
 10
117.6
 20
149.077875
 30
0.0
 11
117.6
 21
149.077875
 31
0.0
 13
68.777845
 23
160.577875
 33
0.0
 14
68.777845
 24
137.577875
 34
0.0
 50
90.0
  3
LC-DIM-L-0140-02-02
  0
DIMENSION
  8
0
  5
124
  2
*D18
 10
156.8
 20
193.077875
 30
0.0
 11
156.8
 21
193.077875
 31
0.0
  1
6-65
 13
68.777845
 23
160.577875
 33
0.0
 14
102.277845
 24
225.577875
 34
0.0
 50
90.0
  3
LC-DIM-L-0140-02-02
  0
LINE
  8
LC-001-002-----0
  6
CONTINUOUS
  5
126
 10
72.277845
 20
227.577875
 30
0.0
 11
72.277845
 21
225.577875
 31
0.0
  0
LINE
  8
LC-001-002-----0
  6
CONTINUOUS
  5
127
 10
-73.222155
 20
213.077875
 30
0.0
 11
-73.222155
 21
198.988389
 31
0.0
  0
LINE
  8
LC-001-002-----0
  6
CONTINUOUS
  5
128
 10
-70.722155
 20
227.577875
 30
0.0
 11
68.777845
 21
227.577875
 31
0.0
  0
LINE
  8
LC-001-002-----0
  6
CONTINUOUS
  5
129
 10
68.777845
 20
216.577875
 30
0.0
 11
68.777845
 21
137.577875
 31
0.0
  0
LINE
  8
LC-001-002-----0
  6
CONTINUOUS
  5
12A
 10
-73.722155
 20
213.077875
 30
0.0
 11
-73.222155
 21
213.077875
 31
0.0
  0
LINE
  8
LC-001-002-----0
  6
CONTINUOUS
  5
12B
 10
-73.222155
 20
139.577875
 30
0.0
 11
-72.686257
 21
137.577875
 31
0.0
  0
LINE
  8
LC-001-002-----0
  6
CONTINUOUS
  5
12C
 10
203.777845
 20
255.577875
 30
0.0
 11
345.777845
 21
255.577875
 31
0.0
  0
LINE
  8
LC-001-002-----0
  6
CONTINUOUS
  5
12D
 10
347.777845
 20
253.577875
 30
0.0
 11
347.777845
 21
111.577875
 31
0.0
  0
LINE
  8
LC-001-002-----0
  6
CONTINUOUS
  5
12E
 10
345.777845
 20
109.577875
 30
0.0
 11
203.777845
 21
109.577875
 31
0.0
  0
LINE
  8
LC-001-002-----0
  6
CONTINUOUS
  5
12F
 10
201.777845
 20
111.577875
 30
0.0
 11
201.777845
 21
253.577875
 31
0.0
  0
ARC
  8
LC-002-002-RND-0
  6
CONTINUOUS
  5
131
 10
203.777845
 20
253.577875
 30
0.0
 40
2.0
 50
90.0
 51
180.0
  0
ARC
  8
LC-002-002-RND-0
  6
CONTINUOUS
  5
132
 10
345.777845
 20
253.577875
 30
0.0
 40
2.0
 50
0.0
 51
90.0
  0
ARC
  8
LC-002-002-RND-0
  6
CONTINUOUS
  5
133
 10
345.777845
 20
111.577875
 30
0.0
 40
2.0
 50
270.0
 51
0.0
  0
ARC
  8
LC-002-002-RND-0
  6
CONTINUOUS
  5
134
 10
203.777845
 20
111.577875
 30
0.0
 40
2.0
 50
180.0
 51
270.0
  0
LINE
  8
LC-001-002-----0
  6
CONTINUOUS
  5
135
 10
-73.722155
 20
227.577875
 30
0.0
 11
-70.722155
 21
227.577875
 31
0.0
  0
LINE
  8
LC-001-002-----0
  6
CONTINUOUS
  5
136
 10
-72.686257
 20
137.577875
 30
0.0
 11
-71.222155
 21
137.577875
 31
0.0
  0
ARC
  8
LC-001-002-----0
  6
CONTINUOUS
  5
137
 10
274.777845
 20
182.577875
 30
0.0
 40
69.5
 50
0.0
 51
57.46407
  0
LINE
  8
LC-001-002-----0
  6
CONTINUOUS
  5
138
 10
-71.222155
 20
137.577875
 30
0.0
 11
68.777845
 21
137.577875
 31
0.0
  0
ARC
  8
LC-003-002-___-0
  6
CONTINUOUS
  5
13A
 10
274.777845
 20
182.577875
 30
0.0
 40
72.5
 50
303.708294
 51
326.291706
  0
LINE
  8
LC-001-002-----0
  6
CONTINUOUS
  5
13B
 10
344.277845
 20
113.077875
 30
0.0
 11
344.277845
 21
252.077875
 31
0.0
  0
LINE
  8
LC-001-002-----0
  6
CONTINUOUS
  5
13C
 10
205.277845
 20
113.077875
 30
0.0
 11
205.277845
 21
252.077875
 31
0.0
  0
LINE
  8
LC-001-002-----0
  6
CONTINUOUS
  5
13D
 10
344.277845
 20
252.077875
 30
0.0
 11
205.277845
 21
252.077875
 31
0.0
  0
LINE
  8
LC-001-002-----0
  6
CONTINUOUS
  5
13E
 10
344.277845
 20
113.077875
 30
0.0
 11
205.277845
 21
113.077875
 31
0.0
  0
LINE
  8
LC-001-002-----0
  6
DASHDOT
 62
     2
  5
140
 10
-0.722155
 20
227.577875
 30
0.0
 11
-0.722155
 21
137.577875
 31
0.0
  0
LINE
  8
LC-001-002-----0
  6
CONTINUOUS
  5
141
 10
-37.654327
 20
216.577875
 30
0.0
 11
18.90665
 21
216.577875
 31
0.0
  0
ARC
  8
LC-003-002-___-0
  6
CONTINUOUS
  5
142
 10
274.777845
 20
182.577875
 30
0.0
 40
72.5
 50
123.708294
 51
146.291706
  0
LINE
  8
LC-001-002-----0
  6
CONTINUOUS
  5
143
 10
71.777845
 20
213.077875
 30
0.0
 11
71.777845
 21
139.577875
 31
0.0
  0
LINE
  8
LC-001-002-----0
  6
CONTINUOUS
  5
144
 10
72.271445
 20
213.077875
 30
0.0
 11
71.777845
 21
213.077875
 31
0.0
  0
LINE
  8
LC-001-002-----0
  6
CONTINUOUS
  5
145
 10
71.777845
 20
139.577875
 30
0.0
 11
71.241947
 21
137.577875
 31
0.0
  0
LINE
  8
LC-001-002-----0
  6
CONTINUOUS
  5
146
 10
72.277845
 20
227.577875
 30
0.0
 11
69.277845
 21
227.577875
 31
0.0
  0
LINE
  8
LC-001-002-----0
  6
CONTINUOUS
  5
147
 10
71.241947
 20
137.577875
 30
0.0
 11
69.777845
 21
137.577875
 31
0.0
  0
LINE
  8
LC-001-002-----0
  6
CONTINUOUS
  5
148
 10
-70.222155
 20
216.577875
 30
0.0
 11
-37.654327
 21
216.577875
 31
0.0
  0
LINE
  8
LC-001-002-----0
  6
CONTINUOUS
 62
     2
  5
149
 10
-41.567412
 20
284.586
 30
0.0
 11
-27.771785
 21
284.586
 31
0.0
  0
LINE
  8
LC-001-002-----0
  6
CONTINUOUS
 62
     2
  5
14A
 10
-27.771785
 20
284.586
 30
0.0
 11
-27.771785
 21
298.842
 31
0.0
  0
ARC
  8
LC-001-002-----0
  6
CONTINUOUS
  5
14B
 10
233.277845
 20
109.077875
 30
0.0
 40
4.5
 50
62.733956
 51
117.266044
  0
ARC
  8
LC-001-002-----0
  6
CONTINUOUS
  5
14C
 10
348.277845
 20
141.077875
 30
0.0
 40
4.5
 50
152.733956
 51
207.266044
  0
LINE
  8
LC-001-002-----0
  6
CONTINUOUS
 62
     2
  5
14D
 10
-27.771785
 20
298.842
 30
0.0
 11
-41.567412
 21
298.842
 31
0.0
  0
ARC
  8
LC-001-002-----0
  6
CONTINUOUS
  5
14E
 10
316.277845
 20
256.077875
 30
0.0
 40
4.5
 50
242.733956
 51
297.266044
  0
LINE
  8
LC-001-002-----0
  6
CONTINUOUS
 62
     2
  5
14F
 10
-41.567412
 20
298.842
 30
0.0
 11
-41.567412
 21
284.586
 31
0.0
  0
ARC
  8
LC-001-002-----0
  6
CONTINUOUS
  5
150
 10
201.277845
 20
141.077875
 30
0.0
 40
4.5
 50
332.733956
 51
27.266044
  0
LINE
  8
LC-001-002-----0
  6
CONTINUOUS
  5
151
 10
59.034987
 20
214.077875
 30
0.0
 11
59.034987
 21
216.577875
 31
0.0
  0
ARC
  8
LC-001-002-----0
  6
CONTINUOUS
  5
152
 10
316.277845
 20
109.077875
 30
0.0
 40
4.5
 50
62.733956
 51
117.266044
  0
ARC
  8
LC-001-002-----0
  6
CONTINUOUS
  5
153
 10
233.277845
 20
256.077875
 30
0.0
 40
4.5
 50
242.733956
 51
297.266044
  0
ARC
  8
LC-001-002-----0
  6
CONTINUOUS
  5
154
 10
348.277845
 20
224.077875
 30
0.0
 40
4.5
 50
152.733956
 51
207.266044
  0
LINE
  8
LC-008-005-----0
  6
CONTINUOUS
  5
155
 10
69.695624
 20
137.577875
 30
0.0
 11
71.777845
 21
139.660096
 31
0.0
  0
LINE
  8
LC-001-002-----0
  6
CONTINUOUS
  5
156
 10
72.277845
 20
222.577875
 30
0.0
 11
72.277845
 21
213.077875
 31
0.0
  0
LINE
  8
LC-001-002-----0
  6
CONTINUOUS
 62
     2
  5
157
 10
-41.567412
 20
246.912147
 30
0.0
 11
-27.771785
 21
246.912147
 31
0.0
  0
LINE
  8
LC-001-002-----0
  6
CONTINUOUS
  5
158
 10
-60.479296
 20
214.077875
 30
0.0
 11
-37.654327
 21
214.077875
 31
0.0
  0
LINE
  8
LC-001-002-----0
  6
CONTINUOUS
 62
     2
  5
159
 10
-41.567412
 20
261.168147
 30
0.0
 11
-41.567412
 21
246.912147
 31
0.0
  0
LINE
  8
LC-001-002-----0
  6
CONTINUOUS
  5
15A
 10
-37.654327
 20
214.077875
 30
0.0
 11
-37.654327
 21
216.577875
 31
0.0
  0
LINE
  8
LC-008-005-----0
  6
CONTINUOUS
  5
15B
 10
68.777845
 20
139.488523
 30
0.0
 11
71.777845
 21
142.488523
 31
0.0
  0
LINE
  8
LC-001-002-----0
  6
CONTINUOUS
  5
15C
 10
36.210018
 20
214.077875
 30
0.0
 11
36.210018
 21
216.577875
 31
0.0
  0
LINE
  8
LC-001-002-----0
  6
CONTINUOUS
 62
     2
  5
15D
 10
-27.771785
 20
261.168147
 30
0.0
 11
-41.567412
 21
261.168147
 31
0.0
  0
LINE
  8
LC-001-002-----0
  6
CONTINUOUS
 62
     2
  5
15E
 10
-27.771785
 20
246.912147
 30
0.0
 11
-27.771785
 21
261.168147
 31
0.0
  0
LINE
  8
LC-008-005-----0
  6
CONTINUOUS
  5
15F
 10
68.777845
 20
142.31695
 30
0.0
 11
71.777845
 21
145.31695
 31
0.0
  0
LINE
  8
LC-001-002-----0
  6
CONTINUOUS
  5
160
 10
68.777845
 20
216.577875
 30
0.0
 11
65.277845
 21
216.577875
 31
0.0
  0
LINE
  8
LC-008-005-----0
  6
CONTINUOUS
  5
161
 10
68.777845
 20
145.145377
 30
0.0
 11
71.777845
 21
148.145377
 31
0.0
  0
ARC
  8
LC-003-002-___-0
  6
CONTINUOUS
  5
162
 10
274.777845
 20
182.577875
 30
0.0
 40
72.5
 50
33.708294
 51
56.291706
  0
LINE
  8
LC-008-005-----0
  6
CONTINUOUS
  5
163
 10
68.777845
 20
147.973805
 30
0.0
 11
71.777845
 21
150.973805
 31
0.0
  0
ARC
  8
LC-001-002-----0
  6
CONTINUOUS
  5
164
 10
201.277845
 20
224.077875
 30
0.0
 40
4.5
 50
332.733956
 51
27.266044
  0
CIRCLE
  8
LC-001-002-----0
  6
CONTINUOUS
  5
165
 10
215.777845
 20
123.577875
 30
0.0
 40
7.0
  0
CIRCLE
  8
LC-001-002-----0
  6
CONTINUOUS
  5
166
 10
215.777845
 20
123.577875
 30
0.0
 40
5.0
  0
CIRCLE
  8
LC-001-002-----0
  6
CONTINUOUS
  5
167
 10
215.777845
 20
241.577875
 30
0.0
 40
7.0
  0
CIRCLE
  8
LC-001-002-----0
  6
CONTINUOUS
  5
168
 10
333.777845
 20
123.577875
 30
0.0
 40
7.0
  0
ARC
  8
LC-001-002-----0
  6
CONTINUOUS
  5
169
 10
215.777845
 20
241.577875
 30
0.0
 40
3.95
 50
87.097707
 51
92.902293
  0
LINE
  8
LC-008-005-----0
  6
CONTINUOUS
  5
16A
 10
68.777845
 20
150.802232
 30
0.0
 11
71.777845
 21
153.802232
 31
0.0
  0
LINE
  8
LC-008-005-----0
  6
CONTINUOUS
  5
16B
 10
68.777845
 20
153.630659
 30
0.0
 11
71.777845
 21
156.630659
 31
0.0
  0
LINE
  8
LC-008-005-----0
  6
CONTINUOUS
  5
16C
 10
68.777845
 20
156.459086
 30
0.0
 11
71.777845
 21
159.459086
 31
0.0
  0
LINE
  8
LC-008-005-----0
  6
CONTINUOUS
  5
16D
 10
68.777845
 20
159.287513
 30
0.0
 11
71.777845
 21
162.287513
 31
0.0
  0
LINE
  8
LC-008-005-----0
  6
CONTINUOUS
  5
16E
 10
68.777845
 20
162.11594
 30
0.0
 11
71.777845
 21
165.11594
 31
0.0
  0
CIRCLE
  8
LC-001-002-----0
  6
CONTINUOUS
  5
16F
 10
215.777845
 20
241.577875
 30
0.0
 40
3.5
  0
ARC
  8
LC-001-002-----0
  6
CONTINUOUS
  5
170
 10
215.777845
 20
241.577875
 30
0.0
 40
3.95
 50
102.097707
 51
107.902293
  0
LINE
  8
LC-001-002-----0
  6
CONTINUOUS
  5
171
 10
214.395476
 20
245.384652
 30
0.0
 11
214.563636
 21
245.336624
 31
0.0
  0
ARC
  8
LC-001-002-----0
  6
CONTINUOUS
  5
172
 10
215.777845
 20
241.577875
 30
0.0
 40
4.05
 50
94.957671
 51
100.042329
  0
LINE
  8
LC-001-002-----0
  6
CONTINUOUS
  5
173
 10
215.071624
 20
245.565826
 30
0.0
 11
214.950006
 21
245.440152
 31
0.0
  0
ARC
  8
LC-001-002-----0
  6
CONTINUOUS
  5
174
 10
215.777845
 20
241.577875
 30
0.0
 40
4.05
 50
109.957671
 51
115.042329
  0
ARC
  8
LC-001-002-----0
  6
CONTINUOUS
  5
175
 10
215.777845
 20
241.577875
 30
0.0
 40
3.95
 50
117.097707
 51
122.902293
  0
LINE
  8
LC-001-002-----0
  6
CONTINUOUS
  5
176
 10
213.457312
 20
244.897156
 30
0.0
 11
213.632173
 21
244.894288
 31
0.0
  0
LINE
  8
LC-008-005-----0
  6
CONTINUOUS
  5
177
 10
68.777845
 20
164.944367
 30
0.0
 11
71.777845
 21
167.944367
 31
0.0
  0
LINE
  8
LC-001-002-----0
  6
CONTINUOUS
  5
178
 10
215.427845
 20
245.612723
 30
0.0
 11
215.577845
 21
245.522808
 31
0.0
  0
ARC
  8
LC-001-002-----0
  6
CONTINUOUS
  5
179
 10
215.777845
 20
241.577875
 30
0.0
 40
3.95
 50
132.097707
 51
137.902293
  0
LINE
  8
LC-001-002-----0
  6
CONTINUOUS
  5
17A
 10
212.677289
 20
244.183456
 30
0.0
 11
212.846935
 21
244.225943
 31
0.0
  0
ARC
  8
LC-001-002-----0
  6
CONTINUOUS
  5
17B
 10
215.777845
 20
241.577875
 30
0.0
 40
3.95
 50
147.097707
 51
152.902293
  0
LINE
  8
LC-001-002-----0
  6
CONTINUOUS
  5
17C
 10
212.108564
 20
243.29219
 30
0.0
 11
212.261433
 21
243.377137
 31
0.0
  0
ARC
  8
LC-001-002-----0
  6
CONTINUOUS
  5
17D
 10
215.777845
 20
241.577875
 30
0.0
 40
3.95
 50
162.097707
 51
167.902293
  0
LINE
  8
LC-001-002-----0
  6
CONTINUOUS
  5
17E
 10
211.789894
 20
242.284097
 30
0.0
 11
211.915568
 21
242.405714
 31
0.0
  0
ARC
  8
LC-001-002-----0
  6
CONTINUOUS
  5
17F
 10
215.777845
 20
241.577875
 30
0.0
 40
3.95
 50
177.097707
 51
182.902293
  0
LINE
  8
LC-001-002-----0
  6
CONTINUOUS
  5
180
 10
211.742997
 20
241.227875
 30
0.0
 11
211.832912
 21
241.377875
 31
0.0
  0
ARC
  8
LC-001-002-----0
  6
CONTINUOUS
  5
181
 10
215.777845
 20
241.577875
 30
0.0
 40
3.95
 50
192.097707
 51
197.902293
  0
LINE
  8
LC-001-002-----0
  6
CONTINUOUS
  5
182
 10
211.971068
 20
240.195505
 30
0.0
 11
212.019096
 21
240.363666
 31
0.0
  0
LINE
  8
LC-001-002-----0
  6
CONTINUOUS
  5
183
 10
216.127845
 20
245.612723
 30
0.0
 11
215.977845
 21
245.522808
 31
0.0
  0
ARC
  8
LC-001-002-----0
  6
CONTINUOUS
  5
184
 10
215.777845
 20
241.577875
 30
0.0
 40
3.95
 50
207.097707
 51
212.902293
  0
LINE
  8
LC-001-002-----0
  6
CONTINUOUS
  5
185
 10
212.458564
 20
239.257342
 30
0.0
 11
212.461433
 21
239.432203
 31
0.0
  0
ARC
  8
LC-001-002-----0
  6
CONTINUOUS
  5
186
 10
215.777845
 20
241.577875
 30
0.0
 40
3.95
 50
222.097707
 51
227.902293
  0
LINE
  8
LC-001-002-----0
  6
CONTINUOUS
  5
187
 10
213.172264
 20
238.477319
 30
0.0
 11
213.129777
 21
238.646964
 31
0.0
  0
ARC
  8
LC-001-002-----0
  6
CONTINUOUS
  5
188
 10
215.777845
 20
241.577875
 30
0.0
 40
3.95
 50
237.097707
 51
242.902293
  0
LINE
  8
LC-001-002-----0
  6
CONTINUOUS
  5
189
 10
214.06353
 20
237.908594
 30
0.0
 11
213.978583
 21
238.061462
 31
0.0
  0
ARC
  8
LC-001-002-----0
  6
CONTINUOUS
  5
18A
 10
215.777845
 20
241.577875
 30
0.0
 40
3.95
 50
252.097707
 51
257.902293
  0
LINE
  8
LC-001-002-----0
  6
CONTINUOUS
  5
18B
 10
215.071624
 20
237.589924
 30
0.0
 11
214.950006
 21
237.715598
 31
0.0
  0
ARC
  8
LC-001-002-----0
  6
CONTINUOUS
  5
18C
 10
215.777845
 20
241.577875
 30
0.0
 40
3.95
 50
267.097707
 51
272.902293
  0
LINE
  8
LC-001-002-----0
  6
CONTINUOUS
  5
18D
 10
216.127845
 20
237.543027
 30
0.0
 11
215.977845
 21
237.632942
 31
0.0
  0
ARC
  8
LC-001-002-----0
  6
CONTINUOUS
  5
18E
 10
215.777845
 20
241.577875
 30
0.0
 40
3.95
 50
282.097707
 51
287.902293
  0
LINE
  8
LC-001-002-----0
  6
CONTINUOUS
  5
18F
 10
217.160215
 20
237.771098
 30
0.0
 11
216.992054
 21
237.819126
 31
0.0
  0
ARC
  8
LC-001-002-----0
  6
CONTINUOUS
  5
190
 10
215.777845
 20
241.577875
 30
0.0
 40
3.95
 50
297.097707
 51
302.902293
  0
LINE
  8
LC-001-002-----0
  6
CONTINUOUS
  5
191
 10
218.098378
 20
238.258594
 30
0.0
 11
217.923517
 21
238.261462
 31
0.0
  0
LINE
  8
LC-001-002-----0
  6
CONTINUOUS
  5
192
 10
214.06353
 20
245.247156
 30
0.0
 11
213.978583
 21
245.094288
 31
0.0
  0
LINE
  8
LC-001-002-----0
  6
CONTINUOUS
  5
193
 10
213.172264
 20
244.678431
 30
0.0
 11
213.129777
 21
244.508786
 31
0.0
  0
LINE
  8
LC-001-002-----0
  6
CONTINUOUS
  5
194
 10
212.458564
 20
243.898408
 30
0.0
 11
212.461433
 21
243.723547
 31
0.0
  0
LINE
  8
LC-001-002-----0
  6
CONTINUOUS
  5
195
 10
211.971068
 20
242.960245
 30
0.0
 11
212.019096
 21
242.792084
 31
0.0
  0
LINE
  8
LC-001-002-----0
  6
CONTINUOUS
  5
196
 10
211.742997
 20
241.927875
 30
0.0
 11
211.832912
 21
241.777875
 31
0.0
  0
LINE
  8
LC-001-002-----0
  6
CONTINUOUS
  5
197
 10
211.789894
 20
240.871654
 30
0.0
 11
211.915568
 21
240.750036
 31
0.0
  0
LINE
  8
LC-001-002-----0
  6
CONTINUOUS
  5
198
 10
212.108564
 20
239.86356
 30
0.0
 11
212.261433
 21
239.778613
 31
0.0
  0
LINE
  8
LC-001-002-----0
  6
CONTINUOUS
  5
199
 10
212.677289
 20
238.972294
 30
0.0
 11
212.846935
 21
238.929807
 31
0.0
  0
LINE
  8
LC-001-002-----0
  6
CONTINUOUS
  5
19A
 10
213.457312
 20
238.258594
 30
0.0
 11
213.632173
 21
238.261462
 31
0.0
  0
LINE
  8
LC-001-002-----0
  6
CONTINUOUS
  5
19B
 10
214.395476
 20
237.771098
 30
0.0
 11
214.563636
 21
237.819126
 31
0.0
  0
LINE
  8
LC-001-002-----0
  6
CONTINUOUS
  5
19C
 10
215.427845
 20
237.543027
 30
0.0
 11
215.577845
 21
237.632942
 31
0.0
  0
LINE
  8
LC-001-002-----0
  6
CONTINUOUS
  5
19D
 10
216.484067
 20
237.589924
 30
0.0
 11
216.605684
 21
237.715598
 31
0.0
  0
LINE
  8
LC-001-002-----0
  6
CONTINUOUS
  5
19E
 10
217.49216
 20
237.908594
 30
0.0
 11
217.577107
 21
238.061462
 31
0.0
  0
LINE
  8
LC-001-002-----0
  6
CONTINUOUS
  5
19F
 10
218.383426
 20
238.477319
 30
0.0
 11
218.425913
 21
238.646964
 31
0.0
  0
LINE
  8
LC-001-002-----0
  6
CONTINUOUS
  5
1A0
 10
219.097126
 20
239.257342
 30
0.0
 11
219.094258
 21
239.432203
 31
0.0
  0
ARC
  8
LC-001-002-----0
  6
CONTINUOUS
  5
1A1
 10
215.777845
 20
241.577875
 30
0.0
 40
4.05
 50
124.957671
 51
130.042329
  0
ARC
  8
LC-001-002-----0
  6
CONTINUOUS
  5
1A2
 10
215.777845
 20
241.577875
 30
0.0
 40
4.05
 50
139.957671
 51
145.042329
  0
ARC
  8
LC-001-002-----0
  6
CONTINUOUS
  5
1A3
 10
215.777845
 20
241.577875
 30
0.0
 40
4.05
 50
154.957671
 51
160.042329
  0
ARC
  8
LC-001-002-----0
  6
CONTINUOUS
  5
1A4
 10
215.777845
 20
241.577875
 30
0.0
 40
4.05
 50
169.957671
 51
175.042329
  0
ARC
  8
LC-001-002-----0
  6
CONTINUOUS
  5
1A5
 10
215.777845
 20
241.577875
 30
0.0
 40
4.05
 50
184.957671
 51
190.042329
  0
ARC
  8
LC-001-002-----0
  6
CONTINUOUS
  5
1A6
 10
215.777845
 20
241.577875
 30
0.0
 40
4.05
 50
199.957671
 51
205.042329
  0
ARC
  8
LC-001-002-----0
  6
CONTINUOUS
  5
1A7
 10
215.777845
 20
241.577875
 30
0.0
 40
4.05
 50
214.957671
 51
220.042329
  0
ARC
  8
LC-001-002-----0
  6
CONTINUOUS
  5
1A8
 10
215.777845
 20
241.577875
 30
0.0
 40
4.05
 50
229.957671
 51
235.042329
  0
ARC
  8
LC-001-002-----0
  6
CONTINUOUS
  5
1A9
 10
215.777845
 20
241.577875
 30
0.0
 40
4.05
 50
244.957671
 51
250.042329
  0
ARC
  8
LC-001-002-----0
  6
CONTINUOUS
  5
1AA
 10
215.777845
 20
241.577875
 30
0.0
 40
4.05
 50
259.957671
 51
265.042329
  0
ARC
  8
LC-001-002-----0
  6
CONTINUOUS
  5
1AB
 10
215.777845
 20
241.577875
 30
0.0
 40
4.05
 50
274.957671
 51
280.042329
  0
ARC
  8
LC-001-002-----0
  6
CONTINUOUS
  5
1AC
 10
215.777845
 20
241.577875
 30
0.0
 40
4.05
 50
289.957671
 51
295.042329
  0
ARC
  8
LC-001-002-----0
  6
CONTINUOUS
  5
1AD
 10
215.777845
 20
241.577875
 30
0.0
 40
4.05
 50
304.957671
 51
310.042329
  0
ARC
  8
LC-001-002-----0
  6
CONTINUOUS
  5
1AE
 10
215.777845
 20
241.577875
 30
0.0
 40
4.05
 50
319.957671
 51
325.042329
  0
LINE
  8
LC-001-002-----0
  6
CONTINUOUS
  5
1AF
 10
218.878401
 20
238.972294
 30
0.0
 11
218.708756
 21
238.929807
 31
0.0
  0
ARC
  8
LC-001-002-----0
  6
CONTINUOUS
  5
1B0
 10
215.777845
 20
241.577875
 30
0.0
 40
3.95
 50
312.097707
 51
317.902293
  0
LINE
  8
LC-001-002-----0
  6
CONTINUOUS
  5
1B1
 10
219.584623
 20
240.195505
 30
0.0
 11
219.536594
 21
240.363666
 31
0.0
  0
ARC
  8
LC-001-002-----0
  6
CONTINUOUS
  5
1B2
 10
215.777845
 20
241.577875
 30
0.0
 40
4.05
 50
334.957671
 51
340.042329
  0
LINE
  8
LC-001-002-----0
  6
CONTINUOUS
  5
1B3
 10
219.447126
 20
239.86356
 30
0.0
 11
219.294258
 21
239.778613
 31
0.0
  0
ARC
  8
LC-001-002-----0
  6
CONTINUOUS
  5
1B4
 10
215.777845
 20
241.577875
 30
0.0
 40
3.95
 50
327.097707
 51
332.902293
  0
LINE
  8
LC-001-002-----0
  6
CONTINUOUS
  5
1B5
 10
219.812693
 20
241.227875
 30
0.0
 11
219.722779
 21
241.377875
 31
0.0
  0
ARC
  8
LC-001-002-----0
  6
CONTINUOUS
  5
1B6
 10
215.777845
 20
241.577875
 30
0.0
 40
4.05
 50
349.957671
 51
355.042329
  0
LINE
  8
LC-001-002-----0
  6
CONTINUOUS
  5
1B7
 10
219.765796
 20
240.871654
 30
0.0
 11
219.640122
 21
240.750036
 31
0.0
  0
ARC
  8
LC-001-002-----0
  6
CONTINUOUS
  5
1B8
 10
215.777845
 20
241.577875
 30
0.0
 40
3.95
 50
342.097707
 51
347.902293
  0
LINE
  8
LC-001-002-----0
  6
CONTINUOUS
  5
1B9
 10
219.765796
 20
242.284097
 30
0.0
 11
219.640122
 21
242.405714
 31
0.0
  0
ARC
  8
LC-001-002-----0
  6
CONTINUOUS
  5
1BA
 10
215.777845
 20
241.577875
 30
0.0
 40
4.05
 50
4.957671
 51
10.042329
  0
LINE
  8
LC-001-002-----0
  6
CONTINUOUS
  5
1BB
 10
219.812693
 20
241.927875
 30
0.0
 11
219.722779
 21
241.777875
 31
0.0
  0
ARC
  8
LC-001-002-----0
  6
CONTINUOUS
  5
1BC
 10
215.777845
 20
241.577875
 30
0.0
 40
3.95
 50
357.097707
 51
2.902293
  0
LINE
  8
LC-001-002-----0
  6
CONTINUOUS
  5
1BD
 10
219.447126
 20
243.29219
 30
0.0
 11
219.294258
 21
243.377137
 31
0.0
  0
ARC
  8
LC-001-002-----0
  6
CONTINUOUS
  5
1BE
 10
215.777845
 20
241.577875
 30
0.0
 40
4.05
 50
19.957671
 51
25.042329
  0
LINE
  8
LC-001-002-----0
  6
CONTINUOUS
  5
1BF
 10
219.584623
 20
242.960245
 30
0.0
 11
219.536594
 21
242.792084
 31
0.0
  0
ARC
  8
LC-001-002-----0
  6
CONTINUOUS
  5
1C0
 10
215.777845
 20
241.577875
 30
0.0
 40
3.95
 50
12.097707
 51
17.902293
  0
LINE
  8
LC-001-002-----0
  6
CONTINUOUS
  5
1C1
 10
218.878401
 20
244.183456
 30
0.0
 11
218.708756
 21
244.225943
 31
0.0
  0
ARC
  8
LC-001-002-----0
  6
CONTINUOUS
  5
1C2
 10
215.777845
 20
241.577875
 30
0.0
 40
4.05
 50
34.957671
 51
40.042329
  0
LINE
  8
LC-001-002-----0
  6
CONTINUOUS
  5
1C3
 10
219.097126
 20
243.898408
 30
0.0
 11
219.094258
 21
243.723547
 31
0.0
  0
ARC
  8
LC-001-002-----0
  6
CONTINUOUS
  5
1C4
 10
215.777845
 20
241.577875
 30
0.0
 40
3.95
 50
27.097707
 51
32.902293
  0
LINE
  8
LC-001-002-----0
  6
CONTINUOUS
  5
1C5
 10
218.098378
 20
244.897156
 30
0.0
 11
217.923517
 21
244.894288
 31
0.0
  0
ARC
  8
LC-001-002-----0
  6
CONTINUOUS
  5
1C6
 10
215.777845
 20
241.577875
 30
0.0
 40
4.05
 50
49.957671
 51
55.042329
  0
LINE
  8
LC-001-002-----0
  6
CONTINUOUS
  5
1C7
 10
218.383426
 20
244.678431
 30
0.0
 11
218.425913
 21
244.508786
 31
0.0
  0
ARC
  8
LC-001-002-----0
  6
CONTINUOUS
  5
1C8
 10
215.777845
 20
241.577875
 30
0.0
 40
3.95
 50
42.097707
 51
47.902293
  0
LINE
  8
LC-001-002-----0
  6
CONTINUOUS
  5
1C9
 10
217.160215
 20
245.384652
 30
0.0
 11
216.992054
 21
245.336624
 31
0.0
  0
ARC
  8
LC-001-002-----0
  6
CONTINUOUS
  5
1CA
 10
215.777845
 20
241.577875
 30
0.0
 40
4.05
 50
64.957671
 51
70.042329
  0
LINE
  8
LC-001-002-----0
  6
CONTINUOUS
  5
1CB
 10
217.49216
 20
245.247156
 30
0.0
 11
217.577107
 21
245.094288
 31
0.0
  0
ARC
  8
LC-001-002-----0
  6
CONTINUOUS
  5
1CC
 10
215.777845
 20
241.577875
 30
0.0
 40
3.95
 50
57.097707
 51
62.902293
  0
LINE
  8
LC-001-002-----0
  6
CONTINUOUS
  5
1CD
 10
216.127845
 20
245.612723
 30
0.0
 11
215.977845
 21
245.522808
 31
0.0
  0
ARC
  8
LC-001-002-----0
  6
CONTINUOUS
  5
1CE
 10
215.777845
 20
241.577875
 30
0.0
 40
4.05
 50
79.957671
 51
85.042329
  0
LINE
  8
LC-001-002-----0
  6
CONTINUOUS
  5
1CF
 10
216.484067
 20
245.565826
 30
0.0
 11
216.605684
 21
245.440152
 31
0.0
  0
ARC
  8
LC-001-002-----0
  6
CONTINUOUS
  5
1D0
 10
215.777845
 20
241.577875
 30
0.0
 40
3.95
 50
72.097707
 51
77.902293
  0
LINE
  8
LC-008-005-----0
  6
CONTINUOUS
  5
1D1
 10
68.777845
 20
167.772794
 30
0.0
 11
71.777845
 21
170.772794
 31
0.0
  0
LINE
  8
LC-008-005-----0
  6
CONTINUOUS
  5
1D2
 10
68.777845
 20
170.601222
 30
0.0
 11
71.777845
 21
173.601222
 31
0.0
  0
LINE
  8
LC-001-002-----0
  6
CONTINUOUS
  5
1D3
 10
171.777845
 20
278.577875
 30
0.0
 11
171.777845
 21
86.577875
 31
0.0
  0
LINE
  8
LC-008-005-----0
  6
CONTINUOUS
  5
1D4
 10
68.777845
 20
173.429649
 30
0.0
 11
71.777845
 21
176.429649
 31
0.0
  0
LINE
  8
LC-008-005-----0
  6
CONTINUOUS
  5
1D5
 10
68.777845
 20
176.258076
 30
0.0
 11
71.777845
 21
179.258076
 31
0.0
  0
LINE
  8
LC-008-005-----0
  6
CONTINUOUS
  5
1D6
 10
68.777845
 20
179.086503
 30
0.0
 11
71.777845
 21
182.086503
 31
0.0
  0
LINE
  8
LC-008-005-----0
  6
CONTINUOUS
  5
1D7
 10
68.777845
 20
181.91493
 30
0.0
 11
71.777845
 21
184.91493
 31
0.0
  0
LINE
  8
LC-008-005-----0
  6
CONTINUOUS
  5
1D8
 10
68.777845
 20
184.743357
 30
0.0
 11
71.777845
 21
187.743357
 31
0.0
  0
LINE
  8
LC-008-005-----0
  6
CONTINUOUS
  5
1D9
 10
68.777845
 20
187.571784
 30
0.0
 11
71.777845
 21
190.571784
 31
0.0
  0
LINE
  8
LC-008-005-----0
  6
CONTINUOUS
  5
1DA
 10
68.777845
 20
190.400211
 30
0.0
 11
71.777845
 21
193.400211
 31
0.0
  0
LINE
  8
LC-008-005-----0
  6
CONTINUOUS
  5
1DB
 10
100.955509
 20
222.577875
 30
0.0
 11
102.277845
 21
223.900211
 31
0.0
  0
LINE
  8
LC-008-005-----0
  6
CONTINUOUS
  5
1DC
 10
68.777845
 20
193.228639
 30
0.0
 11
71.777845
 21
196.228639
 31
0.0
  0
LINE
  8
LC-008-005-----0
  6
CONTINUOUS
  5
1DD
 10
98.127082
 20
222.577875
 30
0.0
 11
101.127082
 21
225.577875
 31
0.0
  0
LINE
  8
LC-008-005-----0
  6
CONTINUOUS
  5
1DE
 10
68.777845
 20
196.057066
 30
0.0
 11
71.777845
 21
199.057066
 31
0.0
  0
LINE
  8
LC-008-005-----0
  6
CONTINUOUS
  5
1DF
 10
95.298654
 20
222.577875
 30
0.0
 11
98.298654
 21
225.577875
 31
0.0
  0
LINE
  8
LC-008-005-----0
  6
CONTINUOUS
  5
1E0
 10
68.777845
 20
198.885493
 30
0.0
 11
71.777845
 21
201.885493
 31
0.0
  0
LINE
  8
LC-008-005-----0
  6
CONTINUOUS
  5
1E1
 10
92.470227
 20
222.577875
 30
0.0
 11
95.470227
 21
225.577875
 31
0.0
  0
LINE
  8
LC-008-005-----0
  6
CONTINUOUS
  5
1E2
 10
68.777845
 20
201.71392
 30
0.0
 11
71.777845
 21
204.71392
 31
0.0
  0
LINE
  8
LC-008-005-----0
  6
CONTINUOUS
  5
1E3
 10
89.6418
 20
222.577875
 30
0.0
 11
92.6418
 21
225.577875
 31
0.0
  0
LINE
  8
LC-008-005-----0
  6
CONTINUOUS
  5
1E4
 10
68.777845
 20
204.542347
 30
0.0
 11
71.777845
 21
207.542347
 31
0.0
  0
LINE
  8
LC-008-005-----0
  6
CONTINUOUS
  5
1E5
 10
86.813373
 20
222.577875
 30
0.0
 11
89.813373
 21
225.577875
 31
0.0
  0
LINE
  8
LC-008-005-----0
  6
CONTINUOUS
  5
1E6
 10
68.777845
 20
207.370774
 30
0.0
 11
71.777845
 21
210.370774
 31
0.0
  0
LINE
  8
LC-008-005-----0
  6
CONTINUOUS
  5
1E7
 10
83.984946
 20
222.577875
 30
0.0
 11
86.984946
 21
225.577875
 31
0.0
  0
LINE
  8
LC-008-005-----0
  6
CONTINUOUS
  5
1E8
 10
68.777845
 20
210.199201
 30
0.0
 11
72.277845
 21
213.699201
 31
0.0
  0
LINE
  8
LC-008-005-----0
  6
CONTINUOUS
  5
1E9
 10
81.156519
 20
222.577875
 30
0.0
 11
84.156519
 21
225.577875
 31
0.0
  0
LINE
  8
LC-008-005-----0
  6
CONTINUOUS
  5
1EA
 10
68.777845
 20
213.027628
 30
0.0
 11
72.277845
 21
216.527628
 31
0.0
  0
LINE
  8
LC-008-005-----0
  6
CONTINUOUS
  5
1EB
 10
78.328092
 20
222.577875
 30
0.0
 11
81.328092
 21
225.577875
 31
0.0
  0
LINE
  8
LC-008-005-----0
  6
CONTINUOUS
  5
1EC
 10
68.777845
 20
215.856056
 30
0.0
 11
72.277845
 21
219.356056
 31
0.0
  0
LINE
  8
LC-001-002-----0
  6
CONTINUOUS
  5
1ED
 10
68.777845
 20
216.577875
 30
0.0
 11
68.777845
 21
227.577875
 31
0.0
  0
LINE
  8
LC-008-005-----0
  6
CONTINUOUS
  5
1EE
 10
75.499665
 20
222.577875
 30
0.0
 11
78.499665
 21
225.577875
 31
0.0
  0
LINE
  8
LC-008-005-----0
  6
CONTINUOUS
  5
1EF
 10
68.777845
 20
218.684483
 30
0.0
 11
72.277845
 21
222.184483
 31
0.0
  0
LINE
  8
LC-008-005-----0
  6
CONTINUOUS
  5
1F0
 10
72.671237
 20
222.577875
 30
0.0
 11
75.671237
 21
225.577875
 31
0.0
  0
LINE
  8
LC-008-005-----0
  6
CONTINUOUS
  5
1F1
 10
68.777845
 20
221.51291
 30
0.0
 11
72.84281
 21
225.577875
 31
0.0
  0
ARC
  8
LC-002-002-RND-0
  6
CONTINUOUS
  5
1F2
 10
178.777845
 20
278.577875
 30
0.0
 40
7.0
 50
90.0
 51
180.0
  0
LINE
  8
LC-008-005-----0
  6
CONTINUOUS
  5
1F3
 10
68.777845
 20
224.341337
 30
0.0
 11
72.014383
 21
227.577875
 31
0.0
  0
LINE
  8
LC-008-005-----0
  6
CONTINUOUS
  5
1F4
 10
68.777845
 20
227.169764
 30
0.0
 11
69.185956
 21
227.577875
 31
0.0
  0
LINE
  8
LC-008-005-----0
  6
CONTINUOUS
  5
1F5
 10
-71.725732
 20
137.577875
 30
0.0
 11
-70.222155
 21
139.081452
 31
0.0
  0
LINE
  8
LC-008-005-----0
  6
CONTINUOUS
  5
1F6
 10
-73.080991
 20
139.051044
 30
0.0
 11
-70.222155
 21
141.909879
 31
0.0
  0
LINE
  8
LC-008-005-----0
  6
CONTINUOUS
  5
1F7
 10
-73.222155
 20
141.738307
 30
0.0
 11
-70.222155
 21
144.738307
 31
0.0
  0
LINE
  8
LC-001-002-----0
  6
CONTINUOUS
  5
1F8
 10
178.777845
 20
79.577875
 30
0.0
 11
370.777845
 21
79.577875
 31
0.0
  0
LINE
  8
LC-001-002-----0
  6
CONTINUOUS
  5
1F9
 10
377.777845
 20
86.577875
 30
0.0
 11
377.777845
 21
278.577875
 31
0.0
  0
ARC
  8
LC-002-002-RND-0
  6
CONTINUOUS
  5
1FA
 10
370.777845
 20
278.577875
 30
0.0
 40
7.0
 50
0.0
 51
90.0
  0
LINE
  8
LC-001-002-----0
  6
CONTINUOUS
  5
1FB
 10
-103.722155
 20
225.577875
 30
0.0
 11
-73.722155
 21
225.577875
 31
0.0
  0
LINE
  8
LC-001-002-----0
  6
CONTINUOUS
  5
1FC
 10
102.277845
 20
222.577875
 30
0.0
 11
102.277845
 21
225.577875
 31
0.0
  0
LINE
  8
LC-001-002-----0
  6
CONTINUOUS
  5
1FD
 10
-103.722155
 20
222.577875
 30
0.0
 11
-103.722155
 21
225.577875
 31
0.0
  0
LINE
  8
LC-001-002-----0
  6
CONTINUOUS
  5
1FE
 10
-103.722155
 20
222.577875
 30
0.0
 11
-73.722155
 21
222.577875
 31
0.0
  0
LINE
  8
LC-001-002-----0
  6
CONTINUOUS
  5
1FF
 10
72.277845
 20
225.577875
 30
0.0
 11
102.277845
 21
225.577875
 31
0.0
  0
LINE
  8
LC-001-002-----0
  6
CONTINUOUS
  5
200
 10
72.277845
 20
222.577875
 30
0.0
 11
102.277845
 21
222.577875
 31
0.0
  0
ARC
  8
LC-002-002-RND-0
  6
CONTINUOUS
  5
201
 10
370.777845
 20
86.577875
 30
0.0
 40
7.0
 50
270.0
 51
0.0
  0
ARC
  8
LC-002-002-RND-0
  6
CONTINUOUS
  5
202
 10
178.777845
 20
86.577875
 30
0.0
 40
7.0
 50
180.0
 51
270.0
  0
LINE
  8
LC-008-005-----0
  6
CONTINUOUS
  5
203
 10
-73.222155
 20
144.566734
 30
0.0
 11
-70.222155
 21
147.566734
 31
0.0
  0
LINE
  8
LC-008-005-----0
  6
CONTINUOUS
  5
204
 10
-73.222155
 20
147.395161
 30
0.0
 11
-70.222155
 21
150.395161
 31
0.0
  0
LINE
  8
LC-008-005-----0
  6
CONTINUOUS
  5
205
 10
-73.222155
 20
150.223588
 30
0.0
 11
-70.222155
 21
153.223588
 31
0.0
  0
LINE
  8
LC-008-005-----0
  6
CONTINUOUS
  5
206
 10
-73.222155
 20
153.052015
 30
0.0
 11
-70.222155
 21
156.052015
 31
0.0
  0
LINE
  8
LC-008-005-----0
  6
CONTINUOUS
  5
207
 10
-73.222155
 20
155.880442
 30
0.0
 11
-70.222155
 21
158.880442
 31
0.0
  0
LINE
  8
LC-001-002-----0
  6
CONTINUOUS
  5
208
 10
-73.722155
 20
222.577875
 30
0.0
 11
-73.722155
 21
213.077875
 31
0.0
  0
LINE
  8
LC-008-005-----0
  6
CONTINUOUS
  5
209
 10
-73.222155
 20
158.708869
 30
0.0
 11
-70.222155
 21
161.708869
 31
0.0
  0
LINE
  8
LC-008-005-----0
  6
CONTINUOUS
  5
20A
 10
-73.222155
 20
161.537296
 30
0.0
 11
-70.222155
 21
164.537296
 31
0.0
  0
LINE
  8
LC-008-005-----0
  6
CONTINUOUS
  5
20B
 10
-73.222155
 20
164.365724
 30
0.0
 11
-70.222155
 21
167.365724
 31
0.0
  0
LINE
  8
LC-008-005-----0
  6
CONTINUOUS
  5
20C
 10
-73.222155
 20
167.194151
 30
0.0
 11
-70.222155
 21
170.194151
 31
0.0
  0
LINE
  8
LC-008-005-----0
  6
CONTINUOUS
  5
20D
 10
-73.222155
 20
170.022578
 30
0.0
 11
-70.222155
 21
173.022578
 31
0.0
  0
LINE
  8
LC-008-005-----0
  6
CONTINUOUS
  5
20E
 10
-73.222155
 20
172.851005
 30
0.0
 11
-70.222155
 21
175.851005
 31
0.0
  0
LINE
  8
LC-008-005-----0
  6
CONTINUOUS
  5
20F
 10
-73.222155
 20
175.679432
 30
0.0
 11
-70.222155
 21
178.679432
 31
0.0
  0
LINE
  8
LC-008-005-----0
  6
CONTINUOUS
  5
210
 10
-73.222155
 20
178.507859
 30
0.0
 11
-70.222155
 21
181.507859
 31
0.0
  0
LINE
  8
LC-008-005-----0
  6
CONTINUOUS
  5
211
 10
-73.222155
 20
181.336286
 30
0.0
 11
-70.222155
 21
184.336286
 31
0.0
  0
LINE
  8
LC-008-005-----0
  6
CONTINUOUS
  5
212
 10
-73.222155
 20
184.164713
 30
0.0
 11
-70.222155
 21
187.164713
 31
0.0
  0
LINE
  8
LC-008-005-----0
  6
CONTINUOUS
  5
213
 10
-73.222155
 20
186.993141
 30
0.0
 11
-70.222155
 21
189.993141
 31
0.0
  0
LINE
  8
LC-008-005-----0
  6
CONTINUOUS
  5
214
 10
-73.222155
 20
189.821568
 30
0.0
 11
-70.222155
 21
192.821568
 31
0.0
  0
LINE
  8
LC-008-005-----0
  6
CONTINUOUS
  5
215
 10
-73.222155
 20
192.649995
 30
0.0
 11
-70.222155
 21
195.649995
 31
0.0
  0
LINE
  8
LC-008-005-----0
  6
CONTINUOUS
  5
216
 10
-73.222155
 20
195.478422
 30
0.0
 11
-70.222155
 21
198.478422
 31
0.0
  0
LINE
  8
LC-008-005-----0
  6
CONTINUOUS
  5
217
 10
-73.222155
 20
198.306849
 30
0.0
 11
-70.222155
 21
201.306849
 31
0.0
  0
LINE
  8
LC-008-005-----0
  6
CONTINUOUS
  5
218
 10
-73.222155
 20
201.135276
 30
0.0
 11
-70.222155
 21
204.135276
 31
0.0
  0
LINE
  8
LC-001-002-----0
  6
CONTINUOUS
  5
219
 10
178.777845
 20
285.577875
 30
0.0
 11
370.777845
 21
285.577875
 31
0.0
  0
LINE
  8
LC-008-005-----0
  6
CONTINUOUS
  5
21A
 10
-73.222155
 20
203.963703
 30
0.0
 11
-70.222155
 21
206.963703
 31
0.0
  0
LINE
  8
LC-008-005-----0
  6
CONTINUOUS
  5
21B
 10
-73.222155
 20
206.79213
 30
0.0
 11
-70.222155
 21
209.79213
 31
0.0
  0
LINE
  8
LC-008-005-----0
  6
CONTINUOUS
  5
21C
 10
-73.222155
 20
209.620558
 30
0.0
 11
-70.222155
 21
212.620558
 31
0.0
  0
LINE
  8
LC-008-005-----0
  6
CONTINUOUS
  5
21D
 10
-73.222155
 20
212.448985
 30
0.0
 11
-70.222155
 21
215.448985
 31
0.0
  0
LINE
  8
LC-008-005-----0
  6
CONTINUOUS
  5
21E
 10
-73.722155
 20
214.777412
 30
0.0
 11
-70.222155
 21
218.277412
 31
0.0
  0
LINE
  8
LC-008-005-----0
  6
CONTINUOUS
  5
21F
 10
-73.722155
 20
217.605839
 30
0.0
 11
-70.222155
 21
221.105839
 31
0.0
  0
LINE
  8
LC-008-005-----0
  6
CONTINUOUS
  5
220
 10
-73.722155
 20
220.434266
 30
0.0
 11
-70.222155
 21
223.934266
 31
0.0
  0
LINE
  8
LC-008-005-----0
  6
CONTINUOUS
  5
221
 10
-74.406973
 20
222.577875
 30
0.0
 11
-70.222155
 21
226.762693
 31
0.0
  0
LINE
  8
LC-008-005-----0
  6
CONTINUOUS
  5
222
 10
-77.2354
 20
222.577875
 30
0.0
 11
-74.2354
 21
225.577875
 31
0.0
  0
LINE
  8
LC-008-005-----0
  6
CONTINUOUS
  5
223
 10
-73.722155
 20
226.09112
 30
0.0
 11
-72.2354
 21
227.577875
 31
0.0
  0
LINE
  8
LC-008-005-----0
  6
CONTINUOUS
  5
224
 10
-80.063827
 20
222.577875
 30
0.0
 11
-77.063827
 21
225.577875
 31
0.0
  0
LINE
  8
LC-008-005-----0
  6
CONTINUOUS
  5
225
 10
-82.892254
 20
222.577875
 30
0.0
 11
-79.892254
 21
225.577875
 31
0.0
  0
LINE
  8
LC-008-005-----0
  6
CONTINUOUS
  5
226
 10
-85.720682
 20
222.577875
 30
0.0
 11
-82.720682
 21
225.577875
 31
0.0
  0
LINE
  8
LC-001-002-----0
  6
CONTINUOUS
 62
     2
  5
227
 10
-70.779565
 20
197.553429
 30
0.0
 11
-70.222155
 21
197.761773
 31
0.0
  0
CIRCLE
  8
LC-001-002-----0
  6
CONTINUOUS
  5
228
 10
215.777845
 20
241.577875
 30
0.0
 40
2.5
  0
ARC
  8
LC-008-005-----0
  6
CONTINUOUS
  5
229
 10
215.777845
 20
241.577875
 30
0.0
 40
3.0
 50
170.405932
 51
99.594068
  0
CIRCLE
  8
LC-001-002-----0
  6
CONTINUOUS
  5
22A
 10
333.777845
 20
241.577875
 30
0.0
 40
7.0
  0
LINE
  8
LC-008-005-----0
  6
CONTINUOUS
  5
22B
 10
-88.549109
 20
222.577875
 30
0.0
 11
-85.549109
 21
225.577875
 31
0.0
  0
LINE
  8
LC-008-005-----0
  6
CONTINUOUS
  5
22C
 10
-91.377536
 20
222.577875
 30
0.0
 11
-88.377536
 21
225.577875
 31
0.0
  0
LINE
  8
LC-008-005-----0
  6
CONTINUOUS
  5
22D
 10
-94.205963
 20
222.577875
 30
0.0
 11
-91.205963
 21
225.577875
 31
0.0
  0
CIRCLE
  8
LC-001-002-----0
  6
CONTINUOUS
  5
22E
 10
333.777845
 20
241.577875
 30
0.0
 40
5.0
  0
LINE
  8
LC-008-005-----0
  6
CONTINUOUS
  5
22F
 10
-97.03439
 20
222.577875
 30
0.0
 11
-94.03439
 21
225.577875
 31
0.0
  0
LINE
  8
LC-008-005-----0
  6
CONTINUOUS
  5
230
 10
-99.862817
 20
222.577875
 30
0.0
 11
-96.862817
 21
225.577875
 31
0.0
  0
LINE
  8
LC-008-005-----0
  6
CONTINUOUS
  5
231
 10
-102.691244
 20
222.577875
 30
0.0
 11
-99.691244
 21
225.577875
 31
0.0
  0
LINE
  8
LC-008-005-----0
  6
CONTINUOUS
  5
232
 10
-103.722155
 20
224.375392
 30
0.0
 11
-102.519671
 21
225.577875
 31
0.0
  0
LINE
  8
LC-001-002-----0
  6
CONTINUOUS
  5
233
 10
-73.722155
 20
227.577875
 30
0.0
 11
-73.722155
 21
225.577875
 31
0.0
  0
LINE
  8
LC-001-002-----0
  6
CONTINUOUS
  5
234
 10
-70.222155
 20
227.577875
 30
0.0
 11
-70.222155
 21
137.577875
 31
0.0
  0
LINE
  8
LC-001-002-----0
  6
CONTINUOUS
  5
235
 10
-52.722155
 20
216.577875
 30
0.0
 11
-52.722155
 21
222.077875
 31
0.0
  0
LINE
  8
LC-001-002-----0
  6
CONTINUOUS
  5
236
 10
-52.722155
 20
222.077875
 30
0.0
 11
-66.722155
 21
222.077875
 31
0.0
  0
LINE
  8
LC-001-002-----0
  6
CONTINUOUS
  5
237
 10
-66.722155
 20
222.077875
 30
0.0
 11
-66.722155
 21
216.577875
 31
0.0
  0
LINE
  8
LC-001-002-----0
  6
DASHED
 62
     2
  5
239
 10
-54.722155
 20
216.577875
 30
0.0
 11
-54.722155
 21
222.077875
 31
0.0
  0
LINE
  8
LC-001-002-----0
  6
DASHED
 62
     2
  5
23A
 10
-64.722155
 20
222.077875
 30
0.0
 11
-64.722155
 21
216.577875
 31
0.0
  0
ARC
  8
LC-001-002-----0
  6
CONTINUOUS
  5
23B
 10
333.777845
 20
123.577875
 30
0.0
 40
3.95
 50
87.097707
 51
92.902293
  0
CIRCLE
  8
LC-001-002-----0
  6
CONTINUOUS
  5
23C
 10
333.777845
 20
123.577875
 30
0.0
 40
3.5
  0
ARC
  8
LC-001-002-----0
  6
CONTINUOUS
  5
23D
 10
333.777845
 20
123.577875
 30
0.0
 40
3.95
 50
102.097707
 51
107.902293
  0
LINE
  8
LC-001-002-----0
  6
CONTINUOUS
  5
23E
 10
332.395476
 20
127.384652
 30
0.0
 11
332.563636
 21
127.336624
 31
0.0
  0
ARC
  8
LC-001-002-----0
  6
CONTINUOUS
  5
23F
 10
333.777845
 20
123.577875
 30
0.0
 40
4.05
 50
94.957671
 51
100.042329
  0
LINE
  8
LC-001-002-----0
  6
CONTINUOUS
  5
240
 10
333.071624
 20
127.565826
 30
0.0
 11
332.950006
 21
127.440152
 31
0.0
  0
ARC
  8
LC-001-002-----0
  6
CONTINUOUS
  5
241
 10
333.777845
 20
123.577875
 30
0.0
 40
4.05
 50
109.957671
 51
115.042329
  0
ARC
  8
LC-001-002-----0
  6
CONTINUOUS
  5
242
 10
333.777845
 20
123.577875
 30
0.0
 40
3.95
 50
117.097707
 51
122.902293
  0
LINE
  8
LC-001-002-----0
  6
CONTINUOUS
  5
243
 10
331.457312
 20
126.897156
 30
0.0
 11
331.632173
 21
126.894288
 31
0.0
  0
LINE
  8
LC-001-002-----0
  6
CONTINUOUS
  5
244
 10
-73.222155
 20
198.988389
 30
0.0
 11
-73.222155
 21
139.577875
 31
0.0
  0
LINE
  8
LC-001-002-----0
  6
CONTINUOUS
  5
245
 10
68.777845
 20
227.577875
 30
0.0
 11
69.277845
 21
227.577875
 31
0.0
  0
LINE
  8
LC-001-002-----0
  6
CONTINUOUS
  5
246
 10
68.777845
 20
137.577875
 30
0.0
 11
69.777845
 21
137.577875
 31
0.0
  0
ARC
  8
LC-001-002-----0
  6
CONTINUOUS
  5
247
 10
237.845673
 20
244.965892
 30
0.0
 40
3.001624
 50
226.632545
 51
302.470058
  0
LINE
  8
LC-001-002-----0
  6
CONTINUOUS
  5
248
 10
333.427845
 20
127.612723
 30
0.0
 11
333.577845
 21
127.522808
 31
0.0
  0
ARC
  8
LC-001-002-----0
  6
CONTINUOUS
  5
249
 10
333.777845
 20
123.577875
 30
0.0
 40
3.95
 50
132.097707
 51
137.902293
  0
LINE
  8
LC-001-002-----0
  6
CONTINUOUS
  5
24A
 10
330.677289
 20
126.183456
 30
0.0
 11
330.846935
 21
126.225943
 31
0.0
  0
ARC
  8
LC-001-002-----0
  6
CONTINUOUS
  5
24B
 10
333.777845
 20
123.577875
 30
0.0
 40
3.95
 50
147.097707
 51
152.902293
  0
LINE
  8
LC-001-002-----0
  6
CONTINUOUS
  5
24C
 10
330.108564
 20
125.29219
 30
0.0
 11
330.261433
 21
125.377137
 31
0.0
  0
ARC
  8
LC-001-002-----0
  6
CONTINUOUS
  5
24D
 10
333.777845
 20
123.577875
 30
0.0
 40
3.95
 50
162.097707
 51
167.902293
  0
LINE
  8
LC-001-002-----0
  6
CONTINUOUS
  5
24E
 10
329.789894
 20
124.284097
 30
0.0
 11
329.915568
 21
124.405714
 31
0.0
  0
ARC
  8
LC-001-002-----0
  6
CONTINUOUS
  5
24F
 10
333.777845
 20
123.577875
 30
0.0
 40
3.95
 50
177.097707
 51
182.902293
  0
LINE
  8
LC-001-002-----0
  6
CONTINUOUS
  5
250
 10
329.742997
 20
123.227875
 30
0.0
 11
329.832912
 21
123.377875
 31
0.0
  0
ARC
  8
LC-001-002-----0
  6
CONTINUOUS
  5
251
 10
333.777845
 20
123.577875
 30
0.0
 40
3.95
 50
192.097707
 51
197.902293
  0
LINE
  8
LC-001-002-----0
  6
CONTINUOUS
  5
252
 10
329.971068
 20
122.195505
 30
0.0
 11
330.019096
 21
122.363666
 31
0.0
  0
LINE
  8
LC-001-002-----0
  6
CONTINUOUS
  5
253
 10
334.127845
 20
127.612723
 30
0.0
 11
333.977845
 21
127.522808
 31
0.0
  0
ARC
  8
LC-001-002-----0
  6
CONTINUOUS
  5
254
 10
333.777845
 20
123.577875
 30
0.0
 40
3.95
 50
207.097707
 51
212.902293
  0
LINE
  8
LC-001-002-----0
  6
CONTINUOUS
  5
255
 10
330.458564
 20
121.257342
 30
0.0
 11
330.461433
 21
121.432203
 31
0.0
  0
ARC
  8
LC-001-002-----0
  6
CONTINUOUS
  5
256
 10
333.777845
 20
123.577875
 30
0.0
 40
3.95
 50
222.097707
 51
227.902293
  0
LINE
  8
LC-001-002-----0
  6
CONTINUOUS
  5
257
 10
331.172264
 20
120.477319
 30
0.0
 11
331.129777
 21
120.646964
 31
0.0
  0
ARC
  8
LC-001-002-----0
  6
CONTINUOUS
  5
258
 10
311.710018
 20
244.965892
 30
0.0
 40
3.001624
 50
237.529942
 51
313.367455
  0
ARC
  8
LC-001-002-----0
  6
CONTINUOUS
  5
259
 10
333.777845
 20
123.577875
 30
0.0
 40
3.95
 50
237.097707
 51
242.902293
  0
LINE
  8
LC-001-002-----0
  6
CONTINUOUS
  5
25A
 10
332.06353
 20
119.908594
 30
0.0
 11
331.978583
 21
120.061462
 31
0.0
  0
ARC
  8
LC-001-002-----0
  6
CONTINUOUS
  5
25B
 10
333.777845
 20
123.577875
 30
0.0
 40
3.95
 50
252.097707
 51
257.902293
  0
LINE
  8
LC-001-002-----0
  6
CONTINUOUS
  5
25C
 10
333.071624
 20
119.589924
 30
0.0
 11
332.950006
 21
119.715598
 31
0.0
  0
ARC
  8
LC-001-002-----0
  6
CONTINUOUS
  5
25D
 10
333.777845
 20
123.577875
 30
0.0
 40
3.95
 50
267.097707
 51
272.902293
  0
LINE
  8
LC-001-002-----0
  6
CONTINUOUS
  5
25E
 10
334.127845
 20
119.543027
 30
0.0
 11
333.977845
 21
119.632942
 31
0.0
  0
ARC
  8
LC-001-002-----0
  6
CONTINUOUS
  5
25F
 10
333.777845
 20
123.577875
 30
0.0
 40
3.95
 50
282.097707
 51
287.902293
  0
LINE
  8
LC-001-002-----0
  6
CONTINUOUS
  5
260
 10
335.160215
 20
119.771098
 30
0.0
 11
334.992054
 21
119.819126
 31
0.0
  0
ARC
  8
LC-001-002-----0
  6
CONTINUOUS
  5
261
 10
333.777845
 20
123.577875
 30
0.0
 40
3.95
 50
297.097707
 51
302.902293
  0
LINE
  8
LC-001-002-----0
  6
CONTINUOUS
  5
262
 10
336.098378
 20
120.258594
 30
0.0
 11
335.923517
 21
120.261462
 31
0.0
  0
LINE
  8
LC-001-002-----0
  6
CONTINUOUS
  5
263
 10
332.06353
 20
127.247156
 30
0.0
 11
331.978583
 21
127.094288
 31
0.0
  0
LINE
  8
LC-001-002-----0
  6
CONTINUOUS
  5
264
 10
331.172264
 20
126.678431
 30
0.0
 11
331.129777
 21
126.508786
 31
0.0
  0
LINE
  8
LC-001-002-----0
  6
CONTINUOUS
  5
265
 10
330.458564
 20
125.898408
 30
0.0
 11
330.461433
 21
125.723547
 31
0.0
  0
LINE
  8
LC-001-002-----0
  6
CONTINUOUS
  5
266
 10
329.971068
 20
124.960245
 30
0.0
 11
330.019096
 21
124.792084
 31
0.0
  0
LINE
  8
LC-001-002-----0
  6
CONTINUOUS
  5
267
 10
329.742997
 20
123.927875
 30
0.0
 11
329.832912
 21
123.777875
 31
0.0
  0
LINE
  8
LC-001-002-----0
  6
CONTINUOUS
  5
268
 10
329.789894
 20
122.871654
 30
0.0
 11
329.915568
 21
122.750036
 31
0.0
  0
LINE
  8
LC-001-002-----0
  6
CONTINUOUS
  5
269
 10
330.108564
 20
121.86356
 30
0.0
 11
330.261433
 21
121.778613
 31
0.0
  0
LINE
  8
LC-001-002-----0
  6
CONTINUOUS
  5
26A
 10
330.677289
 20
120.972294
 30
0.0
 11
330.846935
 21
120.929807
 31
0.0
  0
LINE
  8
LC-001-002-----0
  6
CONTINUOUS
  5
26B
 10
331.457312
 20
120.258594
 30
0.0
 11
331.632173
 21
120.261462
 31
0.0
  0
LINE
  8
LC-001-002-----0
  6
CONTINUOUS
  5
26C
 10
332.395476
 20
119.771098
 30
0.0
 11
332.563636
 21
119.819126
 31
0.0
  0
LINE
  8
LC-001-002-----0
  6
CONTINUOUS
  5
26D
 10
333.427845
 20
119.543027
 30
0.0
 11
333.577845
 21
119.632942
 31
0.0
  0
LINE
  8
LC-001-002-----0
  6
CONTINUOUS
  5
26E
 10
334.484067
 20
119.589924
 30
0.0
 11
334.605684
 21
119.715598
 31
0.0
  0
LINE
  8
LC-001-002-----0
  6
CONTINUOUS
  5
26F
 10
335.49216
 20
119.908594
 30
0.0
 11
335.577107
 21
120.061462
 31
0.0
  0
LINE
  8
LC-001-002-----0
  6
CONTINUOUS
  5
270
 10
336.383426
 20
120.477319
 30
0.0
 11
336.425913
 21
120.646964
 31
0.0
  0
ARC
  8
LC-003-002-___-0
  6
CONTINUOUS
  5
271
 10
235.097858
 20
242.056852
 30
0.0
 40
1.0
 50
45.0
 51
123.708294
  0
ARC
  8
LC-003-002-___-0
  6
CONTINUOUS
  5
272
 10
215.298869
 20
222.257862
 30
0.0
 40
1.0
 50
146.291706
 51
225.0
  0
ARC
  8
LC-003-002-___-0
  6
CONTINUOUS
  5
273
 10
274.777845
 20
182.577875
 30
0.0
 40
72.5
 50
213.708294
 51
236.291706
  0
ARC
  8
LC-003-002-___-0
  6
CONTINUOUS
  5
274
 10
314.457832
 20
242.056852
 30
0.0
 40
1.0
 50
56.291706
 51
135.0
  0
ARC
  8
LC-003-002-___-0
  6
CONTINUOUS
  5
275
 10
334.256822
 20
222.257862
 30
0.0
 40
1.0
 50
315.0
 51
33.708294
  0
ARC
  8
LC-001-002-----0
  6
CONTINUOUS
  5
276
 10
274.777845
 20
182.577875
 30
0.0
 40
69.5
 50
327.46407
 51
302.53593
  0
ARC
  8
LC-001-002-----0
  6
CONTINUOUS
  5
277
 10
274.777845
 20
182.577875
 30
0.0
 40
69.5
 50
57.46407
 51
32.53593
  0
ARC
  8
LC-003-002-___-0
  6
CONTINUOUS
  5
278
 10
215.298869
 20
142.897888
 30
0.0
 40
1.0
 50
135.0
 51
213.708294
  0
ARC
  8
LC-003-002-___-0
  6
CONTINUOUS
  5
279
 10
235.097858
 20
123.098898
 30
0.0
 40
1.0
 50
236.291706
 51
315.0
  0
LINE
  8
LC-001-002-----0
  6
CONTINUOUS
  5
27A
 10
-60.479296
 20
214.077875
 30
0.0
 11
-60.479296
 21
216.577875
 31
0.0
  0
LINE
  8
LC-001-002-----0
  6
CONTINUOUS
  5
27B
 10
59.034987
 20
214.077875
 30
0.0
 11
36.210018
 21
214.077875
 31
0.0
  0
ARC
  8
LC-003-002-___-0
  6
CONTINUOUS
  5
27C
 10
314.457832
 20
123.098898
 30
0.0
 40
1.0
 50
225.0
 51
303.708294
  0
ARC
  8
LC-003-002-___-0
  6
CONTINUOUS
  5
27D
 10
334.256822
 20
142.897888
 30
0.0
 40
1.0
 50
326.291706
 51
45.0
  0
ARC
  8
LC-001-002-----0
  6
CONTINUOUS
  5
27E
 10
212.389828
 20
219.510048
 30
0.0
 40
3.001624
 50
327.529942
 51
43.367455
  0
ARC
  8
LC-001-002-----0
  6
CONTINUOUS
  5
27F
 10
337.165862
 20
219.510048
 30
0.0
 40
3.001624
 50
136.632545
 51
212.470058
  0
ARC
  8
LC-001-002-----0
  6
CONTINUOUS
  5
280
 10
311.710018
 20
120.189858
 30
0.0
 40
3.001624
 50
46.632545
 51
122.470058
  0
ARC
  8
LC-001-002-----0
  6
CONTINUOUS
  5
281
 10
337.165862
 20
145.645702
 30
0.0
 40
3.001624
 50
147.529942
 51
223.367455
  0
ARC
  8
LC-001-002-----0
  6
CONTINUOUS
  5
282
 10
237.845673
 20
120.189858
 30
0.0
 40
3.001624
 50
57.529942
 51
133.367455
  0
ARC
  8
LC-001-002-----0
  6
CONTINUOUS
  5
283
 10
212.389828
 20
145.645702
 30
0.0
 40
3.001624
 50
316.632545
 51
32.470058
  0
LINE
  8
LC-001-002-----0
  6
CONTINUOUS
  5
284
 10
65.277845
 20
216.577875
 30
0.0
 11
18.90665
 21
216.577875
 31
0.0
  0
LINE
  8
LC-001-002-----0
  6
CONTINUOUS
  5
285
 10
337.097126
 20
121.257342
 30
0.0
 11
337.094258
 21
121.432203
 31
0.0
  0
ARC
  8
LC-001-002-----0
  6
CONTINUOUS
  5
286
 10
333.777845
 20
123.577875
 30
0.0
 40
4.05
 50
124.957671
 51
130.042329
  0
ARC
  8
LC-001-002-----0
  6
CONTINUOUS
  5
287
 10
333.777845
 20
123.577875
 30
0.0
 40
4.05
 50
139.957671
 51
145.042329
  0
ARC
  8
LC-001-002-----0
  6
CONTINUOUS
  5
288
 10
333.777845
 20
123.577875
 30
0.0
 40
4.05
 50
154.957671
 51
160.042329
  0
ARC
  8
LC-001-002-----0
  6
CONTINUOUS
  5
289
 10
333.777845
 20
123.577875
 30
0.0
 40
4.05
 50
169.957671
 51
175.042329
  0
ARC
  8
LC-001-002-----0
  6
CONTINUOUS
  5
28A
 10
333.777845
 20
123.577875
 30
0.0
 40
4.05
 50
184.957671
 51
190.042329
  0
ARC
  8
LC-001-002-----0
  6
CONTINUOUS
  5
28B
 10
333.777845
 20
123.577875
 30
0.0
 40
4.05
 50
199.957671
 51
205.042329
  0
ARC
  8
LC-001-002-----0
  6
CONTINUOUS
  5
28C
 10
333.777845
 20
123.577875
 30
0.0
 40
4.05
 50
214.957671
 51
220.042329
  0
LINE
  8
LC-011-007-KH--0
  5
28E
 10
-59.722155
 20
216.577875
 30
0.0
 11
-62.222155
 21
216.577875
 31
0.0
  0
ARC
  8
LC-001-002-----0
  6
CONTINUOUS
  5
28F
 10
333.777845
 20
123.577875
 30
0.0
 40
4.05
 50
229.957671
 51
235.042329
  0
ARC
  8
LC-001-002-----0
  6
CONTINUOUS
  5
290
 10
333.777845
 20
123.577875
 30
0.0
 40
4.05
 50
244.957671
 51
250.042329
  0
ARC
  8
LC-001-002-----0
  6
CONTINUOUS
  5
291
 10
333.777845
 20
123.577875
 30
0.0
 40
4.05
 50
259.957671
 51
265.042329
  0
ARC
  8
LC-001-002-----0
  6
CONTINUOUS
  5
292
 10
333.777845
 20
123.577875
 30
0.0
 40
4.05
 50
274.957671
 51
280.042329
  0
ARC
  8
LC-001-002-----0
  6
CONTINUOUS
  5
293
 10
333.777845
 20
123.577875
 30
0.0
 40
4.05
 50
289.957671
 51
295.042329
  0
ARC
  8
LC-001-002-----0
  6
CONTINUOUS
  5
294
 10
333.777845
 20
123.577875
 30
0.0
 40
4.05
 50
304.957671
 51
310.042329
  0
ARC
  8
LC-001-002-----0
  6
CONTINUOUS
  5
295
 10
333.777845
 20
123.577875
 30
0.0
 40
4.05
 50
319.957671
 51
325.042329
  0
LINE
  8
LC-001-002-----0
  6
CONTINUOUS
  5
296
 10
336.878401
 20
120.972294
 30
0.0
 11
336.708756
 21
120.929807
 31
0.0
  0
ARC
  8
LC-001-002-----0
  6
CONTINUOUS
  5
297
 10
333.777845
 20
123.577875
 30
0.0
 40
3.95
 50
312.097707
 51
317.902293
  0
LINE
  8
LC-001-002-----0
  6
CONTINUOUS
  5
298
 10
337.584623
 20
122.195505
 30
0.0
 11
337.536594
 21
122.363666
 31
0.0
  0
ARC
  8
LC-001-002-----0
  6
CONTINUOUS
  5
299
 10
333.777845
 20
123.577875
 30
0.0
 40
4.05
 50
334.957671
 51
340.042329
  0
LINE
  8
LC-001-002-----0
  6
CONTINUOUS
  5
29A
 10
337.447126
 20
121.86356
 30
0.0
 11
337.294258
 21
121.778613
 31
0.0
  0
ARC
  8
LC-001-002-----0
  6
CONTINUOUS
  5
29B
 10
333.777845
 20
123.577875
 30
0.0
 40
3.95
 50
327.097707
 51
332.902293
  0
LINE
  8
LC-001-002-----0
  6
CONTINUOUS
  5
29C
 10
337.812693
 20
123.227875
 30
0.0
 11
337.722779
 21
123.377875
 31
0.0
  0
ARC
  8
LC-001-002-----0
  6
CONTINUOUS
  5
29D
 10
333.777845
 20
123.577875
 30
0.0
 40
4.05
 50
349.957671
 51
355.042329
  0
LINE
  8
LC-001-002-----0
  6
CONTINUOUS
  5
29E
 10
337.765796
 20
122.871654
 30
0.0
 11
337.640122
 21
122.750036
 31
0.0
  0
ARC
  8
LC-001-002-----0
  6
CONTINUOUS
  5
29F
 10
333.777845
 20
123.577875
 30
0.0
 40
3.95
 50
342.097707
 51
347.902293
  0
LINE
  8
LC-001-002-----0
  6
CONTINUOUS
  5
2A0
 10
337.765796
 20
124.284097
 30
0.0
 11
337.640122
 21
124.405714
 31
0.0
  0
ARC
  8
LC-001-002-----0
  6
CONTINUOUS
  5
2A1
 10
333.777845
 20
123.577875
 30
0.0
 40
4.05
 50
4.957671
 51
10.042329
  0
LINE
  8
LC-001-002-----0
  6
CONTINUOUS
  5
2A2
 10
337.812693
 20
123.927875
 30
0.0
 11
337.722779
 21
123.777875
 31
0.0
  0
ARC
  8
LC-001-002-----0
  6
CONTINUOUS
  5
2A3
 10
333.777845
 20
123.577875
 30
0.0
 40
3.95
 50
357.097707
 51
2.902293
  0
LINE
  8
LC-001-002-----0
  6
CONTINUOUS
  5
2A4
 10
337.447126
 20
125.29219
 30
0.0
 11
337.294258
 21
125.377137
 31
0.0
  0
ARC
  8
LC-001-002-----0
  6
CONTINUOUS
  5
2A5
 10
333.777845
 20
123.577875
 30
0.0
 40
4.05
 50
19.957671
 51
25.042329
  0
LINE
  8
LC-001-002-----0
  6
CONTINUOUS
  5
2A6
 10
337.584623
 20
124.960245
 30
0.0
 11
337.536594
 21
124.792084
 31
0.0
  0
ARC
  8
LC-001-002-----0
  6
CONTINUOUS
  5
2A7
 10
333.777845
 20
123.577875
 30
0.0
 40
3.95
 50
12.097707
 51
17.902293
  0
LINE
  8
LC-001-002-----0
  6
CONTINUOUS
  5
2A8
 10
336.878401
 20
126.183456
 30
0.0
 11
336.708756
 21
126.225943
 31
0.0
  0
ARC
  8
LC-001-002-----0
  6
CONTINUOUS
  5
2A9
 10
333.777845
 20
123.577875
 30
0.0
 40
4.05
 50
34.957671
 51
40.042329
  0
LINE
  8
LC-001-002-----0
  6
CONTINUOUS
  5
2AA
 10
337.097126
 20
125.898408
 30
0.0
 11
337.094258
 21
125.723547
 31
0.0
  0
ARC
  8
LC-001-002-----0
  6
CONTINUOUS
  5
2AB
 10
333.777845
 20
123.577875
 30
0.0
 40
3.95
 50
27.097707
 51
32.902293
  0
LINE
  8
LC-001-002-----0
  6
CONTINUOUS
  5
2AC
 10
336.098378
 20
126.897156
 30
0.0
 11
335.923517
 21
126.894288
 31
0.0
  0
ARC
  8
LC-001-002-----0
  6
CONTINUOUS
  5
2AD
 10
333.777845
 20
123.577875
 30
0.0
 40
4.05
 50
49.957671
 51
55.042329
  0
LINE
  8
LC-001-002-----0
  6
CONTINUOUS
  5
2AE
 10
336.383426
 20
126.678431
 30
0.0
 11
336.425913
 21
126.508786
 31
0.0
  0
ARC
  8
LC-001-002-----0
  6
CONTINUOUS
  5
2AF
 10
333.777845
 20
123.577875
 30
0.0
 40
3.95
 50
42.097707
 51
47.902293
  0
LINE
  8
LC-001-002-----0
  6
CONTINUOUS
  5
2B0
 10
335.160215
 20
127.384652
 30
0.0
 11
334.992054
 21
127.336624
 31
0.0
  0
ARC
  8
LC-001-002-----0
  6
CONTINUOUS
  5
2B1
 10
333.777845
 20
123.577875
 30
0.0
 40
4.05
 50
64.957671
 51
70.042329
  0
LINE
  8
LC-001-002-----0
  6
CONTINUOUS
  5
2B2
 10
335.49216
 20
127.247156
 30
0.0
 11
335.577107
 21
127.094288
 31
0.0
  0
ARC
  8
LC-001-002-----0
  6
CONTINUOUS
  5
2B3
 10
333.777845
 20
123.577875
 30
0.0
 40
3.95
 50
57.097707
 51
62.902293
  0
LINE
  8
LC-001-002-----0
  6
CONTINUOUS
  5
2B4
 10
334.127845
 20
127.612723
 30
0.0
 11
333.977845
 21
127.522808
 31
0.0
  0
ARC
  8
LC-001-002-----0
  6
CONTINUOUS
  5
2B5
 10
333.777845
 20
123.577875
 30
0.0
 40
4.05
 50
79.957671
 51
85.042329
  0
LINE
  8
LC-001-002-----0
  6
CONTINUOUS
  5
2B6
 10
334.484067
 20
127.565826
 30
0.0
 11
334.605684
 21
127.440152
 31
0.0
  0
ARC
  8
LC-001-002-----0
  6
CONTINUOUS
  5
2B7
 10
333.777845
 20
123.577875
 30
0.0
 40
3.95
 50
72.097707
 51
77.902293
  0
CIRCLE
  8
LC-001-002-----0
  6
CONTINUOUS
  5
2B8
 10
333.777845
 20
123.577875
 30
0.0
 40
2.5
  0
ARC
  8
LC-008-005-----0
  6
CONTINUOUS
  5
2B9
 10
333.777845
 20
123.577875
 30
0.0
 40
3.0
 50
170.405932
 51
99.594068
  0
LINE
  8
LC-001-002-----0
  6
CONTINUOUS
 62
     2
  5
2BA
 10
-70.222155
 20
160.577875
 30
0.0
 11
68.777845
 21
160.577875
 31
0.0
  0
ENDSEC
  0
EOF
