  0
SECTION
  2
HEADER
  9
$ACADVER
  1
AC1015
  9
$ACADMAINTVER
 70
     6
  9
$DWGCODEPAGE
  3
ANSI_1252
  9
$INSBASE
 10
0.0
 20
0.0
 30
0.0
  9
$EXTMIN
 10
-282.457552
 20
-226.26346
 30
0.0
  9
$EXTMAX
 10
557.542448
 20
367.73654
 30
0.0
  9
$LIMMIN
 10
-282.457552
 20
-226.26346
  9
$LIMMAX
 10
557.542448
 20
367.73654
  9
$ORTHOMODE
 70
     0
  9
$REGENMODE
 70
     1
  9
$FILLMODE
 70
     1
  9
$QTEXTMODE
 70
     0
  9
$MIRRTEXT
 70
     1
  9
$LTSCALE
 40
2.0
  9
$ATTMODE
 70
     1
  9
$TEXTSIZE
 40
2.5
  9
$TRACEWID
 40
1.0
  9
$TEXTSTYLE
  7
Standard
  9
$CLAYER
  8
0
  9
$CELTYPE
  6
ByLayer
  9
$CECOLOR
 62
     7
  9
$CELTSCALE
 40
1.0
  9
$DISPSILH
 70
     0
  9
$DIMSCALE
 40
2.0
  9
$DIMASZ
 40
3.5
  9
$DIMEXO
 40
0.625
  9
$DIMDLI
 40
3.75
  9
$DIMRND
 40
0.0
  9
$DIMDLE
 40
0.0
  9
$DIMEXE
 40
1.25
  9
$DIMTP
 40
0.0
  9
$DIMTM
 40
0.0
  9
$DIMTXT
 40
3.5
  9
$DIMCEN
 40
2.5
  9
$DIMTSZ
 40
0.0
  9
$DIMTOL
 70
     0
  9
$DIMLIM
 70
     0
  9
$DIMTIH
 70
     0
  9
$DIMTOH
 70
     0
  9
$DIMSE1
 70
     0
  9
$DIMSE2
 70
     0
  9
$DIMTAD
 70
     1
  9
$DIMZIN
 70
     8
  9
$DIMBLK
  1

  9
$DIMASO
 70
     1
  9
$DIMSHO
 70
     1
  9
$DIMPOST
  1

  9
$DIMAPOST
  1

  9
$DIMALT
 70
     0
  9
$DIMALTD
 70
     3
  9
$DIMALTF
 40
0.03937
  9
$DIMLFAC
 40
1.0
  9
$DIMTOFL
 70
     1
  9
$DIMTVP
 40
0.0
  9
$DIMTIX
 70
     0
  9
$DIMSOXD
 70
     0
  9
$DIMSAH
 70
     0
  9
$DIMBLK1
  1

  9
$DIMBLK2
  1

  9
$DIMSTYLE
  2
ISO-25
  9
$DIMCLRD
 70
     0
  9
$DIMCLRE
 70
     0
  9
$DIMCLRT
 70
     0
  9
$DIMTFAC
 40
1.0
  9
$DIMGAP
 40
0.625
  9
$DIMJUST
 70
     0
  9
$DIMSD1
 70
     0
  9
$DIMSD2
 70
     0
  9
$DIMTOLJ
 70
     0
  9
$DIMTZIN
 70
     8
  9
$DIMALTZ
 70
     0
  9
$DIMALTTZ
 70
     0
  9
$DIMUPT
 70
     0
  9
$DIMDEC
 70
     2
  9
$DIMTDEC
 70
     2
  9
$DIMALTU
 70
     2
  9
$DIMALTTD
 70
     3
  9
$DIMTXSTY
  7
Standard
  9
$DIMAUNIT
 70
     0
  9
$DIMADEC
 70
     0
  9
$DIMALTRND
 40
0.0
  9
$DIMAZIN
 70
     0
  9
$DIMDSEP
 70
    44
  9
$DIMATFIT
 70
     3
  9
$DIMFRAC
 70
     0
  9
$DIMLDRBLK
  1

  9
$DIMLUNIT
 70
     2
  9
$DIMLWD
 70
    -2
  9
$DIMLWE
 70
    -2
  9
$DIMTMOVE
 70
     0
  9
$LUNITS
 70
     2
  9
$LUPREC
 70
     4
  9
$SKETCHINC
 40
1.0
  9
$FILLETRAD
 40
10.0
  9
$AUNITS
 70
     0
  9
$AUPREC
 70
     0
  9
$MENU
  1
.
  9
$ELEVATION
 40
0.0
  9
$PELEVATION
 40
0.0
  9
$THICKNESS
 40
0.0
  9
$LIMCHECK
 70
     0
  9
$CHAMFERA
 40
10.0
  9
$CHAMFERB
 40
10.0
  9
$CHAMFERC
 40
20.0
  9
$CHAMFERD
 40
0.0
  9
$SKPOLY
 70
     0
  9
$TDCREATE
 40
2455513.287986076
  9
$TDUCREATE
 40
2455513.24631941
  9
$TDUPDATE
 40
2455513.287986088
  9
$TDUUPDATE
 40
2455513.246319421
  9
$TDINDWG
 40
0.0000000116
  9
$TDUSRTIMER
 40
0.0000000116
  9
$USRTIMER
 70
     1
  9
$ANGBASE
 50
0.0
  9
$ANGDIR
 70
     0
  9
$PDMODE
 70
     0
  9
$PDSIZE
 40
0.0
  9
$PLINEWID
 40
0.0
  9
$SPLFRAME
 70
     0
  9
$SPLINETYPE
 70
     6
  9
$SPLINESEGS
 70
     8
  9
$HANDSEED
  5
56D
  9
$SURFTAB1
 70
     6
  9
$SURFTAB2
 70
     6
  9
$SURFTYPE
 70
     6
  9
$SURFU
 70
     6
  9
$SURFV
 70
     6
  9
$UCSBASE
  2

  9
$UCSNAME
  2

  9
$UCSORG
 10
0.0
 20
0.0
 30
0.0
  9
$UCSXDIR
 10
1.0
 20
0.0
 30
0.0
  9
$UCSYDIR
 10
0.0
 20
1.0
 30
0.0
  9
$UCSORTHOREF
  2

  9
$UCSORTHOVIEW
 70
     0
  9
$UCSORGTOP
 10
0.0
 20
0.0
 30
0.0
  9
$UCSORGBOTTOM
 10
0.0
 20
0.0
 30
0.0
  9
$UCSORGLEFT
 10
0.0
 20
0.0
 30
0.0
  9
$UCSORGRIGHT
 10
0.0
 20
0.0
 30
0.0
  9
$UCSORGFRONT
 10
0.0
 20
0.0
 30
0.0
  9
$UCSORGBACK
 10
0.0
 20
0.0
 30
0.0
  9
$PUCSBASE
  2

  9
$PUCSNAME
  2

  9
$PUCSORG
 10
0.0
 20
0.0
 30
0.0
  9
$PUCSXDIR
 10
1.0
 20
0.0
 30
0.0
  9
$PUCSYDIR
 10
0.0
 20
1.0
 30
0.0
  9
$PUCSORTHOREF
  2

  9
$PUCSORTHOVIEW
 70
     0
  9
$PUCSORGTOP
 10
0.0
 20
0.0
 30
0.0
  9
$PUCSORGBOTTOM
 10
0.0
 20
0.0
 30
0.0
  9
$PUCSORGLEFT
 10
0.0
 20
0.0
 30
0.0
  9
$PUCSORGRIGHT
 10
0.0
 20
0.0
 30
0.0
  9
$PUCSORGFRONT
 10
0.0
 20
0.0
 30
0.0
  9
$PUCSORGBACK
 10
0.0
 20
0.0
 30
0.0
  9
$USERI1
 70
     0
  9
$USERI2
 70
     0
  9
$USERI3
 70
     0
  9
$USERI4
 70
     0
  9
$USERI5
 70
     0
  9
$USERR1
 40
0.0
  9
$USERR2
 40
0.0
  9
$USERR3
 40
0.0
  9
$USERR4
 40
0.0
  9
$USERR5
 40
0.0
  9
$WORLDVIEW
 70
     1
  9
$SHADEDGE
 70
     3
  9
$SHADEDIF
 70
    70
  9
$TILEMODE
 70
     1
  9
$MAXACTVP
 70
    64
  9
$PINSBASE
 10
0.0
 20
0.0
 30
0.0
  9
$PLIMCHECK
 70
     0
  9
$PEXTMIN
 10
-282.457552
 20
-226.26346
 30
0.0
  9
$PEXTMAX
 10
557.542448
 20
367.73654
 30
0.0
  9
$PLIMMIN
 10
-282.457552
 20
-226.26346
  9
$PLIMMAX
 10
557.542448
 20
367.73654
  9
$UNITMODE
 70
     0
  9
$VISRETAIN
 70
     1
  9
$PLINEGEN
 70
     0
  9
$PSLTSCALE
 70
     1
  9
$TREEDEPTH
 70
  3020
  9
$CMLSTYLE
  2
Standard
  9
$CMLJUST
 70
     0
  9
$CMLSCALE
 40
20.0
  9
$PROXYGRAPHICS
 70
     1
  9
$MEASUREMENT
 70
     1
  9
$CELWEIGHT
370
    -1
  9
$ENDCAPS
280
     0
  9
$JOINSTYLE
280
     0
  9
$LWDISPLAY
290
     0
  9
$INSUNITS
 70
     4
  9
$HYPERLINKBASE
  1

  9
$STYLESHEET
  1

  9
$XEDIT
290
     1
  9
$CEPSNTYPE
380
     0
  9
$PSTYLEMODE
290
     1
  9
$FINGERPRINTGUID
  2
{FAEB1C30-E019-11D5-929B-00C0DF256EC4}
  9
$VERSIONGUID
  2
{FAEB1C32-E019-11D5-929B-00C0DF256EC4}
  9
$EXTNAMES
290
     1
  9
$PSVPSCALE
 40
0.0
  9
$OLESTARTUP
290
     0
  0
ENDSEC
  0
SECTION
  2
CLASSES
  0
CLASS
  1
ACDBDICTIONARYWDFLT
  2
AcDbDictionaryWithDefault
  3
ObjectDBX Classes
 90
        0
280
     0
281
     0
  0
CLASS
  1
ACDBPLACEHOLDER
  2
AcDbPlaceHolder
  3
ObjectDBX Classes
 90
        0
280
     0
281
     0
  0
CLASS
  1
LAYOUT
  2
AcDbLayout
  3
ObjectDBX Classes
 90
        0
280
     0
281
     0
  0
ENDSEC
  0
SECTION
  2
TABLES
  0
TABLE
  2
VPORT
  5
8
330
0
100
AcDbSymbolTable
 70
     2
  0
VPORT
  5
29
330
8
100
AcDbSymbolTableRecord
100
AcDbViewportTableRecord
  2
*ACTIVE
 70
     0
 10
0.0
 20
0.0
 11
1.0
 21
1.0
 12
137.542448
 22
70.73654
 13
0.0
 23
0.0
 14
1.0
 24
1.0
 15
0.0
 25
0.0
 16
0.0
 26
0.0
 36
1.0
 17
0.0
 27
0.0
 37
0.0
 40
594.0
 41
1.414141
 42
50.0
 43
0.0
 44
0.0
 50
0.0
 51
0.0
 71
    16
 72
   100
 73
     1
 74
     0
 75
     0
 76
     0
 77
     0
 78
     0
281
     0
 65
     0
110
0.0
120
0.0
130
0.0
111
1.0
121
0.0
131
0.0
112
0.0
122
1.0
132
0.0
 79
     0
146
0.0
  0
ENDTAB
  0
TABLE
  2
LTYPE
  5
5
330
0
100
AcDbSymbolTable
 70
     3
  0
LTYPE
  5
14
330
5
100
AcDbSymbolTableRecord
100
AcDbLinetypeTableRecord
  2
ByBlock
 70
     0
  3

 72
    65
 73
     0
 40
0.0
  0
LTYPE
  5
15
330
5
100
AcDbSymbolTableRecord
100
AcDbLinetypeTableRecord
  2
ByLayer
 70
     0
  3

 72
    65
 73
     0
 40
0.0
  0
LTYPE
  5
16
330
5
100
AcDbSymbolTableRecord
100
AcDbLinetypeTableRecord
  2
Continuous
 70
     0
  3
Solid line
 72
    65
 73
     0
 40
0.0
  0
LTYPE
  5
2A
330
5
100
AcDbSymbolTableRecord
100
AcDbLinetypeTableRecord
  2
DASHED
 70
     0
  3
__ __ __ __ __
 72
    65
 73
     2
 40
6.25
 49
5.0
 74
     4
 75
     0
340
0
 46
1.0
 50
0.0
 44
0.0
 45
0.0
 49
-1.25
 74
     4
 75
     0
340
0
 46
1.0
 50
0.0
 44
0.0
 45
0.0
  0
LTYPE
  5
110
330
5
100
AcDbSymbolTableRecord
100
AcDbLinetypeTableRecord
  2
DASHDOT
 70
     0
  3
__ . __ . __ . __ . __
 72
    65
 73
     4
 40
7.5
 49
5.0
 74
     4
 75
     0
340
0
 46
1.0
 50
0.0
 44
0.0
 45
0.0
 49
-1.25
 74
     4
 75
     0
340
0
 46
1.0
 50
0.0
 44
0.0
 45
0.0
 49
0.0
 74
     4
 75
     0
340
0
 46
1.0
 50
0.0
 44
0.0
 45
0.0
 49
-1.25
 74
     4
 75
     0
340
0
 46
1.0
 50
0.0
 44
0.0
 45
0.0
  0
ENDTAB
  0
TABLE
  2
LAYER
  5
2
330
0
100
AcDbSymbolTable
 70
    11
  0
LAYER
  5
10
330
2
100
AcDbSymbolTableRecord
100
AcDbLayerTableRecord
  2
0
 70
     0
 62
     7
  6
Continuous
370
    -3
390
F
  0
LAYER
  5
2B
330
2
100
AcDbSymbolTableRecord
100
AcDbLayerTableRecord
  2
LC-INFO-1-2-mm-A3-0
 70
     1
 62
     7
  6
ByBlock
370
    -3
390
F
  0
LAYER
  5
2C
330
2
100
AcDbSymbolTableRecord
100
AcDbLayerTableRecord
  2
LC-CUT-HIDDEN
 70
     0
 62
     7
  6
DASHED
370
    -3
390
F
  0
LAYER
  5
2D
330
2
100
AcDbSymbolTableRecord
100
AcDbLayerTableRecord
  2
LC-VIEWPORT
 70
     0
 62
     7
  6
ByBlock
370
    -3
390
F
  0
LAYER
  5
2E
330
2
100
AcDbSymbolTableRecord
100
AcDbLayerTableRecord
  2
LC-3D-HIDDEN
 70
     0
 62
     9
  6
DASHED
370
    -3
390
F
  0
LAYER
  5
33
330
2
100
AcDbSymbolTableRecord
100
AcDbLayerTableRecord
  2
LC-001-100-D00-0
 70
     0
 62
     1
  6
ByBlock
370
    -3
390
F
  0
LAYER
  5
115
330
2
100
AcDbSymbolTableRecord
100
AcDbLayerTableRecord
  2
LC-002-003-----0
 70
     0
 62
     2
  6
ByBlock
370
    -3
390
F
  0
LAYER
  5
117
330
2
100
AcDbSymbolTableRecord
100
AcDbLayerTableRecord
  2
Defpoints
 70
     0
 62
     7
  6
Continuous
290
     0
370
    -3
390
F
  0
LAYER
  5
201
330
2
100
AcDbSymbolTableRecord
100
AcDbLayerTableRecord
  2
LC-003-005-----0
 70
     0
 62
     2
  6
ByBlock
370
    -3
390
F
  0
LAYER
  5
20B
330
2
100
AcDbSymbolTableRecord
100
AcDbLayerTableRecord
  2
LC-004-002-----0
 70
     0
 62
     1
  6
ByBlock
370
    -3
390
F
  0
LAYER
  5
22D
330
2
100
AcDbSymbolTableRecord
100
AcDbLayerTableRecord
  2
LC-005-002-RND-0
 70
     0
 62
     1
  6
ByBlock
370
    -3
390
F
  0
ENDTAB
  0
TABLE
  2
STYLE
  5
3
330
0
100
AcDbSymbolTable
 70
     3
  0
STYLE
  5
11
330
3
100
AcDbSymbolTableRecord
100
AcDbTextStyleTableRecord
  2
Standard
 70
     0
 40
0.0
 41
1.0
 50
0.0
 71
     0
 42
2.5
  3
txt
  4

  0
STYLE
  5
2F
330
3
100
AcDbSymbolTableRecord
100
AcDbTextStyleTableRecord
  2
LCTX15-400-0-0-Arial
 70
     0
 40
0.0
 41
0.8
 50
0.0
 71
     0
 42
3.5
  3

  4

1001
ACAD
1000
Arial
1071
 16777218
  0
STYLE
  5
113
330
3
100
AcDbSymbolTableRecord
100
AcDbTextStyleTableRecord
  2
LCTX15-400-0-0pDIN-Schrift
 70
     0
 40
2.5
 41
0.8
 50
15.0
 71
     0
 42
3.5
  3
STANDARD
  4

  0
ENDTAB
  0
TABLE
  2
VIEW
  5
6
330
0
100
AcDbSymbolTable
 70
     0
  0
ENDTAB
  0
TABLE
  2
UCS
  5
7
330
0
100
AcDbSymbolTable
 70
     0
  0
ENDTAB
  0
TABLE
  2
APPID
  5
9
330
0
100
AcDbSymbolTable
 70
     1
  0
APPID
  5
12
330
9
100
AcDbSymbolTableRecord
100
AcDbRegAppTableRecord
  2
ACAD
 70
     0
  0
ENDTAB
  0
TABLE
  2
DIMSTYLE
  5
A
330
0
100
AcDbSymbolTable
 70
     2
100
AcDbDimStyleTable
  0
DIMSTYLE
105
27
330
A
100
AcDbSymbolTableRecord
100
AcDbDimStyleTableRecord
  2
ISO-25
 70
     0
 41
2.5
 42
0.625
 43
3.75
 44
1.25
 73
     0
 74
     0
 77
     1
 78
     8
140
2.5
141
2.5
143
0.03937
147
0.625
171
     3
172
     1
271
     2
272
     2
274
     3
278
    44
283
     0
284
     8
340
11
  0
DIMSTYLE
105
114
102
{ACAD_REACTORS
330
116
330
124
330
131
330
140
102
}
330
A
100
AcDbSymbolTableRecord
100
AcDbDimStyleTableRecord
  2
LC-DIM-L-0140-02-02
 70
     0
 40
2.0
 41
14.0
 42
0.0
 43
7.5
 44
1.8
 73
     0
 74
     0
 77
     1
 78
     8
 79
     2
140
14.0
141
0.0
146
0.71
147
1.5
176
     2
177
     2
178
     2
179
     2
271
     2
278
    44
289
     1
340
113
  0
ENDTAB
  0
TABLE
  2
BLOCK_RECORD
  5
1
330
0
100
AcDbSymbolTable
 70
    41
  0
BLOCK_RECORD
  5
1F
330
1
100
AcDbSymbolTableRecord
100
AcDbBlockTableRecord
  2
*Model_Space
340
22
  0
BLOCK_RECORD
  5
1B
330
1
100
AcDbSymbolTableRecord
100
AcDbBlockTableRecord
  2
*Paper_Space
340
1E
  0
BLOCK_RECORD
  5
23
330
1
100
AcDbSymbolTableRecord
100
AcDbBlockTableRecord
  2
*Paper_Space0
340
26
  0
BLOCK_RECORD
  5
30
330
1
100
AcDbSymbolTableRecord
100
AcDbBlockTableRecord
  2
POLY1
340
0
102
{BLKREFS
331
48
102
}
  0
BLOCK_RECORD
  5
7D
330
1
100
AcDbSymbolTableRecord
100
AcDbBlockTableRecord
  2
POLY2
340
0
102
{BLKREFS
331
8E
102
}
  0
BLOCK_RECORD
  5
94
330
1
100
AcDbSymbolTableRecord
100
AcDbBlockTableRecord
  2
POLY3
340
0
102
{BLKREFS
331
A5
102
}
  0
BLOCK_RECORD
  5
A6
330
1
100
AcDbSymbolTableRecord
100
AcDbBlockTableRecord
  2
POLY4
340
0
102
{BLKREFS
331
B1
102
}
  0
BLOCK_RECORD
  5
B6
330
1
100
AcDbSymbolTableRecord
100
AcDbBlockTableRecord
  2
POLY5
340
0
102
{BLKREFS
331
C7
102
}
  0
BLOCK_RECORD
  5
C8
330
1
100
AcDbSymbolTableRecord
100
AcDbBlockTableRecord
  2
POLY6
340
0
102
{BLKREFS
331
D3
102
}
  0
BLOCK_RECORD
  5
EE
330
1
100
AcDbSymbolTableRecord
100
AcDbBlockTableRecord
  2
KLON1
340
0
102
{BLKREFS
331
F6
102
}
  0
BLOCK_RECORD
  5
F7
330
1
100
AcDbSymbolTableRecord
100
AcDbBlockTableRecord
  2
KLON2
340
0
102
{BLKREFS
331
100
102
}
  0
BLOCK_RECORD
  5
101
330
1
100
AcDbSymbolTableRecord
100
AcDbBlockTableRecord
  2
KLON3
340
0
102
{BLKREFS
331
106
102
}
  0
BLOCK_RECORD
  5
107
330
1
100
AcDbSymbolTableRecord
100
AcDbBlockTableRecord
  2
KLON4
340
0
102
{BLKREFS
331
10F
102
}
  0
BLOCK_RECORD
  5
118
330
1
100
AcDbSymbolTableRecord
100
AcDbBlockTableRecord
  2
*D11
340
0
  0
BLOCK_RECORD
  5
125
330
1
100
AcDbSymbolTableRecord
100
AcDbBlockTableRecord
  2
*D12
340
0
  0
BLOCK_RECORD
  5
132
330
1
100
AcDbSymbolTableRecord
100
AcDbBlockTableRecord
  2
*D13
340
0
  0
BLOCK_RECORD
  5
141
330
1
100
AcDbSymbolTableRecord
100
AcDbBlockTableRecord
  2
*D14
340
0
  0
BLOCK_RECORD
  5
1FE
330
1
100
AcDbSymbolTableRecord
100
AcDbBlockTableRecord
  2
*X115
340
0
102
{BLKREFS
331
20A
102
}
  0
BLOCK_RECORD
  5
233
330
1
100
AcDbSymbolTableRecord
100
AcDbBlockTableRecord
  2
*X216
340
0
102
{BLKREFS
331
23D
102
}
  0
BLOCK_RECORD
  5
23E
330
1
100
AcDbSymbolTableRecord
100
AcDbBlockTableRecord
  2
*X317
340
0
102
{BLKREFS
331
247
102
}
  0
BLOCK_RECORD
  5
24B
330
1
100
AcDbSymbolTableRecord
100
AcDbBlockTableRecord
  2
*X418
340
0
102
{BLKREFS
331
254
102
}
  0
BLOCK_RECORD
  5
25E
330
1
100
AcDbSymbolTableRecord
100
AcDbBlockTableRecord
  2
*X519
340
0
102
{BLKREFS
331
269
102
}
  0
BLOCK_RECORD
  5
298
330
1
100
AcDbSymbolTableRecord
100
AcDbBlockTableRecord
  2
*X620
340
0
102
{BLKREFS
331
2A0
102
}
  0
BLOCK_RECORD
  5
2A1
330
1
100
AcDbSymbolTableRecord
100
AcDbBlockTableRecord
  2
*X721
340
0
102
{BLKREFS
331
2A9
102
}
  0
BLOCK_RECORD
  5
2AD
330
1
100
AcDbSymbolTableRecord
100
AcDbBlockTableRecord
  2
*X822
340
0
102
{BLKREFS
331
2B7
102
}
  0
BLOCK_RECORD
  5
421
330
1
100
AcDbSymbolTableRecord
100
AcDbBlockTableRecord
  2
POLY7
340
0
102
{BLKREFS
331
434
102
}
  0
BLOCK_RECORD
  5
435
330
1
100
AcDbSymbolTableRecord
100
AcDbBlockTableRecord
  2
POLY8
340
0
102
{BLKREFS
331
444
102
}
  0
BLOCK_RECORD
  5
445
330
1
100
AcDbSymbolTableRecord
100
AcDbBlockTableRecord
  2
POLY9
340
0
102
{BLKREFS
331
458
102
}
  0
BLOCK_RECORD
  5
459
330
1
100
AcDbSymbolTableRecord
100
AcDbBlockTableRecord
  2
POLY10
340
0
102
{BLKREFS
331
468
102
}
  0
BLOCK_RECORD
  5
469
330
1
100
AcDbSymbolTableRecord
100
AcDbBlockTableRecord
  2
POLY11
340
0
102
{BLKREFS
331
47C
102
}
  0
BLOCK_RECORD
  5
47D
330
1
100
AcDbSymbolTableRecord
100
AcDbBlockTableRecord
  2
POLY12
340
0
102
{BLKREFS
331
48C
102
}
  0
BLOCK_RECORD
  5
48D
330
1
100
AcDbSymbolTableRecord
100
AcDbBlockTableRecord
  2
POLY13
340
0
102
{BLKREFS
331
4A0
102
}
  0
BLOCK_RECORD
  5
4A1
330
1
100
AcDbSymbolTableRecord
100
AcDbBlockTableRecord
  2
POLY14
340
0
102
{BLKREFS
331
4B0
102
}
  0
BLOCK_RECORD
  5
4B1
330
1
100
AcDbSymbolTableRecord
100
AcDbBlockTableRecord
  2
POLY15
340
0
102
{BLKREFS
331
4C4
102
}
  0
BLOCK_RECORD
  5
4C5
330
1
100
AcDbSymbolTableRecord
100
AcDbBlockTableRecord
  2
POLY16
340
0
102
{BLKREFS
331
4D4
102
}
  0
BLOCK_RECORD
  5
4D5
330
1
100
AcDbSymbolTableRecord
100
AcDbBlockTableRecord
  2
POLY17
340
0
102
{BLKREFS
331
4E8
102
}
  0
BLOCK_RECORD
  5
4E9
330
1
100
AcDbSymbolTableRecord
100
AcDbBlockTableRecord
  2
POLY18
340
0
102
{BLKREFS
331
4F8
102
}
  0
BLOCK_RECORD
  5
4F9
330
1
100
AcDbSymbolTableRecord
100
AcDbBlockTableRecord
  2
POLY19
340
0
102
{BLKREFS
331
50C
102
}
  0
BLOCK_RECORD
  5
50D
330
1
100
AcDbSymbolTableRecord
100
AcDbBlockTableRecord
  2
POLY20
340
0
102
{BLKREFS
331
51C
102
}
  0
BLOCK_RECORD
  5
51D
330
1
100
AcDbSymbolTableRecord
100
AcDbBlockTableRecord
  2
POLY21
340
0
102
{BLKREFS
331
52C
102
}
  0
BLOCK_RECORD
  5
52D
330
1
100
AcDbSymbolTableRecord
100
AcDbBlockTableRecord
  2
POLY22
340
0
102
{BLKREFS
331
540
102
}
  0
BLOCK_RECORD
  5
559
330
1
100
AcDbSymbolTableRecord
100
AcDbBlockTableRecord
  2
KLON5
340
0
102
{BLKREFS
331
55E
102
}
  0
BLOCK_RECORD
  5
564
330
1
100
AcDbSymbolTableRecord
100
AcDbBlockTableRecord
  2
KLON6
340
0
102
{BLKREFS
331
569
102
}
  0
ENDTAB
  0
ENDSEC
  0
SECTION
  2
BLOCKS
  0
BLOCK
  5
20
330
1F
100
AcDbEntity
  8
0
100
AcDbBlockBegin
  2
*Model_Space
 70
     0
 71
     0
 10
0.0
 20
0.0
 30
0.0
  3
*Model_Space
  1

  0
ENDBLK
  5
21
330
1F
100
AcDbEntity
  8
0
100
AcDbBlockEnd
  0
BLOCK
  5
1C
330
1B
100
AcDbEntity
 67
     1
  8
0
100
AcDbBlockBegin
  2
*Paper_Space
 70
     0
 71
     0
 10
0.0
 20
0.0
 30
0.0
  3
*Paper_Space
  1

  0
ENDBLK
  5
1D
330
1B
100
AcDbEntity
 67
     1
  8
0
100
AcDbBlockEnd
  0
BLOCK
  5
24
330
23
100
AcDbEntity
  8
0
100
AcDbBlockBegin
  2
*Paper_Space0
 70
     0
 71
     0
 10
0.0
 20
0.0
 30
0.0
  3
*Paper_Space0
  1

  0
ENDBLK
  5
25
330
23
100
AcDbEntity
  8
0
100
AcDbBlockEnd
  0
BLOCK
  5
31
330
30
100
AcDbEntity
  8
0
100
AcDbBlockBegin
  2
POLY1
 70
     0
 71
     0
 10
0.0
 20
0.0
 30
0.0
  3
POLY1
  1

  4
POLY1
  0
LINE
  5
34
330
30
100
AcDbEntity
  8
LC-001-100-D00-0
 62
     7
370
    50
100
AcDbLine
 10
102.680889
 20
131.886754
 30
0.0
 11
102.680889
 21
131.886754
 31
0.0
  0
LINE
  5
35
330
30
100
AcDbEntity
  8
LC-001-100-D00-0
 62
     7
370
    50
100
AcDbLine
 10
102.680889
 20
131.886754
 30
0.0
 11
102.688724
 21
131.898173
 31
0.0
  0
LINE
  5
36
330
30
100
AcDbEntity
  8
LC-001-100-D00-0
 62
     7
370
    50
100
AcDbLine
 10
102.688724
 20
131.898173
 30
0.0
 11
102.688724
 21
131.898173
 31
0.0
  0
LINE
  5
37
330
30
100
AcDbEntity
  8
LC-001-100-D00-0
 62
     7
370
    50
100
AcDbLine
 10
102.688724
 20
131.898173
 30
0.0
 11
102.71461
 21
131.9359
 31
0.0
  0
LINE
  5
38
330
30
100
AcDbEntity
  8
LC-001-100-D00-0
 62
     7
370
    50
100
AcDbLine
 10
102.71461
 20
131.9359
 30
0.0
 11
102.71461
 21
131.9359
 31
0.0
  0
LINE
  5
39
330
30
100
AcDbEntity
  8
LC-001-100-D00-0
 62
     7
370
    50
100
AcDbLine
 10
102.71461
 20
131.9359
 30
0.0
 11
102.752448
 21
131.983507
 31
0.0
  0
LINE
  5
3A
330
30
100
AcDbEntity
  8
LC-001-100-D00-0
 62
     7
370
    50
100
AcDbLine
 10
102.752448
 20
131.983507
 30
0.0
 11
102.752448
 21
131.983507
 31
0.0
  0
LINE
  5
3B
330
30
100
AcDbEntity
  8
LC-001-100-D00-0
 62
     7
370
    50
100
AcDbLine
 10
102.752448
 20
131.983507
 30
0.0
 11
102.780977
 21
132.019051
 31
0.0
  0
LINE
  5
3C
330
30
100
AcDbEntity
  8
LC-001-100-D00-0
 62
     7
370
    50
100
AcDbLine
 10
102.780977
 20
132.019051
 30
0.0
 11
102.780977
 21
132.019051
 31
0.0
  0
LINE
  5
3D
330
30
100
AcDbEntity
  8
LC-001-100-D00-0
 62
     7
370
    50
100
AcDbLine
 10
102.780977
 20
132.019051
 30
0.0
 11
102.793319
 21
132.034116
 31
0.0
  0
LINE
  5
3E
330
30
100
AcDbEntity
  8
LC-001-100-D00-0
 62
     7
370
    50
100
AcDbLine
 10
102.793319
 20
132.034116
 30
0.0
 11
102.793319
 21
132.034116
 31
0.0
  0
LINE
  5
3F
330
30
100
AcDbEntity
  8
LC-001-100-D00-0
 62
     7
370
    50
100
AcDbLine
 10
102.793319
 20
132.034116
 30
0.0
 11
102.803802
 21
132.046831
 31
0.0
  0
LINE
  5
40
330
30
100
AcDbEntity
  8
LC-001-100-D00-0
 62
     7
370
    50
100
AcDbLine
 10
102.803802
 20
132.046831
 30
0.0
 11
102.803802
 21
132.046831
 31
0.0
  0
LINE
  5
41
330
30
100
AcDbEntity
  8
LC-001-100-D00-0
 62
     7
370
    50
100
AcDbLine
 10
102.803802
 20
132.046831
 30
0.0
 11
102.817256
 21
132.062858
 31
0.0
  0
LINE
  5
42
330
30
100
AcDbEntity
  8
LC-001-100-D00-0
 62
     7
370
    50
100
AcDbLine
 10
102.817256
 20
132.062858
 30
0.0
 11
102.817256
 21
132.062858
 31
0.0
  0
LINE
  5
43
330
30
100
AcDbEntity
  8
LC-001-100-D00-0
 62
     7
370
    50
100
AcDbLine
 10
102.817256
 20
132.062858
 30
0.0
 11
102.83166
 21
132.079874
 31
0.0
  0
LINE
  5
44
330
30
100
AcDbEntity
  8
LC-001-100-D00-0
 62
     7
370
    50
100
AcDbLine
 10
102.83166
 20
132.079874
 30
0.0
 11
102.83166
 21
132.079874
 31
0.0
  0
LINE
  5
45
330
30
100
AcDbEntity
  8
LC-001-100-D00-0
 62
     7
370
    50
100
AcDbLine
 10
102.83166
 20
132.079874
 30
0.0
 11
102.84078
 21
132.09024
 31
0.0
  0
LINE
  5
46
330
30
100
AcDbEntity
  8
LC-001-100-D00-0
 62
     7
370
    50
100
AcDbLine
 10
102.84078
 20
132.09024
 30
0.0
 11
102.84078
 21
132.09024
 31
0.0
  0
LINE
  5
47
330
30
100
AcDbEntity
  8
LC-001-100-D00-0
 62
     7
370
    50
100
AcDbLine
 10
102.84078
 20
132.09024
 30
0.0
 11
102.84659
 21
132.096844
 31
0.0
  0
ENDBLK
  5
32
330
30
100
AcDbEntity
  8
0
100
AcDbBlockEnd
  0
BLOCK
  5
7E
330
7D
100
AcDbEntity
  8
0
100
AcDbBlockBegin
  2
POLY2
 70
     0
 71
     0
 10
0.0
 20
0.0
 30
0.0
  3
POLY2
  1

  4
POLY2
  0
LINE
  5
80
330
7D
100
AcDbEntity
  8
LC-001-100-D00-0
 62
     7
370
    50
100
AcDbLine
 10
102.110413
 20
130.128558
 30
0.0
 11
102.110413
 21
130.128558
 31
0.0
  0
LINE
  5
81
330
7D
100
AcDbEntity
  8
LC-001-100-D00-0
 62
     7
370
    50
100
AcDbLine
 10
102.110413
 20
130.128558
 30
0.0
 11
102.101791
 21
130.119311
 31
0.0
  0
LINE
  5
82
330
7D
100
AcDbEntity
  8
LC-001-100-D00-0
 62
     7
370
    50
100
AcDbLine
 10
102.101791
 20
130.119311
 30
0.0
 11
102.101791
 21
130.119311
 31
0.0
  0
LINE
  5
83
330
7D
100
AcDbEntity
  8
LC-001-100-D00-0
 62
     7
370
    50
100
AcDbLine
 10
102.101791
 20
130.119311
 30
0.0
 11
102.079327
 21
130.095219
 31
0.0
  0
LINE
  5
84
330
7D
100
AcDbEntity
  8
LC-001-100-D00-0
 62
     7
370
    50
100
AcDbLine
 10
102.079327
 20
130.095219
 30
0.0
 11
102.079327
 21
130.095219
 31
0.0
  0
LINE
  5
85
330
7D
100
AcDbEntity
  8
LC-001-100-D00-0
 62
     7
370
    50
100
AcDbLine
 10
102.079327
 20
130.095219
 30
0.0
 11
101.853386
 21
129.862812
 31
0.0
  0
LINE
  5
86
330
7D
100
AcDbEntity
  8
LC-001-100-D00-0
 62
     7
370
    50
100
AcDbLine
 10
101.853386
 20
129.862812
 30
0.0
 11
101.853386
 21
129.862812
 31
0.0
  0
LINE
  5
87
330
7D
100
AcDbEntity
  8
LC-001-100-D00-0
 62
     7
370
    50
100
AcDbLine
 10
101.853386
 20
129.862812
 30
0.0
 11
101.382185
 21
129.518286
 31
0.0
  0
LINE
  5
88
330
7D
100
AcDbEntity
  8
LC-001-100-D00-0
 62
     7
370
    50
100
AcDbLine
 10
101.382185
 20
129.518286
 30
0.0
 11
101.382185
 21
129.518286
 31
0.0
  0
LINE
  5
89
330
7D
100
AcDbEntity
  8
LC-001-100-D00-0
 62
     7
370
    50
100
AcDbLine
 10
101.382185
 20
129.518286
 30
0.0
 11
100.69877
 21
129.170691
 31
0.0
  0
LINE
  5
8A
330
7D
100
AcDbEntity
  8
LC-001-100-D00-0
 62
     7
370
    50
100
AcDbLine
 10
100.69877
 20
129.170691
 30
0.0
 11
100.69877
 21
129.170691
 31
0.0
  0
LINE
  5
8B
330
7D
100
AcDbEntity
  8
LC-001-100-D00-0
 62
     7
370
    50
100
AcDbLine
 10
100.69877
 20
129.170691
 30
0.0
 11
100.051871
 21
129.108922
 31
0.0
  0
LINE
  5
8C
330
7D
100
AcDbEntity
  8
LC-001-100-D00-0
 62
     7
370
    50
100
AcDbLine
 10
100.051871
 20
129.108922
 30
0.0
 11
100.051871
 21
129.108922
 31
0.0
  0
LINE
  5
8D
330
7D
100
AcDbEntity
  8
LC-001-100-D00-0
 62
     7
370
    50
100
AcDbLine
 10
100.051871
 20
129.108922
 30
0.0
 11
99.728522
 21
129.078048
 31
0.0
  0
ENDBLK
  5
7F
330
7D
100
AcDbEntity
  8
0
100
AcDbBlockEnd
  0
BLOCK
  5
95
330
94
100
AcDbEntity
  8
0
100
AcDbBlockBegin
  2
POLY3
 70
     0
 71
     0
 10
0.0
 20
0.0
 30
0.0
  3
POLY3
  1

  4
POLY3
  0
LINE
  5
97
330
94
100
AcDbEntity
  8
LC-001-100-D00-0
 62
     7
370
    50
100
AcDbLine
 10
107.610402
 20
133.178048
 30
0.0
 11
107.610402
 21
133.178048
 31
0.0
  0
LINE
  5
98
330
94
100
AcDbEntity
  8
LC-001-100-D00-0
 62
     7
370
    50
100
AcDbLine
 10
107.610402
 20
133.178048
 30
0.0
 11
107.615909
 21
133.121965
 31
0.0
  0
LINE
  5
99
330
94
100
AcDbEntity
  8
LC-001-100-D00-0
 62
     7
370
    50
100
AcDbLine
 10
107.615909
 20
133.121965
 30
0.0
 11
107.615909
 21
133.121965
 31
0.0
  0
LINE
  5
9A
330
94
100
AcDbEntity
  8
LC-001-100-D00-0
 62
     7
370
    50
100
AcDbLine
 10
107.615909
 20
133.121965
 30
0.0
 11
107.626922
 21
133.009789
 31
0.0
  0
LINE
  5
9B
330
94
100
AcDbEntity
  8
LC-001-100-D00-0
 62
     7
370
    50
100
AcDbLine
 10
107.626922
 20
133.009789
 30
0.0
 11
107.626922
 21
133.009789
 31
0.0
  0
LINE
  5
9C
330
94
100
AcDbEntity
  8
LC-001-100-D00-0
 62
     7
370
    50
100
AcDbLine
 10
107.626922
 20
133.009789
 30
0.0
 11
107.712475
 21
132.86069
 31
0.0
  0
LINE
  5
9D
330
94
100
AcDbEntity
  8
LC-001-100-D00-0
 62
     7
370
    50
100
AcDbLine
 10
107.712475
 20
132.86069
 30
0.0
 11
107.712475
 21
132.86069
 31
0.0
  0
LINE
  5
9E
330
94
100
AcDbEntity
  8
LC-001-100-D00-0
 62
     7
370
    50
100
AcDbLine
 10
107.712475
 20
132.86069
 30
0.0
 11
107.835517
 21
132.750258
 31
0.0
  0
LINE
  5
9F
330
94
100
AcDbEntity
  8
LC-001-100-D00-0
 62
     7
370
    50
100
AcDbLine
 10
107.835517
 20
132.750258
 30
0.0
 11
107.835517
 21
132.750258
 31
0.0
  0
LINE
  5
A0
330
94
100
AcDbEntity
  8
LC-001-100-D00-0
 62
     7
370
    50
100
AcDbLine
 10
107.835517
 20
132.750258
 30
0.0
 11
107.977494
 21
132.687549
 31
0.0
  0
LINE
  5
A1
330
94
100
AcDbEntity
  8
LC-001-100-D00-0
 62
     7
370
    50
100
AcDbLine
 10
107.977494
 20
132.687549
 30
0.0
 11
107.977494
 21
132.687549
 31
0.0
  0
LINE
  5
A2
330
94
100
AcDbEntity
  8
LC-001-100-D00-0
 62
     7
370
    50
100
AcDbLine
 10
107.977494
 20
132.687549
 30
0.0
 11
108.067544
 21
132.681111
 31
0.0
  0
LINE
  5
A3
330
94
100
AcDbEntity
  8
LC-001-100-D00-0
 62
     7
370
    50
100
AcDbLine
 10
108.067544
 20
132.681111
 30
0.0
 11
108.067544
 21
132.681111
 31
0.0
  0
LINE
  5
A4
330
94
100
AcDbEntity
  8
LC-001-100-D00-0
 62
     7
370
    50
100
AcDbLine
 10
108.067544
 20
132.681111
 30
0.0
 11
108.110396
 21
132.678048
 31
0.0
  0
ENDBLK
  5
96
330
94
100
AcDbEntity
  8
0
100
AcDbBlockEnd
  0
BLOCK
  5
A7
330
A6
100
AcDbEntity
  8
0
100
AcDbBlockBegin
  2
POLY4
 70
     0
 71
     0
 10
0.0
 20
0.0
 30
0.0
  3
POLY4
  1

  4
POLY4
  0
LINE
  5
A9
330
A6
100
AcDbEntity
  8
LC-001-100-D00-0
 62
     7
370
    50
100
AcDbLine
 10
108.110396
 20
131.678048
 30
0.0
 11
108.110396
 21
131.678048
 31
0.0
  0
LINE
  5
AA
330
A6
100
AcDbEntity
  8
LC-001-100-D00-0
 62
     7
370
    50
100
AcDbLine
 10
108.110396
 20
131.678048
 30
0.0
 11
108.021647
 21
131.681604
 31
0.0
  0
LINE
  5
AB
330
A6
100
AcDbEntity
  8
LC-001-100-D00-0
 62
     7
370
    50
100
AcDbLine
 10
108.021647
 20
131.681604
 30
0.0
 11
108.021647
 21
131.681604
 31
0.0
  0
LINE
  5
AC
330
A6
100
AcDbEntity
  8
LC-001-100-D00-0
 62
     7
370
    50
100
AcDbLine
 10
108.021647
 20
131.681604
 30
0.0
 11
107.859388
 21
131.688107
 31
0.0
  0
LINE
  5
AD
330
A6
100
AcDbEntity
  8
LC-001-100-D00-0
 62
     7
370
    50
100
AcDbLine
 10
107.859388
 20
131.688107
 30
0.0
 11
107.859388
 21
131.688107
 31
0.0
  0
LINE
  5
AE
330
A6
100
AcDbEntity
  8
LC-001-100-D00-0
 62
     7
370
    50
100
AcDbLine
 10
107.859388
 20
131.688107
 30
0.0
 11
107.688034
 21
131.740223
 31
0.0
  0
LINE
  5
AF
330
A6
100
AcDbEntity
  8
LC-001-100-D00-0
 62
     7
370
    50
100
AcDbLine
 10
107.688034
 20
131.740223
 30
0.0
 11
107.688034
 21
131.740223
 31
0.0
  0
LINE
  5
B0
330
A6
100
AcDbEntity
  8
LC-001-100-D00-0
 62
     7
370
    50
100
AcDbLine
 10
107.688034
 20
131.740223
 30
0.0
 11
107.610402
 21
131.763834
 31
0.0
  0
ENDBLK
  5
A8
330
A6
100
AcDbEntity
  8
0
100
AcDbBlockEnd
  0
BLOCK
  5
B7
330
B6
100
AcDbEntity
  8
0
100
AcDbBlockBegin
  2
POLY5
 70
     0
 71
     0
 10
0.0
 20
0.0
 30
0.0
  3
POLY5
  1

  4
POLY5
  0
LINE
  5
B9
330
B6
100
AcDbEntity
  8
LC-001-100-D00-0
 62
     7
370
    50
100
AcDbLine
 10
-40.889593
 20
132.678048
 30
0.0
 11
-40.889593
 21
132.678048
 31
0.0
  0
LINE
  5
BA
330
B6
100
AcDbEntity
  8
LC-001-100-D00-0
 62
     7
370
    50
100
AcDbLine
 10
-40.889593
 20
132.678048
 30
0.0
 11
-40.83994
 21
132.682122
 31
0.0
  0
LINE
  5
BB
330
B6
100
AcDbEntity
  8
LC-001-100-D00-0
 62
     7
370
    50
100
AcDbLine
 10
-40.83994
 20
132.682122
 30
0.0
 11
-40.83994
 21
132.682122
 31
0.0
  0
LINE
  5
BC
330
B6
100
AcDbEntity
  8
LC-001-100-D00-0
 62
     7
370
    50
100
AcDbLine
 10
-40.83994
 20
132.682122
 30
0.0
 11
-40.740468
 21
132.690283
 31
0.0
  0
LINE
  5
BD
330
B6
100
AcDbEntity
  8
LC-001-100-D00-0
 62
     7
370
    50
100
AcDbLine
 10
-40.740468
 20
132.690283
 30
0.0
 11
-40.740468
 21
132.690283
 31
0.0
  0
LINE
  5
BE
330
B6
100
AcDbEntity
  8
LC-001-100-D00-0
 62
     7
370
    50
100
AcDbLine
 10
-40.740468
 20
132.690283
 30
0.0
 11
-40.593905
 21
132.764278
 31
0.0
  0
LINE
  5
BF
330
B6
100
AcDbEntity
  8
LC-001-100-D00-0
 62
     7
370
    50
100
AcDbLine
 10
-40.593905
 20
132.764278
 30
0.0
 11
-40.593905
 21
132.764278
 31
0.0
  0
LINE
  5
C0
330
B6
100
AcDbEntity
  8
LC-001-100-D00-0
 62
     7
370
    50
100
AcDbLine
 10
-40.593905
 20
132.764278
 30
0.0
 11
-40.478954
 21
132.878889
 31
0.0
  0
LINE
  5
C1
330
B6
100
AcDbEntity
  8
LC-001-100-D00-0
 62
     7
370
    50
100
AcDbLine
 10
-40.478954
 20
132.878889
 30
0.0
 11
-40.478954
 21
132.878889
 31
0.0
  0
LINE
  5
C2
330
B6
100
AcDbEntity
  8
LC-001-100-D00-0
 62
     7
370
    50
100
AcDbLine
 10
-40.478954
 20
132.878889
 30
0.0
 11
-40.403722
 21
133.021465
 31
0.0
  0
LINE
  5
C3
330
B6
100
AcDbEntity
  8
LC-001-100-D00-0
 62
     7
370
    50
100
AcDbLine
 10
-40.403722
 20
133.021465
 30
0.0
 11
-40.403722
 21
133.021465
 31
0.0
  0
LINE
  5
C4
330
B6
100
AcDbEntity
  8
LC-001-100-D00-0
 62
     7
370
    50
100
AcDbLine
 10
-40.403722
 20
133.021465
 30
0.0
 11
-40.394252
 21
133.126471
 31
0.0
  0
LINE
  5
C5
330
B6
100
AcDbEntity
  8
LC-001-100-D00-0
 62
     7
370
    50
100
AcDbLine
 10
-40.394252
 20
133.126471
 30
0.0
 11
-40.394252
 21
133.126471
 31
0.0
  0
LINE
  5
C6
330
B6
100
AcDbEntity
  8
LC-001-100-D00-0
 62
     7
370
    50
100
AcDbLine
 10
-40.394252
 20
133.126471
 30
0.0
 11
-40.3896
 21
133.178048
 31
0.0
  0
ENDBLK
  5
B8
330
B6
100
AcDbEntity
  8
0
100
AcDbBlockEnd
  0
BLOCK
  5
C9
330
C8
100
AcDbEntity
  8
0
100
AcDbBlockBegin
  2
POLY6
 70
     0
 71
     0
 10
0.0
 20
0.0
 30
0.0
  3
POLY6
  1

  4
POLY6
  0
LINE
  5
CB
330
C8
100
AcDbEntity
  8
LC-001-100-D00-0
 62
     7
370
    50
100
AcDbLine
 10
-40.3896
 20
131.763834
 30
0.0
 11
-40.3896
 21
131.763834
 31
0.0
  0
LINE
  5
CC
330
C8
100
AcDbEntity
  8
LC-001-100-D00-0
 62
     7
370
    50
100
AcDbLine
 10
-40.3896
 20
131.763834
 30
0.0
 11
-40.483833
 21
131.736151
 31
0.0
  0
LINE
  5
CD
330
C8
100
AcDbEntity
  8
LC-001-100-D00-0
 62
     7
370
    50
100
AcDbLine
 10
-40.483833
 20
131.736151
 30
0.0
 11
-40.483833
 21
131.736151
 31
0.0
  0
LINE
  5
CE
330
C8
100
AcDbEntity
  8
LC-001-100-D00-0
 62
     7
370
    50
100
AcDbLine
 10
-40.483833
 20
131.736151
 30
0.0
 11
-40.656111
 21
131.685539
 31
0.0
  0
LINE
  5
CF
330
C8
100
AcDbEntity
  8
LC-001-100-D00-0
 62
     7
370
    50
100
AcDbLine
 10
-40.656111
 20
131.685539
 30
0.0
 11
-40.656111
 21
131.685539
 31
0.0
  0
LINE
  5
D0
330
C8
100
AcDbEntity
  8
LC-001-100-D00-0
 62
     7
370
    50
100
AcDbLine
 10
-40.656111
 20
131.685539
 30
0.0
 11
-40.816799
 21
131.680384
 31
0.0
  0
LINE
  5
D1
330
C8
100
AcDbEntity
  8
LC-001-100-D00-0
 62
     7
370
    50
100
AcDbLine
 10
-40.816799
 20
131.680384
 30
0.0
 11
-40.816799
 21
131.680384
 31
0.0
  0
LINE
  5
D2
330
C8
100
AcDbEntity
  8
LC-001-100-D00-0
 62
     7
370
    50
100
AcDbLine
 10
-40.816799
 20
131.680384
 30
0.0
 11
-40.889593
 21
131.678048
 31
0.0
  0
ENDBLK
  5
CA
330
C8
100
AcDbEntity
  8
0
100
AcDbBlockEnd
  0
BLOCK
  5
EF
330
EE
100
AcDbEntity
  8
0
100
AcDbBlockBegin
  2
KLON1
 70
     0
 71
     0
 10
0.0
 20
0.0
 30
0.0
  3
KLON1
  1

  4
KLON1
  0
LINE
  5
F1
330
EE
100
AcDbEntity
  8
LC-001-100-D00-0
 62
     7
370
    25
100
AcDbLine
 10
-22.639598
 20
87.765479
 30
0.0
 11
-20.139598
 21
90.265479
 31
0.0
  0
LINE
  5
F2
330
EE
100
AcDbEntity
  8
LC-001-100-D00-0
 62
     7
370
    25
100
AcDbLine
 10
-22.639598
 20
96.745735
 30
0.0
 11
-20.139598
 21
99.245735
 31
0.0
  0
LINE
  5
F3
330
EE
100
AcDbEntity
  8
LC-001-100-D00-0
 62
     7
370
    25
100
AcDbLine
 10
-22.639598
 20
105.725991
 30
0.0
 11
-20.139598
 21
108.225991
 31
0.0
  0
LINE
  5
F4
330
EE
100
AcDbEntity
  8
LC-001-100-D00-0
 62
     7
370
    25
100
AcDbLine
 10
-22.639598
 20
114.706248
 30
0.0
 11
-20.139598
 21
117.206248
 31
0.0
  0
LINE
  5
F5
330
EE
100
AcDbEntity
  8
LC-001-100-D00-0
 62
     7
370
    25
100
AcDbLine
 10
-22.639598
 20
123.686504
 30
0.0
 11
-20.639598
 21
125.686504
 31
0.0
  0
ENDBLK
  5
F0
330
EE
100
AcDbEntity
  8
0
100
AcDbBlockEnd
  0
BLOCK
  5
F8
330
F7
100
AcDbEntity
  8
0
100
AcDbBlockBegin
  2
KLON2
 70
     0
 71
     0
 10
0.0
 20
0.0
 30
0.0
  3
KLON2
  1

  4
KLON2
  0
LINE
  5
FA
330
F7
100
AcDbEntity
  8
LC-001-100-D00-0
 62
     7
370
    25
100
AcDbLine
 10
103.360402
 20
88.041894
 30
0.0
 11
105.860402
 21
90.541894
 31
0.0
  0
LINE
  5
FB
330
F7
100
AcDbEntity
  8
LC-001-100-D00-0
 62
     7
370
    25
100
AcDbLine
 10
103.360402
 20
97.02215
 30
0.0
 11
105.860402
 21
99.52215
 31
0.0
  0
LINE
  5
FC
330
F7
100
AcDbEntity
  8
LC-001-100-D00-0
 62
     7
370
    25
100
AcDbLine
 10
103.360402
 20
106.002406
 30
0.0
 11
105.860402
 21
108.502406
 31
0.0
  0
LINE
  5
FD
330
F7
100
AcDbEntity
  8
LC-001-100-D00-0
 62
     7
370
    25
100
AcDbLine
 10
103.360402
 20
114.982662
 30
0.0
 11
105.860402
 21
117.482662
 31
0.0
  0
LINE
  5
FE
330
F7
100
AcDbEntity
  8
LC-001-100-D00-0
 62
     7
370
    25
100
AcDbLine
 10
103.360402
 20
123.962918
 30
0.0
 11
103.475532
 21
124.078048
 31
0.0
  0
LINE
  5
FF
330
F7
100
AcDbEntity
  8
LC-001-100-D00-0
 62
     7
370
    25
100
AcDbLine
 10
103.860402
 20
124.462918
 30
0.0
 11
105.860402
 21
126.462918
 31
0.0
  0
ENDBLK
  5
F9
330
F7
100
AcDbEntity
  8
0
100
AcDbBlockEnd
  0
BLOCK
  5
102
330
101
100
AcDbEntity
  8
0
100
AcDbBlockBegin
  2
KLON3
 70
     0
 71
     0
 10
0.0
 20
0.0
 30
0.0
  3
KLON3
  1

  4
KLON3
  0
LINE
  5
104
330
101
100
AcDbEntity
  8
LC-001-100-D00-0
 62
     7
370
    25
100
AcDbLine
 10
103.110402
 20
132.693174
 30
0.0
 11
104.110402
 21
133.693174
 31
0.0
  0
LINE
  5
105
330
101
100
AcDbEntity
  8
LC-001-100-D00-0
 62
     7
370
    25
100
AcDbLine
 10
106.41552
 20
135.998292
 30
0.0
 11
107.132149
 21
136.71492
 31
0.0
  0
ENDBLK
  5
103
330
101
100
AcDbEntity
  8
0
100
AcDbBlockEnd
  0
BLOCK
  5
108
330
107
100
AcDbEntity
  8
0
100
AcDbBlockBegin
  2
KLON4
 70
     0
 71
     0
 10
0.0
 20
0.0
 30
0.0
  3
KLON4
  1

  4
KLON4
  0
LINE
  5
10A
330
107
100
AcDbEntity
  8
LC-001-100-D00-0
 62
     7
370
    25
100
AcDbLine
 10
-20.321607
 20
126.004495
 30
0.0
 11
-18.889598
 21
127.436504
 31
0.0
  0
LINE
  5
10B
330
107
100
AcDbEntity
  8
LC-001-100-D00-0
 62
     7
370
    25
100
AcDbLine
 10
-24.228309
 20
131.078048
 30
0.0
 11
-23.228309
 21
132.078048
 31
0.0
  0
LINE
  5
10C
330
107
100
AcDbEntity
  8
LC-001-100-D00-0
 62
     7
370
    25
100
AcDbLine
 10
-33.208566
 20
131.078048
 30
0.0
 11
-32.208566
 21
132.078048
 31
0.0
  0
LINE
  5
10D
330
107
100
AcDbEntity
  8
LC-001-100-D00-0
 62
     7
370
    25
100
AcDbLine
 10
-40.088822
 20
133.178048
 30
0.0
 11
-39.389598
 21
133.877272
 31
0.0
  0
LINE
  5
10E
330
107
100
AcDbEntity
  8
LC-001-100-D00-0
 62
     7
370
    25
100
AcDbLine
 10
-37.161046
 20
136.105824
 30
0.0
 11
-36.45139
 21
136.81548
 31
0.0
  0
ENDBLK
  5
109
330
107
100
AcDbEntity
  8
0
100
AcDbBlockEnd
  0
BLOCK
  5
122
330
118
100
AcDbEntity
  8
0
100
AcDbBlockBegin
  2
*D11
 70
     1
 71
     0
 10
0.0
 20
0.0
 30
0.0
  3
*D11
  1

  0
LINE
  5
119
330
118
100
AcDbEntity
  8
LC-002-003-----0
 62
     2
370
    -2
100
AcDbLine
 10
-40.3896
 20
135.328048
 30
0.0
 11
-40.3896
 21
165.231511
 31
0.0
  0
LINE
  5
11A
330
118
100
AcDbEntity
  8
LC-002-003-----0
 62
     2
370
    -2
100
AcDbLine
 10
107.610402
 20
135.328048
 30
0.0
 11
107.610402
 21
165.231511
 31
0.0
  0
LINE
  5
11B
330
118
100
AcDbEntity
  8
LC-002-003-----0
 62
     2
370
    -2
100
AcDbLine
 10
-12.3896
 20
161.631511
 30
0.0
 11
79.610402
 21
161.631511
 31
0.0
  0
SOLID
  5
11C
330
118
100
AcDbEntity
  8
LC-002-003-----0
 62
     2
100
AcDbTrace
 10
-12.3896
 20
166.298177
 30
0.0
 11
-12.3896
 21
156.964844
 31
0.0
 12
-40.3896
 22
161.631511
 32
0.0
 13
-40.3896
 23
161.631511
 33
0.0
  0
SOLID
  5
11D
330
118
100
AcDbEntity
  8
LC-002-003-----0
 62
     2
100
AcDbTrace
 10
79.610402
 20
156.964844
 30
0.0
 11
79.610402
 21
166.298177
 31
0.0
 12
107.610402
 22
161.631511
 32
0.0
 13
107.610402
 23
161.631511
 33
0.0
  0
MTEXT
  5
11E
330
118
100
AcDbEntity
  8
LC-002-003-----0
 62
     2
100
AcDbMText
 10
35.131964
 20
192.431511
 30
0.0
 40
28.0
 41
0.0
 71
     5
 72
     1
  1
\A1;150
  7
LCTX15-400-0-0pDIN-Schrift
 73
     1
 44
1.0
  0
POINT
  5
11F
330
118
100
AcDbEntity
  8
Defpoints
 62
     0
100
AcDbPoint
 10
-40.3896
 20
135.328048
 30
0.0
  0
POINT
  5
120
330
118
100
AcDbEntity
  8
Defpoints
 62
     0
100
AcDbPoint
 10
107.610402
 20
135.328048
 30
0.0
  0
POINT
  5
121
330
118
100
AcDbEntity
  8
Defpoints
 62
     0
100
AcDbPoint
 10
107.610402
 20
161.631511
 30
0.0
  0
ENDBLK
  5
123
330
118
100
AcDbEntity
  8
0
100
AcDbBlockEnd
  0
BLOCK
  5
12F
330
125
100
AcDbEntity
  8
0
100
AcDbBlockBegin
  2
*D12
 70
     1
 71
     0
 10
0.0
 20
0.0
 30
0.0
  3
*D12
  1

  0
LINE
  5
126
330
125
100
AcDbEntity
  8
LC-002-003-----0
 62
     2
370
    -2
100
AcDbLine
 10
-22.639598
 20
87.765479
 30
0.0
 11
-22.639598
 21
28.52654
 31
0.0
  0
LINE
  5
127
330
125
100
AcDbEntity
  8
LC-002-003-----0
 62
     2
370
    -2
100
AcDbLine
 10
105.86041
 20
86.078048
 30
0.0
 11
105.86041
 21
28.52654
 31
0.0
  0
LINE
  5
128
330
125
100
AcDbEntity
  8
LC-002-003-----0
 62
     2
370
    -2
100
AcDbLine
 10
5.360402
 20
32.12654
 30
0.0
 11
77.86041
 21
32.12654
 31
0.0
  0
SOLID
  5
129
330
125
100
AcDbEntity
  8
LC-002-003-----0
 62
     2
100
AcDbTrace
 10
5.360402
 20
36.793206
 30
0.0
 11
5.360402
 21
27.459873
 31
0.0
 12
-22.639598
 22
32.12654
 32
0.0
 13
-22.639598
 23
32.12654
 33
0.0
  0
SOLID
  5
12A
330
125
100
AcDbEntity
  8
LC-002-003-----0
 62
     2
100
AcDbTrace
 10
77.86041
 20
27.459873
 30
0.0
 11
77.86041
 21
36.793206
 31
0.0
 12
105.86041
 22
32.12654
 32
0.0
 13
105.86041
 23
32.12654
 33
0.0
  0
MTEXT
  5
12B
330
125
100
AcDbEntity
  8
LC-002-003-----0
 62
     2
100
AcDbMText
 10
38.508696
 20
62.92654
 30
0.0
 40
28.0
 41
0.0
 71
     5
 72
     1
  1
%%c\A1;128,5
  7
LCTX15-400-0-0pDIN-Schrift
 73
     1
 44
1.0
  0
POINT
  5
12C
330
125
100
AcDbEntity
  8
Defpoints
 62
     0
100
AcDbPoint
 10
-22.639598
 20
87.765479
 30
0.0
  0
POINT
  5
12D
330
125
100
AcDbEntity
  8
Defpoints
 62
     0
100
AcDbPoint
 10
105.86041
 20
86.078048
 30
0.0
  0
POINT
  5
12E
330
125
100
AcDbEntity
  8
Defpoints
 62
     0
100
AcDbPoint
 10
105.86041
 20
32.12654
 30
0.0
  0
ENDBLK
  5
130
330
125
100
AcDbEntity
  8
0
100
AcDbBlockEnd
  0
BLOCK
  5
13E
330
132
100
AcDbEntity
  8
0
100
AcDbBlockBegin
  2
*D13
 70
     1
 71
     0
 10
0.0
 20
0.0
 30
0.0
  3
*D13
  1

  0
LINE
  5
133
330
132
100
AcDbEntity
  8
LC-002-003-----0
 62
     2
370
    -2
100
AcDbLine
 10
105.360416
 20
137.578048
 30
0.0
 11
169.894182
 21
137.578048
 31
0.0
  0
LINE
  5
134
330
132
100
AcDbEntity
  8
LC-002-003-----0
 62
     2
370
    -2
100
AcDbLine
 10
105.86041
 20
86.078048
 30
0.0
 11
169.894182
 21
86.078048
 31
0.0
  0
LINE
  5
135
330
132
100
AcDbEntity
  8
LC-002-003-----0
 62
     2
370
    -2
100
AcDbLine
 10
166.294182
 20
165.578048
 30
0.0
 11
166.294182
 21
193.578048
 31
0.0
  0
LINE
  5
136
330
132
100
AcDbEntity
  8
LC-002-003-----0
 62
     2
370
    -2
100
AcDbLine
 10
166.294182
 20
58.078048
 30
0.0
 11
166.294182
 21
30.078048
 31
0.0
  0
LINE
  5
137
330
132
100
AcDbEntity
  8
LC-002-003-----0
 62
     2
370
    -2
100
AcDbLine
 10
166.294182
 20
137.578048
 30
0.0
 11
166.294182
 21
86.078048
 31
0.0
  0
SOLID
  5
138
330
132
100
AcDbEntity
  8
LC-002-003-----0
 62
     2
100
AcDbTrace
 10
161.627516
 20
165.578048
 30
0.0
 11
170.960849
 21
165.578048
 31
0.0
 12
166.294182
 22
137.578048
 32
0.0
 13
166.294182
 23
137.578048
 33
0.0
  0
SOLID
  5
139
330
132
100
AcDbEntity
  8
LC-002-003-----0
 62
     2
100
AcDbTrace
 10
170.960849
 20
58.078048
 30
0.0
 11
161.627516
 21
58.078048
 31
0.0
 12
166.294182
 22
86.078048
 32
0.0
 13
166.294182
 23
86.078048
 33
0.0
  0
MTEXT
  5
13A
330
132
100
AcDbEntity
  8
LC-002-003-----0
 62
     2
100
AcDbMText
 10
135.494182
 20
119.44454
 30
0.0
 40
28.0
 41
0.0
 71
     5
 72
     1
  1
\A1;51,5
  7
LCTX15-400-0-0pDIN-Schrift
 11
6.123031769111886E-17
 21
1.0
 31
0.0
 73
     1
 44
1.0
  0
POINT
  5
13B
330
132
100
AcDbEntity
  8
Defpoints
 62
     0
100
AcDbPoint
 10
105.360416
 20
137.578048
 30
0.0
  0
POINT
  5
13C
330
132
100
AcDbEntity
  8
Defpoints
 62
     0
100
AcDbPoint
 10
105.86041
 20
86.078048
 30
0.0
  0
POINT
  5
13D
330
132
100
AcDbEntity
  8
Defpoints
 62
     0
100
AcDbPoint
 10
166.294182
 20
86.078048
 30
0.0
  0
ENDBLK
  5
13F
330
132
100
AcDbEntity
  8
0
100
AcDbBlockEnd
  0
BLOCK
  5
14C
330
141
100
AcDbEntity
  8
0
100
AcDbBlockBegin
  2
*D14
 70
     1
 71
     0
 10
0.0
 20
0.0
 30
0.0
  3
*D14
  1

  0
LINE
  5
142
330
141
100
AcDbEntity
  8
LC-002-003-----0
 62
     2
370
    -2
100
AcDbLine
 10
-38.139599
 20
137.578048
 30
0.0
 11
-69.449451
 21
137.578048
 31
0.0
  0
LINE
  5
143
330
141
100
AcDbEntity
  8
LC-002-003-----0
 62
     2
370
    -2
100
AcDbLine
 10
-41.389602
 20
131.678048
 30
0.0
 11
-69.449451
 21
131.678048
 31
0.0
  0
LINE
  5
144
330
141
100
AcDbEntity
  8
LC-002-003-----0
 62
     2
370
    -2
100
AcDbLine
 10
-65.849451
 20
165.578048
 30
0.0
 11
-65.849451
 21
193.578048
 31
0.0
  0
LINE
  5
145
330
141
100
AcDbEntity
  8
LC-002-003-----0
 62
     2
370
    -2
100
AcDbLine
 10
-65.849451
 20
103.678048
 30
0.0
 11
-65.849451
 21
113.244381
 31
0.0
  0
SOLID
  5
146
330
141
100
AcDbEntity
  8
LC-002-003-----0
 62
     2
100
AcDbTrace
 10
-70.516118
 20
165.578048
 30
0.0
 11
-61.182785
 21
165.578048
 31
0.0
 12
-65.849451
 22
137.578048
 32
0.0
 13
-65.849451
 23
137.578048
 33
0.0
  0
SOLID
  5
147
330
141
100
AcDbEntity
  8
LC-002-003-----0
 62
     2
100
AcDbTrace
 10
-61.182785
 20
103.678048
 30
0.0
 11
-70.516118
 21
103.678048
 31
0.0
 12
-65.849451
 22
131.678048
 32
0.0
 13
-65.849451
 23
131.678048
 33
0.0
  0
MTEXT
  5
148
330
141
100
AcDbEntity
  8
LC-002-003-----0
 62
     2
100
AcDbMText
 10
-96.649451
 20
124.79054
 30
0.0
 40
28.0
 41
0.0
 71
     5
 72
     1
  1
\A1;6
  7
LCTX15-400-0-0pDIN-Schrift
 11
6.123031769111886E-17
 21
1.0
 31
0.0
 73
     1
 44
1.0
  0
POINT
  5
149
330
141
100
AcDbEntity
  8
Defpoints
 62
     0
100
AcDbPoint
 10
-38.139599
 20
137.578048
 30
0.0
  0
POINT
  5
14A
330
141
100
AcDbEntity
  8
Defpoints
 62
     0
100
AcDbPoint
 10
-41.389602
 20
131.678048
 30
0.0
  0
POINT
  5
14B
330
141
100
AcDbEntity
  8
Defpoints
 62
     0
100
AcDbPoint
 10
-65.849451
 20
131.678048
 30
0.0
  0
ENDBLK
  5
14D
330
141
100
AcDbEntity
  8
0
100
AcDbBlockEnd
  0
BLOCK
  5
1FF
330
1FE
100
AcDbEntity
  8
0
100
AcDbBlockBegin
  2
*X115
 70
     1
 71
     0
 10
0.0
 20
0.0
 30
0.0
  3
*X115
  1

  4
*X1
  0
LINE
  5
202
330
1FE
100
AcDbEntity
  8
LC-003-005-----0
 62
     7
370
    25
100
AcDbLine
 10
47.225234
 20
132.078048
 30
0.0
 11
49.110402
 21
133.963216
 31
0.0
  0
LINE
  5
203
330
1FE
100
AcDbEntity
  8
LC-003-005-----0
 62
     7
370
    25
100
AcDbLine
 10
45.941756
 20
133.622997
 30
0.0
 11
49.110402
 21
136.791643
 31
0.0
  0
LINE
  5
204
330
1FE
100
AcDbEntity
  8
LC-003-005-----0
 62
     7
370
    25
100
AcDbLine
 10
41.56838
 20
132.078048
 30
0.0
 11
42.110402
 21
132.62007
 31
0.0
  0
LINE
  5
205
330
1FE
100
AcDbEntity
  8
LC-003-005-----0
 62
     7
370
    25
100
AcDbLine
 10
42.968533
 20
133.478201
 30
0.0
 11
47.110402
 21
137.62007
 31
0.0
  0
LINE
  5
206
330
1FE
100
AcDbEntity
  8
LC-003-005-----0
 62
     7
370
    25
100
AcDbLine
 10
38.739953
 20
132.078048
 30
0.0
 11
44.739953
 21
138.078048
 31
0.0
  0
LINE
  5
207
330
1FE
100
AcDbEntity
  8
LC-003-005-----0
 62
     7
370
    25
100
AcDbLine
 10
35.911526
 20
132.078048
 30
0.0
 11
40.911526
 21
137.078048
 31
0.0
  0
LINE
  5
208
330
1FE
100
AcDbEntity
  8
LC-003-005-----0
 62
     7
370
    25
100
AcDbLine
 10
33.610402
 20
132.605352
 30
0.0
 11
38.083099
 21
137.078048
 31
0.0
  0
LINE
  5
209
330
1FE
100
AcDbEntity
  8
LC-003-005-----0
 62
     7
370
    25
100
AcDbLine
 10
33.610402
 20
135.433779
 30
0.0
 11
35.254671
 21
137.078048
 31
0.0
  0
ENDBLK
  5
200
330
1FE
100
AcDbEntity
  8
0
100
AcDbBlockEnd
  0
BLOCK
  5
234
330
233
100
AcDbEntity
  8
0
100
AcDbBlockBegin
  2
*X216
 70
     1
 71
     0
 10
0.0
 20
0.0
 30
0.0
  3
*X216
  1

  4
*X2
  0
LINE
  5
236
330
233
100
AcDbEntity
  8
LC-003-005-----0
 62
     7
370
    25
100
AcDbLine
 10
64.195797
 20
132.078048
 30
0.0
 11
65.610402
 21
133.492653
 31
0.0
  0
LINE
  5
237
330
233
100
AcDbEntity
  8
LC-003-005-----0
 62
     7
370
    25
100
AcDbLine
 10
62.762673
 20
133.473351
 30
0.0
 11
65.610402
 21
136.32108
 31
0.0
  0
LINE
  5
238
330
233
100
AcDbEntity
  8
LC-003-005-----0
 62
     7
370
    25
100
AcDbLine
 10
58.538943
 20
132.078048
 30
0.0
 11
58.610402
 21
132.149508
 31
0.0
  0
LINE
  5
239
330
233
100
AcDbEntity
  8
LC-003-005-----0
 62
     7
370
    25
100
AcDbLine
 10
60.350244
 20
133.88935
 30
0.0
 11
63.610402
 21
137.149508
 31
0.0
  0
LINE
  5
23A
330
233
100
AcDbEntity
  8
LC-003-005-----0
 62
     7
370
    25
100
AcDbLine
 10
56.610402
 20
132.977935
 30
0.0
 11
61.710516
 21
138.078048
 31
0.0
  0
LINE
  5
23B
330
233
100
AcDbEntity
  8
LC-003-005-----0
 62
     7
370
    25
100
AcDbLine
 10
56.610402
 20
135.806362
 30
0.0
 11
57.882088
 21
137.078048
 31
0.0
  0
LINE
  5
23C
330
233
100
AcDbEntity
  8
LC-003-005-----0
 62
     7
370
    25
100
AcDbLine
 10
58.610402
 20
137.806362
 30
0.0
 11
58.882088
 21
138.078048
 31
0.0
  0
ENDBLK
  5
235
330
233
100
AcDbEntity
  8
0
100
AcDbBlockEnd
  0
BLOCK
  5
23F
330
23E
100
AcDbEntity
  8
0
100
AcDbBlockBegin
  2
*X317
 70
     1
 71
     0
 10
0.0
 20
0.0
 30
0.0
  3
*X317
  1

  4
*X3
  0
LINE
  5
241
330
23E
100
AcDbEntity
  8
LC-003-005-----0
 62
     7
370
    25
100
AcDbLine
 10
81.16636
 20
132.078048
 30
0.0
 11
82.110402
 21
133.022091
 31
0.0
  0
LINE
  5
242
330
23E
100
AcDbEntity
  8
LC-003-005-----0
 62
     7
370
    25
100
AcDbLine
 10
79.583589
 20
133.323705
 30
0.0
 11
82.110402
 21
135.850518
 31
0.0
  0
LINE
  5
243
330
23E
100
AcDbEntity
  8
LC-003-005-----0
 62
     7
370
    25
100
AcDbLine
 10
77.654644
 20
134.223187
 30
0.0
 11
80.509505
 21
137.078048
 31
0.0
  0
LINE
  5
244
330
23E
100
AcDbEntity
  8
LC-003-005-----0
 62
     7
370
    25
100
AcDbLine
 10
73.110402
 20
132.507372
 30
0.0
 11
78.681078
 21
138.078048
 31
0.0
  0
LINE
  5
245
330
23E
100
AcDbEntity
  8
LC-003-005-----0
 62
     7
370
    25
100
AcDbLine
 10
73.110402
 20
135.335799
 30
0.0
 11
74.852651
 21
137.078048
 31
0.0
  0
LINE
  5
246
330
23E
100
AcDbEntity
  8
LC-003-005-----0
 62
     7
370
    25
100
AcDbLine
 10
75.110402
 20
137.335799
 30
0.0
 11
75.852651
 21
138.078048
 31
0.0
  0
ENDBLK
  5
240
330
23E
100
AcDbEntity
  8
0
100
AcDbBlockEnd
  0
BLOCK
  5
24C
330
24B
100
AcDbEntity
  8
0
100
AcDbBlockBegin
  2
*X418
 70
     1
 71
     0
 10
0.0
 20
0.0
 30
0.0
  3
*X418
  1

  4
*X4
  0
LINE
  5
24E
330
24B
100
AcDbEntity
  8
LC-003-005-----0
 62
     7
370
    25
100
AcDbLine
 10
100.96535
 20
132.078048
 30
0.0
 11
102.610402
 21
133.723101
 31
0.0
  0
LINE
  5
24F
330
24B
100
AcDbEntity
  8
LC-003-005-----0
 62
     7
370
    25
100
AcDbLine
 10
98.136922
 20
132.078048
 30
0.0
 11
102.610402
 21
136.551528
 31
0.0
  0
LINE
  5
250
330
24B
100
AcDbEntity
  8
LC-003-005-----0
 62
     7
370
    25
100
AcDbLine
 10
96.404506
 20
133.174059
 30
0.0
 11
100.308495
 21
137.078048
 31
0.0
  0
LINE
  5
251
330
24B
100
AcDbEntity
  8
LC-003-005-----0
 62
     7
370
    25
100
AcDbLine
 10
94.475561
 20
134.073541
 30
0.0
 11
97.480068
 21
137.078048
 31
0.0
  0
LINE
  5
252
330
24B
100
AcDbEntity
  8
LC-003-005-----0
 62
     7
370
    25
100
AcDbLine
 10
89.651641
 20
132.078048
 30
0.0
 11
95.651641
 21
138.078048
 31
0.0
  0
LINE
  5
253
330
24B
100
AcDbEntity
  8
LC-003-005-----0
 62
     7
370
    25
100
AcDbLine
 10
89.610402
 20
134.865236
 30
0.0
 11
92.823214
 21
138.078048
 31
0.0
  0
ENDBLK
  5
24D
330
24B
100
AcDbEntity
  8
0
100
AcDbBlockEnd
  0
BLOCK
  5
25F
330
25E
100
AcDbEntity
  8
0
100
AcDbBlockBegin
  2
*X519
 70
     1
 71
     0
 10
0.0
 20
0.0
 30
0.0
  3
*X519
  1

  4
*X5
  0
LINE
  5
261
330
25E
100
AcDbEntity
  8
LC-003-005-----0
 62
     7
370
    25
100
AcDbLine
 10
33.083099
 20
132.078048
 30
0.0
 11
33.610402
 21
132.605352
 31
0.0
  0
LINE
  5
262
330
25E
100
AcDbEntity
  8
LC-003-005-----0
 62
     7
370
    25
100
AcDbLine
 10
30.254671
 20
132.078048
 30
0.0
 11
33.610402
 21
135.433779
 31
0.0
  0
LINE
  5
263
330
25E
100
AcDbEntity
  8
LC-003-005-----0
 62
     7
370
    25
100
AcDbLine
 10
27.426244
 20
132.078048
 30
0.0
 11
32.426244
 21
137.078048
 31
0.0
  0
LINE
  5
264
330
25E
100
AcDbEntity
  8
LC-003-005-----0
 62
     7
370
    25
100
AcDbLine
 10
25.110402
 20
132.590633
 30
0.0
 11
29.597817
 21
137.078048
 31
0.0
  0
LINE
  5
265
330
25E
100
AcDbEntity
  8
LC-003-005-----0
 62
     7
370
    25
100
AcDbLine
 10
23.513867
 20
133.822525
 30
0.0
 11
26.76939
 21
137.078048
 31
0.0
  0
LINE
  5
266
330
25E
100
AcDbEntity
  8
LC-003-005-----0
 62
     7
370
    25
100
AcDbLine
 10
18.940963
 20
132.078048
 30
0.0
 11
24.940963
 21
138.078048
 31
0.0
  0
LINE
  5
267
330
25E
100
AcDbEntity
  8
LC-003-005-----0
 62
     7
370
    25
100
AcDbLine
 10
18.110402
 20
134.075914
 30
0.0
 11
22.112536
 21
138.078048
 31
0.0
  0
LINE
  5
268
330
25E
100
AcDbEntity
  8
LC-003-005-----0
 62
     7
370
    25
100
AcDbLine
 10
18.110402
 20
136.904342
 30
0.0
 11
18.284109
 21
137.078048
 31
0.0
  0
ENDBLK
  5
260
330
25E
100
AcDbEntity
  8
0
100
AcDbBlockEnd
  0
BLOCK
  5
299
330
298
100
AcDbEntity
  8
0
100
AcDbBlockBegin
  2
*X620
 70
     1
 71
     0
 10
0.0
 20
0.0
 30
0.0
  3
*X620
  1

  4
*X6
  0
LINE
  5
29B
330
298
100
AcDbEntity
  8
LC-003-005-----0
 62
     7
370
    25
100
AcDbLine
 10
10.455682
 20
132.078048
 30
0.0
 11
10.610402
 21
132.232769
 31
0.0
  0
LINE
  5
29C
330
298
100
AcDbEntity
  8
LC-003-005-----0
 62
     7
370
    25
100
AcDbLine
 10
8.610402
 20
133.061196
 30
0.0
 11
10.610402
 21
135.061196
 31
0.0
  0
LINE
  5
29D
330
298
100
AcDbEntity
  8
LC-003-005-----0
 62
     7
370
    25
100
AcDbLine
 10
6.69295
 20
133.972171
 30
0.0
 11
9.798827
 21
137.078048
 31
0.0
  0
LINE
  5
29E
330
298
100
AcDbEntity
  8
LC-003-005-----0
 62
     7
370
    25
100
AcDbLine
 10
1.9704
 20
132.078048
 30
0.0
 11
7.9704
 21
138.078048
 31
0.0
  0
LINE
  5
29F
330
298
100
AcDbEntity
  8
LC-003-005-----0
 62
     7
370
    25
100
AcDbLine
 10
1.610402
 20
134.546477
 30
0.0
 11
5.141973
 21
138.078048
 31
0.0
  0
ENDBLK
  5
29A
330
298
100
AcDbEntity
  8
0
100
AcDbBlockEnd
  0
BLOCK
  5
2A2
330
2A1
100
AcDbEntity
  8
0
100
AcDbBlockBegin
  2
*X721
 70
     1
 71
     0
 10
0.0
 20
0.0
 30
0.0
  3
*X721
  1

  4
*X7
  0
LINE
  5
2A4
330
2A1
100
AcDbEntity
  8
LC-003-005-----0
 62
     7
370
    25
100
AcDbLine
 10
-6.514881
 20
132.078048
 30
0.0
 11
-5.889598
 21
132.703331
 31
0.0
  0
LINE
  5
2A5
330
2A1
100
AcDbEntity
  8
LC-003-005-----0
 62
     7
370
    25
100
AcDbLine
 10
-8.199022
 20
133.222335
 30
0.0
 11
-5.889598
 21
135.531759
 31
0.0
  0
LINE
  5
2A6
330
2A1
100
AcDbEntity
  8
LC-003-005-----0
 62
     7
370
    25
100
AcDbLine
 10
-10.127967
 20
134.121817
 30
0.0
 11
-7.171735
 21
137.078048
 31
0.0
  0
LINE
  5
2A7
330
2A1
100
AcDbEntity
  8
LC-003-005-----0
 62
     7
370
    25
100
AcDbLine
 10
-14.889598
 20
132.188613
 30
0.0
 11
-9.000163
 21
138.078048
 31
0.0
  0
LINE
  5
2A8
330
2A1
100
AcDbEntity
  8
LC-003-005-----0
 62
     7
370
    25
100
AcDbLine
 10
-14.889598
 20
135.01704
 30
0.0
 11
-11.82859
 21
138.078048
 31
0.0
  0
ENDBLK
  5
2A3
330
2A1
100
AcDbEntity
  8
0
100
AcDbBlockEnd
  0
BLOCK
  5
2AE
330
2AD
100
AcDbEntity
  8
0
100
AcDbBlockBegin
  2
*X822
 70
     1
 71
     0
 10
0.0
 20
0.0
 30
0.0
  3
*X822
  1

  4
*X8
  0
LINE
  5
2B0
330
2AD
100
AcDbEntity
  8
LC-003-005-----0
 62
     7
370
    25
100
AcDbLine
 10
-23.485444
 20
132.078048
 30
0.0
 11
-22.389598
 21
133.173894
 31
0.0
  0
LINE
  5
2B1
330
2AD
100
AcDbEntity
  8
LC-003-005-----0
 62
     7
370
    25
100
AcDbLine
 10
-25.019938
 20
133.371981
 30
0.0
 11
-22.389598
 21
136.002321
 31
0.0
  0
LINE
  5
2B2
330
2AD
100
AcDbEntity
  8
LC-003-005-----0
 62
     7
370
    25
100
AcDbLine
 10
-27.052484
 20
134.167862
 30
0.0
 11
-24.142298
 21
137.078048
 31
0.0
  0
LINE
  5
2B3
330
2AD
100
AcDbEntity
  8
LC-003-005-----0
 62
     7
370
    25
100
AcDbLine
 10
-31.970725
 20
132.078048
 30
0.0
 11
-25.970725
 21
138.078048
 31
0.0
  0
LINE
  5
2B4
330
2AD
100
AcDbEntity
  8
LC-003-005-----0
 62
     7
370
    25
100
AcDbLine
 10
-34.799152
 20
132.078048
 30
0.0
 11
-29.799152
 21
137.078048
 31
0.0
  0
LINE
  5
2B5
330
2AD
100
AcDbEntity
  8
LC-003-005-----0
 62
     7
370
    25
100
AcDbLine
 10
-29.389598
 20
137.487603
 30
0.0
 11
-28.799152
 21
138.078048
 31
0.0
  0
LINE
  5
2B6
330
2AD
100
AcDbEntity
  8
LC-003-005-----0
 62
     7
370
    25
100
AcDbLine
 10
-35.389598
 20
134.31603
 30
0.0
 11
-32.62758
 21
137.078048
 31
0.0
  0
ENDBLK
  5
2AF
330
2AD
100
AcDbEntity
  8
0
100
AcDbBlockEnd
  0
BLOCK
  5
422
330
421
100
AcDbEntity
  8
0
100
AcDbBlockBegin
  2
POLY7
 70
     0
 71
     0
 10
0.0
 20
0.0
 30
0.0
  3
POLY7
  1

  4
POLY7
  0
LINE
  5
424
330
421
100
AcDbEntity
  8
LC-001-100-D00-0
 62
     7
370
    50
100
AcDbLine
 10
353.860411
 20
64.859241
 30
0.0
 11
353.860411
 21
64.859241
 31
0.0
  0
LINE
  5
425
330
421
100
AcDbEntity
  8
LC-001-100-D00-0
 62
     7
370
    50
100
AcDbLine
 10
353.860411
 20
64.859241
 30
0.0
 11
353.874211
 21
64.858986
 31
0.0
  0
LINE
  5
426
330
421
100
AcDbEntity
  8
LC-001-100-D00-0
 62
     7
370
    50
100
AcDbLine
 10
353.874211
 20
64.858986
 30
0.0
 11
353.874211
 21
64.858986
 31
0.0
  0
LINE
  5
427
330
421
100
AcDbEntity
  8
LC-001-100-D00-0
 62
     7
370
    50
100
AcDbLine
 10
353.874211
 20
64.858986
 30
0.0
 11
353.927121
 21
64.861117
 31
0.0
  0
LINE
  5
428
330
421
100
AcDbEntity
  8
LC-001-100-D00-0
 62
     7
370
    50
100
AcDbLine
 10
353.927121
 20
64.861117
 30
0.0
 11
353.927121
 21
64.861117
 31
0.0
  0
LINE
  5
429
330
421
100
AcDbEntity
  8
LC-001-100-D00-0
 62
     7
370
    50
100
AcDbLine
 10
353.927121
 20
64.861117
 30
0.0
 11
353.966439
 21
64.86369
 31
0.0
  0
LINE
  5
42A
330
421
100
AcDbEntity
  8
LC-001-100-D00-0
 62
     7
370
    50
100
AcDbLine
 10
353.966439
 20
64.86369
 30
0.0
 11
353.966439
 21
64.86369
 31
0.0
  0
LINE
  5
42B
330
421
100
AcDbEntity
  8
LC-001-100-D00-0
 62
     7
370
    50
100
AcDbLine
 10
353.966439
 20
64.86369
 30
0.0
 11
354.062522
 21
64.878672
 31
0.0
  0
LINE
  5
42C
330
421
100
AcDbEntity
  8
LC-001-100-D00-0
 62
     7
370
    50
100
AcDbLine
 10
354.062522
 20
64.878672
 30
0.0
 11
354.062522
 21
64.878672
 31
0.0
  0
LINE
  5
42D
330
421
100
AcDbEntity
  8
LC-001-100-D00-0
 62
     7
370
    50
100
AcDbLine
 10
354.062522
 20
64.878672
 30
0.0
 11
354.120164
 21
64.891516
 31
0.0
  0
LINE
  5
42E
330
421
100
AcDbEntity
  8
LC-001-100-D00-0
 62
     7
370
    50
100
AcDbLine
 10
354.120164
 20
64.891516
 30
0.0
 11
354.120164
 21
64.891516
 31
0.0
  0
LINE
  5
42F
330
421
100
AcDbEntity
  8
LC-001-100-D00-0
 62
     7
370
    50
100
AcDbLine
 10
354.120164
 20
64.891516
 30
0.0
 11
354.239487
 21
64.931736
 31
0.0
  0
LINE
  5
430
330
421
100
AcDbEntity
  8
LC-001-100-D00-0
 62
     7
370
    50
100
AcDbLine
 10
354.239487
 20
64.931736
 30
0.0
 11
354.239487
 21
64.931736
 31
0.0
  0
LINE
  5
431
330
421
100
AcDbEntity
  8
LC-001-100-D00-0
 62
     7
370
    50
100
AcDbLine
 10
354.239487
 20
64.931736
 30
0.0
 11
354.301614
 21
64.959269
 31
0.0
  0
LINE
  5
432
330
421
100
AcDbEntity
  8
LC-001-100-D00-0
 62
     7
370
    50
100
AcDbLine
 10
354.301614
 20
64.959269
 30
0.0
 11
354.301614
 21
64.959269
 31
0.0
  0
LINE
  5
433
330
421
100
AcDbEntity
  8
LC-001-100-D00-0
 62
     7
370
    50
100
AcDbLine
 10
354.301614
 20
64.959269
 30
0.0
 11
354.360411
 21
64.993216
 31
0.0
  0
ENDBLK
  5
423
330
421
100
AcDbEntity
  8
0
100
AcDbBlockEnd
  0
BLOCK
  5
436
330
435
100
AcDbEntity
  8
0
100
AcDbBlockBegin
  2
POLY8
 70
     0
 71
     0
 10
0.0
 20
0.0
 30
0.0
  3
POLY8
  1

  4
POLY8
  0
LINE
  5
438
330
435
100
AcDbEntity
  8
LC-001-100-D00-0
 62
     7
370
    50
100
AcDbLine
 10
354.360411
 20
79.725266
 30
0.0
 11
354.360411
 21
79.725266
 31
0.0
  0
LINE
  5
439
330
435
100
AcDbEntity
  8
LC-001-100-D00-0
 62
     7
370
    50
100
AcDbLine
 10
354.360411
 20
79.725266
 30
0.0
 11
354.301638
 21
79.759199
 31
0.0
  0
LINE
  5
43A
330
435
100
AcDbEntity
  8
LC-001-100-D00-0
 62
     7
370
    50
100
AcDbLine
 10
354.301638
 20
79.759199
 30
0.0
 11
354.301638
 21
79.759199
 31
0.0
  0
LINE
  5
43B
330
435
100
AcDbEntity
  8
LC-001-100-D00-0
 62
     7
370
    50
100
AcDbLine
 10
354.301638
 20
79.759199
 30
0.0
 11
354.239956
 21
79.786566
 31
0.0
  0
LINE
  5
43C
330
435
100
AcDbEntity
  8
LC-001-100-D00-0
 62
     7
370
    50
100
AcDbLine
 10
354.239956
 20
79.786566
 30
0.0
 11
354.239956
 21
79.786566
 31
0.0
  0
LINE
  5
43D
330
435
100
AcDbEntity
  8
LC-001-100-D00-0
 62
     7
370
    50
100
AcDbLine
 10
354.239956
 20
79.786566
 30
0.0
 11
354.120299
 21
79.826942
 31
0.0
  0
LINE
  5
43E
330
435
100
AcDbEntity
  8
LC-001-100-D00-0
 62
     7
370
    50
100
AcDbLine
 10
354.120299
 20
79.826942
 30
0.0
 11
354.120299
 21
79.826942
 31
0.0
  0
LINE
  5
43F
330
435
100
AcDbEntity
  8
LC-001-100-D00-0
 62
     7
370
    50
100
AcDbLine
 10
354.120299
 20
79.826942
 30
0.0
 11
354.062859
 21
79.839745
 31
0.0
  0
LINE
  5
440
330
435
100
AcDbEntity
  8
LC-001-100-D00-0
 62
     7
370
    50
100
AcDbLine
 10
354.062859
 20
79.839745
 30
0.0
 11
354.062859
 21
79.839745
 31
0.0
  0
LINE
  5
441
330
435
100
AcDbEntity
  8
LC-001-100-D00-0
 62
     7
370
    50
100
AcDbLine
 10
354.062859
 20
79.839745
 30
0.0
 11
353.918459
 21
79.862298
 31
0.0
  0
LINE
  5
442
330
435
100
AcDbEntity
  8
LC-001-100-D00-0
 62
     7
370
    50
100
AcDbLine
 10
353.918459
 20
79.862298
 30
0.0
 11
353.918459
 21
79.862298
 31
0.0
  0
LINE
  5
443
330
435
100
AcDbEntity
  8
LC-001-100-D00-0
 62
     7
370
    50
100
AcDbLine
 10
353.918459
 20
79.862298
 30
0.0
 11
353.860411
 21
79.859241
 31
0.0
  0
ENDBLK
  5
437
330
435
100
AcDbEntity
  8
0
100
AcDbBlockEnd
  0
BLOCK
  5
446
330
445
100
AcDbEntity
  8
0
100
AcDbBlockBegin
  2
POLY9
 70
     0
 71
     0
 10
0.0
 20
0.0
 30
0.0
  3
POLY9
  1

  4
POLY9
  0
LINE
  5
448
330
445
100
AcDbEntity
  8
LC-001-100-D00-0
 62
     7
370
    50
100
AcDbLine
 10
312.360411
 20
38.359241
 30
0.0
 11
312.360411
 21
38.359241
 31
0.0
  0
LINE
  5
449
330
445
100
AcDbEntity
  8
LC-001-100-D00-0
 62
     7
370
    50
100
AcDbLine
 10
312.360411
 20
38.359241
 30
0.0
 11
312.360155
 21
38.345441
 31
0.0
  0
LINE
  5
44A
330
445
100
AcDbEntity
  8
LC-001-100-D00-0
 62
     7
370
    50
100
AcDbLine
 10
312.360155
 20
38.345441
 30
0.0
 11
312.360155
 21
38.345441
 31
0.0
  0
LINE
  5
44B
330
445
100
AcDbEntity
  8
LC-001-100-D00-0
 62
     7
370
    50
100
AcDbLine
 10
312.360155
 20
38.345441
 30
0.0
 11
312.362287
 21
38.292531
 31
0.0
  0
LINE
  5
44C
330
445
100
AcDbEntity
  8
LC-001-100-D00-0
 62
     7
370
    50
100
AcDbLine
 10
312.362287
 20
38.292531
 30
0.0
 11
312.362287
 21
38.292531
 31
0.0
  0
LINE
  5
44D
330
445
100
AcDbEntity
  8
LC-001-100-D00-0
 62
     7
370
    50
100
AcDbLine
 10
312.362287
 20
38.292531
 30
0.0
 11
312.364859
 21
38.253213
 31
0.0
  0
LINE
  5
44E
330
445
100
AcDbEntity
  8
LC-001-100-D00-0
 62
     7
370
    50
100
AcDbLine
 10
312.364859
 20
38.253213
 30
0.0
 11
312.364859
 21
38.253213
 31
0.0
  0
LINE
  5
44F
330
445
100
AcDbEntity
  8
LC-001-100-D00-0
 62
     7
370
    50
100
AcDbLine
 10
312.364859
 20
38.253213
 30
0.0
 11
312.379842
 21
38.15713
 31
0.0
  0
LINE
  5
450
330
445
100
AcDbEntity
  8
LC-001-100-D00-0
 62
     7
370
    50
100
AcDbLine
 10
312.379842
 20
38.15713
 30
0.0
 11
312.379842
 21
38.15713
 31
0.0
  0
LINE
  5
451
330
445
100
AcDbEntity
  8
LC-001-100-D00-0
 62
     7
370
    50
100
AcDbLine
 10
312.379842
 20
38.15713
 30
0.0
 11
312.392686
 21
38.099487
 31
0.0
  0
LINE
  5
452
330
445
100
AcDbEntity
  8
LC-001-100-D00-0
 62
     7
370
    50
100
AcDbLine
 10
312.392686
 20
38.099487
 30
0.0
 11
312.392686
 21
38.099487
 31
0.0
  0
LINE
  5
453
330
445
100
AcDbEntity
  8
LC-001-100-D00-0
 62
     7
370
    50
100
AcDbLine
 10
312.392686
 20
38.099487
 30
0.0
 11
312.432906
 21
37.980165
 31
0.0
  0
LINE
  5
454
330
445
100
AcDbEntity
  8
LC-001-100-D00-0
 62
     7
370
    50
100
AcDbLine
 10
312.432906
 20
37.980165
 30
0.0
 11
312.432906
 21
37.980165
 31
0.0
  0
LINE
  5
455
330
445
100
AcDbEntity
  8
LC-001-100-D00-0
 62
     7
370
    50
100
AcDbLine
 10
312.432906
 20
37.980165
 30
0.0
 11
312.460439
 21
37.918038
 31
0.0
  0
LINE
  5
456
330
445
100
AcDbEntity
  8
LC-001-100-D00-0
 62
     7
370
    50
100
AcDbLine
 10
312.460439
 20
37.918038
 30
0.0
 11
312.460439
 21
37.918038
 31
0.0
  0
LINE
  5
457
330
445
100
AcDbEntity
  8
LC-001-100-D00-0
 62
     7
370
    50
100
AcDbLine
 10
312.460439
 20
37.918038
 30
0.0
 11
312.494385
 21
37.859241
 31
0.0
  0
ENDBLK
  5
447
330
445
100
AcDbEntity
  8
0
100
AcDbBlockEnd
  0
BLOCK
  5
45A
330
459
100
AcDbEntity
  8
0
100
AcDbBlockBegin
  2
POLY10
 70
     0
 71
     0
 10
0.0
 20
0.0
 30
0.0
  3
POLY10
  1

  4
POLY10
  0
LINE
  5
45C
330
459
100
AcDbEntity
  8
LC-001-100-D00-0
 62
     7
370
    50
100
AcDbLine
 10
327.226436
 20
37.859241
 30
0.0
 11
327.226436
 21
37.859241
 31
0.0
  0
LINE
  5
45D
330
459
100
AcDbEntity
  8
LC-001-100-D00-0
 62
     7
370
    50
100
AcDbLine
 10
327.226436
 20
37.859241
 30
0.0
 11
327.260368
 21
37.918013
 31
0.0
  0
LINE
  5
45E
330
459
100
AcDbEntity
  8
LC-001-100-D00-0
 62
     7
370
    50
100
AcDbLine
 10
327.260368
 20
37.918013
 30
0.0
 11
327.260368
 21
37.918013
 31
0.0
  0
LINE
  5
45F
330
459
100
AcDbEntity
  8
LC-001-100-D00-0
 62
     7
370
    50
100
AcDbLine
 10
327.260368
 20
37.918013
 30
0.0
 11
327.287736
 21
37.979695
 31
0.0
  0
LINE
  5
460
330
459
100
AcDbEntity
  8
LC-001-100-D00-0
 62
     7
370
    50
100
AcDbLine
 10
327.287736
 20
37.979695
 30
0.0
 11
327.287736
 21
37.979695
 31
0.0
  0
LINE
  5
461
330
459
100
AcDbEntity
  8
LC-001-100-D00-0
 62
     7
370
    50
100
AcDbLine
 10
327.287736
 20
37.979695
 30
0.0
 11
327.328112
 21
38.099353
 31
0.0
  0
LINE
  5
462
330
459
100
AcDbEntity
  8
LC-001-100-D00-0
 62
     7
370
    50
100
AcDbLine
 10
327.328112
 20
38.099353
 30
0.0
 11
327.328112
 21
38.099353
 31
0.0
  0
LINE
  5
463
330
459
100
AcDbEntity
  8
LC-001-100-D00-0
 62
     7
370
    50
100
AcDbLine
 10
327.328112
 20
38.099353
 30
0.0
 11
327.340915
 21
38.156793
 31
0.0
  0
LINE
  5
464
330
459
100
AcDbEntity
  8
LC-001-100-D00-0
 62
     7
370
    50
100
AcDbLine
 10
327.340915
 20
38.156793
 30
0.0
 11
327.340915
 21
38.156793
 31
0.0
  0
LINE
  5
465
330
459
100
AcDbEntity
  8
LC-001-100-D00-0
 62
     7
370
    50
100
AcDbLine
 10
327.340915
 20
38.156793
 30
0.0
 11
327.363468
 21
38.301193
 31
0.0
  0
LINE
  5
466
330
459
100
AcDbEntity
  8
LC-001-100-D00-0
 62
     7
370
    50
100
AcDbLine
 10
327.363468
 20
38.301193
 30
0.0
 11
327.363468
 21
38.301193
 31
0.0
  0
LINE
  5
467
330
459
100
AcDbEntity
  8
LC-001-100-D00-0
 62
     7
370
    50
100
AcDbLine
 10
327.363468
 20
38.301193
 30
0.0
 11
327.360411
 21
38.359241
 31
0.0
  0
ENDBLK
  5
45B
330
459
100
AcDbEntity
  8
0
100
AcDbBlockEnd
  0
BLOCK
  5
46A
330
469
100
AcDbEntity
  8
0
100
AcDbBlockBegin
  2
POLY11
 70
     0
 71
     0
 10
0.0
 20
0.0
 30
0.0
  3
POLY11
  1

  4
POLY11
  0
LINE
  5
46C
330
469
100
AcDbEntity
  8
LC-001-100-D00-0
 62
     7
370
    50
100
AcDbLine
 10
232.360411
 20
38.359241
 30
0.0
 11
232.360411
 21
38.359241
 31
0.0
  0
LINE
  5
46D
330
469
100
AcDbEntity
  8
LC-001-100-D00-0
 62
     7
370
    50
100
AcDbLine
 10
232.360411
 20
38.359241
 30
0.0
 11
232.360155
 21
38.345441
 31
0.0
  0
LINE
  5
46E
330
469
100
AcDbEntity
  8
LC-001-100-D00-0
 62
     7
370
    50
100
AcDbLine
 10
232.360155
 20
38.345441
 30
0.0
 11
232.360155
 21
38.345441
 31
0.0
  0
LINE
  5
46F
330
469
100
AcDbEntity
  8
LC-001-100-D00-0
 62
     7
370
    50
100
AcDbLine
 10
232.360155
 20
38.345441
 30
0.0
 11
232.362287
 21
38.292531
 31
0.0
  0
LINE
  5
470
330
469
100
AcDbEntity
  8
LC-001-100-D00-0
 62
     7
370
    50
100
AcDbLine
 10
232.362287
 20
38.292531
 30
0.0
 11
232.362287
 21
38.292531
 31
0.0
  0
LINE
  5
471
330
469
100
AcDbEntity
  8
LC-001-100-D00-0
 62
     7
370
    50
100
AcDbLine
 10
232.362287
 20
38.292531
 30
0.0
 11
232.364859
 21
38.253213
 31
0.0
  0
LINE
  5
472
330
469
100
AcDbEntity
  8
LC-001-100-D00-0
 62
     7
370
    50
100
AcDbLine
 10
232.364859
 20
38.253213
 30
0.0
 11
232.364859
 21
38.253213
 31
0.0
  0
LINE
  5
473
330
469
100
AcDbEntity
  8
LC-001-100-D00-0
 62
     7
370
    50
100
AcDbLine
 10
232.364859
 20
38.253213
 30
0.0
 11
232.379842
 21
38.15713
 31
0.0
  0
LINE
  5
474
330
469
100
AcDbEntity
  8
LC-001-100-D00-0
 62
     7
370
    50
100
AcDbLine
 10
232.379842
 20
38.15713
 30
0.0
 11
232.379842
 21
38.15713
 31
0.0
  0
LINE
  5
475
330
469
100
AcDbEntity
  8
LC-001-100-D00-0
 62
     7
370
    50
100
AcDbLine
 10
232.379842
 20
38.15713
 30
0.0
 11
232.392686
 21
38.099487
 31
0.0
  0
LINE
  5
476
330
469
100
AcDbEntity
  8
LC-001-100-D00-0
 62
     7
370
    50
100
AcDbLine
 10
232.392686
 20
38.099487
 30
0.0
 11
232.392686
 21
38.099487
 31
0.0
  0
LINE
  5
477
330
469
100
AcDbEntity
  8
LC-001-100-D00-0
 62
     7
370
    50
100
AcDbLine
 10
232.392686
 20
38.099487
 30
0.0
 11
232.432906
 21
37.980165
 31
0.0
  0
LINE
  5
478
330
469
100
AcDbEntity
  8
LC-001-100-D00-0
 62
     7
370
    50
100
AcDbLine
 10
232.432906
 20
37.980165
 30
0.0
 11
232.432906
 21
37.980165
 31
0.0
  0
LINE
  5
479
330
469
100
AcDbEntity
  8
LC-001-100-D00-0
 62
     7
370
    50
100
AcDbLine
 10
232.432906
 20
37.980165
 30
0.0
 11
232.460439
 21
37.918038
 31
0.0
  0
LINE
  5
47A
330
469
100
AcDbEntity
  8
LC-001-100-D00-0
 62
     7
370
    50
100
AcDbLine
 10
232.460439
 20
37.918038
 30
0.0
 11
232.460439
 21
37.918038
 31
0.0
  0
LINE
  5
47B
330
469
100
AcDbEntity
  8
LC-001-100-D00-0
 62
     7
370
    50
100
AcDbLine
 10
232.460439
 20
37.918038
 30
0.0
 11
232.494385
 21
37.859241
 31
0.0
  0
ENDBLK
  5
46B
330
469
100
AcDbEntity
  8
0
100
AcDbBlockEnd
  0
BLOCK
  5
47E
330
47D
100
AcDbEntity
  8
0
100
AcDbBlockBegin
  2
POLY12
 70
     0
 71
     0
 10
0.0
 20
0.0
 30
0.0
  3
POLY12
  1

  4
POLY12
  0
LINE
  5
480
330
47D
100
AcDbEntity
  8
LC-001-100-D00-0
 62
     7
370
    50
100
AcDbLine
 10
247.226436
 20
37.859241
 30
0.0
 11
247.226436
 21
37.859241
 31
0.0
  0
LINE
  5
481
330
47D
100
AcDbEntity
  8
LC-001-100-D00-0
 62
     7
370
    50
100
AcDbLine
 10
247.226436
 20
37.859241
 30
0.0
 11
247.260368
 21
37.918013
 31
0.0
  0
LINE
  5
482
330
47D
100
AcDbEntity
  8
LC-001-100-D00-0
 62
     7
370
    50
100
AcDbLine
 10
247.260368
 20
37.918013
 30
0.0
 11
247.260368
 21
37.918013
 31
0.0
  0
LINE
  5
483
330
47D
100
AcDbEntity
  8
LC-001-100-D00-0
 62
     7
370
    50
100
AcDbLine
 10
247.260368
 20
37.918013
 30
0.0
 11
247.287736
 21
37.979695
 31
0.0
  0
LINE
  5
484
330
47D
100
AcDbEntity
  8
LC-001-100-D00-0
 62
     7
370
    50
100
AcDbLine
 10
247.287736
 20
37.979695
 30
0.0
 11
247.287736
 21
37.979695
 31
0.0
  0
LINE
  5
485
330
47D
100
AcDbEntity
  8
LC-001-100-D00-0
 62
     7
370
    50
100
AcDbLine
 10
247.287736
 20
37.979695
 30
0.0
 11
247.328112
 21
38.099353
 31
0.0
  0
LINE
  5
486
330
47D
100
AcDbEntity
  8
LC-001-100-D00-0
 62
     7
370
    50
100
AcDbLine
 10
247.328112
 20
38.099353
 30
0.0
 11
247.328112
 21
38.099353
 31
0.0
  0
LINE
  5
487
330
47D
100
AcDbEntity
  8
LC-001-100-D00-0
 62
     7
370
    50
100
AcDbLine
 10
247.328112
 20
38.099353
 30
0.0
 11
247.340915
 21
38.156793
 31
0.0
  0
LINE
  5
488
330
47D
100
AcDbEntity
  8
LC-001-100-D00-0
 62
     7
370
    50
100
AcDbLine
 10
247.340915
 20
38.156793
 30
0.0
 11
247.340915
 21
38.156793
 31
0.0
  0
LINE
  5
489
330
47D
100
AcDbEntity
  8
LC-001-100-D00-0
 62
     7
370
    50
100
AcDbLine
 10
247.340915
 20
38.156793
 30
0.0
 11
247.363468
 21
38.301193
 31
0.0
  0
LINE
  5
48A
330
47D
100
AcDbEntity
  8
LC-001-100-D00-0
 62
     7
370
    50
100
AcDbLine
 10
247.363468
 20
38.301193
 30
0.0
 11
247.363468
 21
38.301193
 31
0.0
  0
LINE
  5
48B
330
47D
100
AcDbEntity
  8
LC-001-100-D00-0
 62
     7
370
    50
100
AcDbLine
 10
247.363468
 20
38.301193
 30
0.0
 11
247.360411
 21
38.359241
 31
0.0
  0
ENDBLK
  5
47F
330
47D
100
AcDbEntity
  8
0
100
AcDbBlockEnd
  0
BLOCK
  5
48E
330
48D
100
AcDbEntity
  8
0
100
AcDbBlockBegin
  2
POLY13
 70
     0
 71
     0
 10
0.0
 20
0.0
 30
0.0
  3
POLY13
  1

  4
POLY13
  0
LINE
  5
490
330
48D
100
AcDbEntity
  8
LC-001-100-D00-0
 62
     7
370
    50
100
AcDbLine
 10
205.860411
 20
79.859241
 30
0.0
 11
205.860411
 21
79.859241
 31
0.0
  0
LINE
  5
491
330
48D
100
AcDbEntity
  8
LC-001-100-D00-0
 62
     7
370
    50
100
AcDbLine
 10
205.860411
 20
79.859241
 30
0.0
 11
205.84661
 21
79.859496
 31
0.0
  0
LINE
  5
492
330
48D
100
AcDbEntity
  8
LC-001-100-D00-0
 62
     7
370
    50
100
AcDbLine
 10
205.84661
 20
79.859496
 30
0.0
 11
205.84661
 21
79.859496
 31
0.0
  0
LINE
  5
493
330
48D
100
AcDbEntity
  8
LC-001-100-D00-0
 62
     7
370
    50
100
AcDbLine
 10
205.84661
 20
79.859496
 30
0.0
 11
205.7937
 21
79.857365
 31
0.0
  0
LINE
  5
494
330
48D
100
AcDbEntity
  8
LC-001-100-D00-0
 62
     7
370
    50
100
AcDbLine
 10
205.7937
 20
79.857365
 30
0.0
 11
205.7937
 21
79.857365
 31
0.0
  0
LINE
  5
495
330
48D
100
AcDbEntity
  8
LC-001-100-D00-0
 62
     7
370
    50
100
AcDbLine
 10
205.7937
 20
79.857365
 30
0.0
 11
205.754383
 21
79.854792
 31
0.0
  0
LINE
  5
496
330
48D
100
AcDbEntity
  8
LC-001-100-D00-0
 62
     7
370
    50
100
AcDbLine
 10
205.754383
 20
79.854792
 30
0.0
 11
205.754383
 21
79.854792
 31
0.0
  0
LINE
  5
497
330
48D
100
AcDbEntity
  8
LC-001-100-D00-0
 62
     7
370
    50
100
AcDbLine
 10
205.754383
 20
79.854792
 30
0.0
 11
205.6583
 21
79.83981
 31
0.0
  0
LINE
  5
498
330
48D
100
AcDbEntity
  8
LC-001-100-D00-0
 62
     7
370
    50
100
AcDbLine
 10
205.6583
 20
79.83981
 30
0.0
 11
205.6583
 21
79.83981
 31
0.0
  0
LINE
  5
499
330
48D
100
AcDbEntity
  8
LC-001-100-D00-0
 62
     7
370
    50
100
AcDbLine
 10
205.6583
 20
79.83981
 30
0.0
 11
205.600657
 21
79.826966
 31
0.0
  0
LINE
  5
49A
330
48D
100
AcDbEntity
  8
LC-001-100-D00-0
 62
     7
370
    50
100
AcDbLine
 10
205.600657
 20
79.826966
 30
0.0
 11
205.600657
 21
79.826966
 31
0.0
  0
LINE
  5
49B
330
48D
100
AcDbEntity
  8
LC-001-100-D00-0
 62
     7
370
    50
100
AcDbLine
 10
205.600657
 20
79.826966
 30
0.0
 11
205.481334
 21
79.786746
 31
0.0
  0
LINE
  5
49C
330
48D
100
AcDbEntity
  8
LC-001-100-D00-0
 62
     7
370
    50
100
AcDbLine
 10
205.481334
 20
79.786746
 30
0.0
 11
205.481334
 21
79.786746
 31
0.0
  0
LINE
  5
49D
330
48D
100
AcDbEntity
  8
LC-001-100-D00-0
 62
     7
370
    50
100
AcDbLine
 10
205.481334
 20
79.786746
 30
0.0
 11
205.419207
 21
79.759213
 31
0.0
  0
LINE
  5
49E
330
48D
100
AcDbEntity
  8
LC-001-100-D00-0
 62
     7
370
    50
100
AcDbLine
 10
205.419207
 20
79.759213
 30
0.0
 11
205.419207
 21
79.759213
 31
0.0
  0
LINE
  5
49F
330
48D
100
AcDbEntity
  8
LC-001-100-D00-0
 62
     7
370
    50
100
AcDbLine
 10
205.419207
 20
79.759213
 30
0.0
 11
205.360411
 21
79.725266
 31
0.0
  0
ENDBLK
  5
48F
330
48D
100
AcDbEntity
  8
0
100
AcDbBlockEnd
  0
BLOCK
  5
4A2
330
4A1
100
AcDbEntity
  8
0
100
AcDbBlockBegin
  2
POLY14
 70
     0
 71
     0
 10
0.0
 20
0.0
 30
0.0
  3
POLY14
  1

  4
POLY14
  0
LINE
  5
4A4
330
4A1
100
AcDbEntity
  8
LC-001-100-D00-0
 62
     7
370
    50
100
AcDbLine
 10
205.360411
 20
64.993216
 30
0.0
 11
205.360411
 21
64.993216
 31
0.0
  0
LINE
  5
4A5
330
4A1
100
AcDbEntity
  8
LC-001-100-D00-0
 62
     7
370
    50
100
AcDbLine
 10
205.360411
 20
64.993216
 30
0.0
 11
205.419183
 21
64.959283
 31
0.0
  0
LINE
  5
4A6
330
4A1
100
AcDbEntity
  8
LC-001-100-D00-0
 62
     7
370
    50
100
AcDbLine
 10
205.419183
 20
64.959283
 30
0.0
 11
205.419183
 21
64.959283
 31
0.0
  0
LINE
  5
4A7
330
4A1
100
AcDbEntity
  8
LC-001-100-D00-0
 62
     7
370
    50
100
AcDbLine
 10
205.419183
 20
64.959283
 30
0.0
 11
205.480865
 21
64.931916
 31
0.0
  0
LINE
  5
4A8
330
4A1
100
AcDbEntity
  8
LC-001-100-D00-0
 62
     7
370
    50
100
AcDbLine
 10
205.480865
 20
64.931916
 30
0.0
 11
205.480865
 21
64.931916
 31
0.0
  0
LINE
  5
4A9
330
4A1
100
AcDbEntity
  8
LC-001-100-D00-0
 62
     7
370
    50
100
AcDbLine
 10
205.480865
 20
64.931916
 30
0.0
 11
205.600523
 21
64.89154
 31
0.0
  0
LINE
  5
4AA
330
4A1
100
AcDbEntity
  8
LC-001-100-D00-0
 62
     7
370
    50
100
AcDbLine
 10
205.600523
 20
64.89154
 30
0.0
 11
205.600523
 21
64.89154
 31
0.0
  0
LINE
  5
4AB
330
4A1
100
AcDbEntity
  8
LC-001-100-D00-0
 62
     7
370
    50
100
AcDbLine
 10
205.600523
 20
64.89154
 30
0.0
 11
205.657962
 21
64.878737
 31
0.0
  0
LINE
  5
4AC
330
4A1
100
AcDbEntity
  8
LC-001-100-D00-0
 62
     7
370
    50
100
AcDbLine
 10
205.657962
 20
64.878737
 30
0.0
 11
205.657962
 21
64.878737
 31
0.0
  0
LINE
  5
4AD
330
4A1
100
AcDbEntity
  8
LC-001-100-D00-0
 62
     7
370
    50
100
AcDbLine
 10
205.657962
 20
64.878737
 30
0.0
 11
205.802363
 21
64.856184
 31
0.0
  0
LINE
  5
4AE
330
4A1
100
AcDbEntity
  8
LC-001-100-D00-0
 62
     7
370
    50
100
AcDbLine
 10
205.802363
 20
64.856184
 30
0.0
 11
205.802363
 21
64.856184
 31
0.0
  0
LINE
  5
4AF
330
4A1
100
AcDbEntity
  8
LC-001-100-D00-0
 62
     7
370
    50
100
AcDbLine
 10
205.802363
 20
64.856184
 30
0.0
 11
205.860411
 21
64.859241
 31
0.0
  0
ENDBLK
  5
4A3
330
4A1
100
AcDbEntity
  8
0
100
AcDbBlockEnd
  0
BLOCK
  5
4B2
330
4B1
100
AcDbEntity
  8
0
100
AcDbBlockBegin
  2
POLY15
 70
     0
 71
     0
 10
0.0
 20
0.0
 30
0.0
  3
POLY15
  1

  4
POLY15
  0
LINE
  5
4B4
330
4B1
100
AcDbEntity
  8
LC-001-100-D00-0
 62
     7
370
    50
100
AcDbLine
 10
353.860411
 20
144.859241
 30
0.0
 11
353.860411
 21
144.859241
 31
0.0
  0
LINE
  5
4B5
330
4B1
100
AcDbEntity
  8
LC-001-100-D00-0
 62
     7
370
    50
100
AcDbLine
 10
353.860411
 20
144.859241
 30
0.0
 11
353.874211
 21
144.858986
 31
0.0
  0
LINE
  5
4B6
330
4B1
100
AcDbEntity
  8
LC-001-100-D00-0
 62
     7
370
    50
100
AcDbLine
 10
353.874211
 20
144.858986
 30
0.0
 11
353.874211
 21
144.858986
 31
0.0
  0
LINE
  5
4B7
330
4B1
100
AcDbEntity
  8
LC-001-100-D00-0
 62
     7
370
    50
100
AcDbLine
 10
353.874211
 20
144.858986
 30
0.0
 11
353.927121
 21
144.861117
 31
0.0
  0
LINE
  5
4B8
330
4B1
100
AcDbEntity
  8
LC-001-100-D00-0
 62
     7
370
    50
100
AcDbLine
 10
353.927121
 20
144.861117
 30
0.0
 11
353.927121
 21
144.861117
 31
0.0
  0
LINE
  5
4B9
330
4B1
100
AcDbEntity
  8
LC-001-100-D00-0
 62
     7
370
    50
100
AcDbLine
 10
353.927121
 20
144.861117
 30
0.0
 11
353.966439
 21
144.86369
 31
0.0
  0
LINE
  5
4BA
330
4B1
100
AcDbEntity
  8
LC-001-100-D00-0
 62
     7
370
    50
100
AcDbLine
 10
353.966439
 20
144.86369
 30
0.0
 11
353.966439
 21
144.86369
 31
0.0
  0
LINE
  5
4BB
330
4B1
100
AcDbEntity
  8
LC-001-100-D00-0
 62
     7
370
    50
100
AcDbLine
 10
353.966439
 20
144.86369
 30
0.0
 11
354.062522
 21
144.878672
 31
0.0
  0
LINE
  5
4BC
330
4B1
100
AcDbEntity
  8
LC-001-100-D00-0
 62
     7
370
    50
100
AcDbLine
 10
354.062522
 20
144.878672
 30
0.0
 11
354.062522
 21
144.878672
 31
0.0
  0
LINE
  5
4BD
330
4B1
100
AcDbEntity
  8
LC-001-100-D00-0
 62
     7
370
    50
100
AcDbLine
 10
354.062522
 20
144.878672
 30
0.0
 11
354.120164
 21
144.891516
 31
0.0
  0
LINE
  5
4BE
330
4B1
100
AcDbEntity
  8
LC-001-100-D00-0
 62
     7
370
    50
100
AcDbLine
 10
354.120164
 20
144.891516
 30
0.0
 11
354.120164
 21
144.891516
 31
0.0
  0
LINE
  5
4BF
330
4B1
100
AcDbEntity
  8
LC-001-100-D00-0
 62
     7
370
    50
100
AcDbLine
 10
354.120164
 20
144.891516
 30
0.0
 11
354.239487
 21
144.931736
 31
0.0
  0
LINE
  5
4C0
330
4B1
100
AcDbEntity
  8
LC-001-100-D00-0
 62
     7
370
    50
100
AcDbLine
 10
354.239487
 20
144.931736
 30
0.0
 11
354.239487
 21
144.931736
 31
0.0
  0
LINE
  5
4C1
330
4B1
100
AcDbEntity
  8
LC-001-100-D00-0
 62
     7
370
    50
100
AcDbLine
 10
354.239487
 20
144.931736
 30
0.0
 11
354.301614
 21
144.959269
 31
0.0
  0
LINE
  5
4C2
330
4B1
100
AcDbEntity
  8
LC-001-100-D00-0
 62
     7
370
    50
100
AcDbLine
 10
354.301614
 20
144.959269
 30
0.0
 11
354.301614
 21
144.959269
 31
0.0
  0
LINE
  5
4C3
330
4B1
100
AcDbEntity
  8
LC-001-100-D00-0
 62
     7
370
    50
100
AcDbLine
 10
354.301614
 20
144.959269
 30
0.0
 11
354.360411
 21
144.993216
 31
0.0
  0
ENDBLK
  5
4B3
330
4B1
100
AcDbEntity
  8
0
100
AcDbBlockEnd
  0
BLOCK
  5
4C6
330
4C5
100
AcDbEntity
  8
0
100
AcDbBlockBegin
  2
POLY16
 70
     0
 71
     0
 10
0.0
 20
0.0
 30
0.0
  3
POLY16
  1

  4
POLY16
  0
LINE
  5
4C8
330
4C5
100
AcDbEntity
  8
LC-001-100-D00-0
 62
     7
370
    50
100
AcDbLine
 10
354.360411
 20
159.725266
 30
0.0
 11
354.360411
 21
159.725266
 31
0.0
  0
LINE
  5
4C9
330
4C5
100
AcDbEntity
  8
LC-001-100-D00-0
 62
     7
370
    50
100
AcDbLine
 10
354.360411
 20
159.725266
 30
0.0
 11
354.301638
 21
159.759199
 31
0.0
  0
LINE
  5
4CA
330
4C5
100
AcDbEntity
  8
LC-001-100-D00-0
 62
     7
370
    50
100
AcDbLine
 10
354.301638
 20
159.759199
 30
0.0
 11
354.301638
 21
159.759199
 31
0.0
  0
LINE
  5
4CB
330
4C5
100
AcDbEntity
  8
LC-001-100-D00-0
 62
     7
370
    50
100
AcDbLine
 10
354.301638
 20
159.759199
 30
0.0
 11
354.239956
 21
159.786566
 31
0.0
  0
LINE
  5
4CC
330
4C5
100
AcDbEntity
  8
LC-001-100-D00-0
 62
     7
370
    50
100
AcDbLine
 10
354.239956
 20
159.786566
 30
0.0
 11
354.239956
 21
159.786566
 31
0.0
  0
LINE
  5
4CD
330
4C5
100
AcDbEntity
  8
LC-001-100-D00-0
 62
     7
370
    50
100
AcDbLine
 10
354.239956
 20
159.786566
 30
0.0
 11
354.120299
 21
159.826942
 31
0.0
  0
LINE
  5
4CE
330
4C5
100
AcDbEntity
  8
LC-001-100-D00-0
 62
     7
370
    50
100
AcDbLine
 10
354.120299
 20
159.826942
 30
0.0
 11
354.120299
 21
159.826942
 31
0.0
  0
LINE
  5
4CF
330
4C5
100
AcDbEntity
  8
LC-001-100-D00-0
 62
     7
370
    50
100
AcDbLine
 10
354.120299
 20
159.826942
 30
0.0
 11
354.062859
 21
159.839745
 31
0.0
  0
LINE
  5
4D0
330
4C5
100
AcDbEntity
  8
LC-001-100-D00-0
 62
     7
370
    50
100
AcDbLine
 10
354.062859
 20
159.839745
 30
0.0
 11
354.062859
 21
159.839745
 31
0.0
  0
LINE
  5
4D1
330
4C5
100
AcDbEntity
  8
LC-001-100-D00-0
 62
     7
370
    50
100
AcDbLine
 10
354.062859
 20
159.839745
 30
0.0
 11
353.918459
 21
159.862298
 31
0.0
  0
LINE
  5
4D2
330
4C5
100
AcDbEntity
  8
LC-001-100-D00-0
 62
     7
370
    50
100
AcDbLine
 10
353.918459
 20
159.862298
 30
0.0
 11
353.918459
 21
159.862298
 31
0.0
  0
LINE
  5
4D3
330
4C5
100
AcDbEntity
  8
LC-001-100-D00-0
 62
     7
370
    50
100
AcDbLine
 10
353.918459
 20
159.862298
 30
0.0
 11
353.860411
 21
159.859241
 31
0.0
  0
ENDBLK
  5
4C7
330
4C5
100
AcDbEntity
  8
0
100
AcDbBlockEnd
  0
BLOCK
  5
4D6
330
4D5
100
AcDbEntity
  8
0
100
AcDbBlockBegin
  2
POLY17
 70
     0
 71
     0
 10
0.0
 20
0.0
 30
0.0
  3
POLY17
  1

  4
POLY17
  0
LINE
  5
4D8
330
4D5
100
AcDbEntity
  8
LC-001-100-D00-0
 62
     7
370
    50
100
AcDbLine
 10
205.860411
 20
159.859241
 30
0.0
 11
205.860411
 21
159.859241
 31
0.0
  0
LINE
  5
4D9
330
4D5
100
AcDbEntity
  8
LC-001-100-D00-0
 62
     7
370
    50
100
AcDbLine
 10
205.860411
 20
159.859241
 30
0.0
 11
205.84661
 21
159.859496
 31
0.0
  0
LINE
  5
4DA
330
4D5
100
AcDbEntity
  8
LC-001-100-D00-0
 62
     7
370
    50
100
AcDbLine
 10
205.84661
 20
159.859496
 30
0.0
 11
205.84661
 21
159.859496
 31
0.0
  0
LINE
  5
4DB
330
4D5
100
AcDbEntity
  8
LC-001-100-D00-0
 62
     7
370
    50
100
AcDbLine
 10
205.84661
 20
159.859496
 30
0.0
 11
205.7937
 21
159.857365
 31
0.0
  0
LINE
  5
4DC
330
4D5
100
AcDbEntity
  8
LC-001-100-D00-0
 62
     7
370
    50
100
AcDbLine
 10
205.7937
 20
159.857365
 30
0.0
 11
205.7937
 21
159.857365
 31
0.0
  0
LINE
  5
4DD
330
4D5
100
AcDbEntity
  8
LC-001-100-D00-0
 62
     7
370
    50
100
AcDbLine
 10
205.7937
 20
159.857365
 30
0.0
 11
205.754383
 21
159.854792
 31
0.0
  0
LINE
  5
4DE
330
4D5
100
AcDbEntity
  8
LC-001-100-D00-0
 62
     7
370
    50
100
AcDbLine
 10
205.754383
 20
159.854792
 30
0.0
 11
205.754383
 21
159.854792
 31
0.0
  0
LINE
  5
4DF
330
4D5
100
AcDbEntity
  8
LC-001-100-D00-0
 62
     7
370
    50
100
AcDbLine
 10
205.754383
 20
159.854792
 30
0.0
 11
205.6583
 21
159.83981
 31
0.0
  0
LINE
  5
4E0
330
4D5
100
AcDbEntity
  8
LC-001-100-D00-0
 62
     7
370
    50
100
AcDbLine
 10
205.6583
 20
159.83981
 30
0.0
 11
205.6583
 21
159.83981
 31
0.0
  0
LINE
  5
4E1
330
4D5
100
AcDbEntity
  8
LC-001-100-D00-0
 62
     7
370
    50
100
AcDbLine
 10
205.6583
 20
159.83981
 30
0.0
 11
205.600657
 21
159.826966
 31
0.0
  0
LINE
  5
4E2
330
4D5
100
AcDbEntity
  8
LC-001-100-D00-0
 62
     7
370
    50
100
AcDbLine
 10
205.600657
 20
159.826966
 30
0.0
 11
205.600657
 21
159.826966
 31
0.0
  0
LINE
  5
4E3
330
4D5
100
AcDbEntity
  8
LC-001-100-D00-0
 62
     7
370
    50
100
AcDbLine
 10
205.600657
 20
159.826966
 30
0.0
 11
205.481334
 21
159.786746
 31
0.0
  0
LINE
  5
4E4
330
4D5
100
AcDbEntity
  8
LC-001-100-D00-0
 62
     7
370
    50
100
AcDbLine
 10
205.481334
 20
159.786746
 30
0.0
 11
205.481334
 21
159.786746
 31
0.0
  0
LINE
  5
4E5
330
4D5
100
AcDbEntity
  8
LC-001-100-D00-0
 62
     7
370
    50
100
AcDbLine
 10
205.481334
 20
159.786746
 30
0.0
 11
205.419207
 21
159.759213
 31
0.0
  0
LINE
  5
4E6
330
4D5
100
AcDbEntity
  8
LC-001-100-D00-0
 62
     7
370
    50
100
AcDbLine
 10
205.419207
 20
159.759213
 30
0.0
 11
205.419207
 21
159.759213
 31
0.0
  0
LINE
  5
4E7
330
4D5
100
AcDbEntity
  8
LC-001-100-D00-0
 62
     7
370
    50
100
AcDbLine
 10
205.419207
 20
159.759213
 30
0.0
 11
205.360411
 21
159.725266
 31
0.0
  0
ENDBLK
  5
4D7
330
4D5
100
AcDbEntity
  8
0
100
AcDbBlockEnd
  0
BLOCK
  5
4EA
330
4E9
100
AcDbEntity
  8
0
100
AcDbBlockBegin
  2
POLY18
 70
     0
 71
     0
 10
0.0
 20
0.0
 30
0.0
  3
POLY18
  1

  4
POLY18
  0
LINE
  5
4EC
330
4E9
100
AcDbEntity
  8
LC-001-100-D00-0
 62
     7
370
    50
100
AcDbLine
 10
205.360411
 20
144.993216
 30
0.0
 11
205.360411
 21
144.993216
 31
0.0
  0
LINE
  5
4ED
330
4E9
100
AcDbEntity
  8
LC-001-100-D00-0
 62
     7
370
    50
100
AcDbLine
 10
205.360411
 20
144.993216
 30
0.0
 11
205.419183
 21
144.959283
 31
0.0
  0
LINE
  5
4EE
330
4E9
100
AcDbEntity
  8
LC-001-100-D00-0
 62
     7
370
    50
100
AcDbLine
 10
205.419183
 20
144.959283
 30
0.0
 11
205.419183
 21
144.959283
 31
0.0
  0
LINE
  5
4EF
330
4E9
100
AcDbEntity
  8
LC-001-100-D00-0
 62
     7
370
    50
100
AcDbLine
 10
205.419183
 20
144.959283
 30
0.0
 11
205.480865
 21
144.931916
 31
0.0
  0
LINE
  5
4F0
330
4E9
100
AcDbEntity
  8
LC-001-100-D00-0
 62
     7
370
    50
100
AcDbLine
 10
205.480865
 20
144.931916
 30
0.0
 11
205.480865
 21
144.931916
 31
0.0
  0
LINE
  5
4F1
330
4E9
100
AcDbEntity
  8
LC-001-100-D00-0
 62
     7
370
    50
100
AcDbLine
 10
205.480865
 20
144.931916
 30
0.0
 11
205.600523
 21
144.89154
 31
0.0
  0
LINE
  5
4F2
330
4E9
100
AcDbEntity
  8
LC-001-100-D00-0
 62
     7
370
    50
100
AcDbLine
 10
205.600523
 20
144.89154
 30
0.0
 11
205.600523
 21
144.89154
 31
0.0
  0
LINE
  5
4F3
330
4E9
100
AcDbEntity
  8
LC-001-100-D00-0
 62
     7
370
    50
100
AcDbLine
 10
205.600523
 20
144.89154
 30
0.0
 11
205.657962
 21
144.878737
 31
0.0
  0
LINE
  5
4F4
330
4E9
100
AcDbEntity
  8
LC-001-100-D00-0
 62
     7
370
    50
100
AcDbLine
 10
205.657962
 20
144.878737
 30
0.0
 11
205.657962
 21
144.878737
 31
0.0
  0
LINE
  5
4F5
330
4E9
100
AcDbEntity
  8
LC-001-100-D00-0
 62
     7
370
    50
100
AcDbLine
 10
205.657962
 20
144.878737
 30
0.0
 11
205.802363
 21
144.856184
 31
0.0
  0
LINE
  5
4F6
330
4E9
100
AcDbEntity
  8
LC-001-100-D00-0
 62
     7
370
    50
100
AcDbLine
 10
205.802363
 20
144.856184
 30
0.0
 11
205.802363
 21
144.856184
 31
0.0
  0
LINE
  5
4F7
330
4E9
100
AcDbEntity
  8
LC-001-100-D00-0
 62
     7
370
    50
100
AcDbLine
 10
205.802363
 20
144.856184
 30
0.0
 11
205.860411
 21
144.859241
 31
0.0
  0
ENDBLK
  5
4EB
330
4E9
100
AcDbEntity
  8
0
100
AcDbBlockEnd
  0
BLOCK
  5
4FA
330
4F9
100
AcDbEntity
  8
0
100
AcDbBlockBegin
  2
POLY19
 70
     0
 71
     0
 10
0.0
 20
0.0
 30
0.0
  3
POLY19
  1

  4
POLY19
  0
LINE
  5
4FC
330
4F9
100
AcDbEntity
  8
LC-001-100-D00-0
 62
     7
370
    50
100
AcDbLine
 10
327.360411
 20
186.359241
 30
0.0
 11
327.360411
 21
186.359241
 31
0.0
  0
LINE
  5
4FD
330
4F9
100
AcDbEntity
  8
LC-001-100-D00-0
 62
     7
370
    50
100
AcDbLine
 10
327.360411
 20
186.359241
 30
0.0
 11
327.360666
 21
186.373041
 31
0.0
  0
LINE
  5
4FE
330
4F9
100
AcDbEntity
  8
LC-001-100-D00-0
 62
     7
370
    50
100
AcDbLine
 10
327.360666
 20
186.373041
 30
0.0
 11
327.360666
 21
186.373041
 31
0.0
  0
LINE
  5
4FF
330
4F9
100
AcDbEntity
  8
LC-001-100-D00-0
 62
     7
370
    50
100
AcDbLine
 10
327.360666
 20
186.373041
 30
0.0
 11
327.358534
 21
186.425951
 31
0.0
  0
LINE
  5
500
330
4F9
100
AcDbEntity
  8
LC-001-100-D00-0
 62
     7
370
    50
100
AcDbLine
 10
327.358534
 20
186.425951
 30
0.0
 11
327.358534
 21
186.425951
 31
0.0
  0
LINE
  5
501
330
4F9
100
AcDbEntity
  8
LC-001-100-D00-0
 62
     7
370
    50
100
AcDbLine
 10
327.358534
 20
186.425951
 30
0.0
 11
327.355962
 21
186.465269
 31
0.0
  0
LINE
  5
502
330
4F9
100
AcDbEntity
  8
LC-001-100-D00-0
 62
     7
370
    50
100
AcDbLine
 10
327.355962
 20
186.465269
 30
0.0
 11
327.355962
 21
186.465269
 31
0.0
  0
LINE
  5
503
330
4F9
100
AcDbEntity
  8
LC-001-100-D00-0
 62
     7
370
    50
100
AcDbLine
 10
327.355962
 20
186.465269
 30
0.0
 11
327.34098
 21
186.561352
 31
0.0
  0
LINE
  5
504
330
4F9
100
AcDbEntity
  8
LC-001-100-D00-0
 62
     7
370
    50
100
AcDbLine
 10
327.34098
 20
186.561352
 30
0.0
 11
327.34098
 21
186.561352
 31
0.0
  0
LINE
  5
505
330
4F9
100
AcDbEntity
  8
LC-001-100-D00-0
 62
     7
370
    50
100
AcDbLine
 10
327.34098
 20
186.561352
 30
0.0
 11
327.328136
 21
186.618995
 31
0.0
  0
LINE
  5
506
330
4F9
100
AcDbEntity
  8
LC-001-100-D00-0
 62
     7
370
    50
100
AcDbLine
 10
327.328136
 20
186.618995
 30
0.0
 11
327.328136
 21
186.618995
 31
0.0
  0
LINE
  5
507
330
4F9
100
AcDbEntity
  8
LC-001-100-D00-0
 62
     7
370
    50
100
AcDbLine
 10
327.328136
 20
186.618995
 30
0.0
 11
327.287915
 21
186.738317
 31
0.0
  0
LINE
  5
508
330
4F9
100
AcDbEntity
  8
LC-001-100-D00-0
 62
     7
370
    50
100
AcDbLine
 10
327.287915
 20
186.738317
 30
0.0
 11
327.287915
 21
186.738317
 31
0.0
  0
LINE
  5
509
330
4F9
100
AcDbEntity
  8
LC-001-100-D00-0
 62
     7
370
    50
100
AcDbLine
 10
327.287915
 20
186.738317
 30
0.0
 11
327.260382
 21
186.800444
 31
0.0
  0
LINE
  5
50A
330
4F9
100
AcDbEntity
  8
LC-001-100-D00-0
 62
     7
370
    50
100
AcDbLine
 10
327.260382
 20
186.800444
 30
0.0
 11
327.260382
 21
186.800444
 31
0.0
  0
LINE
  5
50B
330
4F9
100
AcDbEntity
  8
LC-001-100-D00-0
 62
     7
370
    50
100
AcDbLine
 10
327.260382
 20
186.800444
 30
0.0
 11
327.226436
 21
186.859241
 31
0.0
  0
ENDBLK
  5
4FB
330
4F9
100
AcDbEntity
  8
0
100
AcDbBlockEnd
  0
BLOCK
  5
50E
330
50D
100
AcDbEntity
  8
0
100
AcDbBlockBegin
  2
POLY20
 70
     0
 71
     0
 10
0.0
 20
0.0
 30
0.0
  3
POLY20
  1

  4
POLY20
  0
LINE
  5
510
330
50D
100
AcDbEntity
  8
LC-001-100-D00-0
 62
     7
370
    50
100
AcDbLine
 10
312.494385
 20
186.859241
 30
0.0
 11
312.494385
 21
186.859241
 31
0.0
  0
LINE
  5
511
330
50D
100
AcDbEntity
  8
LC-001-100-D00-0
 62
     7
370
    50
100
AcDbLine
 10
312.494385
 20
186.859241
 30
0.0
 11
312.460453
 21
186.800469
 31
0.0
  0
LINE
  5
512
330
50D
100
AcDbEntity
  8
LC-001-100-D00-0
 62
     7
370
    50
100
AcDbLine
 10
312.460453
 20
186.800469
 30
0.0
 11
312.460453
 21
186.800469
 31
0.0
  0
LINE
  5
513
330
50D
100
AcDbEntity
  8
LC-001-100-D00-0
 62
     7
370
    50
100
AcDbLine
 10
312.460453
 20
186.800469
 30
0.0
 11
312.433085
 21
186.738787
 31
0.0
  0
LINE
  5
514
330
50D
100
AcDbEntity
  8
LC-001-100-D00-0
 62
     7
370
    50
100
AcDbLine
 10
312.433085
 20
186.738787
 30
0.0
 11
312.433085
 21
186.738787
 31
0.0
  0
LINE
  5
515
330
50D
100
AcDbEntity
  8
LC-001-100-D00-0
 62
     7
370
    50
100
AcDbLine
 10
312.433085
 20
186.738787
 30
0.0
 11
312.39271
 21
186.619129
 31
0.0
  0
LINE
  5
516
330
50D
100
AcDbEntity
  8
LC-001-100-D00-0
 62
     7
370
    50
100
AcDbLine
 10
312.39271
 20
186.619129
 30
0.0
 11
312.39271
 21
186.619129
 31
0.0
  0
LINE
  5
517
330
50D
100
AcDbEntity
  8
LC-001-100-D00-0
 62
     7
370
    50
100
AcDbLine
 10
312.39271
 20
186.619129
 30
0.0
 11
312.379907
 21
186.56169
 31
0.0
  0
LINE
  5
518
330
50D
100
AcDbEntity
  8
LC-001-100-D00-0
 62
     7
370
    50
100
AcDbLine
 10
312.379907
 20
186.56169
 30
0.0
 11
312.379907
 21
186.56169
 31
0.0
  0
LINE
  5
519
330
50D
100
AcDbEntity
  8
LC-001-100-D00-0
 62
     7
370
    50
100
AcDbLine
 10
312.379907
 20
186.56169
 30
0.0
 11
312.357353
 21
186.417289
 31
0.0
  0
LINE
  5
51A
330
50D
100
AcDbEntity
  8
LC-001-100-D00-0
 62
     7
370
    50
100
AcDbLine
 10
312.357353
 20
186.417289
 30
0.0
 11
312.357353
 21
186.417289
 31
0.0
  0
LINE
  5
51B
330
50D
100
AcDbEntity
  8
LC-001-100-D00-0
 62
     7
370
    50
100
AcDbLine
 10
312.357353
 20
186.417289
 30
0.0
 11
312.360411
 21
186.359241
 31
0.0
  0
ENDBLK
  5
50F
330
50D
100
AcDbEntity
  8
0
100
AcDbBlockEnd
  0
BLOCK
  5
51E
330
51D
100
AcDbEntity
  8
0
100
AcDbBlockBegin
  2
POLY21
 70
     0
 71
     0
 10
0.0
 20
0.0
 30
0.0
  3
POLY21
  1

  4
POLY21
  0
LINE
  5
520
330
51D
100
AcDbEntity
  8
LC-001-100-D00-0
 62
     7
370
    50
100
AcDbLine
 10
232.494385
 20
186.859241
 30
0.0
 11
232.494385
 21
186.859241
 31
0.0
  0
LINE
  5
521
330
51D
100
AcDbEntity
  8
LC-001-100-D00-0
 62
     7
370
    50
100
AcDbLine
 10
232.494385
 20
186.859241
 30
0.0
 11
232.460453
 21
186.800469
 31
0.0
  0
LINE
  5
522
330
51D
100
AcDbEntity
  8
LC-001-100-D00-0
 62
     7
370
    50
100
AcDbLine
 10
232.460453
 20
186.800469
 30
0.0
 11
232.460453
 21
186.800469
 31
0.0
  0
LINE
  5
523
330
51D
100
AcDbEntity
  8
LC-001-100-D00-0
 62
     7
370
    50
100
AcDbLine
 10
232.460453
 20
186.800469
 30
0.0
 11
232.433085
 21
186.738787
 31
0.0
  0
LINE
  5
524
330
51D
100
AcDbEntity
  8
LC-001-100-D00-0
 62
     7
370
    50
100
AcDbLine
 10
232.433085
 20
186.738787
 30
0.0
 11
232.433085
 21
186.738787
 31
0.0
  0
LINE
  5
525
330
51D
100
AcDbEntity
  8
LC-001-100-D00-0
 62
     7
370
    50
100
AcDbLine
 10
232.433085
 20
186.738787
 30
0.0
 11
232.39271
 21
186.619129
 31
0.0
  0
LINE
  5
526
330
51D
100
AcDbEntity
  8
LC-001-100-D00-0
 62
     7
370
    50
100
AcDbLine
 10
232.39271
 20
186.619129
 30
0.0
 11
232.39271
 21
186.619129
 31
0.0
  0
LINE
  5
527
330
51D
100
AcDbEntity
  8
LC-001-100-D00-0
 62
     7
370
    50
100
AcDbLine
 10
232.39271
 20
186.619129
 30
0.0
 11
232.379907
 21
186.56169
 31
0.0
  0
LINE
  5
528
330
51D
100
AcDbEntity
  8
LC-001-100-D00-0
 62
     7
370
    50
100
AcDbLine
 10
232.379907
 20
186.56169
 30
0.0
 11
232.379907
 21
186.56169
 31
0.0
  0
LINE
  5
529
330
51D
100
AcDbEntity
  8
LC-001-100-D00-0
 62
     7
370
    50
100
AcDbLine
 10
232.379907
 20
186.56169
 30
0.0
 11
232.357353
 21
186.417289
 31
0.0
  0
LINE
  5
52A
330
51D
100
AcDbEntity
  8
LC-001-100-D00-0
 62
     7
370
    50
100
AcDbLine
 10
232.357353
 20
186.417289
 30
0.0
 11
232.357353
 21
186.417289
 31
0.0
  0
LINE
  5
52B
330
51D
100
AcDbEntity
  8
LC-001-100-D00-0
 62
     7
370
    50
100
AcDbLine
 10
232.357353
 20
186.417289
 30
0.0
 11
232.360411
 21
186.359241
 31
0.0
  0
ENDBLK
  5
51F
330
51D
100
AcDbEntity
  8
0
100
AcDbBlockEnd
  0
BLOCK
  5
52E
330
52D
100
AcDbEntity
  8
0
100
AcDbBlockBegin
  2
POLY22
 70
     0
 71
     0
 10
0.0
 20
0.0
 30
0.0
  3
POLY22
  1

  4
POLY22
  0
LINE
  5
530
330
52D
100
AcDbEntity
  8
LC-001-100-D00-0
 62
     7
370
    50
100
AcDbLine
 10
247.360411
 20
186.359241
 30
0.0
 11
247.360411
 21
186.359241
 31
0.0
  0
LINE
  5
531
330
52D
100
AcDbEntity
  8
LC-001-100-D00-0
 62
     7
370
    50
100
AcDbLine
 10
247.360411
 20
186.359241
 30
0.0
 11
247.360666
 21
186.373041
 31
0.0
  0
LINE
  5
532
330
52D
100
AcDbEntity
  8
LC-001-100-D00-0
 62
     7
370
    50
100
AcDbLine
 10
247.360666
 20
186.373041
 30
0.0
 11
247.360666
 21
186.373041
 31
0.0
  0
LINE
  5
533
330
52D
100
AcDbEntity
  8
LC-001-100-D00-0
 62
     7
370
    50
100
AcDbLine
 10
247.360666
 20
186.373041
 30
0.0
 11
247.358534
 21
186.425951
 31
0.0
  0
LINE
  5
534
330
52D
100
AcDbEntity
  8
LC-001-100-D00-0
 62
     7
370
    50
100
AcDbLine
 10
247.358534
 20
186.425951
 30
0.0
 11
247.358534
 21
186.425951
 31
0.0
  0
LINE
  5
535
330
52D
100
AcDbEntity
  8
LC-001-100-D00-0
 62
     7
370
    50
100
AcDbLine
 10
247.358534
 20
186.425951
 30
0.0
 11
247.355962
 21
186.465269
 31
0.0
  0
LINE
  5
536
330
52D
100
AcDbEntity
  8
LC-001-100-D00-0
 62
     7
370
    50
100
AcDbLine
 10
247.355962
 20
186.465269
 30
0.0
 11
247.355962
 21
186.465269
 31
0.0
  0
LINE
  5
537
330
52D
100
AcDbEntity
  8
LC-001-100-D00-0
 62
     7
370
    50
100
AcDbLine
 10
247.355962
 20
186.465269
 30
0.0
 11
247.34098
 21
186.561352
 31
0.0
  0
LINE
  5
538
330
52D
100
AcDbEntity
  8
LC-001-100-D00-0
 62
     7
370
    50
100
AcDbLine
 10
247.34098
 20
186.561352
 30
0.0
 11
247.34098
 21
186.561352
 31
0.0
  0
LINE
  5
539
330
52D
100
AcDbEntity
  8
LC-001-100-D00-0
 62
     7
370
    50
100
AcDbLine
 10
247.34098
 20
186.561352
 30
0.0
 11
247.328136
 21
186.618995
 31
0.0
  0
LINE
  5
53A
330
52D
100
AcDbEntity
  8
LC-001-100-D00-0
 62
     7
370
    50
100
AcDbLine
 10
247.328136
 20
186.618995
 30
0.0
 11
247.328136
 21
186.618995
 31
0.0
  0
LINE
  5
53B
330
52D
100
AcDbEntity
  8
LC-001-100-D00-0
 62
     7
370
    50
100
AcDbLine
 10
247.328136
 20
186.618995
 30
0.0
 11
247.287915
 21
186.738317
 31
0.0
  0
LINE
  5
53C
330
52D
100
AcDbEntity
  8
LC-001-100-D00-0
 62
     7
370
    50
100
AcDbLine
 10
247.287915
 20
186.738317
 30
0.0
 11
247.287915
 21
186.738317
 31
0.0
  0
LINE
  5
53D
330
52D
100
AcDbEntity
  8
LC-001-100-D00-0
 62
     7
370
    50
100
AcDbLine
 10
247.287915
 20
186.738317
 30
0.0
 11
247.260382
 21
186.800444
 31
0.0
  0
LINE
  5
53E
330
52D
100
AcDbEntity
  8
LC-001-100-D00-0
 62
     7
370
    50
100
AcDbLine
 10
247.260382
 20
186.800444
 30
0.0
 11
247.260382
 21
186.800444
 31
0.0
  0
LINE
  5
53F
330
52D
100
AcDbEntity
  8
LC-001-100-D00-0
 62
     7
370
    50
100
AcDbLine
 10
247.260382
 20
186.800444
 30
0.0
 11
247.226436
 21
186.859241
 31
0.0
  0
ENDBLK
  5
52F
330
52D
100
AcDbEntity
  8
0
100
AcDbBlockEnd
  0
BLOCK
  5
55A
330
559
100
AcDbEntity
  8
0
100
AcDbBlockBegin
  2
KLON5
 70
     0
 71
     0
 10
0.0
 20
0.0
 30
0.0
  3
KLON5
  1

  4
KLON5
  0
LINE
  5
55C
330
559
100
AcDbEntity
  8
LC-001-100-D00-0
 62
     7
370
    15
100
AcDbLine
 10
335.860412
 20
149.186541
 30
0.0
 11
334.015537
 21
151.473873
 31
0.0
  0
LINE
  5
55D
330
559
100
AcDbEntity
  8
LC-001-100-D00-0
 62
     7
370
    15
100
AcDbLine
 10
334.015537
 20
151.473873
 30
0.0
 11
332.356628
 21
153.351151
 31
0.0
  0
ENDBLK
  5
55B
330
559
100
AcDbEntity
  8
0
100
AcDbBlockEnd
  0
BLOCK
  5
565
330
564
100
AcDbEntity
  8
0
100
AcDbBlockBegin
  2
KLON6
 70
     0
 71
     0
 10
0.0
 20
0.0
 30
0.0
  3
KLON6
  1

  4
KLON6
  0
LINE
  5
567
330
564
100
AcDbEntity
  8
LC-001-100-D00-0
 62
     7
370
    15
100
AcDbLine
 10
332.356628
 20
71.367331
 30
0.0
 11
334.015537
 21
73.244609
 31
0.0
  0
LINE
  5
568
330
564
100
AcDbEntity
  8
LC-001-100-D00-0
 62
     7
370
    15
100
AcDbLine
 10
334.015537
 20
73.244609
 30
0.0
 11
335.860412
 21
75.531941
 31
0.0
  0
ENDBLK
  5
566
330
564
100
AcDbEntity
  8
0
100
AcDbBlockEnd
  0
ENDSEC
  0
SECTION
  2
ENTITIES
  0
INSERT
  5
48
330
1F
100
AcDbEntity
  8
LC-001-100-D00-0
 62
     7
370
    50
100
AcDbBlockReference
  2
POLY1
 10
0.0
 20
0.0
 30
0.0
  0
ARC
  5
49
330
1F
100
AcDbEntity
  8
LC-001-100-D00-0
 62
     7
370
    50
100
AcDbCircle
 10
-32.989598
 20
131.078048
 30
0.0
 40
0.4000000000000341
100
AcDbArc
 50
180.0
 51
270.0
  0
ARC
  5
4A
330
1F
100
AcDbEntity
  8
LC-001-100-D00-0
 62
     7
370
    50
100
AcDbCircle
 10
-30.189598
 20
129.428048
 30
0.0
 40
1.25
100
AcDbArc
 50
0.0
 51
90.0
  0
LINE
  5
4B
330
1F
100
AcDbEntity
  8
LC-001-100-D00-0
 62
     7
370
    50
100
AcDbLine
 10
-28.939592
 20
129.428048
 30
0.0
 11
-28.939592
 21
128.178048
 31
0.0
  0
LINE
  5
4C
330
1F
100
AcDbEntity
  8
LC-001-100-D00-0
 62
     7
370
    50
100
AcDbLine
 10
-32.889592
 20
137.578048
 30
0.0
 11
-38.139599
 21
137.578048
 31
0.0
  0
LINE
  5
4D
330
1F
100
AcDbEntity
  8
LC-001-100-D00-0
 62
     7
370
    50
100
AcDbLine
 10
105.360416
 20
137.578048
 30
0.0
 11
100.110409
 21
137.578048
 31
0.0
  0
LINE
  5
4E
330
1F
100
AcDbEntity
  8
LC-001-100-D00-0
 62
     7
370
    50
100
AcDbLine
 10
100.110409
 20
137.578048
 30
0.0
 11
96.610402
 21
137.578048
 31
0.0
  0
LINE
  5
4F
330
1F
100
AcDbEntity
  8
LC-001-100-D00-0
 62
     7
370
    50
100
AcDbLine
 10
-18.889594
 20
126.378048
 30
0.0
 11
-18.889594
 21
129.078048
 31
0.0
  0
ARC
  5
50
330
1F
100
AcDbEntity
  8
LC-001-100-D00-0
 62
     7
370
    50
100
AcDbCircle
 10
-19.189598
 20
126.378048
 30
0.0
 40
0.3000000000000114
100
AcDbArc
 50
270.0
 51
0.0
  0
LINE
  5
51
330
1F
100
AcDbEntity
  8
LC-001-100-D00-0
 62
     7
370
    50
100
AcDbLine
 10
-19.189599
 20
126.078048
 30
0.0
 11
-19.252526
 21
126.078048
 31
0.0
  0
LINE
  5
52
330
1F
100
AcDbEntity
  8
LC-001-100-D00-0
 62
     7
370
    50
100
AcDbLine
 10
-19.252526
 20
126.078048
 30
0.0
 11
-18.889594
 21
125.299743
 31
0.0
  0
LINE
  5
53
330
1F
100
AcDbEntity
  8
LC-001-100-D00-0
 62
     7
370
    50
100
AcDbLine
 10
-18.889594
 20
124.078048
 30
0.0
 11
-18.889594
 21
125.299743
 31
0.0
  0
LINE
  5
54
330
1F
100
AcDbEntity
  8
LC-001-100-D00-0
 62
     7
370
    50
100
AcDbLine
 10
-18.889594
 20
124.078048
 30
0.0
 11
-19.889596
 21
124.078048
 31
0.0
  0
LINE
  5
55
330
1F
100
AcDbEntity
  8
LC-001-100-D00-0
 62
     7
370
    50
100
AcDbLine
 10
-19.889596
 20
124.078048
 30
0.0
 11
-19.889596
 21
125.078048
 31
0.0
  0
LINE
  5
56
330
1F
100
AcDbEntity
  8
LC-001-100-D00-0
 62
     7
370
    50
100
AcDbLine
 10
-19.889596
 20
125.078048
 30
0.0
 11
-20.49053
 21
126.366739
 31
0.0
  0
ARC
  5
57
330
1F
100
AcDbEntity
  8
LC-001-100-D00-0
 62
     7
370
    50
100
AcDbCircle
 10
-20.03737
 20
126.578048
 30
0.0
 40
0.5000000000000568
100
AcDbArc
 50
90.0
 51
205.0
  0
LINE
  5
58
330
1F
100
AcDbEntity
  8
LC-001-100-D00-0
 62
     7
370
    50
100
AcDbLine
 10
-20.03737
 20
127.078048
 30
0.0
 11
-19.889596
 21
127.078048
 31
0.0
  0
LINE
  5
59
330
1F
100
AcDbEntity
  8
LC-001-100-D00-0
 62
     7
370
    50
100
AcDbLine
 10
-19.889596
 20
127.078048
 30
0.0
 11
-19.889596
 21
129.078048
 31
0.0
  0
ARC
  5
5A
330
1F
100
AcDbEntity
  8
LC-001-100-D00-0
 62
     7
370
    50
100
AcDbCircle
 10
-21.889598
 20
129.078048
 30
0.0
 40
2.0
100
AcDbArc
 50
0.0
 51
90.0
  0
LINE
  5
5B
330
1F
100
AcDbEntity
  8
LC-001-100-D00-0
 62
     7
370
    50
100
AcDbLine
 10
-21.8896
 20
131.078048
 30
0.0
 11
-35.389605
 21
131.078048
 31
0.0
  0
ARC
  5
5C
330
1F
100
AcDbEntity
  8
LC-001-100-D00-0
 62
     7
370
    50
100
AcDbCircle
 10
-35.389598
 20
132.578048
 30
0.0
 40
1.5
100
AcDbArc
 50
180.0
 51
270.0
  0
LINE
  5
5D
330
1F
100
AcDbEntity
  8
LC-001-100-D00-0
 62
     7
370
    50
100
AcDbLine
 10
-36.8896
 20
132.578048
 30
0.0
 11
-36.8896
 21
135.328048
 31
0.0
  0
ARC
  5
5E
330
1F
100
AcDbEntity
  8
LC-001-100-D00-0
 62
     7
370
    50
100
AcDbCircle
 10
-38.139598
 20
135.328048
 30
0.0
 40
1.250000000000028
100
AcDbArc
 50
0.0
 51
180.0
  0
LINE
  5
5F
330
1F
100
AcDbEntity
  8
LC-001-100-D00-0
 62
     7
370
    50
100
AcDbLine
 10
-39.389598
 20
135.328048
 30
0.0
 11
-39.389598
 21
133.178048
 31
0.0
  0
LINE
  5
60
330
1F
100
AcDbEntity
  8
LC-001-100-D00-0
 62
     7
370
    50
100
AcDbLine
 10
-40.3896
 20
133.178048
 30
0.0
 11
-40.3896
 21
135.328048
 31
0.0
  0
ARC
  5
61
330
1F
100
AcDbEntity
  8
LC-001-100-D00-0
 62
     7
370
    50
100
AcDbCircle
 10
-38.139598
 20
135.328048
 30
0.0
 40
2.250000000000028
100
AcDbArc
 50
0.0
 51
180.0
  0
LINE
  5
62
330
1F
100
AcDbEntity
  8
LC-001-100-D00-0
 62
     7
370
    50
100
AcDbLine
 10
-35.889598
 20
135.328048
 30
0.0
 11
-35.889598
 21
132.578048
 31
0.0
  0
ARC
  5
63
330
1F
100
AcDbEntity
  8
LC-001-100-D00-0
 62
     7
370
    50
100
AcDbCircle
 10
-35.389598
 20
132.578048
 30
0.0
 40
0.5
100
AcDbArc
 50
180.0
 51
270.0
  0
LINE
  5
64
330
1F
100
AcDbEntity
  8
LC-001-100-D00-0
 62
     7
370
    50
100
AcDbLine
 10
-21.8896
 20
132.078048
 30
0.0
 11
-35.389605
 21
132.078048
 31
0.0
  0
ARC
  5
65
330
1F
100
AcDbEntity
  8
LC-001-100-D00-0
 62
     7
370
    50
100
AcDbCircle
 10
-21.889598
 20
129.078048
 30
0.0
 40
3.0
100
AcDbArc
 50
0.0
 51
90.0
  0
ARC
  5
66
330
1F
100
AcDbEntity
  8
LC-001-100-D00-0
 62
     7
370
    50
100
AcDbCircle
 10
103.258175
 20
126.578048
 30
0.0
 40
0.5000000000000823
100
AcDbArc
 50
335.0
 51
90.0
  0
LINE
  5
67
330
1F
100
AcDbEntity
  8
LC-001-100-D00-0
 62
     7
370
    50
100
AcDbLine
 10
103.711334
 20
126.366739
 30
0.0
 11
103.1104
 21
125.078048
 31
0.0
  0
ARC
  5
68
330
1F
100
AcDbEntity
  8
LC-001-100-D00-0
 62
     7
370
    50
100
AcDbCircle
 10
102.610402
 20
132.578048
 30
0.0
 40
0.5000000000000089
100
AcDbArc
 50
315.584691
 51
0.0
  0
LINE
  5
69
330
1F
100
AcDbEntity
  8
LC-001-100-D00-0
 62
     7
370
    50
100
AcDbLine
 10
103.1104
 20
135.328048
 30
0.0
 11
103.1104
 21
132.578048
 31
0.0
  0
ARC
  5
6A
330
1F
100
AcDbEntity
  8
LC-001-100-D00-0
 62
     7
370
    50
100
AcDbCircle
 10
105.360402
 20
135.328048
 30
0.0
 40
2.25
100
AcDbArc
 50
0.0
 51
180.0
  0
LINE
  5
6B
330
1F
100
AcDbEntity
  8
LC-001-100-D00-0
 62
     7
370
    50
100
AcDbLine
 10
107.610402
 20
133.178048
 30
0.0
 11
107.610402
 21
135.328048
 31
0.0
  0
LINE
  5
6C
330
1F
100
AcDbEntity
  8
LC-001-100-D00-0
 62
     7
370
    50
100
AcDbLine
 10
106.610415
 20
135.328048
 30
0.0
 11
106.610415
 21
133.178048
 31
0.0
  0
ARC
  5
6D
330
1F
100
AcDbEntity
  8
LC-001-100-D00-0
 62
     7
370
    50
100
AcDbCircle
 10
105.360402
 20
135.328048
 30
0.0
 40
1.25
100
AcDbArc
 50
0.0
 51
180.0
  0
LINE
  5
6E
330
1F
100
AcDbEntity
  8
LC-001-100-D00-0
 62
     7
370
    50
100
AcDbLine
 10
104.110388
 20
132.578048
 30
0.0
 11
104.110388
 21
135.328048
 31
0.0
  0
ARC
  5
6F
330
1F
100
AcDbEntity
  8
LC-001-100-D00-0
 62
     7
370
    50
100
AcDbCircle
 10
102.610402
 20
132.578048
 30
0.0
 40
1.500000000000026
100
AcDbArc
 50
315.584691
 51
0.0
  0
ARC
  5
70
330
1F
100
AcDbEntity
  8
LC-001-100-D00-0
 62
     7
370
    50
100
AcDbCircle
 10
105.110402
 20
130.128558
 30
0.0
 40
1.999999999999995
100
AcDbArc
 50
135.584691
 51
180.0
  0
LINE
  5
71
330
1F
100
AcDbEntity
  8
LC-001-100-D00-0
 62
     7
370
    50
100
AcDbLine
 10
103.1104
 20
130.128558
 30
0.0
 11
103.1104
 21
127.078048
 31
0.0
  0
LINE
  5
72
330
1F
100
AcDbEntity
  8
LC-001-100-D00-0
 62
     7
370
    50
100
AcDbLine
 10
103.1104
 20
127.078048
 30
0.0
 11
103.25816
 21
127.078048
 31
0.0
  0
LINE
  5
73
330
1F
100
AcDbEntity
  8
LC-001-100-D00-0
 62
     7
370
    50
100
AcDbLine
 10
103.1104
 20
125.078048
 30
0.0
 11
103.1104
 21
124.078048
 31
0.0
  0
LINE
  5
74
330
1F
100
AcDbEntity
  8
LC-001-100-D00-0
 62
     7
370
    50
100
AcDbLine
 10
103.1104
 20
124.078048
 30
0.0
 11
102.110413
 21
124.078048
 31
0.0
  0
LINE
  5
75
330
1F
100
AcDbEntity
  8
LC-001-100-D00-0
 62
     7
370
    50
100
AcDbLine
 10
102.110413
 20
125.299743
 30
0.0
 11
102.110413
 21
124.078048
 31
0.0
  0
LINE
  5
76
330
1F
100
AcDbEntity
  8
LC-001-100-D00-0
 62
     7
370
    50
100
AcDbLine
 10
102.110413
 20
125.299743
 30
0.0
 11
102.473346
 21
126.078048
 31
0.0
  0
LINE
  5
77
330
1F
100
AcDbEntity
  8
LC-001-100-D00-0
 62
     7
370
    50
100
AcDbLine
 10
102.473346
 20
126.078048
 30
0.0
 11
102.410403
 21
126.078048
 31
0.0
  0
ARC
  5
78
330
1F
100
AcDbEntity
  8
LC-001-100-D00-0
 62
     7
370
    50
100
AcDbCircle
 10
102.410402
 20
126.378048
 30
0.0
 40
0.2999999999999545
100
AcDbArc
 50
180.0
 51
270.0
  0
LINE
  5
79
330
1F
100
AcDbEntity
  8
LC-001-100-D00-0
 62
     7
370
    50
100
AcDbLine
 10
102.110413
 20
130.128558
 30
0.0
 11
102.110413
 21
126.378048
 31
0.0
  0
ARC
  5
7A
330
1F
100
AcDbEntity
  8
LC-001-100-D00-0
 62
     7
370
    50
100
AcDbCircle
 10
105.110402
 20
130.128558
 30
0.0
 40
3.000000000000012
100
AcDbArc
 50
135.584691
 51
180.0
  0
LINE
  5
7B
330
1F
100
AcDbEntity
  8
LC-001-100-D00-0
 62
     7
370
    50
100
AcDbLine
 10
99.728522
 20
129.078048
 30
0.0
 11
-18.889594
 21
129.078048
 31
0.0
  0
LINE
  5
7C
330
1F
100
AcDbEntity
  8
LC-001-100-D00-0
 62
     7
370
    50
100
AcDbLine
 10
102.110413
 20
124.078048
 30
0.0
 11
-18.889594
 21
124.078048
 31
0.0
  0
INSERT
  5
8E
330
1F
100
AcDbEntity
  8
LC-001-100-D00-0
 62
     7
370
    50
100
AcDbBlockReference
  2
POLY2
 10
0.0
 20
0.0
 30
0.0
  0
LINE
  5
8F
330
1F
100
AcDbEntity
  8
LC-001-100-D00-0
 62
     7
370
    50
100
AcDbLine
 10
103.68183
 20
131.528267
 30
0.0
 11
103.680906
 21
131.527358
 31
0.0
  0
ARC
  5
90
330
1F
100
AcDbEntity
  8
LC-001-100-D00-0
 62
     7
370
    50
100
AcDbCircle
 10
108.110402
 20
133.178048
 30
0.0
 40
1.5
100
AcDbArc
 50
180.0
 51
250.528779
  0
LINE
  5
91
330
1F
100
AcDbEntity
  8
LC-001-100-D00-0
 62
     7
370
    50
100
AcDbLine
 10
108.110396
 20
132.678048
 30
0.0
 11
108.610389
 21
132.678048
 31
0.0
  0
LINE
  5
92
330
1F
100
AcDbEntity
  8
LC-001-100-D00-0
 62
     7
370
    50
100
AcDbLine
 10
108.610389
 20
132.678048
 30
0.0
 11
108.610389
 21
131.678048
 31
0.0
  0
LINE
  5
93
330
1F
100
AcDbEntity
  8
LC-001-100-D00-0
 62
     7
370
    50
100
AcDbLine
 10
108.610389
 20
131.678048
 30
0.0
 11
108.110396
 21
131.678048
 31
0.0
  0
INSERT
  5
A5
330
1F
100
AcDbEntity
  8
LC-001-100-D00-0
 62
     7
370
    50
100
AcDbBlockReference
  2
POLY3
 10
0.0
 20
0.0
 30
0.0
  0
INSERT
  5
B1
330
1F
100
AcDbEntity
  8
LC-001-100-D00-0
 62
     7
370
    50
100
AcDbBlockReference
  2
POLY4
 10
0.0
 20
0.0
 30
0.0
  0
ARC
  5
B2
330
1F
100
AcDbEntity
  8
LC-001-100-D00-0
 62
     7
370
    50
100
AcDbCircle
 10
-40.889598
 20
133.178048
 30
0.0
 40
1.500000000000033
100
AcDbArc
 50
289.471221
 51
0.0
  0
LINE
  5
B3
330
1F
100
AcDbEntity
  8
LC-001-100-D00-0
 62
     7
370
    50
100
AcDbLine
 10
-40.889593
 20
131.678048
 30
0.0
 11
-41.389602
 21
131.678048
 31
0.0
  0
LINE
  5
B4
330
1F
100
AcDbEntity
  8
LC-001-100-D00-0
 62
     7
370
    50
100
AcDbLine
 10
-41.389602
 20
131.678048
 30
0.0
 11
-41.389602
 21
132.678048
 31
0.0
  0
LINE
  5
B5
330
1F
100
AcDbEntity
  8
LC-001-100-D00-0
 62
     7
370
    50
100
AcDbLine
 10
-41.389602
 20
132.678048
 30
0.0
 11
-40.889593
 21
132.678048
 31
0.0
  0
INSERT
  5
C7
330
1F
100
AcDbEntity
  8
LC-001-100-D00-0
 62
     7
370
    50
100
AcDbBlockReference
  2
POLY5
 10
0.0
 20
0.0
 30
0.0
  0
INSERT
  5
D3
330
1F
100
AcDbEntity
  8
LC-001-100-D00-0
 62
     7
370
    50
100
AcDbBlockReference
  2
POLY6
 10
0.0
 20
0.0
 30
0.0
  0
LINE
  5
D4
330
1F
100
AcDbEntity
  8
LC-001-100-D00-0
 62
     7
370
    50
100
AcDbLine
 10
-25.389599
 20
130.678048
 30
0.0
 11
-32.989594
 21
130.678048
 31
0.0
  0
LINE
  5
D5
330
1F
100
AcDbEntity
  8
LC-001-100-D00-0
 62
     7
370
    50
100
AcDbLine
 10
-22.639605
 20
130.678048
 30
0.0
 11
-25.389599
 21
130.678048
 31
0.0
  0
LINE
  5
D6
330
1F
100
AcDbEntity
  8
LC-001-100-D00-0
 62
     7
370
    50
100
AcDbLine
 10
-25.389599
 20
128.178048
 30
0.0
 11
-28.939592
 21
128.178048
 31
0.0
  0
LINE
  5
D7
330
1F
100
AcDbEntity
  8
LC-001-100-D00-0
 62
     7
370
    50
100
AcDbLine
 10
-22.639605
 20
128.178048
 30
0.0
 11
-25.389599
 21
128.178048
 31
0.0
  0
LINE
  5
D8
330
1F
100
AcDbEntity
  8
LC-001-100-D00-0
 62
     7
370
    50
100
AcDbLine
 10
-20.639601
 20
127.078048
 30
0.0
 11
-20.139592
 21
127.578048
 31
0.0
  0
LINE
  5
D9
330
1F
100
AcDbEntity
  8
LC-001-100-D00-0
 62
     7
370
    50
100
AcDbLine
 10
-20.639601
 20
127.078048
 30
0.0
 11
-20.639601
 21
124.078048
 31
0.0
  0
LINE
  5
DA
330
1F
100
AcDbEntity
  8
LC-001-100-D00-0
 62
     7
370
    50
100
AcDbLine
 10
-20.139592
 20
124.078048
 30
0.0
 11
-20.139592
 21
86.078048
 31
0.0
  0
LINE
  5
DB
330
1F
100
AcDbEntity
  8
LC-001-100-D00-0
 62
     7
370
    50
100
AcDbLine
 10
-22.639605
 20
86.078048
 30
0.0
 11
-20.139592
 21
86.078048
 31
0.0
  0
LINE
  5
DC
330
1F
100
AcDbEntity
  8
LC-001-100-D00-0
 62
     7
370
    50
100
AcDbLine
 10
-22.639605
 20
131.078048
 30
0.0
 11
-22.639605
 21
86.078048
 31
0.0
  0
ARC
  5
DD
330
1F
100
AcDbEntity
  8
LC-001-100-D00-0
 62
     7
370
    50
100
AcDbCircle
 10
-21.639598
 20
129.578048
 30
0.0
 40
1.5
100
AcDbArc
 50
0.0
 51
90.0
  0
LINE
  5
DE
330
1F
100
AcDbEntity
  8
LC-001-100-D00-0
 62
     7
370
    50
100
AcDbLine
 10
-20.139592
 20
129.578048
 30
0.0
 11
-20.139592
 21
127.578048
 31
0.0
  0
LINE
  5
DF
330
1F
100
AcDbEntity
  8
LC-001-100-D00-0
 62
     7
370
    50
100
AcDbLine
 10
-20.639601
 20
124.078048
 30
0.0
 11
-20.139592
 21
124.078048
 31
0.0
  0
LINE
  5
E0
330
1F
100
AcDbEntity
  8
LC-001-100-D00-0
 62
     7
370
    50
100
AcDbLine
 10
-21.639603
 20
131.078048
 30
0.0
 11
-22.639605
 21
131.078048
 31
0.0
  0
ARC
  5
E1
330
1F
100
AcDbEntity
  8
LC-001-100-D00-0
 62
     7
370
    50
100
AcDbCircle
 10
104.860402
 20
129.578048
 30
0.0
 40
1.5
100
AcDbArc
 50
90.0
 51
180.0
  0
LINE
  5
E2
330
1F
100
AcDbEntity
  8
LC-001-100-D00-0
 62
     7
370
    50
100
AcDbLine
 10
105.86041
 20
86.078048
 30
0.0
 11
105.86041
 21
131.078048
 31
0.0
  0
LINE
  5
E3
330
1F
100
AcDbEntity
  8
LC-001-100-D00-0
 62
     7
370
    50
100
AcDbLine
 10
103.360412
 20
86.078048
 30
0.0
 11
105.86041
 21
86.078048
 31
0.0
  0
LINE
  5
E4
330
1F
100
AcDbEntity
  8
LC-001-100-D00-0
 62
     7
370
    50
100
AcDbLine
 10
103.360412
 20
86.078048
 30
0.0
 11
103.360412
 21
124.078048
 31
0.0
  0
LINE
  5
E5
330
1F
100
AcDbEntity
  8
LC-001-100-D00-0
 62
     7
370
    50
100
AcDbLine
 10
103.860406
 20
124.078048
 30
0.0
 11
103.860406
 21
127.078048
 31
0.0
  0
LINE
  5
E6
330
1F
100
AcDbEntity
  8
LC-001-100-D00-0
 62
     7
370
    50
100
AcDbLine
 10
103.360412
 20
127.578048
 30
0.0
 11
103.860406
 21
127.078048
 31
0.0
  0
LINE
  5
E7
330
1F
100
AcDbEntity
  8
LC-001-100-D00-0
 62
     7
370
    50
100
AcDbLine
 10
103.360412
 20
127.578048
 30
0.0
 11
103.360412
 21
129.578048
 31
0.0
  0
LINE
  5
E8
330
1F
100
AcDbEntity
  8
LC-001-100-D00-0
 62
     7
370
    50
100
AcDbLine
 10
103.360412
 20
124.078048
 30
0.0
 11
103.860406
 21
124.078048
 31
0.0
  0
LINE
  5
E9
330
1F
100
AcDbEntity
  8
LC-001-100-D00-0
 62
     7
370
    50
100
AcDbLine
 10
105.86041
 20
131.078048
 30
0.0
 11
104.860393
 21
131.078048
 31
0.0
  0
LINE
  5
EA
330
1F
100
AcDbEntity
  8
LC-001-100-D00-0
 62
     7
370
    50
100
AcDbLine
 10
-20.139592
 20
86.078048
 30
0.0
 11
103.360412
 21
86.078048
 31
0.0
  0
LINE
  5
EB
330
1F
100
AcDbEntity
  8
LC-001-100-D00-0
 62
     7
370
    50
100
AcDbLine
 10
-20.139592
 20
124.078048
 30
0.0
 11
-19.889596
 21
124.078048
 31
0.0
  0
LINE
  5
EC
330
1F
100
AcDbEntity
  8
LC-001-100-D00-0
 62
     7
370
    50
100
AcDbLine
 10
103.1104
 20
124.078048
 30
0.0
 11
103.360412
 21
124.078048
 31
0.0
  0
LINE
  5
ED
330
1F
100
AcDbEntity
  8
LC-001-100-D00-0
 62
     7
370
    50
100
AcDbLine
 10
103.410301
 20
131.078048
 30
0.0
 11
104.860393
 21
131.078048
 31
0.0
  0
INSERT
  5
F6
330
1F
100
AcDbEntity
  8
LC-001-100-D00-0
 62
     7
370
    25
100
AcDbBlockReference
  2
KLON1
 10
0.0
 20
0.0
 30
0.0
  0
INSERT
  5
100
330
1F
100
AcDbEntity
  8
LC-001-100-D00-0
 62
     7
370
    25
100
AcDbBlockReference
  2
KLON2
 10
0.0
 20
0.0
 30
0.0
  0
INSERT
  5
106
330
1F
100
AcDbEntity
  8
LC-001-100-D00-0
 62
     7
370
    25
100
AcDbBlockReference
  2
KLON3
 10
0.0
 20
0.0
 30
0.0
  0
INSERT
  5
10F
330
1F
100
AcDbEntity
  8
LC-001-100-D00-0
 62
     7
370
    25
100
AcDbBlockReference
  2
KLON4
 10
0.0
 20
0.0
 30
0.0
  0
LINE
  5
111
330
1F
100
AcDbEntity
  8
LC-001-100-D00-0
  6
DASHDOT
 62
     7
370
    25
100
AcDbLine
 10
41.610402
 20
82.078048
 30
0.0
 11
41.610402
 21
128.078048
 31
0.0
  0
LINE
  5
112
330
1F
100
AcDbEntity
  8
LC-001-100-D00-0
  6
DASHDOT
 62
     7
370
    25
100
AcDbLine
 10
33.610402
 20
127.763834
 30
0.0
 11
33.610402
 21
132.078048
 31
0.0
  0
DIMENSION
  5
116
330
1F
100
AcDbEntity
  8
LC-002-003-----0
 62
     7
370
    25
100
AcDbDimension
  2
*D11
 10
107.610402
 20
161.631511
 30
0.0
 11
35.131964
 21
192.431511
 31
0.0
 70
   160
  1
150
 71
     5
 42
148.000002
  3
LC-DIM-L-0140-02-02
100
AcDbAlignedDimension
 13
-40.3896
 23
135.328048
 33
0.0
 14
107.610402
 24
135.328048
 34
0.0
100
AcDbRotatedDimension
  0
DIMENSION
  5
124
330
1F
100
AcDbEntity
  8
LC-002-003-----0
 62
     7
370
    25
100
AcDbDimension
  2
*D12
 10
105.86041
 20
32.12654
 30
0.0
 11
38.508696
 21
62.92654
 31
0.0
 70
   160
  1
%%c<>
 71
     5
 42
128.500007
  3
LC-DIM-L-0140-02-02
100
AcDbAlignedDimension
 13
-22.639598
 23
87.765479
 33
0.0
 14
105.86041
 24
86.078048
 34
0.0
100
AcDbRotatedDimension
  0
DIMENSION
  5
131
330
1F
100
AcDbEntity
  8
LC-002-003-----0
 62
     7
370
    25
100
AcDbDimension
  2
*D13
 10
166.294182
 20
86.078048
 30
0.0
 11
135.494182
 21
119.44454
 31
0.0
 70
   160
 71
     5
 42
51.5
 53
90.0
  3
LC-DIM-L-0140-02-02
100
AcDbAlignedDimension
 13
105.360416
 23
137.578048
 33
0.0
 14
105.86041
 24
86.078048
 34
0.0
 50
90.0
100
AcDbRotatedDimension
  0
DIMENSION
  5
140
330
1F
100
AcDbEntity
  8
LC-002-003-----0
 62
     7
370
    25
100
AcDbDimension
  2
*D14
 10
-65.849451
 20
131.678048
 30
0.0
 11
-96.649451
 21
124.79054
 31
0.0
 70
   160
  1
6
 71
     5
 42
5.9
 53
90.0
  3
LC-DIM-L-0140-02-02
100
AcDbAlignedDimension
 13
-38.139599
 23
137.578048
 33
0.0
 14
-41.389602
 24
131.678048
 34
0.0
 50
90.0
100
AcDbRotatedDimension
  0
ELLIPSE
  5
14E
330
1F
100
AcDbEntity
  8
LC-001-100-D00-0
 62
     7
370
    50
100
AcDbEllipse
 10
221.543515
 20
168.926137
 30
0.0
 11
0.7287600456127216
 21
-0.7287600456127215
 31
0.0
210
0.0
220
0.0
230
1.0
 40
0.970288
 41
5.512866274278681
 42
7.053504340080687
  0
LINE
  5
14F
330
1F
100
AcDbEntity
  8
LC-001-100-D00-0
 62
     7
370
    50
100
AcDbLine
 10
222.558948
 20
169.66071
 30
0.0
 11
222.558948
 21
168.895516
 31
0.0
  0
LINE
  5
150
330
1F
100
AcDbEntity
  8
LC-001-100-D00-0
 62
     7
370
    50
100
AcDbLine
 10
223.324137
 20
169.66071
 30
0.0
 11
222.558948
 21
169.66071
 31
0.0
  0
ELLIPSE
  5
151
330
1F
100
AcDbEntity
  8
LC-001-100-D00-0
 62
     7
370
    50
100
AcDbEllipse
 10
223.293515
 20
170.676137
 30
0.0
 11
0.7287600456083493
 21
-0.7287600456083492
 31
0.0
210
0.0
220
0.0
230
1.0
 40
0.970288
 41
5.512866274278973
 42
7.053504340080453
  0
LINE
  5
152
330
1F
100
AcDbEntity
  8
LC-001-100-D00-0
 62
     7
370
    50
100
AcDbLine
 10
224.30894
 20
172.072965
 30
0.0
 11
224.30894
 21
170.64552
 31
0.0
  0
ELLIPSE
  5
153
330
1F
100
AcDbEntity
  8
LC-001-100-D00-0
 62
     7
370
    50
100
AcDbEllipse
 10
223.293515
 20
172.042345
 30
0.0
 11
-0.7287600456127078
 21
-0.7287600456127079
 31
0.0
210
0.0
220
0.0
230
1.0
 40
0.970288
 41
5.512866274278808
 42
7.053504340080055
  0
LINE
  5
154
330
1F
100
AcDbEntity
  8
LC-001-100-D00-0
 62
     7
370
    50
100
AcDbLine
 10
222.558948
 20
173.057772
 30
0.0
 11
223.324137
 21
173.057772
 31
0.0
  0
LINE
  5
155
330
1F
100
AcDbEntity
  8
LC-001-100-D00-0
 62
     7
370
    50
100
AcDbLine
 10
222.558948
 20
173.822965
 30
0.0
 11
222.558948
 21
173.057772
 31
0.0
  0
ELLIPSE
  5
156
330
1F
100
AcDbEntity
  8
LC-001-100-D00-0
 62
     7
370
    50
100
AcDbEllipse
 10
221.543515
 20
173.792345
 30
0.0
 11
-0.7287600455736277
 21
-0.7287600455736278
 31
0.0
210
0.0
220
0.0
230
1.0
 40
0.970288
 41
5.512866274278728
 42
7.053504340080135
  0
LINE
  5
157
330
1F
100
AcDbEntity
  8
LC-001-100-D00-0
 62
     7
370
    50
100
AcDbLine
 10
220.146688
 20
174.807772
 30
0.0
 11
221.57413
 21
174.807772
 31
0.0
  0
ELLIPSE
  5
158
330
1F
100
AcDbEntity
  8
LC-001-100-D00-0
 62
     7
370
    50
100
AcDbEllipse
 10
220.177307
 20
173.792345
 30
0.0
 11
0.7287600455953466
 21
-0.7287600455953465
 31
0.0
210
0.0
220
0.0
230
1.0
 40
0.970288
 41
2.371273620688541
 42
3.911911686490456
  0
LINE
  5
159
330
1F
100
AcDbEntity
  8
LC-001-100-D00-0
 62
     7
370
    50
100
AcDbLine
 10
219.161885
 20
173.057772
 30
0.0
 11
219.161885
 21
173.822965
 31
0.0
  0
LINE
  5
15A
330
1F
100
AcDbEntity
  8
LC-001-100-D00-0
 62
     7
370
    50
100
AcDbLine
 10
218.396681
 20
173.057772
 30
0.0
 11
219.161885
 21
173.057772
 31
0.0
  0
ELLIPSE
  5
15B
330
1F
100
AcDbEntity
  8
LC-001-100-D00-0
 62
     7
370
    50
100
AcDbEllipse
 10
218.427307
 20
172.042345
 30
0.0
 11
0.7287600455823154
 21
-0.7287600455823153
 31
0.0
210
0.0
220
0.0
230
1.0
 40
0.970288
 41
2.371273620688638
 42
3.91191168649047
  0
LINE
  5
15C
330
1F
100
AcDbEntity
  8
LC-001-100-D00-0
 62
     7
370
    50
100
AcDbLine
 10
217.411878
 20
170.64552
 30
0.0
 11
217.411878
 21
172.072965
 31
0.0
  0
ELLIPSE
  5
15D
330
1F
100
AcDbEntity
  8
LC-001-100-D00-0
 62
     7
370
    50
100
AcDbEllipse
 10
218.427307
 20
170.676137
 30
0.0
 11
-0.7287600456344255
 21
-0.7287600456344257
 31
0.0
210
0.0
220
0.0
230
1.0
 40
0.970288
 41
2.371273620688812
 42
3.911911686490913
  0
LINE
  5
15E
330
1F
100
AcDbEntity
  8
LC-001-100-D00-0
 62
     7
370
    50
100
AcDbLine
 10
219.161885
 20
169.66071
 30
0.0
 11
218.396681
 21
169.66071
 31
0.0
  0
LINE
  5
15F
330
1F
100
AcDbEntity
  8
LC-001-100-D00-0
 62
     7
370
    50
100
AcDbLine
 10
219.161885
 20
168.895516
 30
0.0
 11
219.161885
 21
169.66071
 31
0.0
  0
ELLIPSE
  5
160
330
1F
100
AcDbEntity
  8
LC-001-100-D00-0
 62
     7
370
    50
100
AcDbEllipse
 10
220.177307
 20
168.926137
 30
0.0
 11
-0.728760045634455
 21
-0.7287600456344551
 31
0.0
210
0.0
220
0.0
230
1.0
 40
0.970288
 41
2.371273620688762
 42
3.911911686490571
  0
LINE
  5
161
330
1F
100
AcDbEntity
  8
LC-001-100-D00-0
 62
     7
370
    50
100
AcDbLine
 10
221.57413
 20
167.91071
 30
0.0
 11
220.146688
 21
167.91071
 31
0.0
  0
ELLIPSE
  5
162
330
1F
100
AcDbEntity
  8
LC-001-100-D00-0
 62
     7
370
    50
100
AcDbEllipse
 10
220.177307
 20
173.792345
 30
0.0
 11
0.3857116011954178
 21
-0.3857116011954177
 31
0.0
210
0.0
220
0.0
230
1.0
 40
0.916626
 41
2.371273620688317
 42
3.911911686490388
  0
ELLIPSE
  5
163
330
1F
100
AcDbEntity
  8
LC-001-100-D00-0
 62
     7
370
    50
100
AcDbEllipse
 10
221.543515
 20
173.792345
 30
0.0
 11
-0.3857116013425678
 21
-0.385711601342568
 31
0.0
210
0.0
220
0.0
230
1.0
 40
0.916626
 41
5.512866274278335
 42
7.053504340081168
  0
LINE
  5
164
330
1F
100
AcDbEntity
  8
LC-001-100-D00-0
 62
     7
370
    50
100
AcDbLine
 10
221.57413
 20
174.315367
 30
0.0
 11
220.146688
 21
174.315367
 31
0.0
  0
LINE
  5
165
330
1F
100
AcDbEntity
  8
LC-001-100-D00-0
 62
     7
370
    50
100
AcDbLine
 10
222.066539
 20
173.057772
 30
0.0
 11
222.066539
 21
173.822965
 31
0.0
  0
LINE
  5
166
330
1F
100
AcDbEntity
  8
LC-001-100-D00-0
 62
     7
370
    50
100
AcDbLine
 10
219.654279
 20
173.822965
 30
0.0
 11
219.654279
 21
173.057772
 31
0.0
  0
ELLIPSE
  5
167
330
1F
100
AcDbEntity
  8
LC-001-100-D00-0
 62
     7
370
    50
100
AcDbEllipse
 10
223.293515
 20
172.042345
 30
0.0
 11
-0.3857116013333717
 21
-0.3857116013333718
 31
0.0
210
0.0
220
0.0
230
1.0
 40
0.916626
 41
5.512866274278604
 42
7.053504340081168
  0
LINE
  5
168
330
1F
100
AcDbEntity
  8
LC-001-100-D00-0
 62
     7
370
    50
100
AcDbLine
 10
219.161885
 20
172.565367
 30
0.0
 11
218.396681
 21
172.565367
 31
0.0
  0
ARC
  5
169
330
1F
100
AcDbEntity
  8
LC-001-100-D00-0
 62
     7
370
    50
100
AcDbCircle
 10
219.144079
 20
173.075567
 30
0.0
 40
0.5105107211806611
100
AcDbArc
 50
271.998871
 51
358.002429
  0
ELLIPSE
  5
16A
330
1F
100
AcDbEntity
  8
LC-001-100-D00-0
 62
     7
370
    50
100
AcDbEllipse
 10
218.427307
 20
172.042345
 30
0.0
 11
0.3857116011862216
 21
-0.3857116011862216
 31
0.0
210
0.0
220
0.0
230
1.0
 40
0.916626
 41
2.371273620688188
 42
3.911911686490516
  0
ARC
  5
16B
330
1F
100
AcDbEntity
  8
LC-001-100-D00-0
 62
     7
370
    50
100
AcDbCircle
 10
222.576738
 20
173.075566
 30
0.0
 40
0.5105095901086505
100
AcDbArc
 50
181.997511
 51
268.002923
  0
LINE
  5
16C
330
1F
100
AcDbEntity
  8
LC-001-100-D00-0
 62
     7
370
    50
100
AcDbLine
 10
223.324137
 20
172.565367
 30
0.0
 11
222.558948
 21
172.565367
 31
0.0
  0
LINE
  5
16D
330
1F
100
AcDbEntity
  8
LC-001-100-D00-0
 62
     7
370
    50
100
AcDbLine
 10
217.904287
 20
172.072965
 30
0.0
 11
217.904287
 21
170.64552
 31
0.0
  0
LINE
  5
16E
330
1F
100
AcDbEntity
  8
LC-001-100-D00-0
 62
     7
370
    50
100
AcDbLine
 10
223.816531
 20
170.64552
 30
0.0
 11
223.816531
 21
172.072965
 31
0.0
  0
ELLIPSE
  5
16F
330
1F
100
AcDbEntity
  8
LC-001-100-D00-0
 62
     7
370
    50
100
AcDbEllipse
 10
223.293515
 20
170.676137
 30
0.0
 11
0.3857116013333718
 21
-0.3857116013333717
 31
0.0
210
0.0
220
0.0
230
1.0
 40
0.916626
 41
5.512866274278537
 42
7.053504340080411
  0
ELLIPSE
  5
170
330
1F
100
AcDbEntity
  8
LC-001-100-D00-0
 62
     7
370
    50
100
AcDbEllipse
 10
218.427307
 20
170.676137
 30
0.0
 11
-0.3857116013333717
 21
-0.3857116013333718
 31
0.0
210
0.0
220
0.0
230
1.0
 40
0.916626
 41
2.371273620689327
 42
3.911911686490099
  0
ARC
  5
171
330
1F
100
AcDbEntity
  8
LC-001-100-D00-0
 62
     7
370
    50
100
AcDbCircle
 10
219.144081
 20
169.642917
 30
0.0
 40
0.5105083250401151
100
AcDbArc
 50
1.99732
 51
88.00138
  0
ARC
  5
172
330
1F
100
AcDbEntity
  8
LC-001-100-D00-0
 62
     7
370
    50
100
AcDbCircle
 10
222.576736
 20
169.642918
 30
0.0
 40
0.5105071940992295
100
AcDbArc
 50
91.996827
 51
178.00274
  0
LINE
  5
173
330
1F
100
AcDbEntity
  8
LC-001-100-D00-0
 62
     7
370
    50
100
AcDbLine
 10
218.396681
 20
170.153115
 30
0.0
 11
219.161885
 21
170.153115
 31
0.0
  0
LINE
  5
174
330
1F
100
AcDbEntity
  8
LC-001-100-D00-0
 62
     7
370
    50
100
AcDbLine
 10
222.558948
 20
170.153115
 30
0.0
 11
223.324137
 21
170.153115
 31
0.0
  0
LINE
  5
175
330
1F
100
AcDbEntity
  8
LC-001-100-D00-0
 62
     7
370
    50
100
AcDbLine
 10
222.066539
 20
168.895516
 30
0.0
 11
222.066539
 21
169.66071
 31
0.0
  0
LINE
  5
176
330
1F
100
AcDbEntity
  8
LC-001-100-D00-0
 62
     7
370
    50
100
AcDbLine
 10
219.654279
 20
169.66071
 30
0.0
 11
219.654279
 21
168.895516
 31
0.0
  0
ELLIPSE
  5
177
330
1F
100
AcDbEntity
  8
LC-001-100-D00-0
 62
     7
370
    50
100
AcDbEllipse
 10
220.177307
 20
168.926137
 30
0.0
 11
-0.3857116013149796
 21
-0.3857116013149797
 31
0.0
210
0.0
220
0.0
230
1.0
 40
0.916626
 41
2.371273620688974
 42
3.91191168649034
  0
ELLIPSE
  5
178
330
1F
100
AcDbEntity
  8
LC-001-100-D00-0
 62
     7
370
    50
100
AcDbEllipse
 10
221.543515
 20
168.926137
 30
0.0
 11
0.385711601342568
 21
-0.3857116013425678
 31
0.0
210
0.0
220
0.0
230
1.0
 40
0.916626
 41
5.512866274278226
 42
7.053504340080177
  0
LINE
  5
179
330
1F
100
AcDbEntity
  8
LC-001-100-D00-0
 62
     7
370
    50
100
AcDbLine
 10
220.146688
 20
168.403115
 30
0.0
 11
221.57413
 21
168.403115
 31
0.0
  0
ARC
  5
17A
330
1F
100
AcDbEntity
  8
LC-001-100-D00-0
 62
     7
370
    50
100
AcDbCircle
 10
221.173058
 20
173.421886
 30
0.0
 40
0.5105182421130919
100
AcDbArc
 50
1.998835
 51
88.002032
  0
ARC
  5
17B
330
1F
100
AcDbEntity
  8
LC-001-100-D00-0
 62
     7
370
    50
100
AcDbCircle
 10
220.54776
 20
173.421886
 30
0.0
 40
0.5105182421130863
100
AcDbArc
 50
91.997968
 51
178.001165
  0
ELLIPSE
  5
17C
330
1F
100
AcDbEntity
  8
LC-001-100-D00-0
 62
     7
370
    50
100
AcDbEllipse
 10
219.514534
 20
172.705118
 30
0.0
 11
0.3857116011126504
 21
-0.3857116011126502
 31
0.0
210
0.0
220
0.0
230
1.0
 40
0.916626
 41
5.512866274279124
 42
7.053504340080706
  0
ELLIPSE
  5
17D
330
1F
100
AcDbEntity
  8
LC-001-100-D00-0
 62
     7
370
    50
100
AcDbEllipse
 10
222.206287
 20
172.705118
 30
0.0
 11
-0.3857116012413825
 21
-0.3857116012413826
 31
0.0
210
0.0
220
0.0
230
1.0
 40
0.916626
 41
2.371273620688991
 42
3.911911686490971
  0
ARC
  5
17E
330
1F
100
AcDbEntity
  8
LC-001-100-D00-0
 62
     7
370
    50
100
AcDbCircle
 10
222.923073
 20
171.671909
 30
0.0
 40
0.5104953431753729
100
AcDbArc
 50
1.99638
 51
88.002753
  0
ARC
  5
17F
330
1F
100
AcDbEntity
  8
LC-001-100-D00-0
 62
     7
370
    50
100
AcDbCircle
 10
218.797752
 20
171.671902
 30
0.0
 40
0.5105026000657852
100
AcDbArc
 50
91.998007
 51
178.00286
  0
ARC
  5
180
330
1F
100
AcDbEntity
  8
LC-001-100-D00-0
 62
     7
370
    50
100
AcDbCircle
 10
218.797756
 20
171.046583
 30
0.0
 40
0.5105065109597078
100
AcDbArc
 50
181.99713
 51
268.001569
  0
ARC
  5
181
330
1F
100
AcDbEntity
  8
LC-001-100-D00-0
 62
     7
370
    50
100
AcDbCircle
 10
222.923069
 20
171.046576
 30
0.0
 40
0.5104992534654729
100
AcDbArc
 50
271.997671
 51
358.003629
  0
ELLIPSE
  5
182
330
1F
100
AcDbEntity
  8
LC-001-100-D00-0
 62
     7
370
    50
100
AcDbEllipse
 10
222.206287
 20
170.013364
 30
0.0
 11
0.385711601195415
 21
-0.3857116011954149
 31
0.0
210
0.0
220
0.0
230
1.0
 40
0.916626
 41
2.371273620688746
 42
3.911911686490456
  0
ELLIPSE
  5
183
330
1F
100
AcDbEntity
  8
LC-001-100-D00-0
 62
     7
370
    50
100
AcDbEllipse
 10
219.514534
 20
170.013364
 30
0.0
 11
-0.3857116012505786
 21
-0.3857116012505787
 31
0.0
210
0.0
220
0.0
230
1.0
 40
0.916626
 41
5.512866274278695
 42
7.053504340080209
  0
ARC
  5
184
330
1F
100
AcDbEntity
  8
LC-001-100-D00-0
 62
     7
370
    50
100
AcDbCircle
 10
220.547764
 20
169.2966
 30
0.0
 40
0.5105224352624448
100
AcDbArc
 50
181.999274
 51
268.001593
  0
ARC
  5
185
330
1F
100
AcDbEntity
  8
LC-001-100-D00-0
 62
     7
370
    50
100
AcDbCircle
 10
221.173054
 20
169.2966
 30
0.0
 40
0.5105224352625176
100
AcDbArc
 50
271.998407
 51
358.000726
  0
LINE
  5
186
330
1F
100
AcDbEntity
  8
LC-001-100-D00-0
 62
     7
370
    50
100
AcDbLine
 10
220.529961
 20
173.932094
 30
0.0
 11
221.190857
 21
173.932094
 31
0.0
  0
LINE
  5
187
330
1F
100
AcDbEntity
  8
LC-001-100-D00-0
 62
     7
370
    50
100
AcDbLine
 10
221.683266
 20
173.439692
 30
0.0
 11
221.683266
 21
172.674499
 31
0.0
  0
LINE
  5
188
330
1F
100
AcDbEntity
  8
LC-001-100-D00-0
 62
     7
370
    50
100
AcDbLine
 10
220.037552
 20
172.674499
 30
0.0
 11
220.037552
 21
173.439692
 31
0.0
  0
LINE
  5
189
330
1F
100
AcDbEntity
  8
LC-001-100-D00-0
 62
     7
370
    50
100
AcDbLine
 10
218.779954
 20
172.182094
 30
0.0
 11
219.545158
 21
172.182094
 31
0.0
  0
LINE
  5
18A
330
1F
100
AcDbEntity
  8
LC-001-100-D00-0
 62
     7
370
    50
100
AcDbLine
 10
222.175675
 20
172.182094
 30
0.0
 11
222.940865
 21
172.182094
 31
0.0
  0
LINE
  5
18B
330
1F
100
AcDbEntity
  8
LC-001-100-D00-0
 62
     7
370
    50
100
AcDbLine
 10
223.433258
 20
171.689693
 30
0.0
 11
223.433258
 21
171.028793
 31
0.0
  0
LINE
  5
18C
330
1F
100
AcDbEntity
  8
LC-001-100-D00-0
 62
     7
370
    50
100
AcDbLine
 10
218.28756
 20
171.028793
 30
0.0
 11
218.28756
 21
171.689693
 31
0.0
  0
LINE
  5
18D
330
1F
100
AcDbEntity
  8
LC-001-100-D00-0
 62
     7
370
    50
100
AcDbLine
 10
222.940865
 20
170.536387
 30
0.0
 11
222.175675
 21
170.536387
 31
0.0
  0
LINE
  5
18E
330
1F
100
AcDbEntity
  8
LC-001-100-D00-0
 62
     7
370
    50
100
AcDbLine
 10
219.545158
 20
170.536387
 30
0.0
 11
218.779954
 21
170.536387
 31
0.0
  0
LINE
  5
18F
330
1F
100
AcDbEntity
  8
LC-001-100-D00-0
 62
     7
370
    50
100
AcDbLine
 10
221.683266
 20
170.043982
 30
0.0
 11
221.683266
 21
169.278789
 31
0.0
  0
LINE
  5
190
330
1F
100
AcDbEntity
  8
LC-001-100-D00-0
 62
     7
370
    50
100
AcDbLine
 10
220.037552
 20
169.278789
 30
0.0
 11
220.037552
 21
170.043982
 31
0.0
  0
LINE
  5
191
330
1F
100
AcDbEntity
  8
LC-001-100-D00-0
 62
     7
370
    50
100
AcDbLine
 10
221.190857
 20
168.786388
 30
0.0
 11
220.529961
 21
168.786388
 31
0.0
  0
LINE
  5
192
330
1F
100
AcDbEntity
  8
LC-001-100-D00-0
 62
     7
370
    50
100
AcDbLine
 10
221.190857
 20
173.932094
 30
0.0
 11
221.190857
 21
173.439692
 31
0.0
  0
LINE
  5
193
330
1F
100
AcDbEntity
  8
LC-001-100-D00-0
 62
     7
370
    50
100
AcDbLine
 10
220.529961
 20
173.932094
 30
0.0
 11
220.529961
 21
173.439692
 31
0.0
  0
LINE
  5
194
330
1F
100
AcDbEntity
  8
LC-001-100-D00-0
 62
     7
370
    50
100
AcDbLine
 10
220.529961
 20
173.439692
 30
0.0
 11
220.529961
 21
172.674499
 31
0.0
  0
LINE
  5
195
330
1F
100
AcDbEntity
  8
LC-001-100-D00-0
 62
     7
370
    50
100
AcDbLine
 10
221.190857
 20
172.674499
 30
0.0
 11
221.190857
 21
173.439692
 31
0.0
  0
ELLIPSE
  5
196
330
1F
100
AcDbEntity
  8
LC-001-100-D00-0
 62
     7
370
    50
100
AcDbEllipse
 10
219.514534
 20
172.705118
 30
0.0
 11
0.7287600456344267
 21
-0.7287600456344263
 31
0.0
210
0.0
220
0.0
230
1.0
 40
0.970288
 41
5.512866274279147
 42
7.053504340080672
  0
ELLIPSE
  5
197
330
1F
100
AcDbEntity
  8
LC-001-100-D00-0
 62
     7
370
    50
100
AcDbEllipse
 10
222.206287
 20
172.705118
 30
0.0
 11
-0.7287600455649402
 21
-0.7287600455649403
 31
0.0
210
0.0
220
0.0
230
1.0
 40
0.970288
 41
2.371273620688627
 42
3.911911686491124
  0
LINE
  5
198
330
1F
100
AcDbEntity
  8
LC-001-100-D00-0
 62
     7
370
    50
100
AcDbLine
 10
219.545158
 20
171.689693
 30
0.0
 11
218.779954
 21
171.689693
 31
0.0
  0
LINE
  5
199
330
1F
100
AcDbEntity
  8
LC-001-100-D00-0
 62
     7
370
    50
100
AcDbLine
 10
223.433258
 20
171.689693
 30
0.0
 11
222.940865
 21
171.689693
 31
0.0
  0
LINE
  5
19A
330
1F
100
AcDbEntity
  8
LC-001-100-D00-0
 62
     7
370
    50
100
AcDbLine
 10
218.779954
 20
171.689693
 30
0.0
 11
218.28756
 21
171.689693
 31
0.0
  0
LINE
  5
19B
330
1F
100
AcDbEntity
  8
LC-001-100-D00-0
 62
     7
370
    50
100
AcDbLine
 10
222.940865
 20
171.689693
 30
0.0
 11
222.175675
 21
171.689693
 31
0.0
  0
LINE
  5
19C
330
1F
100
AcDbEntity
  8
LC-001-100-D00-0
 62
     7
370
    50
100
AcDbLine
 10
218.779954
 20
171.028793
 30
0.0
 11
218.28756
 21
171.028793
 31
0.0
  0
LINE
  5
19D
330
1F
100
AcDbEntity
  8
LC-001-100-D00-0
 62
     7
370
    50
100
AcDbLine
 10
223.433258
 20
171.028793
 30
0.0
 11
222.940865
 21
171.028793
 31
0.0
  0
LINE
  5
19E
330
1F
100
AcDbEntity
  8
LC-001-100-D00-0
 62
     7
370
    50
100
AcDbLine
 10
222.175675
 20
171.028793
 30
0.0
 11
222.940865
 21
171.028793
 31
0.0
  0
ELLIPSE
  5
19F
330
1F
100
AcDbEntity
  8
LC-001-100-D00-0
 62
     7
370
    50
100
AcDbEllipse
 10
219.514534
 20
170.013364
 30
0.0
 11
-0.728760045612693
 21
-0.7287600456126931
 31
0.0
210
0.0
220
0.0
230
1.0
 40
0.970288
 41
5.512866274278954
 42
7.0535043400803
  0
LINE
  5
1A0
330
1F
100
AcDbEntity
  8
LC-001-100-D00-0
 62
     7
370
    50
100
AcDbLine
 10
218.779954
 20
171.028793
 30
0.0
 11
219.545158
 21
171.028793
 31
0.0
  0
ELLIPSE
  5
1A1
330
1F
100
AcDbEntity
  8
LC-001-100-D00-0
 62
     7
370
    50
100
AcDbEllipse
 10
222.206287
 20
170.013364
 30
0.0
 11
0.7287600455736278
 21
-0.7287600455736277
 31
0.0
210
0.0
220
0.0
230
1.0
 40
0.970288
 41
2.371273620688582
 42
3.911911686490527
  0
LINE
  5
1A2
330
1F
100
AcDbEntity
  8
LC-001-100-D00-0
 62
     7
370
    50
100
AcDbLine
 10
220.529961
 20
170.043982
 30
0.0
 11
220.529961
 21
169.278789
 31
0.0
  0
LINE
  5
1A3
330
1F
100
AcDbEntity
  8
LC-001-100-D00-0
 62
     7
370
    50
100
AcDbLine
 10
221.190857
 20
169.278789
 30
0.0
 11
221.190857
 21
170.043982
 31
0.0
  0
LINE
  5
1A4
330
1F
100
AcDbEntity
  8
LC-001-100-D00-0
 62
     7
370
    50
100
AcDbLine
 10
221.190857
 20
169.278789
 30
0.0
 11
221.190857
 21
168.786388
 31
0.0
  0
LINE
  5
1A5
330
1F
100
AcDbEntity
  8
LC-001-100-D00-0
 62
     7
370
    50
100
AcDbLine
 10
220.529961
 20
169.278789
 30
0.0
 11
220.529961
 21
168.786388
 31
0.0
  0
ELLIPSE
  5
1A6
330
1F
100
AcDbEntity
  8
LC-001-100-D00-0
 62
     7
370
    50
100
AcDbEllipse
 10
339.543515
 20
50.926137
 30
0.0
 11
0.7287600455388779
 21
-0.7287600455388777
 31
0.0
210
0.0
220
0.0
230
1.0
 40
0.970288
 41
5.512866274279029
 42
7.053504340080539
  0
LINE
  5
1A7
330
1F
100
AcDbEntity
  8
LC-001-100-D00-0
 62
     7
370
    50
100
AcDbLine
 10
340.558948
 20
51.66071
 30
0.0
 11
340.558948
 21
50.895516
 31
0.0
  0
LINE
  5
1A8
330
1F
100
AcDbEntity
  8
LC-001-100-D00-0
 62
     7
370
    50
100
AcDbLine
 10
341.324137
 20
51.66071
 30
0.0
 11
340.558948
 21
51.66071
 31
0.0
  0
ELLIPSE
  5
1A9
330
1F
100
AcDbEntity
  8
LC-001-100-D00-0
 62
     7
370
    50
100
AcDbEllipse
 10
341.293515
 20
52.676137
 30
0.0
 11
0.7287600456083493
 21
-0.7287600456083492
 31
0.0
210
0.0
220
0.0
230
1.0
 40
0.970288
 41
5.512866274278832
 42
7.053504340080571
  0
LINE
  5
1AA
330
1F
100
AcDbEntity
  8
LC-001-100-D00-0
 62
     7
370
    50
100
AcDbLine
 10
342.30894
 20
54.072965
 30
0.0
 11
342.30894
 21
52.64552
 31
0.0
  0
ELLIPSE
  5
1AB
330
1F
100
AcDbEntity
  8
LC-001-100-D00-0
 62
     7
370
    50
100
AcDbEllipse
 10
341.293515
 20
54.042345
 30
0.0
 11
-0.7287600455736142
 21
-0.7287600455736143
 31
0.0
210
0.0
220
0.0
230
1.0
 40
0.970288
 41
5.512866274278737
 42
7.053504340080126
  0
LINE
  5
1AC
330
1F
100
AcDbEntity
  8
LC-001-100-D00-0
 62
     7
370
    50
100
AcDbLine
 10
340.558948
 20
55.057772
 30
0.0
 11
341.324137
 21
55.057772
 31
0.0
  0
LINE
  5
1AD
330
1F
100
AcDbEntity
  8
LC-001-100-D00-0
 62
     7
370
    50
100
AcDbLine
 10
340.558948
 20
55.822965
 30
0.0
 11
340.558948
 21
55.057772
 31
0.0
  0
ELLIPSE
  5
1AE
330
1F
100
AcDbEntity
  8
LC-001-100-D00-0
 62
     7
370
    50
100
AcDbEllipse
 10
339.543515
 20
55.792345
 30
0.0
 11
-0.7287600455215028
 21
-0.7287600455215029
 31
0.0
210
0.0
220
0.0
230
1.0
 40
0.970288
 41
5.512866274278521
 42
7.053504340079808
  0
LINE
  5
1AF
330
1F
100
AcDbEntity
  8
LC-001-100-D00-0
 62
     7
370
    50
100
AcDbLine
 10
338.146688
 20
56.807772
 30
0.0
 11
339.57413
 21
56.807772
 31
0.0
  0
ELLIPSE
  5
1B0
330
1F
100
AcDbEntity
  8
LC-001-100-D00-0
 62
     7
370
    50
100
AcDbEllipse
 10
338.177307
 20
55.792345
 30
0.0
 11
0.7287600455996904
 21
-0.7287600455996903
 31
0.0
210
0.0
220
0.0
230
1.0
 40
0.970288
 41
2.371273620688702
 42
3.911911686490617
  0
LINE
  5
1B1
330
1F
100
AcDbEntity
  8
LC-001-100-D00-0
 62
     7
370
    50
100
AcDbLine
 10
337.161885
 20
55.057772
 30
0.0
 11
337.161885
 21
55.822965
 31
0.0
  0
LINE
  5
1B2
330
1F
100
AcDbEntity
  8
LC-001-100-D00-0
 62
     7
370
    50
100
AcDbLine
 10
336.396681
 20
55.057772
 30
0.0
 11
337.161885
 21
55.057772
 31
0.0
  0
ELLIPSE
  5
1B3
330
1F
100
AcDbEntity
  8
LC-001-100-D00-0
 62
     7
370
    50
100
AcDbEllipse
 10
336.427307
 20
54.042345
 30
0.0
 11
0.7287600455996904
 21
-0.7287600455996903
 31
0.0
210
0.0
220
0.0
230
1.0
 40
0.970288
 41
2.371273620688613
 42
3.91191168649063
  0
LINE
  5
1B4
330
1F
100
AcDbEntity
  8
LC-001-100-D00-0
 62
     7
370
    50
100
AcDbLine
 10
335.411878
 20
52.64552
 30
0.0
 11
335.411878
 21
54.072965
 31
0.0
  0
ELLIPSE
  5
1B5
330
1F
100
AcDbEntity
  8
LC-001-100-D00-0
 62
     7
370
    50
100
AcDbEllipse
 10
336.427307
 20
52.676137
 30
0.0
 11
-0.7287600456518005
 21
-0.7287600456518006
 31
0.0
210
0.0
220
0.0
230
1.0
 40
0.970288
 41
2.371273620688766
 42
3.911911686490889
  0
LINE
  5
1B6
330
1F
100
AcDbEntity
  8
LC-001-100-D00-0
 62
     7
370
    50
100
AcDbLine
 10
337.161885
 20
51.66071
 30
0.0
 11
336.396681
 21
51.66071
 31
0.0
  0
LINE
  5
1B7
330
1F
100
AcDbEntity
  8
LC-001-100-D00-0
 62
     7
370
    50
100
AcDbLine
 10
337.161885
 20
50.895516
 30
0.0
 11
337.161885
 21
51.66071
 31
0.0
  0
ELLIPSE
  5
1B8
330
1F
100
AcDbEntity
  8
LC-001-100-D00-0
 62
     7
370
    50
100
AcDbEllipse
 10
338.177307
 20
50.926137
 30
0.0
 11
-0.7287600456518301
 21
-0.7287600456518302
 31
0.0
210
0.0
220
0.0
230
1.0
 40
0.970288
 41
2.371273620688805
 42
3.911911686490611
  0
LINE
  5
1B9
330
1F
100
AcDbEntity
  8
LC-001-100-D00-0
 62
     7
370
    50
100
AcDbLine
 10
339.57413
 20
49.91071
 30
0.0
 11
338.146688
 21
49.91071
 31
0.0
  0
ELLIPSE
  5
1BA
330
1F
100
AcDbEntity
  8
LC-001-100-D00-0
 62
     7
370
    50
100
AcDbEllipse
 10
338.177307
 20
55.792345
 30
0.0
 11
0.3857116011678295
 21
-0.3857116011678294
 31
0.0
210
0.0
220
0.0
230
1.0
 40
0.916626
 41
2.371273620688069
 42
3.911911686490437
  0
ELLIPSE
  5
1BB
330
1F
100
AcDbEntity
  8
LC-001-100-D00-0
 62
     7
370
    50
100
AcDbEllipse
 10
339.543515
 20
55.792345
 30
0.0
 11
-0.3857116014437247
 21
-0.3857116014437248
 31
0.0
210
0.0
220
0.0
230
1.0
 40
0.916626
 41
5.512866274278427
 42
7.053504340081156
  0
LINE
  5
1BC
330
1F
100
AcDbEntity
  8
LC-001-100-D00-0
 62
     7
370
    50
100
AcDbLine
 10
339.57413
 20
56.315367
 30
0.0
 11
338.146688
 21
56.315367
 31
0.0
  0
LINE
  5
1BD
330
1F
100
AcDbEntity
  8
LC-001-100-D00-0
 62
     7
370
    50
100
AcDbLine
 10
340.066539
 20
55.057772
 30
0.0
 11
340.066539
 21
55.822965
 31
0.0
  0
LINE
  5
1BE
330
1F
100
AcDbEntity
  8
LC-001-100-D00-0
 62
     7
370
    50
100
AcDbLine
 10
337.654279
 20
55.822965
 30
0.0
 11
337.654279
 21
55.057772
 31
0.0
  0
ELLIPSE
  5
1BF
330
1F
100
AcDbEntity
  8
LC-001-100-D00-0
 62
     7
370
    50
100
AcDbEllipse
 10
341.293515
 20
54.042345
 30
0.0
 11
-0.3857116014253326
 21
-0.3857116014253327
 31
0.0
210
0.0
220
0.0
230
1.0
 40
0.916626
 41
5.512866274278572
 42
7.053504340081081
  0
LINE
  5
1C0
330
1F
100
AcDbEntity
  8
LC-001-100-D00-0
 62
     7
370
    50
100
AcDbLine
 10
337.161885
 20
54.565367
 30
0.0
 11
336.396681
 21
54.565367
 31
0.0
  0
ARC
  5
1C1
330
1F
100
AcDbEntity
  8
LC-001-100-D00-0
 62
     7
370
    50
100
AcDbCircle
 10
337.144079
 20
55.075567
 30
0.0
 40
0.5105107211806631
100
AcDbArc
 50
271.998871
 51
358.002429
  0
ELLIPSE
  5
1C2
330
1F
100
AcDbEntity
  8
LC-001-100-D00-0
 62
     7
370
    50
100
AcDbEllipse
 10
336.427307
 20
54.042345
 30
0.0
 11
0.3857116011862216
 21
-0.3857116011862216
 31
0.0
210
0.0
220
0.0
230
1.0
 40
0.916626
 41
2.37127362068774
 42
3.911911686490377
  0
ARC
  5
1C3
330
1F
100
AcDbEntity
  8
LC-001-100-D00-0
 62
     7
370
    50
100
AcDbCircle
 10
340.576738
 20
55.075566
 30
0.0
 40
0.5105095901085937
100
AcDbArc
 50
181.997511
 51
268.002923
  0
LINE
  5
1C4
330
1F
100
AcDbEntity
  8
LC-001-100-D00-0
 62
     7
370
    50
100
AcDbLine
 10
341.324137
 20
54.565367
 30
0.0
 11
340.558948
 21
54.565367
 31
0.0
  0
LINE
  5
1C5
330
1F
100
AcDbEntity
  8
LC-001-100-D00-0
 62
     7
370
    50
100
AcDbLine
 10
335.904287
 20
54.072965
 30
0.0
 11
335.904287
 21
52.64552
 31
0.0
  0
LINE
  5
1C6
330
1F
100
AcDbEntity
  8
LC-001-100-D00-0
 62
     7
370
    50
100
AcDbLine
 10
341.816531
 20
52.64552
 30
0.0
 11
341.816531
 21
54.072965
 31
0.0
  0
ELLIPSE
  5
1C7
330
1F
100
AcDbEntity
  8
LC-001-100-D00-0
 62
     7
370
    50
100
AcDbEllipse
 10
341.293515
 20
52.676137
 30
0.0
 11
0.3857116013701561
 21
-0.3857116013701561
 31
0.0
210
0.0
220
0.0
230
1.0
 40
0.916626
 41
5.512866274278205
 42
7.053504340080746
  0
ELLIPSE
  5
1C8
330
1F
100
AcDbEntity
  8
LC-001-100-D00-0
 62
     7
370
    50
100
AcDbEllipse
 10
336.427307
 20
52.676137
 30
0.0
 11
-0.3857116014253326
 21
-0.3857116014253327
 31
0.0
210
0.0
220
0.0
230
1.0
 40
0.916626
 41
2.371273620688885
 42
3.911911686490377
  0
ARC
  5
1C9
330
1F
100
AcDbEntity
  8
LC-001-100-D00-0
 62
     7
370
    50
100
AcDbCircle
 10
337.144081
 20
51.642917
 30
0.0
 40
0.5105083250401151
100
AcDbArc
 50
1.99732
 51
88.00138
  0
ARC
  5
1CA
330
1F
100
AcDbEntity
  8
LC-001-100-D00-0
 62
     7
370
    50
100
AcDbCircle
 10
340.576736
 20
51.642918
 30
0.0
 40
0.5105071940992315
100
AcDbArc
 50
91.996827
 51
178.00274
  0
LINE
  5
1CB
330
1F
100
AcDbEntity
  8
LC-001-100-D00-0
 62
     7
370
    50
100
AcDbLine
 10
336.396681
 20
52.153115
 30
0.0
 11
337.161885
 21
52.153115
 31
0.0
  0
LINE
  5
1CC
330
1F
100
AcDbEntity
  8
LC-001-100-D00-0
 62
     7
370
    50
100
AcDbLine
 10
340.558948
 20
52.153115
 30
0.0
 11
341.324137
 21
52.153115
 31
0.0
  0
LINE
  5
1CD
330
1F
100
AcDbEntity
  8
LC-001-100-D00-0
 62
     7
370
    50
100
AcDbLine
 10
340.066539
 20
50.895516
 30
0.0
 11
340.066539
 21
51.66071
 31
0.0
  0
LINE
  5
1CE
330
1F
100
AcDbEntity
  8
LC-001-100-D00-0
 62
     7
370
    50
100
AcDbLine
 10
337.654279
 20
51.66071
 30
0.0
 11
337.654279
 21
50.895516
 31
0.0
  0
ELLIPSE
  5
1CF
330
1F
100
AcDbEntity
  8
LC-001-100-D00-0
 62
     7
370
    50
100
AcDbEllipse
 10
338.177307
 20
50.926137
 30
0.0
 11
-0.38571160136096
 21
-0.3857116013609601
 31
0.0
210
0.0
220
0.0
230
1.0
 40
0.916626
 41
2.371273620688863
 42
3.911911686491169
  0
ELLIPSE
  5
1D0
330
1F
100
AcDbEntity
  8
LC-001-100-D00-0
 62
     7
370
    50
100
AcDbEllipse
 10
339.543515
 20
50.926137
 30
0.0
 11
0.3857116013701561
 21
-0.3857116013701561
 31
0.0
210
0.0
220
0.0
230
1.0
 40
0.916626
 41
5.512866274278421
 42
7.053504340080487
  0
LINE
  5
1D1
330
1F
100
AcDbEntity
  8
LC-001-100-D00-0
 62
     7
370
    50
100
AcDbLine
 10
338.146688
 20
50.403115
 30
0.0
 11
339.57413
 21
50.403115
 31
0.0
  0
ARC
  5
1D2
330
1F
100
AcDbEntity
  8
LC-001-100-D00-0
 62
     7
370
    50
100
AcDbCircle
 10
339.173058
 20
55.421886
 30
0.0
 40
0.5105182421131488
100
AcDbArc
 50
1.998835
 51
88.002032
  0
ARC
  5
1D3
330
1F
100
AcDbEntity
  8
LC-001-100-D00-0
 62
     7
370
    50
100
AcDbCircle
 10
338.54776
 20
55.421886
 30
0.0
 40
0.5105182421130902
100
AcDbArc
 50
91.997968
 51
178.001165
  0
ELLIPSE
  5
1D4
330
1F
100
AcDbEntity
  8
LC-001-100-D00-0
 62
     7
370
    50
100
AcDbEllipse
 10
337.514534
 20
54.705118
 30
0.0
 11
0.3857116010758661
 21
-0.385711601075866
 31
0.0
210
0.0
220
0.0
230
1.0
 40
0.916626
 41
5.512866274278567
 42
7.053504340080625
  0
ELLIPSE
  5
1D5
330
1F
100
AcDbEntity
  8
LC-001-100-D00-0
 62
     7
370
    50
100
AcDbEllipse
 10
340.206287
 20
54.705118
 30
0.0
 11
-0.3857116012873629
 21
-0.385711601287363
 31
0.0
210
0.0
220
0.0
230
1.0
 40
0.916626
 41
2.371273620688969
 42
3.911911686490504
  0
ARC
  5
1D6
330
1F
100
AcDbEntity
  8
LC-001-100-D00-0
 62
     7
370
    50
100
AcDbCircle
 10
340.923073
 20
53.671909
 30
0.0
 40
0.5104953431754297
100
AcDbArc
 50
1.99638
 51
88.002753
  0
ARC
  5
1D7
330
1F
100
AcDbEntity
  8
LC-001-100-D00-0
 62
     7
370
    50
100
AcDbCircle
 10
336.797752
 20
53.671902
 30
0.0
 40
0.5105026000657892
100
AcDbArc
 50
91.998007
 51
178.00286
  0
ARC
  5
1D8
330
1F
100
AcDbEntity
  8
LC-001-100-D00-0
 62
     7
370
    50
100
AcDbCircle
 10
336.797756
 20
53.046583
 30
0.0
 40
0.5105065109596509
100
AcDbArc
 50
181.99713
 51
268.001569
  0
ARC
  5
1D9
330
1F
100
AcDbEntity
  8
LC-001-100-D00-0
 62
     7
370
    50
100
AcDbCircle
 10
340.923069
 20
53.046576
 30
0.0
 40
0.5104992534654689
100
AcDbArc
 50
271.997671
 51
358.003629
  0
ELLIPSE
  5
1DA
330
1F
100
AcDbEntity
  8
LC-001-100-D00-0
 62
     7
370
    50
100
AcDbEllipse
 10
340.206287
 20
52.013364
 30
0.0
 11
0.3857116011678268
 21
-0.3857116011678268
 31
0.0
210
0.0
220
0.0
230
1.0
 40
0.916626
 41
2.37127362068804
 42
3.911911686490647
  0
ELLIPSE
  5
1DB
330
1F
100
AcDbEntity
  8
LC-001-100-D00-0
 62
     7
370
    50
100
AcDbEllipse
 10
337.514534
 20
52.013364
 30
0.0
 11
-0.3857116013333433
 21
-0.3857116013333434
 31
0.0
210
0.0
220
0.0
230
0.9999999999999999
 40
0.916626
 41
5.512866274278627
 42
7.053504340080922
  0
ARC
  5
1DC
330
1F
100
AcDbEntity
  8
LC-001-100-D00-0
 62
     7
370
    50
100
AcDbCircle
 10
338.547764
 20
51.2966
 30
0.0
 40
0.5105224352624448
100
AcDbArc
 50
181.999274
 51
268.001593
  0
ARC
  5
1DD
330
1F
100
AcDbEntity
  8
LC-001-100-D00-0
 62
     7
370
    50
100
AcDbCircle
 10
339.173054
 20
51.2966
 30
0.0
 40
0.5105224352625176
100
AcDbArc
 50
271.998407
 51
358.000726
  0
LINE
  5
1DE
330
1F
100
AcDbEntity
  8
LC-001-100-D00-0
 62
     7
370
    50
100
AcDbLine
 10
338.529961
 20
55.932094
 30
0.0
 11
339.190857
 21
55.932094
 31
0.0
  0
LINE
  5
1DF
330
1F
100
AcDbEntity
  8
LC-001-100-D00-0
 62
     7
370
    50
100
AcDbLine
 10
339.683266
 20
55.439692
 30
0.0
 11
339.683266
 21
54.674499
 31
0.0
  0
LINE
  5
1E0
330
1F
100
AcDbEntity
  8
LC-001-100-D00-0
 62
     7
370
    50
100
AcDbLine
 10
338.037552
 20
54.674499
 30
0.0
 11
338.037552
 21
55.439692
 31
0.0
  0
LINE
  5
1E1
330
1F
100
AcDbEntity
  8
LC-001-100-D00-0
 62
     7
370
    50
100
AcDbLine
 10
336.779954
 20
54.182094
 30
0.0
 11
337.545158
 21
54.182094
 31
0.0
  0
LINE
  5
1E2
330
1F
100
AcDbEntity
  8
LC-001-100-D00-0
 62
     7
370
    50
100
AcDbLine
 10
340.175675
 20
54.182094
 30
0.0
 11
340.940865
 21
54.182094
 31
0.0
  0
LINE
  5
1E3
330
1F
100
AcDbEntity
  8
LC-001-100-D00-0
 62
     7
370
    50
100
AcDbLine
 10
341.433258
 20
53.689693
 30
0.0
 11
341.433258
 21
53.028793
 31
0.0
  0
LINE
  5
1E4
330
1F
100
AcDbEntity
  8
LC-001-100-D00-0
 62
     7
370
    50
100
AcDbLine
 10
336.28756
 20
53.028793
 30
0.0
 11
336.28756
 21
53.689693
 31
0.0
  0
LINE
  5
1E5
330
1F
100
AcDbEntity
  8
LC-001-100-D00-0
 62
     7
370
    50
100
AcDbLine
 10
340.940865
 20
52.536387
 30
0.0
 11
340.175675
 21
52.536387
 31
0.0
  0
LINE
  5
1E6
330
1F
100
AcDbEntity
  8
LC-001-100-D00-0
 62
     7
370
    50
100
AcDbLine
 10
337.545158
 20
52.536387
 30
0.0
 11
336.779954
 21
52.536387
 31
0.0
  0
LINE
  5
1E7
330
1F
100
AcDbEntity
  8
LC-001-100-D00-0
 62
     7
370
    50
100
AcDbLine
 10
339.683266
 20
52.043982
 30
0.0
 11
339.683266
 21
51.278789
 31
0.0
  0
LINE
  5
1E8
330
1F
100
AcDbEntity
  8
LC-001-100-D00-0
 62
     7
370
    50
100
AcDbLine
 10
338.037552
 20
51.278789
 30
0.0
 11
338.037552
 21
52.043982
 31
0.0
  0
LINE
  5
1E9
330
1F
100
AcDbEntity
  8
LC-001-100-D00-0
 62
     7
370
    50
100
AcDbLine
 10
339.190857
 20
50.786388
 30
0.0
 11
338.529961
 21
50.786388
 31
0.0
  0
LINE
  5
1EA
330
1F
100
AcDbEntity
  8
LC-001-100-D00-0
 62
     7
370
    50
100
AcDbLine
 10
339.190857
 20
55.932094
 30
0.0
 11
339.190857
 21
55.439692
 31
0.0
  0
LINE
  5
1EB
330
1F
100
AcDbEntity
  8
LC-001-100-D00-0
 62
     7
370
    50
100
AcDbLine
 10
338.529961
 20
55.932094
 30
0.0
 11
338.529961
 21
55.439692
 31
0.0
  0
LINE
  5
1EC
330
1F
100
AcDbEntity
  8
LC-001-100-D00-0
 62
     7
370
    50
100
AcDbLine
 10
338.529961
 20
55.439692
 30
0.0
 11
338.529961
 21
54.674499
 31
0.0
  0
LINE
  5
1ED
330
1F
100
AcDbEntity
  8
LC-001-100-D00-0
 62
     7
370
    50
100
AcDbLine
 10
339.190857
 20
54.674499
 30
0.0
 11
339.190857
 21
55.439692
 31
0.0
  0
ELLIPSE
  5
1EE
330
1F
100
AcDbEntity
  8
LC-001-100-D00-0
 62
     7
370
    50
100
AcDbEllipse
 10
337.514534
 20
54.705118
 30
0.0
 11
0.7287600456170515
 21
-0.7287600456170515
 31
0.0
210
0.0
220
0.0
230
1.0
 40
0.970288
 41
5.512866274279032
 42
7.053504340080618
  0
ELLIPSE
  5
1EF
330
1F
100
AcDbEntity
  8
LC-001-100-D00-0
 62
     7
370
    50
100
AcDbEllipse
 10
340.206287
 20
54.705118
 30
0.0
 11
-0.7287600455562527
 21
-0.7287600455562528
 31
0.0
210
0.0
220
0.0
230
1.0
 40
0.970288
 41
2.371273620688879
 42
3.911911686491325
  0
LINE
  5
1F0
330
1F
100
AcDbEntity
  8
LC-001-100-D00-0
 62
     7
370
    50
100
AcDbLine
 10
337.545158
 20
53.689693
 30
0.0
 11
336.779954
 21
53.689693
 31
0.0
  0
LINE
  5
1F1
330
1F
100
AcDbEntity
  8
LC-001-100-D00-0
 62
     7
370
    50
100
AcDbLine
 10
341.433258
 20
53.689693
 30
0.0
 11
340.940865
 21
53.689693
 31
0.0
  0
LINE
  5
1F2
330
1F
100
AcDbEntity
  8
LC-001-100-D00-0
 62
     7
370
    50
100
AcDbLine
 10
336.779954
 20
53.689693
 30
0.0
 11
336.28756
 21
53.689693
 31
0.0
  0
LINE
  5
1F3
330
1F
100
AcDbEntity
  8
LC-001-100-D00-0
 62
     7
370
    50
100
AcDbLine
 10
340.940865
 20
53.689693
 30
0.0
 11
340.175675
 21
53.689693
 31
0.0
  0
LINE
  5
1F4
330
1F
100
AcDbEntity
  8
LC-001-100-D00-0
 62
     7
370
    50
100
AcDbLine
 10
336.779954
 20
53.028793
 30
0.0
 11
336.28756
 21
53.028793
 31
0.0
  0
LINE
  5
1F5
330
1F
100
AcDbEntity
  8
LC-001-100-D00-0
 62
     7
370
    50
100
AcDbLine
 10
341.433258
 20
53.028793
 30
0.0
 11
340.940865
 21
53.028793
 31
0.0
  0
LINE
  5
1F6
330
1F
100
AcDbEntity
  8
LC-001-100-D00-0
 62
     7
370
    50
100
AcDbLine
 10
340.175675
 20
53.028793
 30
0.0
 11
340.940865
 21
53.028793
 31
0.0
  0
ELLIPSE
  5
1F7
330
1F
100
AcDbEntity
  8
LC-001-100-D00-0
 62
     7
370
    50
100
AcDbEllipse
 10
337.514534
 20
52.013364
 30
0.0
 11
-0.7287600455909742
 21
-0.7287600455909743
 31
0.0
210
0.0
220
0.0
230
1.0
 40
0.970288
 41
5.512866274278784
 42
7.05350434007998
  0
LINE
  5
1F8
330
1F
100
AcDbEntity
  8
LC-001-100-D00-0
 62
     7
370
    50
100
AcDbLine
 10
336.779954
 20
53.028793
 30
0.0
 11
337.545158
 21
53.028793
 31
0.0
  0
ELLIPSE
  5
1F9
330
1F
100
AcDbEntity
  8
LC-001-100-D00-0
 62
     7
370
    50
100
AcDbEllipse
 10
340.206287
 20
52.013364
 30
0.0
 11
0.7287600455736278
 21
-0.7287600455736277
 31
0.0
210
0.0
220
0.0
230
1.0
 40
0.970288
 41
2.371273620688525
 42
3.911911686490647
  0
LINE
  5
1FA
330
1F
100
AcDbEntity
  8
LC-001-100-D00-0
 62
     7
370
    50
100
AcDbLine
 10
338.529961
 20
52.043982
 30
0.0
 11
338.529961
 21
51.278789
 31
0.0
  0
LINE
  5
1FB
330
1F
100
AcDbEntity
  8
LC-001-100-D00-0
 62
     7
370
    50
100
AcDbLine
 10
339.190857
 20
51.278789
 30
0.0
 11
339.190857
 21
52.043982
 31
0.0
  0
LINE
  5
1FC
330
1F
100
AcDbEntity
  8
LC-001-100-D00-0
 62
     7
370
    50
100
AcDbLine
 10
339.190857
 20
51.278789
 30
0.0
 11
339.190857
 21
50.786388
 31
0.0
  0
LINE
  5
1FD
330
1F
100
AcDbEntity
  8
LC-001-100-D00-0
 62
     7
370
    50
100
AcDbLine
 10
338.529961
 20
51.278789
 30
0.0
 11
338.529961
 21
50.786388
 31
0.0
  0
INSERT
  5
20A
102
{ACAD_REACTORS
330
56A
102
}
330
1F
100
AcDbEntity
  8
LC-003-005-----0
 62
     7
370
    25
100
AcDbBlockReference
  2
*X115
 10
0.0
 20
0.0
 30
0.0
  0
LINE
  5
20C
102
{ACAD_REACTORS
330
56A
102
}
330
1F
100
AcDbEntity
  8
LC-004-002-----0
 62
     7
370
    50
100
AcDbLine
 10
49.110402
 20
137.078048
 30
0.0
 11
49.110402
 21
132.078048
 31
0.0
  0
LINE
  5
20D
102
{ACAD_REACTORS
330
56A
102
}
330
1F
100
AcDbEntity
  8
LC-004-002-----0
 62
     7
370
    50
100
AcDbLine
 10
56.610402
 20
137.078048
 30
0.0
 11
56.610402
 21
132.078048
 31
0.0
  0
LINE
  5
20E
102
{ACAD_REACTORS
330
56A
102
}
330
1F
100
AcDbEntity
  8
LC-004-002-----0
 62
     7
370
    50
100
AcDbLine
 10
65.610402
 20
137.078048
 30
0.0
 11
65.610402
 21
132.078048
 31
0.0
  0
LINE
  5
20F
102
{ACAD_REACTORS
330
56A
102
}
330
1F
100
AcDbEntity
  8
LC-004-002-----0
 62
     7
370
    50
100
AcDbLine
 10
73.110402
 20
137.078048
 30
0.0
 11
73.110402
 21
132.078048
 31
0.0
  0
LINE
  5
210
102
{ACAD_REACTORS
330
56A
102
}
330
1F
100
AcDbEntity
  8
LC-004-002-----0
 62
     7
370
    50
100
AcDbLine
 10
82.110402
 20
137.078048
 30
0.0
 11
82.110402
 21
132.078048
 31
0.0
  0
LINE
  5
211
102
{ACAD_REACTORS
330
56A
102
}
330
1F
100
AcDbEntity
  8
LC-004-002-----0
 62
     7
370
    50
100
AcDbLine
 10
89.610402
 20
137.078048
 30
0.0
 11
89.610402
 21
132.078048
 31
0.0
  0
LINE
  5
212
102
{ACAD_REACTORS
330
56B
102
}
330
1F
100
AcDbEntity
  8
LC-004-002-----0
 62
     7
370
    50
100
AcDbLine
 10
91.610402
 20
137.078048
 30
0.0
 11
89.610402
 21
137.078048
 31
0.0
  0
LINE
  5
213
102
{ACAD_REACTORS
330
56B
102
}
330
1F
100
AcDbEntity
  8
LC-004-002-----0
 62
     7
370
    50
100
AcDbLine
 10
75.110402
 20
137.078048
 30
0.0
 11
65.610402
 21
137.078048
 31
0.0
  0
LINE
  5
214
102
{ACAD_REACTORS
330
56A
102
}
330
1F
100
AcDbEntity
  8
LC-004-002-----0
 62
     7
370
    50
100
AcDbLine
 10
63.610402
 20
133.078048
 30
0.0
 11
61.110402
 21
134.243817
 31
0.0
  0
LINE
  5
215
102
{ACAD_REACTORS
330
56A
102
}
330
1F
100
AcDbEntity
  8
LC-004-002-----0
 62
     7
370
    50
100
AcDbLine
 10
58.610402
 20
133.078048
 30
0.0
 11
63.610402
 21
133.078048
 31
0.0
  0
LINE
  5
216
102
{ACAD_REACTORS
330
56A
102
}
330
1F
100
AcDbEntity
  8
LC-004-002-----0
 62
     7
370
    50
100
AcDbLine
 10
63.610402
 20
133.078048
 30
0.0
 11
63.610402
 21
132.078048
 31
0.0
  0
LINE
  5
217
102
{ACAD_REACTORS
330
56A
102
}
330
1F
100
AcDbEntity
  8
LC-004-002-----0
 62
     7
370
    50
100
AcDbLine
 10
58.610402
 20
133.078048
 30
0.0
 11
61.110402
 21
134.243817
 31
0.0
  0
LINE
  5
218
102
{ACAD_REACTORS
330
56A
102
}
330
1F
100
AcDbEntity
  8
LC-004-002-----0
 62
     7
370
    50
100
AcDbLine
 10
58.610402
 20
133.078048
 30
0.0
 11
58.610402
 21
132.078048
 31
0.0
  0
LINE
  5
219
102
{ACAD_REACTORS
330
56A
102
}
330
1F
100
AcDbEntity
  8
LC-004-002-----0
 62
     7
370
    50
100
AcDbLine
 10
58.610402
 20
138.078048
 30
0.0
 11
63.610402
 21
138.078048
 31
0.0
  0
LINE
  5
21A
102
{ACAD_REACTORS
330
56A
102
}
330
1F
100
AcDbEntity
  8
LC-004-002-----0
 62
     7
370
    50
100
AcDbLine
 10
63.610402
 20
138.078048
 30
0.0
 11
63.610402
 21
137.078048
 31
0.0
  0
LINE
  5
21B
102
{ACAD_REACTORS
330
56A
102
}
330
1F
100
AcDbEntity
  8
LC-004-002-----0
 62
     7
370
    50
100
AcDbLine
 10
58.610402
 20
138.078048
 30
0.0
 11
58.610402
 21
137.078048
 31
0.0
  0
LINE
  5
21C
102
{ACAD_REACTORS
330
56A
102
}
330
1F
100
AcDbEntity
  8
LC-004-002-----0
 62
     7
370
    50
100
AcDbLine
 10
80.110402
 20
138.078048
 30
0.0
 11
80.110402
 21
137.078048
 31
0.0
  0
LINE
  5
21D
102
{ACAD_REACTORS
330
56A
102
}
330
1F
100
AcDbEntity
  8
LC-004-002-----0
 62
     7
370
    50
100
AcDbLine
 10
75.110402
 20
138.078048
 30
0.0
 11
80.110402
 21
138.078048
 31
0.0
  0
LINE
  5
21E
102
{ACAD_REACTORS
330
56A
102
}
330
1F
100
AcDbEntity
  8
LC-004-002-----0
 62
     7
370
    50
100
AcDbLine
 10
75.110402
 20
138.078048
 30
0.0
 11
75.110402
 21
137.078048
 31
0.0
  0
LINE
  5
21F
102
{ACAD_REACTORS
330
56A
102
}
330
1F
100
AcDbEntity
  8
LC-004-002-----0
 62
     7
370
    50
100
AcDbLine
 10
80.110402
 20
133.078048
 30
0.0
 11
77.610402
 21
134.243817
 31
0.0
  0
LINE
  5
220
102
{ACAD_REACTORS
330
56A
102
}
330
1F
100
AcDbEntity
  8
LC-004-002-----0
 62
     7
370
    50
100
AcDbLine
 10
75.110402
 20
133.078048
 30
0.0
 11
80.110402
 21
133.078048
 31
0.0
  0
LINE
  5
221
102
{ACAD_REACTORS
330
56A
102
}
330
1F
100
AcDbEntity
  8
LC-004-002-----0
 62
     7
370
    50
100
AcDbLine
 10
80.110402
 20
133.078048
 30
0.0
 11
80.110402
 21
132.078048
 31
0.0
  0
LINE
  5
222
102
{ACAD_REACTORS
330
56A
102
}
330
1F
100
AcDbEntity
  8
LC-004-002-----0
 62
     7
370
    50
100
AcDbLine
 10
75.110402
 20
133.078048
 30
0.0
 11
77.610402
 21
134.243817
 31
0.0
  0
LINE
  5
223
102
{ACAD_REACTORS
330
56A
102
}
330
1F
100
AcDbEntity
  8
LC-004-002-----0
 62
     7
370
    50
100
AcDbLine
 10
75.110402
 20
133.078048
 30
0.0
 11
75.110402
 21
132.078048
 31
0.0
  0
LINE
  5
224
102
{ACAD_REACTORS
330
56A
102
}
330
1F
100
AcDbEntity
  8
LC-004-002-----0
 62
     7
370
    50
100
AcDbLine
 10
91.610402
 20
138.078048
 30
0.0
 11
96.610402
 21
138.078048
 31
0.0
  0
LINE
  5
225
102
{ACAD_REACTORS
330
56A
102
}
330
1F
100
AcDbEntity
  8
LC-004-002-----0
 62
     7
370
    50
100
AcDbLine
 10
95.110402
 20
132.078159
 30
0.0
 11
95.110402
 21
132.078159
 31
0.0
  0
LINE
  5
226
102
{ACAD_REACTORS
330
56A
102
}
330
1F
100
AcDbEntity
  8
LC-004-002-----0
 62
     7
370
    50
100
AcDbLine
 10
92.110402
 20
132.078159
 30
0.0
 11
92.110402
 21
132.078159
 31
0.0
  0
LINE
  5
227
102
{ACAD_REACTORS
330
56A
102
}
330
1F
100
AcDbEntity
  8
LC-004-002-----0
 62
     7
370
    50
100
AcDbLine
 10
75.110402
 20
132.078159
 30
0.0
 11
75.110402
 21
132.078159
 31
0.0
  0
LINE
  5
228
102
{ACAD_REACTORS
330
56A
102
}
330
1F
100
AcDbEntity
  8
LC-004-002-----0
 62
     7
370
    50
100
AcDbLine
 10
72.110402
 20
132.078159
 30
0.0
 11
72.110402
 21
132.078159
 31
0.0
  0
LINE
  5
229
102
{ACAD_REACTORS
330
56B
102
}
330
1F
100
AcDbEntity
  8
LC-004-002-----0
 62
     7
370
    50
100
AcDbLine
 10
102.110402
 20
132.078048
 30
0.0
 11
89.610402
 21
132.078048
 31
0.0
  0
LINE
  5
22A
102
{ACAD_REACTORS
330
56B
102
}
330
1F
100
AcDbEntity
  8
LC-004-002-----0
 62
     7
370
    50
100
AcDbLine
 10
102.110402
 20
137.078048
 30
0.0
 11
96.610402
 21
137.078048
 31
0.0
  0
LINE
  5
22B
102
{ACAD_REACTORS
330
56B
102
}
330
1F
100
AcDbEntity
  8
LC-004-002-----0
 62
     7
370
    50
100
AcDbLine
 10
102.610402
 20
132.578048
 30
0.0
 11
102.610402
 21
136.578048
 31
0.0
  0
LINE
  5
22C
102
{ACAD_REACTORS
330
56B
102
}
330
1F
100
AcDbEntity
  8
LC-004-002-----0
 62
     7
370
    50
100
AcDbLine
 10
65.610402
 20
137.078048
 30
0.0
 11
63.610402
 21
137.078048
 31
0.0
  0
ARC
  5
22E
102
{ACAD_REACTORS
330
56B
102
}
330
1F
100
AcDbEntity
  8
LC-005-002-RND-0
 62
     7
370
    50
100
AcDbCircle
 10
102.110402
 20
132.578048
 30
0.0
 40
0.5
100
AcDbArc
 50
270.0
 51
0.0
  0
ARC
  5
22F
102
{ACAD_REACTORS
330
56B
102
}
330
1F
100
AcDbEntity
  8
LC-005-002-RND-0
 62
     7
370
    50
100
AcDbCircle
 10
102.110402
 20
136.578048
 30
0.0
 40
0.5
100
AcDbArc
 50
0.0
 51
90.0
  0
LINE
  5
230
102
{ACAD_REACTORS
330
56B
102
}
330
1F
100
AcDbEntity
  8
LC-004-002-----0
 62
     7
370
    50
100
AcDbLine
 10
65.610402
 20
132.078048
 30
0.0
 11
56.610402
 21
132.078048
 31
0.0
  0
LINE
  5
231
102
{ACAD_REACTORS
330
56B
102
}
330
1F
100
AcDbEntity
  8
LC-004-002-----0
 62
     7
370
    50
100
AcDbLine
 10
56.610402
 20
137.078048
 30
0.0
 11
47.110402
 21
137.078048
 31
0.0
  0
LINE
  5
232
102
{ACAD_REACTORS
330
56B
102
}
330
1F
100
AcDbEntity
  8
LC-004-002-----0
 62
     7
370
    50
100
AcDbLine
 10
56.610402
 20
132.078048
 30
0.0
 11
33.610402
 21
132.078048
 31
0.0
  0
INSERT
  5
23D
102
{ACAD_REACTORS
330
56A
102
}
330
1F
100
AcDbEntity
  8
LC-003-005-----0
 62
     7
370
    25
100
AcDbBlockReference
  2
*X216
 10
0.0
 20
0.0
 30
0.0
  0
INSERT
  5
247
102
{ACAD_REACTORS
330
56A
102
}
330
1F
100
AcDbEntity
  8
LC-003-005-----0
 62
     7
370
    25
100
AcDbBlockReference
  2
*X317
 10
0.0
 20
0.0
 30
0.0
  0
LINE
  5
248
102
{ACAD_REACTORS
330
56B
102
}
330
1F
100
AcDbEntity
  8
LC-004-002-----0
 62
     7
370
    50
100
AcDbLine
 10
42.110402
 20
138.078048
 30
0.0
 11
47.110402
 21
138.078048
 31
0.0
  0
LINE
  5
249
102
{ACAD_REACTORS
330
56B
102
}
330
1F
100
AcDbEntity
  8
LC-004-002-----0
 62
     7
370
    50
100
AcDbLine
 10
89.610402
 20
137.078048
 30
0.0
 11
81.585402
 21
137.078048
 31
0.0
  0
LINE
  5
24A
102
{ACAD_REACTORS
330
56B
102
}
330
1F
100
AcDbEntity
  8
LC-004-002-----0
 62
     7
370
    50
100
AcDbLine
 10
89.610402
 20
132.078048
 30
0.0
 11
65.610402
 21
132.078048
 31
0.0
  0
INSERT
  5
254
102
{ACAD_REACTORS
330
56A
102
}
330
1F
100
AcDbEntity
  8
LC-003-005-----0
 62
     7
370
    25
100
AcDbBlockReference
  2
*X418
 10
0.0
 20
0.0
 30
0.0
  0
LINE
  5
255
102
{ACAD_REACTORS
330
56A
102
}
330
1F
100
AcDbEntity
  8
LC-004-002-----0
 62
     7
370
    50
100
AcDbLine
 10
96.610402
 20
138.078048
 30
0.0
 11
96.610402
 21
137.078048
 31
0.0
  0
LINE
  5
256
102
{ACAD_REACTORS
330
56A
102
}
330
1F
100
AcDbEntity
  8
LC-004-002-----0
 62
     7
370
    50
100
AcDbLine
 10
91.610402
 20
138.078048
 30
0.0
 11
91.610402
 21
137.078048
 31
0.0
  0
LINE
  5
257
102
{ACAD_REACTORS
330
56A
102
}
330
1F
100
AcDbEntity
  8
LC-004-002-----0
 62
     7
370
    50
100
AcDbLine
 10
91.610402
 20
133.078048
 30
0.0
 11
94.110402
 21
134.243817
 31
0.0
  0
LINE
  5
258
102
{ACAD_REACTORS
330
56A
102
}
330
1F
100
AcDbEntity
  8
LC-004-002-----0
 62
     7
370
    50
100
AcDbLine
 10
96.610402
 20
133.078048
 30
0.0
 11
94.110402
 21
134.243817
 31
0.0
  0
LINE
  5
259
102
{ACAD_REACTORS
330
56B
102
}
330
1F
100
AcDbEntity
  8
LC-004-002-----0
 62
     7
370
    50
100
AcDbLine
 10
81.585402
 20
137.078048
 30
0.0
 11
80.110402
 21
137.078048
 31
0.0
  0
LINE
  5
25A
102
{ACAD_REACTORS
330
56A
102
}
330
1F
100
AcDbEntity
  8
LC-004-002-----0
 62
     7
370
    50
100
AcDbLine
 10
91.610402
 20
133.078048
 30
0.0
 11
96.610402
 21
133.078048
 31
0.0
  0
LINE
  5
25B
102
{ACAD_REACTORS
330
56A
102
}
330
1F
100
AcDbEntity
  8
LC-004-002-----0
 62
     7
370
    50
100
AcDbLine
 10
96.610402
 20
133.078048
 30
0.0
 11
96.610402
 21
132.078048
 31
0.0
  0
LINE
  5
25C
102
{ACAD_REACTORS
330
56A
102
}
330
1F
100
AcDbEntity
  8
LC-004-002-----0
 62
     7
370
    50
100
AcDbLine
 10
91.610402
 20
133.078048
 30
0.0
 11
91.610402
 21
132.078048
 31
0.0
  0
LINE
  5
25D
102
{ACAD_REACTORS
330
56B
102
}
330
1F
100
AcDbEntity
  8
LC-004-002-----0
 62
     7
370
    50
100
AcDbLine
 10
58.610402
 20
137.078048
 30
0.0
 11
56.610402
 21
137.078048
 31
0.0
  0
INSERT
  5
269
102
{ACAD_REACTORS
330
56A
102
}
330
1F
100
AcDbEntity
  8
LC-003-005-----0
 62
     7
370
    25
100
AcDbBlockReference
  2
*X519
 10
0.0
 20
0.0
 30
0.0
  0
LINE
  5
26A
102
{ACAD_REACTORS
330
56A
102
}
330
1F
100
AcDbEntity
  8
LC-004-002-----0
 62
     7
370
    50
100
AcDbLine
 10
18.110402
 20
137.078048
 30
0.0
 11
18.110402
 21
132.078048
 31
0.0
  0
LINE
  5
26B
102
{ACAD_REACTORS
330
56A
102
}
330
1F
100
AcDbEntity
  8
LC-004-002-----0
 62
     7
370
    50
100
AcDbLine
 10
10.610402
 20
137.078048
 30
0.0
 11
10.610402
 21
132.078048
 31
0.0
  0
LINE
  5
26C
102
{ACAD_REACTORS
330
56A
102
}
330
1F
100
AcDbEntity
  8
LC-004-002-----0
 62
     7
370
    50
100
AcDbLine
 10
1.610402
 20
137.078048
 30
0.0
 11
1.610402
 21
132.078048
 31
0.0
  0
LINE
  5
26D
102
{ACAD_REACTORS
330
56B
102
}
330
1F
100
AcDbEntity
  8
LC-004-002-----0
 62
     7
370
    50
100
AcDbLine
 10
42.110402
 20
138.078048
 30
0.0
 11
42.110402
 21
137.078048
 31
0.0
  0
LINE
  5
26E
102
{ACAD_REACTORS
330
56B
102
}
330
1F
100
AcDbEntity
  8
LC-004-002-----0
 62
     7
370
    50
100
AcDbLine
 10
47.110402
 20
138.078048
 30
0.0
 11
47.110402
 21
137.078048
 31
0.0
  0
LINE
  5
26F
102
{ACAD_REACTORS
330
56A
102
}
330
1F
100
AcDbEntity
  8
LC-004-002-----0
 62
     7
370
    50
100
AcDbLine
 10
-5.889598
 20
137.078048
 30
0.0
 11
-5.889598
 21
132.078048
 31
0.0
  0
LINE
  5
270
102
{ACAD_REACTORS
330
56A
102
}
330
1F
100
AcDbEntity
  8
LC-004-002-----0
 62
     7
370
    50
100
AcDbLine
 10
-14.889598
 20
137.078048
 30
0.0
 11
-14.889598
 21
132.078048
 31
0.0
  0
LINE
  5
271
102
{ACAD_REACTORS
330
56A
102
}
330
1F
100
AcDbEntity
  8
LC-004-002-----0
 62
     7
370
    50
100
AcDbLine
 10
-22.389598
 20
137.078048
 30
0.0
 11
-22.389598
 21
132.078048
 31
0.0
  0
LINE
  5
272
102
{ACAD_REACTORS
330
56C
102
}
330
1F
100
AcDbEntity
  8
LC-004-002-----0
 62
     7
370
    50
100
AcDbLine
 10
-24.389598
 20
137.078048
 30
0.0
 11
-22.389598
 21
137.078048
 31
0.0
  0
LINE
  5
273
102
{ACAD_REACTORS
330
56C
102
}
330
1F
100
AcDbEntity
  8
LC-004-002-----0
 62
     7
370
    50
100
AcDbLine
 10
-7.889598
 20
137.078048
 30
0.0
 11
1.610402
 21
137.078048
 31
0.0
  0
LINE
  5
274
102
{ACAD_REACTORS
330
56A
102
}
330
1F
100
AcDbEntity
  8
LC-004-002-----0
 62
     7
370
    50
100
AcDbLine
 10
3.610402
 20
133.078048
 30
0.0
 11
6.110402
 21
134.243817
 31
0.0
  0
LINE
  5
275
102
{ACAD_REACTORS
330
56A
102
}
330
1F
100
AcDbEntity
  8
LC-004-002-----0
 62
     7
370
    50
100
AcDbLine
 10
8.610402
 20
133.078048
 30
0.0
 11
3.610402
 21
133.078048
 31
0.0
  0
LINE
  5
276
102
{ACAD_REACTORS
330
56A
102
}
330
1F
100
AcDbEntity
  8
LC-004-002-----0
 62
     7
370
    50
100
AcDbLine
 10
3.610402
 20
133.078048
 30
0.0
 11
3.610402
 21
132.078048
 31
0.0
  0
LINE
  5
277
102
{ACAD_REACTORS
330
56A
102
}
330
1F
100
AcDbEntity
  8
LC-004-002-----0
 62
     7
370
    50
100
AcDbLine
 10
8.610402
 20
133.078048
 30
0.0
 11
6.110402
 21
134.243817
 31
0.0
  0
LINE
  5
278
102
{ACAD_REACTORS
330
56A
102
}
330
1F
100
AcDbEntity
  8
LC-004-002-----0
 62
     7
370
    50
100
AcDbLine
 10
8.610402
 20
133.078048
 30
0.0
 11
8.610402
 21
132.078048
 31
0.0
  0
LINE
  5
279
102
{ACAD_REACTORS
330
56A
102
}
330
1F
100
AcDbEntity
  8
LC-004-002-----0
 62
     7
370
    50
100
AcDbLine
 10
8.610402
 20
138.078048
 30
0.0
 11
3.610402
 21
138.078048
 31
0.0
  0
LINE
  5
27A
102
{ACAD_REACTORS
330
56A
102
}
330
1F
100
AcDbEntity
  8
LC-004-002-----0
 62
     7
370
    50
100
AcDbLine
 10
3.610402
 20
138.078048
 30
0.0
 11
3.610402
 21
137.078048
 31
0.0
  0
LINE
  5
27B
102
{ACAD_REACTORS
330
56A
102
}
330
1F
100
AcDbEntity
  8
LC-004-002-----0
 62
     7
370
    50
100
AcDbLine
 10
8.610402
 20
138.078048
 30
0.0
 11
8.610402
 21
137.078048
 31
0.0
  0
LINE
  5
27C
102
{ACAD_REACTORS
330
56A
102
}
330
1F
100
AcDbEntity
  8
LC-004-002-----0
 62
     7
370
    50
100
AcDbLine
 10
-12.889598
 20
138.078048
 30
0.0
 11
-12.889598
 21
137.078048
 31
0.0
  0
LINE
  5
27D
102
{ACAD_REACTORS
330
56A
102
}
330
1F
100
AcDbEntity
  8
LC-004-002-----0
 62
     7
370
    50
100
AcDbLine
 10
-7.889598
 20
138.078048
 30
0.0
 11
-12.889598
 21
138.078048
 31
0.0
  0
LINE
  5
27E
102
{ACAD_REACTORS
330
56A
102
}
330
1F
100
AcDbEntity
  8
LC-004-002-----0
 62
     7
370
    50
100
AcDbLine
 10
-7.889598
 20
138.078048
 30
0.0
 11
-7.889598
 21
137.078048
 31
0.0
  0
LINE
  5
27F
102
{ACAD_REACTORS
330
56A
102
}
330
1F
100
AcDbEntity
  8
LC-004-002-----0
 62
     7
370
    50
100
AcDbLine
 10
-12.889598
 20
133.078048
 30
0.0
 11
-10.389598
 21
134.243817
 31
0.0
  0
LINE
  5
280
102
{ACAD_REACTORS
330
56A
102
}
330
1F
100
AcDbEntity
  8
LC-004-002-----0
 62
     7
370
    50
100
AcDbLine
 10
-7.889598
 20
133.078048
 30
0.0
 11
-12.889598
 21
133.078048
 31
0.0
  0
LINE
  5
281
102
{ACAD_REACTORS
330
56B
102
}
330
1F
100
AcDbEntity
  8
LC-004-002-----0
 62
     7
370
    50
100
AcDbLine
 10
47.110402
 20
133.078048
 30
0.0
 11
44.610402
 21
134.243817
 31
0.0
  0
LINE
  5
282
102
{ACAD_REACTORS
330
56B
102
}
330
1F
100
AcDbEntity
  8
LC-004-002-----0
 62
     7
370
    50
100
AcDbLine
 10
42.110402
 20
133.078048
 30
0.0
 11
47.110402
 21
133.078048
 31
0.0
  0
LINE
  5
283
102
{ACAD_REACTORS
330
56B
102
}
330
1F
100
AcDbEntity
  8
LC-004-002-----0
 62
     7
370
    50
100
AcDbLine
 10
47.110402
 20
133.078048
 30
0.0
 11
47.110402
 21
132.078048
 31
0.0
  0
LINE
  5
284
102
{ACAD_REACTORS
330
56A
102
}
330
1F
100
AcDbEntity
  8
LC-004-002-----0
 62
     7
370
    50
100
AcDbLine
 10
-12.889598
 20
133.078048
 30
0.0
 11
-12.889598
 21
132.078048
 31
0.0
  0
LINE
  5
285
102
{ACAD_REACTORS
330
56B
102
}
330
1F
100
AcDbEntity
  8
LC-004-002-----0
 62
     7
370
    50
100
AcDbLine
 10
42.110402
 20
133.078048
 30
0.0
 11
42.110402
 21
132.078048
 31
0.0
  0
LINE
  5
286
102
{ACAD_REACTORS
330
56B
102
}
330
1F
100
AcDbEntity
  8
LC-004-002-----0
 62
     7
370
    50
100
AcDbLine
 10
42.110402
 20
133.078048
 30
0.0
 11
44.610402
 21
134.243817
 31
0.0
  0
LINE
  5
287
102
{ACAD_REACTORS
330
56B
102
}
330
1F
100
AcDbEntity
  8
LC-004-002-----0
 62
     7
370
    50
100
AcDbLine
 10
42.110402
 20
137.078048
 30
0.0
 11
33.610402
 21
137.078048
 31
0.0
  0
LINE
  5
288
102
{ACAD_REACTORS
330
56A
102
}
330
1F
100
AcDbEntity
  8
LC-004-002-----0
 62
     7
370
    50
100
AcDbLine
 10
-7.889598
 20
133.078048
 30
0.0
 11
-10.389598
 21
134.243817
 31
0.0
  0
LINE
  5
289
102
{ACAD_REACTORS
330
56A
102
}
330
1F
100
AcDbEntity
  8
LC-004-002-----0
 62
     7
370
    50
100
AcDbLine
 10
-7.889598
 20
133.078048
 30
0.0
 11
-7.889598
 21
132.078048
 31
0.0
  0
LINE
  5
28A
102
{ACAD_REACTORS
330
56A
102
}
330
1F
100
AcDbEntity
  8
LC-004-002-----0
 62
     7
370
    50
100
AcDbLine
 10
-24.389598
 20
138.078048
 30
0.0
 11
-29.389598
 21
138.078048
 31
0.0
  0
LINE
  5
28B
102
{ACAD_REACTORS
330
56A
102
}
330
1F
100
AcDbEntity
  8
LC-004-002-----0
 62
     7
370
    50
100
AcDbLine
 10
-27.889598
 20
132.078159
 30
0.0
 11
-27.889598
 21
132.078159
 31
0.0
  0
LINE
  5
28C
102
{ACAD_REACTORS
330
56A
102
}
330
1F
100
AcDbEntity
  8
LC-004-002-----0
 62
     7
370
    50
100
AcDbLine
 10
-24.889598
 20
132.078159
 30
0.0
 11
-24.889598
 21
132.078159
 31
0.0
  0
LINE
  5
28D
102
{ACAD_REACTORS
330
56A
102
}
330
1F
100
AcDbEntity
  8
LC-004-002-----0
 62
     7
370
    50
100
AcDbLine
 10
-7.889598
 20
132.078159
 30
0.0
 11
-7.889598
 21
132.078159
 31
0.0
  0
LINE
  5
28E
102
{ACAD_REACTORS
330
56A
102
}
330
1F
100
AcDbEntity
  8
LC-004-002-----0
 62
     7
370
    50
100
AcDbLine
 10
-4.889598
 20
132.078159
 30
0.0
 11
-4.889598
 21
132.078159
 31
0.0
  0
LINE
  5
28F
102
{ACAD_REACTORS
330
56C
102
}
330
1F
100
AcDbEntity
  8
LC-004-002-----0
 62
     7
370
    50
100
AcDbLine
 10
-34.889598
 20
132.078048
 30
0.0
 11
-22.389598
 21
132.078048
 31
0.0
  0
LINE
  5
290
102
{ACAD_REACTORS
330
56C
102
}
330
1F
100
AcDbEntity
  8
LC-004-002-----0
 62
     7
370
    50
100
AcDbLine
 10
-34.889598
 20
137.078048
 30
0.0
 11
-29.389598
 21
137.078048
 31
0.0
  0
LINE
  5
291
102
{ACAD_REACTORS
330
56C
102
}
330
1F
100
AcDbEntity
  8
LC-004-002-----0
 62
     7
370
    50
100
AcDbLine
 10
-35.389598
 20
132.578048
 30
0.0
 11
-35.389598
 21
136.578048
 31
0.0
  0
LINE
  5
292
102
{ACAD_REACTORS
330
56C
102
}
330
1F
100
AcDbEntity
  8
LC-004-002-----0
 62
     7
370
    50
100
AcDbLine
 10
1.610402
 20
137.078048
 30
0.0
 11
3.610402
 21
137.078048
 31
0.0
  0
ARC
  5
293
102
{ACAD_REACTORS
330
56C
102
}
330
1F
100
AcDbEntity
  8
LC-005-002-RND-0
 62
     7
370
    50
100
AcDbCircle
 10
-34.889598
 20
132.578048
 30
0.0
 40
0.5
100
AcDbArc
 50
180.0
 51
270.0
  0
ARC
  5
294
102
{ACAD_REACTORS
330
56C
102
}
330
1F
100
AcDbEntity
  8
LC-005-002-RND-0
 62
     7
370
    50
100
AcDbCircle
 10
-34.889598
 20
136.578048
 30
0.0
 40
0.5
100
AcDbArc
 50
90.0
 51
180.0
  0
LINE
  5
295
102
{ACAD_REACTORS
330
56C
102
}
330
1F
100
AcDbEntity
  8
LC-004-002-----0
 62
     7
370
    50
100
AcDbLine
 10
1.610402
 20
132.078048
 30
0.0
 11
10.610402
 21
132.078048
 31
0.0
  0
LINE
  5
296
102
{ACAD_REACTORS
330
56C
102
}
330
1F
100
AcDbEntity
  8
LC-004-002-----0
 62
     7
370
    50
100
AcDbLine
 10
10.610402
 20
137.078048
 30
0.0
 11
20.110402
 21
137.078048
 31
0.0
  0
LINE
  5
297
102
{ACAD_REACTORS
330
56C
102
}
330
1F
100
AcDbEntity
  8
LC-004-002-----0
 62
     7
370
    50
100
AcDbLine
 10
10.610402
 20
132.078048
 30
0.0
 11
33.610402
 21
132.078048
 31
0.0
  0
INSERT
  5
2A0
102
{ACAD_REACTORS
330
56A
102
}
330
1F
100
AcDbEntity
  8
LC-003-005-----0
 62
     7
370
    25
100
AcDbBlockReference
  2
*X620
 10
0.0
 20
0.0
 30
0.0
  0
INSERT
  5
2A9
102
{ACAD_REACTORS
330
56A
102
}
330
1F
100
AcDbEntity
  8
LC-003-005-----0
 62
     7
370
    25
100
AcDbBlockReference
  2
*X721
 10
0.0
 20
0.0
 30
0.0
  0
LINE
  5
2AA
102
{ACAD_REACTORS
330
56C
102
}
330
1F
100
AcDbEntity
  8
LC-004-002-----0
 62
     7
370
    50
100
AcDbLine
 10
25.110402
 20
138.078048
 30
0.0
 11
20.110402
 21
138.078048
 31
0.0
  0
LINE
  5
2AB
102
{ACAD_REACTORS
330
56C
102
}
330
1F
100
AcDbEntity
  8
LC-004-002-----0
 62
     7
370
    50
100
AcDbLine
 10
-22.389598
 20
137.078048
 30
0.0
 11
-14.364598
 21
137.078048
 31
0.0
  0
LINE
  5
2AC
102
{ACAD_REACTORS
330
56C
102
}
330
1F
100
AcDbEntity
  8
LC-004-002-----0
 62
     7
370
    50
100
AcDbLine
 10
-22.389598
 20
132.078048
 30
0.0
 11
1.610402
 21
132.078048
 31
0.0
  0
INSERT
  5
2B7
102
{ACAD_REACTORS
330
56A
102
}
330
1F
100
AcDbEntity
  8
LC-003-005-----0
 62
     7
370
    25
100
AcDbBlockReference
  2
*X822
 10
0.0
 20
0.0
 30
0.0
  0
LINE
  5
2B8
102
{ACAD_REACTORS
330
56A
102
}
330
1F
100
AcDbEntity
  8
LC-004-002-----0
 62
     7
370
    50
100
AcDbLine
 10
-29.389598
 20
138.078048
 30
0.0
 11
-29.389598
 21
137.078048
 31
0.0
  0
LINE
  5
2B9
102
{ACAD_REACTORS
330
56A
102
}
330
1F
100
AcDbEntity
  8
LC-004-002-----0
 62
     7
370
    50
100
AcDbLine
 10
-24.389598
 20
138.078048
 30
0.0
 11
-24.389598
 21
137.078048
 31
0.0
  0
LINE
  5
2BA
102
{ACAD_REACTORS
330
56A
102
}
330
1F
100
AcDbEntity
  8
LC-004-002-----0
 62
     7
370
    50
100
AcDbLine
 10
-24.389598
 20
133.078048
 30
0.0
 11
-26.889598
 21
134.243817
 31
0.0
  0
LINE
  5
2BB
102
{ACAD_REACTORS
330
56A
102
}
330
1F
100
AcDbEntity
  8
LC-004-002-----0
 62
     7
370
    50
100
AcDbLine
 10
-29.389598
 20
133.078048
 30
0.0
 11
-26.889598
 21
134.243817
 31
0.0
  0
LINE
  5
2BC
102
{ACAD_REACTORS
330
56C
102
}
330
1F
100
AcDbEntity
  8
LC-004-002-----0
 62
     7
370
    50
100
AcDbLine
 10
-14.364598
 20
137.078048
 30
0.0
 11
-12.889598
 21
137.078048
 31
0.0
  0
LINE
  5
2BD
102
{ACAD_REACTORS
330
56A
102
}
330
1F
100
AcDbEntity
  8
LC-004-002-----0
 62
     7
370
    50
100
AcDbLine
 10
-24.389598
 20
133.078048
 30
0.0
 11
-29.389598
 21
133.078048
 31
0.0
  0
LINE
  5
2BE
102
{ACAD_REACTORS
330
56A
102
}
330
1F
100
AcDbEntity
  8
LC-004-002-----0
 62
     7
370
    50
100
AcDbLine
 10
-29.389598
 20
133.078048
 30
0.0
 11
-29.389598
 21
132.078048
 31
0.0
  0
LINE
  5
2BF
102
{ACAD_REACTORS
330
56A
102
}
330
1F
100
AcDbEntity
  8
LC-004-002-----0
 62
     7
370
    50
100
AcDbLine
 10
-24.389598
 20
133.078048
 30
0.0
 11
-24.389598
 21
132.078048
 31
0.0
  0
LINE
  5
2C0
102
{ACAD_REACTORS
330
56C
102
}
330
1F
100
AcDbEntity
  8
LC-004-002-----0
 62
     7
370
    50
100
AcDbLine
 10
8.610402
 20
137.078048
 30
0.0
 11
10.610402
 21
137.078048
 31
0.0
  0
LINE
  5
2C1
102
{ACAD_REACTORS
330
56C
102
}
330
1F
100
AcDbEntity
  8
LC-004-002-----0
 62
     7
370
    50
100
AcDbLine
 10
25.110402
 20
138.078048
 30
0.0
 11
25.110402
 21
137.078048
 31
0.0
  0
LINE
  5
2C2
102
{ACAD_REACTORS
330
56C
102
}
330
1F
100
AcDbEntity
  8
LC-004-002-----0
 62
     7
370
    50
100
AcDbLine
 10
20.110402
 20
138.078048
 30
0.0
 11
20.110402
 21
137.078048
 31
0.0
  0
LINE
  5
2C3
102
{ACAD_REACTORS
330
56C
102
}
330
1F
100
AcDbEntity
  8
LC-004-002-----0
 62
     7
370
    50
100
AcDbLine
 10
20.110402
 20
133.078048
 30
0.0
 11
22.610402
 21
134.243817
 31
0.0
  0
LINE
  5
2C4
102
{ACAD_REACTORS
330
56C
102
}
330
1F
100
AcDbEntity
  8
LC-004-002-----0
 62
     7
370
    50
100
AcDbLine
 10
25.110402
 20
133.078048
 30
0.0
 11
20.110402
 21
133.078048
 31
0.0
  0
LINE
  5
2C5
102
{ACAD_REACTORS
330
56C
102
}
330
1F
100
AcDbEntity
  8
LC-004-002-----0
 62
     7
370
    50
100
AcDbLine
 10
20.110402
 20
133.078048
 30
0.0
 11
20.110402
 21
132.078048
 31
0.0
  0
LINE
  5
2C6
102
{ACAD_REACTORS
330
56C
102
}
330
1F
100
AcDbEntity
  8
LC-004-002-----0
 62
     7
370
    50
100
AcDbLine
 10
25.110402
 20
133.078048
 30
0.0
 11
25.110402
 21
132.078048
 31
0.0
  0
LINE
  5
2C7
102
{ACAD_REACTORS
330
56C
102
}
330
1F
100
AcDbEntity
  8
LC-004-002-----0
 62
     7
370
    50
100
AcDbLine
 10
25.110402
 20
133.078048
 30
0.0
 11
22.610402
 21
134.243817
 31
0.0
  0
LINE
  5
2C8
102
{ACAD_REACTORS
330
56C
102
}
330
1F
100
AcDbEntity
  8
LC-004-002-----0
 62
     7
370
    50
100
AcDbLine
 10
25.110402
 20
137.078048
 30
0.0
 11
33.610402
 21
137.078048
 31
0.0
  0
LINE
  5
2C9
102
{ACAD_REACTORS
330
56A
102
}
330
1F
100
AcDbEntity
  8
LC-004-002-----0
 62
     7
370
    50
100
AcDbLine
 10
-30.139598
 20
132.078048
 30
0.0
 11
-30.975384
 21
132.078048
 31
0.0
  0
LINE
  5
2CA
102
{ACAD_REACTORS
330
56A
102
}
330
1F
100
AcDbEntity
  8
LC-004-002-----0
 62
     7
370
    50
100
AcDbLine
 10
-20.639598
 20
132.078048
 30
0.0
 11
-19.803811
 21
132.078048
 31
0.0
  0
LINE
  5
2CB
102
{ACAD_REACTORS
330
56A
102
}
330
1F
100
AcDbEntity
  8
LC-004-002-----0
 62
     7
370
    50
100
AcDbLine
 10
98.196189
 20
132.078048
 30
0.0
 11
87.024616
 21
132.078048
 31
0.0
  0
LINE
  5
2CC
102
{ACAD_REACTORS
330
56A
102
}
330
1F
100
AcDbEntity
  8
LC-004-002-----0
 62
     7
370
    50
100
AcDbLine
 10
-20.727172
 20
132.078048
 30
0.0
 11
-20.639598
 21
132.078048
 31
0.0
  0
LINE
  5
2CD
102
{ACAD_REACTORS
330
56A
102
}
330
1F
100
AcDbEntity
  8
LC-004-002-----0
 62
     7
370
    50
100
AcDbLine
 10
-30.139598
 20
132.078048
 30
0.0
 11
-20.727172
 21
132.078048
 31
0.0
  0
LINE
  5
2CE
102
{ACAD_REACTORS
330
56A
102
}
330
1F
100
AcDbEntity
  8
LC-004-002-----0
 62
     7
370
    50
100
AcDbLine
 10
91.610402
 20
137.578048
 30
0.0
 11
80.110402
 21
137.578048
 31
0.0
  0
LINE
  5
2CF
102
{ACAD_REACTORS
330
56A
102
}
330
1F
100
AcDbEntity
  8
LC-004-002-----0
 62
     7
370
    50
100
AcDbLine
 10
75.110402
 20
137.578048
 30
0.0
 11
63.610402
 21
137.578048
 31
0.0
  0
LINE
  5
2D0
102
{ACAD_REACTORS
330
56A
102
}
330
1F
100
AcDbEntity
  8
LC-004-002-----0
 62
     7
370
    50
100
AcDbLine
 10
58.610402
 20
137.578048
 30
0.0
 11
47.110402
 21
137.578048
 31
0.0
  0
LINE
  5
2D1
102
{ACAD_REACTORS
330
56A
102
}
330
1F
100
AcDbEntity
  8
LC-004-002-----0
 62
     7
370
    50
100
AcDbLine
 10
42.110402
 20
137.578048
 30
0.0
 11
25.110402
 21
137.578048
 31
0.0
  0
LINE
  5
2D2
102
{ACAD_REACTORS
330
56A
102
}
330
1F
100
AcDbEntity
  8
LC-004-002-----0
 62
     7
370
    50
100
AcDbLine
 10
20.110402
 20
137.578048
 30
0.0
 11
8.610402
 21
137.578048
 31
0.0
  0
LINE
  5
2D3
102
{ACAD_REACTORS
330
56A
102
}
330
1F
100
AcDbEntity
  8
LC-004-002-----0
 62
     7
370
    50
100
AcDbLine
 10
3.610402
 20
137.578048
 30
0.0
 11
-7.889598
 21
137.578048
 31
0.0
  0
LINE
  5
2D4
102
{ACAD_REACTORS
330
56A
102
}
330
1F
100
AcDbEntity
  8
LC-004-002-----0
 62
     7
370
    50
100
AcDbLine
 10
-12.889598
 20
137.578048
 30
0.0
 11
-24.389598
 21
137.578048
 31
0.0
  0
LINE
  5
2D5
330
1F
100
AcDbEntity
  8
LC-001-100-D00-0
 62
     7
370
    50
100
AcDbLine
 10
-29.389598
 20
137.578048
 30
0.0
 11
-32.889592
 21
137.578048
 31
0.0
  0
LINE
  5
2D6
330
1F
100
AcDbEntity
  8
LC-001-100-D00-0
 62
     7
370
    50
100
AcDbLine
 10
-12.889598
 20
137.578048
 30
0.0
 11
-24.389598
 21
137.578048
 31
0.0
  0
LINE
  5
2D7
330
1F
100
AcDbEntity
  8
LC-001-100-D00-0
 62
     7
370
    50
100
AcDbLine
 10
3.610402
 20
137.578048
 30
0.0
 11
-7.889598
 21
137.578048
 31
0.0
  0
LINE
  5
2D8
330
1F
100
AcDbEntity
  8
LC-001-100-D00-0
 62
     7
370
    50
100
AcDbLine
 10
20.110402
 20
137.578048
 30
0.0
 11
8.610402
 21
137.578048
 31
0.0
  0
LINE
  5
2D9
330
1F
100
AcDbEntity
  8
LC-001-100-D00-0
 62
     7
370
    50
100
AcDbLine
 10
42.110402
 20
137.578048
 30
0.0
 11
25.110402
 21
137.578048
 31
0.0
  0
LINE
  5
2DA
330
1F
100
AcDbEntity
  8
LC-001-100-D00-0
 62
     7
370
    50
100
AcDbLine
 10
58.610402
 20
137.578048
 30
0.0
 11
47.110402
 21
137.578048
 31
0.0
  0
LINE
  5
2DB
330
1F
100
AcDbEntity
  8
LC-001-100-D00-0
 62
     7
370
    50
100
AcDbLine
 10
75.110402
 20
137.578048
 30
0.0
 11
63.610402
 21
137.578048
 31
0.0
  0
LINE
  5
2DC
330
1F
100
AcDbEntity
  8
LC-001-100-D00-0
 62
     7
370
    50
100
AcDbLine
 10
91.610402
 20
137.578048
 30
0.0
 11
80.110402
 21
137.578048
 31
0.0
  0
CIRCLE
  5
2DD
330
1F
100
AcDbEntity
  8
LC-001-100-D00-0
 62
     7
370
    50
100
AcDbCircle
 10
249.560411
 20
51.859241
 30
0.0
 40
2.500000000000114
  0
CIRCLE
  5
2DE
330
1F
100
AcDbEntity
  8
LC-001-100-D00-0
 62
     7
370
    50
100
AcDbCircle
 10
264.710411
 20
51.859241
 30
0.0
 40
2.5
  0
CIRCLE
  5
2DF
330
1F
100
AcDbEntity
  8
LC-001-100-D00-0
 62
     7
370
    50
100
AcDbCircle
 10
279.860411
 20
51.859241
 30
0.0
 40
2.5
  0
CIRCLE
  5
2E0
330
1F
100
AcDbEntity
  8
LC-001-100-D00-0
 62
     7
370
    50
100
AcDbCircle
 10
295.010411
 20
51.859241
 30
0.0
 40
2.5
  0
CIRCLE
  5
2E1
330
1F
100
AcDbEntity
  8
LC-001-100-D00-0
 62
     7
370
    50
100
AcDbCircle
 10
310.160411
 20
51.859241
 30
0.0
 40
2.5
  0
CIRCLE
  5
2E2
330
1F
100
AcDbEntity
  8
LC-001-100-D00-0
 62
     7
370
    50
100
AcDbCircle
 10
325.310411
 20
51.859241
 30
0.0
 40
2.5
  0
CIRCLE
  5
2E3
330
1F
100
AcDbEntity
  8
LC-001-100-D00-0
 62
     7
370
    50
100
AcDbCircle
 10
234.410411
 20
51.859241
 30
0.0
 40
2.500000000000114
  0
CIRCLE
  5
2E4
330
1F
100
AcDbEntity
  8
LC-001-100-D00-0
 62
     7
370
    50
100
AcDbCircle
 10
340.360411
 20
66.909241
 30
0.0
 40
2.5
  0
CIRCLE
  5
2E5
330
1F
100
AcDbEntity
  8
LC-001-100-D00-0
 62
     7
370
    50
100
AcDbCircle
 10
219.360411
 20
66.909241
 30
0.0
 40
2.5
  0
CIRCLE
  5
2E6
330
1F
100
AcDbEntity
  8
LC-001-100-D00-0
 62
     7
370
    50
100
AcDbCircle
 10
249.560411
 20
68.359241
 30
0.0
 40
2.5
  0
CIRCLE
  5
2E7
330
1F
100
AcDbEntity
  8
LC-001-100-D00-0
 62
     7
370
    50
100
AcDbCircle
 10
310.160411
 20
68.359241
 30
0.0
 40
2.5
  0
CIRCLE
  5
2E8
330
1F
100
AcDbEntity
  8
LC-001-100-D00-0
 62
     7
370
    50
100
AcDbCircle
 10
295.010411
 20
68.359241
 30
0.0
 40
2.5
  0
CIRCLE
  5
2E9
330
1F
100
AcDbEntity
  8
LC-001-100-D00-0
 62
     7
370
    50
100
AcDbCircle
 10
279.860411
 20
68.359241
 30
0.0
 40
2.5
  0
CIRCLE
  5
2EA
330
1F
100
AcDbEntity
  8
LC-001-100-D00-0
 62
     7
370
    50
100
AcDbCircle
 10
264.710411
 20
68.359241
 30
0.0
 40
2.5
  0
CIRCLE
  5
2EB
330
1F
100
AcDbEntity
  8
LC-001-100-D00-0
 62
     7
370
    50
100
AcDbCircle
 10
219.360411
 20
82.059241
 30
0.0
 40
2.5
  0
CIRCLE
  5
2EC
330
1F
100
AcDbEntity
  8
LC-001-100-D00-0
 62
     7
370
    50
100
AcDbCircle
 10
340.360411
 20
82.059241
 30
0.0
 40
2.5
  0
CIRCLE
  5
2ED
330
1F
100
AcDbEntity
  8
LC-001-100-D00-0
 62
     7
370
    50
100
AcDbCircle
 10
235.860411
 20
82.059241
 30
0.0
 40
2.5
  0
CIRCLE
  5
2EE
330
1F
100
AcDbEntity
  8
LC-001-100-D00-0
 62
     7
370
    50
100
AcDbCircle
 10
323.860411
 20
82.059241
 30
0.0
 40
2.5
  0
CIRCLE
  5
2EF
330
1F
100
AcDbEntity
  8
LC-001-100-D00-0
 62
     7
370
    50
100
AcDbCircle
 10
295.010411
 20
84.859241
 30
0.0
 40
2.499999999999886
  0
CIRCLE
  5
2F0
330
1F
100
AcDbEntity
  8
LC-001-100-D00-0
 62
     7
370
    50
100
AcDbCircle
 10
279.860411
 20
84.859241
 30
0.0
 40
2.5
  0
CIRCLE
  5
2F1
330
1F
100
AcDbEntity
  8
LC-001-100-D00-0
 62
     7
370
    50
100
AcDbCircle
 10
264.710411
 20
84.859241
 30
0.0
 40
2.5
  0
CIRCLE
  5
2F2
330
1F
100
AcDbEntity
  8
LC-001-100-D00-0
 62
     7
370
    50
100
AcDbCircle
 10
252.360411
 20
97.209241
 30
0.0
 40
2.5
  0
CIRCLE
  5
2F3
330
1F
100
AcDbEntity
  8
LC-001-100-D00-0
 62
     7
370
    50
100
AcDbCircle
 10
340.360411
 20
97.209241
 30
0.0
 40
2.5
  0
CIRCLE
  5
2F4
330
1F
100
AcDbEntity
  8
LC-001-100-D00-0
 62
     7
370
    50
100
AcDbCircle
 10
219.360411
 20
97.209241
 30
0.0
 40
2.5
  0
CIRCLE
  5
2F5
330
1F
100
AcDbEntity
  8
LC-001-100-D00-0
 62
     7
370
    50
100
AcDbCircle
 10
323.860411
 20
97.209241
 30
0.0
 40
2.5
  0
CIRCLE
  5
2F6
330
1F
100
AcDbEntity
  8
LC-001-100-D00-0
 62
     7
370
    50
100
AcDbCircle
 10
235.860411
 20
97.209241
 30
0.0
 40
2.5
  0
CIRCLE
  5
2F7
330
1F
100
AcDbEntity
  8
LC-001-100-D00-0
 62
     7
370
    50
100
AcDbCircle
 10
307.360411
 20
97.209241
 30
0.0
 40
2.5
  0
CIRCLE
  5
2F8
330
1F
100
AcDbEntity
  8
LC-001-100-D00-0
 62
     7
370
    50
100
AcDbCircle
 10
279.860411
 20
101.359241
 30
0.0
 40
2.5
  0
CIRCLE
  5
2F9
330
1F
100
AcDbEntity
  8
LC-001-100-D00-0
 62
     7
370
    50
100
AcDbCircle
 10
219.360411
 20
112.359241
 30
0.0
 40
2.5
  0
CIRCLE
  5
2FA
330
1F
100
AcDbEntity
  8
LC-001-100-D00-0
 62
     7
370
    50
100
AcDbCircle
 10
307.360411
 20
112.359241
 30
0.0
 40
2.5
  0
CIRCLE
  5
2FB
330
1F
100
AcDbEntity
  8
LC-001-100-D00-0
 62
     7
370
    50
100
AcDbCircle
 10
323.860411
 20
112.359241
 30
0.0
 40
2.5
  0
CIRCLE
  5
2FC
330
1F
100
AcDbEntity
  8
LC-001-100-D00-0
 62
     7
370
    50
100
AcDbCircle
 10
235.860411
 20
112.359241
 30
0.0
 40
2.5
  0
CIRCLE
  5
2FD
330
1F
100
AcDbEntity
  8
LC-001-100-D00-0
 62
     7
370
    50
100
AcDbCircle
 10
290.860411
 20
112.359241
 30
0.0
 40
2.5
  0
CIRCLE
  5
2FE
330
1F
100
AcDbEntity
  8
LC-001-100-D00-0
 62
     7
370
    50
100
AcDbCircle
 10
252.360411
 20
112.359241
 30
0.0
 40
2.5
  0
CIRCLE
  5
2FF
330
1F
100
AcDbEntity
  8
LC-001-100-D00-0
 62
     7
370
    50
100
AcDbCircle
 10
268.860411
 20
112.359241
 30
0.0
 40
2.5
  0
CIRCLE
  5
300
330
1F
100
AcDbEntity
  8
LC-001-100-D00-0
 62
     7
370
    50
100
AcDbCircle
 10
340.360411
 20
112.359241
 30
0.0
 40
2.5
  0
CIRCLE
  5
301
330
1F
100
AcDbEntity
  8
LC-001-100-D00-0
 62
     7
370
    50
100
AcDbCircle
 10
279.860411
 20
123.359241
 30
0.0
 40
2.5
  0
CIRCLE
  5
302
330
1F
100
AcDbEntity
  8
LC-001-100-D00-0
 62
     7
370
    50
100
AcDbCircle
 10
235.860411
 20
127.509241
 30
0.0
 40
2.5
  0
CIRCLE
  5
303
330
1F
100
AcDbEntity
  8
LC-001-100-D00-0
 62
     7
370
    50
100
AcDbCircle
 10
307.360411
 20
127.509241
 30
0.0
 40
2.5
  0
CIRCLE
  5
304
330
1F
100
AcDbEntity
  8
LC-001-100-D00-0
 62
     7
370
    50
100
AcDbCircle
 10
219.360411
 20
127.509241
 30
0.0
 40
2.5
  0
CIRCLE
  5
305
330
1F
100
AcDbEntity
  8
LC-001-100-D00-0
 62
     7
370
    50
100
AcDbCircle
 10
323.860411
 20
127.509241
 30
0.0
 40
2.5
  0
CIRCLE
  5
306
330
1F
100
AcDbEntity
  8
LC-001-100-D00-0
 62
     7
370
    50
100
AcDbCircle
 10
340.360411
 20
127.509241
 30
0.0
 40
2.5
  0
CIRCLE
  5
307
330
1F
100
AcDbEntity
  8
LC-001-100-D00-0
 62
     7
370
    50
100
AcDbCircle
 10
252.360411
 20
127.509241
 30
0.0
 40
2.5
  0
CIRCLE
  5
308
330
1F
100
AcDbEntity
  8
LC-001-100-D00-0
 62
     7
370
    50
100
AcDbCircle
 10
279.860411
 20
139.859241
 30
0.0
 40
2.5
  0
CIRCLE
  5
309
330
1F
100
AcDbEntity
  8
LC-001-100-D00-0
 62
     7
370
    50
100
AcDbCircle
 10
295.010411
 20
139.859241
 30
0.0
 40
2.5
  0
CIRCLE
  5
30A
330
1F
100
AcDbEntity
  8
LC-001-100-D00-0
 62
     7
370
    50
100
AcDbCircle
 10
264.710411
 20
139.859241
 30
0.0
 40
2.5
  0
CIRCLE
  5
30B
330
1F
100
AcDbEntity
  8
LC-001-100-D00-0
 62
     7
370
    50
100
AcDbCircle
 10
235.860411
 20
142.659241
 30
0.0
 40
2.5
  0
CIRCLE
  5
30C
330
1F
100
AcDbEntity
  8
LC-001-100-D00-0
 62
     7
370
    50
100
AcDbCircle
 10
323.860411
 20
142.659241
 30
0.0
 40
2.5
  0
CIRCLE
  5
30D
330
1F
100
AcDbEntity
  8
LC-001-100-D00-0
 62
     7
370
    50
100
AcDbCircle
 10
340.360411
 20
142.659241
 30
0.0
 40
2.5
  0
CIRCLE
  5
30E
330
1F
100
AcDbEntity
  8
LC-001-100-D00-0
 62
     7
370
    50
100
AcDbCircle
 10
219.360411
 20
142.659241
 30
0.0
 40
2.5
  0
CIRCLE
  5
30F
330
1F
100
AcDbEntity
  8
LC-001-100-D00-0
 62
     7
370
    50
100
AcDbCircle
 10
279.860411
 20
156.359241
 30
0.0
 40
2.5
  0
CIRCLE
  5
310
330
1F
100
AcDbEntity
  8
LC-001-100-D00-0
 62
     7
370
    50
100
AcDbCircle
 10
249.560411
 20
156.359241
 30
0.0
 40
2.5
  0
CIRCLE
  5
311
330
1F
100
AcDbEntity
  8
LC-001-100-D00-0
 62
     7
370
    50
100
AcDbCircle
 10
295.010411
 20
156.359241
 30
0.0
 40
2.5
  0
CIRCLE
  5
312
330
1F
100
AcDbEntity
  8
LC-001-100-D00-0
 62
     7
370
    50
100
AcDbCircle
 10
264.710411
 20
156.359241
 30
0.0
 40
2.5
  0
CIRCLE
  5
313
330
1F
100
AcDbEntity
  8
LC-001-100-D00-0
 62
     7
370
    50
100
AcDbCircle
 10
310.160411
 20
156.359241
 30
0.0
 40
2.5
  0
CIRCLE
  5
314
330
1F
100
AcDbEntity
  8
LC-001-100-D00-0
 62
     7
370
    50
100
AcDbCircle
 10
219.360411
 20
157.809241
 30
0.0
 40
2.5
  0
CIRCLE
  5
315
330
1F
100
AcDbEntity
  8
LC-001-100-D00-0
 62
     7
370
    50
100
AcDbCircle
 10
340.360411
 20
157.809241
 30
0.0
 40
2.5
  0
CIRCLE
  5
316
330
1F
100
AcDbEntity
  8
LC-001-100-D00-0
 62
     7
370
    50
100
AcDbCircle
 10
325.310411
 20
172.859241
 30
0.0
 40
2.5
  0
CIRCLE
  5
317
330
1F
100
AcDbEntity
  8
LC-001-100-D00-0
 62
     7
370
    50
100
AcDbCircle
 10
249.560411
 20
172.859241
 30
0.0
 40
2.5
  0
CIRCLE
  5
318
330
1F
100
AcDbEntity
  8
LC-001-100-D00-0
 62
     7
370
    50
100
AcDbCircle
 10
295.010411
 20
172.859241
 30
0.0
 40
2.5
  0
CIRCLE
  5
319
330
1F
100
AcDbEntity
  8
LC-001-100-D00-0
 62
     7
370
    50
100
AcDbCircle
 10
279.860411
 20
172.859241
 30
0.0
 40
2.5
  0
CIRCLE
  5
31A
330
1F
100
AcDbEntity
  8
LC-001-100-D00-0
 62
     7
370
    50
100
AcDbCircle
 10
264.710411
 20
172.859241
 30
0.0
 40
2.5
  0
CIRCLE
  5
31B
330
1F
100
AcDbEntity
  8
LC-001-100-D00-0
 62
     7
370
    50
100
AcDbCircle
 10
234.410411
 20
172.859241
 30
0.0
 40
2.5
  0
CIRCLE
  5
31C
330
1F
100
AcDbEntity
  8
LC-001-100-D00-0
 62
     7
370
    50
100
AcDbCircle
 10
310.160411
 20
172.859241
 30
0.0
 40
2.5
  0
LINE
  5
31D
330
1F
100
AcDbEntity
  8
LC-001-100-D00-0
 62
     7
370
    50
100
AcDbLine
 10
287.571803
 20
101.112383
 30
0.0
 11
288.494097
 21
100.190089
 31
0.0
  0
LINE
  5
31E
330
1F
100
AcDbEntity
  8
LC-001-100-D00-0
 62
     7
370
    50
100
AcDbLine
 10
289.513987
 20
101.209981
 30
0.0
 11
288.494097
 21
100.190089
 31
0.0
  0
ARC
  5
31F
330
1F
100
AcDbEntity
  8
LC-001-100-D00-0
 62
     7
370
    50
100
AcDbCircle
 10
288.806894
 20
101.917074
 30
0.0
 40
0.9999805639020926
100
AcDbArc
 50
315.0
 51
356.229305
  0
ARC
  5
320
330
1F
100
AcDbEntity
  8
LC-001-100-D00-0
 62
     7
370
    50
100
AcDbCircle
 10
289.738948
 20
102.849127
 30
0.0
 40
0.9999806435667145
100
AcDbArc
 50
273.770684
 51
315.0
  0
LINE
  5
321
330
1F
100
AcDbEntity
  8
LC-001-100-D00-0
 62
     7
370
    50
100
AcDbLine
 10
291.322469
 20
103.018462
 30
0.0
 11
290.446041
 21
102.142034
 31
0.0
  0
ARC
  5
322
330
1F
100
AcDbEntity
  8
LC-001-100-D00-0
 62
     7
370
    50
100
AcDbCircle
 10
290.615376
 20
103.725555
 30
0.0
 40
0.9999800364060928
100
AcDbArc
 50
315.0
 51
45.0
  0
LINE
  5
323
330
1F
100
AcDbEntity
  8
LC-001-100-D00-0
 62
     7
370
    50
100
AcDbLine
 10
289.262682
 20
106.492434
 30
0.0
 11
291.322469
 21
104.432647
 31
0.0
  0
LINE
  5
324
330
1F
100
AcDbEntity
  8
LC-001-100-D00-0
 62
     7
370
    50
100
AcDbLine
 10
289.262682
 20
106.492434
 30
0.0
 11
285.727217
 21
102.956969
 31
0.0
  0
LINE
  5
325
330
1F
100
AcDbEntity
  8
LC-001-100-D00-0
 62
     7
370
    50
100
AcDbLine
 10
285.727217
 20
102.956969
 30
0.0
 11
286.64951
 21
102.034676
 31
0.0
  0
LINE
  5
326
330
1F
100
AcDbEntity
  8
LC-001-100-D00-0
 62
     7
370
    50
100
AcDbLine
 10
287.571803
 20
102.95697
 30
0.0
 11
286.64951
 21
102.034676
 31
0.0
  0
LINE
  5
327
330
1F
100
AcDbEntity
  8
LC-001-100-D00-0
 62
     7
370
    50
100
AcDbLine
 10
287.571803
 20
102.95697
 30
0.0
 11
288.340381
 21
102.188392
 31
0.0
  0
ARC
  5
328
330
1F
100
AcDbEntity
  8
LC-001-100-D00-0
 62
     7
370
    50
100
AcDbCircle
 10
288.186665
 20
102.034676
 30
0.0
 40
0.2173870000000201
100
AcDbArc
 50
315.0
 51
45.0
  0
LINE
  5
329
330
1F
100
AcDbEntity
  8
LC-001-100-D00-0
 62
     7
370
    50
100
AcDbLine
 10
288.340381
 20
101.880961
 30
0.0
 11
287.571803
 21
101.112383
 31
0.0
  0
LINE
  5
32A
330
1F
100
AcDbEntity
  8
LC-001-100-D00-0
 62
     7
370
    50
100
AcDbLine
 10
281.576897
 20
107.10729
 30
0.0
 11
282.499191
 21
106.184997
 31
0.0
  0
LINE
  5
32B
330
1F
100
AcDbEntity
  8
LC-001-100-D00-0
 62
     7
370
    50
100
AcDbLine
 10
285.327563
 20
109.013368
 30
0.0
 11
282.499191
 21
106.184997
 31
0.0
  0
ARC
  5
32C
330
1F
100
AcDbEntity
  8
LC-001-100-D00-0
 62
     7
370
    50
100
AcDbCircle
 10
284.620469
 20
109.720461
 30
0.0
 40
0.9999808708315842
100
AcDbArc
 50
315.0
 51
45.0
  0
LINE
  5
32D
330
1F
100
AcDbEntity
  8
LC-001-100-D00-0
 62
     7
370
    50
100
AcDbLine
 10
284.454358
 20
111.300759
 30
0.0
 11
285.327563
 21
110.427555
 31
0.0
  0
ARC
  5
32E
330
1F
100
AcDbEntity
  8
LC-001-100-D00-0
 62
     7
370
    50
100
AcDbCircle
 10
283.747265
 20
110.593666
 30
0.0
 40
0.9999807021919777
100
AcDbArc
 50
45.0
 51
89.415289
  0
ARC
  5
32F
330
1F
100
AcDbEntity
  8
LC-001-100-D00-0
 62
     7
370
    50
100
AcDbCircle
 10
282.757541
 20
111.58339
 30
0.0
 40
0.9999808923477981
100
AcDbArc
 50
0.5847
 51
45.0
  0
LINE
  5
330
330
1F
100
AcDbEntity
  8
LC-001-100-D00-0
 62
     7
370
    50
100
AcDbLine
 10
282.591429
 20
113.163688
 30
0.0
 11
283.464634
 21
112.290484
 31
0.0
  0
ARC
  5
331
330
1F
100
AcDbEntity
  8
LC-001-100-D00-0
 62
     7
370
    50
100
AcDbCircle
 10
281.884336
 20
112.456595
 30
0.0
 40
0.9999805639045244
100
AcDbArc
 50
45.0
 51
135.0
  0
LINE
  5
332
330
1F
100
AcDbEntity
  8
LC-001-100-D00-0
 62
     7
370
    50
100
AcDbLine
 10
281.177243
 20
113.163688
 30
0.0
 11
278.348871
 21
110.335316
 31
0.0
  0
LINE
  5
333
330
1F
100
AcDbEntity
  8
LC-001-100-D00-0
 62
     7
370
    50
100
AcDbLine
 10
278.348871
 20
110.335316
 30
0.0
 11
279.271164
 21
109.413023
 31
0.0
  0
LINE
  5
334
330
1F
100
AcDbEntity
  8
LC-001-100-D00-0
 62
     7
370
    50
100
AcDbLine
 10
281.781859
 20
111.923718
 30
0.0
 11
279.271164
 21
109.413023
 31
0.0
  0
ARC
  5
335
330
1F
100
AcDbEntity
  8
LC-001-100-D00-0
 62
     7
370
    50
100
AcDbCircle
 10
281.884336
 20
111.821241
 30
0.0
 40
0.1449244091523977
100
AcDbArc
 50
45.0
 51
135.0
  0
LINE
  5
336
330
1F
100
AcDbEntity
  8
LC-001-100-D00-0
 62
     7
370
    50
100
AcDbLine
 10
281.986813
 20
111.923718
 30
0.0
 11
282.44796
 21
111.462571
 31
0.0
  0
ARC
  5
337
330
1F
100
AcDbEntity
  8
LC-001-100-D00-0
 62
     7
370
    50
100
AcDbCircle
 10
282.345483
 20
111.360094
 30
0.0
 40
0.1449244091523977
100
AcDbArc
 50
315.0
 51
45.0
  0
LINE
  5
338
330
1F
100
AcDbEntity
  8
LC-001-100-D00-0
 62
     7
370
    50
100
AcDbLine
 10
282.44796
 20
111.257617
 30
0.0
 11
279.937264
 21
108.746923
 31
0.0
  0
LINE
  5
339
330
1F
100
AcDbEntity
  8
LC-001-100-D00-0
 62
     7
370
    50
100
AcDbLine
 10
279.937264
 20
108.746923
 30
0.0
 11
280.910796
 21
107.773391
 31
0.0
  0
LINE
  5
33A
330
1F
100
AcDbEntity
  8
LC-001-100-D00-0
 62
     7
370
    50
100
AcDbLine
 10
283.421491
 20
110.284086
 30
0.0
 11
280.910796
 21
107.773391
 31
0.0
  0
ARC
  5
33B
330
1F
100
AcDbEntity
  8
LC-001-100-D00-0
 62
     7
370
    50
100
AcDbCircle
 10
283.523968
 20
110.181609
 30
0.0
 40
0.1449244999999471
100
AcDbArc
 50
45.0
 51
135.0
  0
LINE
  5
33C
330
1F
100
AcDbEntity
  8
LC-001-100-D00-0
 62
     7
370
    50
100
AcDbLine
 10
283.626445
 20
110.284086
 30
0.0
 11
284.087592
 21
109.822939
 31
0.0
  0
ARC
  5
33D
330
1F
100
AcDbEntity
  8
LC-001-100-D00-0
 62
     7
370
    50
100
AcDbCircle
 10
283.985115
 20
109.720462
 30
0.0
 40
0.1449240000000696
100
AcDbArc
 50
315.0
 51
45.0
  0
LINE
  5
33E
330
1F
100
AcDbEntity
  8
LC-001-100-D00-0
 62
     7
370
    50
100
AcDbLine
 10
284.087592
 20
109.617986
 30
0.0
 11
281.576897
 21
107.10729
 31
0.0
  0
LINE
  5
33F
330
1F
100
AcDbEntity
  8
LC-001-100-D00-0
 62
     7
370
    50
100
AcDbLine
 10
273.942359
 20
114.741828
 30
0.0
 11
275.991899
 21
112.692288
 31
0.0
  0
LINE
  5
340
330
1F
100
AcDbEntity
  8
LC-001-100-D00-0
 62
     7
370
    50
100
AcDbLine
 10
276.914193
 20
113.614581
 30
0.0
 11
275.991899
 21
112.692288
 31
0.0
  0
LINE
  5
341
330
1F
100
AcDbEntity
  8
LC-001-100-D00-0
 62
     7
370
    50
100
AcDbLine
 10
275.786945
 20
114.741829
 30
0.0
 11
276.914193
 21
113.614581
 31
0.0
  0
LINE
  5
342
330
1F
100
AcDbEntity
  8
LC-001-100-D00-0
 62
     7
370
    50
100
AcDbLine
 10
278.400117
 20
117.355001
 30
0.0
 11
275.786945
 21
114.741829
 31
0.0
  0
LINE
  5
343
330
1F
100
AcDbEntity
  8
LC-001-100-D00-0
 62
     7
370
    50
100
AcDbLine
 10
277.477824
 20
118.277294
 30
0.0
 11
278.400117
 21
117.355001
 31
0.0
  0
LINE
  5
344
330
1F
100
AcDbEntity
  8
LC-001-100-D00-0
 62
     7
370
    50
100
AcDbLine
 10
277.477824
 20
118.277294
 30
0.0
 11
273.942359
 21
114.741828
 31
0.0
  0
LINE
  5
345
330
1F
100
AcDbEntity
  8
LC-001-100-D00-0
 62
     7
370
    50
100
AcDbLine
 10
271.226724
 20
124.528393
 30
0.0
 11
273.044964
 21
122.710154
 31
0.0
  0
LINE
  5
346
330
1F
100
AcDbEntity
  8
LC-001-100-D00-0
 62
     7
370
    50
100
AcDbLine
 10
271.226724
 20
124.528393
 30
0.0
 11
267.691259
 21
120.992927
 31
0.0
  0
LINE
  5
347
330
1F
100
AcDbEntity
  8
LC-001-100-D00-0
 62
     7
370
    50
100
AcDbLine
 10
267.691259
 20
120.992927
 30
0.0
 11
269.509499
 21
119.174689
 31
0.0
  0
ARC
  5
348
330
1F
100
AcDbEntity
  8
LC-001-100-D00-0
 62
     7
370
    50
100
AcDbCircle
 10
270.216592
 20
119.881782
 30
0.0
 40
0.9999807819521319
100
AcDbArc
 50
225.0
 51
315.0
  0
LINE
  5
349
330
1F
100
AcDbEntity
  8
LC-001-100-D00-0
 62
     7
370
    50
100
AcDbLine
 10
273.044964
 20
121.295967
 30
0.0
 11
270.923685
 21
119.174689
 31
0.0
  0
ARC
  5
34A
330
1F
100
AcDbEntity
  8
LC-001-100-D00-0
 62
     7
370
    50
100
AcDbCircle
 10
272.33787
 20
122.003061
 30
0.0
 40
0.9999806133126259
100
AcDbArc
 50
315.0
 51
45.0
  0
CIRCLE
  5
34B
330
1F
100
AcDbEntity
  8
LC-001-100-D00-0
 62
     7
370
    50
100
AcDbCircle
 10
220.860411
 20
171.359241
 30
0.0
 40
5.700000000000046
  0
LINE
  5
34C
330
1F
100
AcDbEntity
  8
LC-001-100-D00-0
 62
     7
370
    50
100
AcDbLine
 10
242.61041
 20
56.359239
 30
0.0
 11
317.110412
 21
56.359239
 31
0.0
  0
ARC
  5
34D
330
1F
100
AcDbEntity
  8
LC-001-100-D00-0
 62
     7
370
    50
100
AcDbCircle
 10
317.110411
 20
60.109241
 30
0.0
 40
3.75
100
AcDbArc
 50
270.0
 51
90.0
  0
LINE
  5
34E
330
1F
100
AcDbEntity
  8
LC-001-100-D00-0
 62
     7
370
    50
100
AcDbLine
 10
317.110412
 20
63.85924
 30
0.0
 11
242.61041
 21
63.85924
 31
0.0
  0
ARC
  5
34F
330
1F
100
AcDbEntity
  8
LC-001-100-D00-0
 62
     7
370
    50
100
AcDbCircle
 10
242.610411
 20
60.109241
 30
0.0
 40
3.75
100
AcDbArc
 50
90.0
 51
270.0
  0
LINE
  5
350
330
1F
100
AcDbEntity
  8
LC-001-100-D00-0
 62
     7
370
    50
100
AcDbLine
 10
223.860409
 20
149.609242
 30
0.0
 11
223.860409
 21
75.10924
 31
0.0
  0
ARC
  5
351
330
1F
100
AcDbEntity
  8
LC-001-100-D00-0
 62
     7
370
    50
100
AcDbCircle
 10
227.610411
 20
75.109241
 30
0.0
 40
3.75
100
AcDbArc
 50
180.0
 51
0.0
  0
LINE
  5
352
330
1F
100
AcDbEntity
  8
LC-001-100-D00-0
 62
     7
370
    50
100
AcDbLine
 10
231.360409
 20
75.10924
 30
0.0
 11
231.360409
 21
149.609242
 31
0.0
  0
ARC
  5
353
330
1F
100
AcDbEntity
  8
LC-001-100-D00-0
 62
     7
370
    50
100
AcDbCircle
 10
227.610411
 20
149.609241
 30
0.0
 40
3.75
100
AcDbArc
 50
0.0
 51
180.0
  0
LINE
  5
354
330
1F
100
AcDbEntity
  8
LC-001-100-D00-0
 62
     7
370
    50
100
AcDbLine
 10
317.110412
 20
168.359243
 30
0.0
 11
242.61041
 21
168.359243
 31
0.0
  0
ARC
  5
355
330
1F
100
AcDbEntity
  8
LC-001-100-D00-0
 62
     7
370
    50
100
AcDbCircle
 10
242.610411
 20
164.609241
 30
0.0
 40
3.75
100
AcDbArc
 50
90.0
 51
270.0
  0
LINE
  5
356
330
1F
100
AcDbEntity
  8
LC-001-100-D00-0
 62
     7
370
    50
100
AcDbLine
 10
242.61041
 20
160.859242
 30
0.0
 11
317.110412
 21
160.859242
 31
0.0
  0
ARC
  5
357
330
1F
100
AcDbEntity
  8
LC-001-100-D00-0
 62
     7
370
    50
100
AcDbCircle
 10
317.110411
 20
164.609241
 30
0.0
 40
3.75
100
AcDbArc
 50
270.0
 51
90.0
  0
LINE
  5
358
330
1F
100
AcDbEntity
  8
LC-001-100-D00-0
 62
     7
370
    50
100
AcDbLine
 10
258.71041
 20
72.859239
 30
0.0
 11
301.010411
 21
72.859239
 31
0.0
  0
ARC
  5
359
330
1F
100
AcDbEntity
  8
LC-001-100-D00-0
 62
     7
370
    50
100
AcDbCircle
 10
301.010411
 20
76.609241
 30
0.0
 40
3.75
100
AcDbArc
 50
270.0
 51
90.0
  0
LINE
  5
35A
330
1F
100
AcDbEntity
  8
LC-001-100-D00-0
 62
     7
370
    50
100
AcDbLine
 10
301.010411
 20
80.359239
 30
0.0
 11
258.71041
 21
80.359239
 31
0.0
  0
ARC
  5
35B
330
1F
100
AcDbEntity
  8
LC-001-100-D00-0
 62
     7
370
    50
100
AcDbCircle
 10
258.710411
 20
76.609241
 30
0.0
 40
3.75
100
AcDbArc
 50
90.0
 51
270.0
  0
LINE
  5
35C
330
1F
100
AcDbEntity
  8
LC-001-100-D00-0
 62
     7
370
    50
100
AcDbLine
 10
240.360409
 20
133.509241
 30
0.0
 11
240.360409
 21
91.209241
 31
0.0
  0
ARC
  5
35D
330
1F
100
AcDbEntity
  8
LC-001-100-D00-0
 62
     7
370
    50
100
AcDbCircle
 10
244.110411
 20
91.209241
 30
0.0
 40
3.75
100
AcDbArc
 50
180.0
 51
0.0
  0
LINE
  5
35E
330
1F
100
AcDbEntity
  8
LC-001-100-D00-0
 62
     7
370
    50
100
AcDbLine
 10
247.860409
 20
91.209241
 30
0.0
 11
247.860409
 21
133.509241
 31
0.0
  0
ARC
  5
35F
330
1F
100
AcDbEntity
  8
LC-001-100-D00-0
 62
     7
370
    50
100
AcDbCircle
 10
244.110411
 20
133.509241
 30
0.0
 40
3.75
100
AcDbArc
 50
0.0
 51
180.0
  0
LINE
  5
360
330
1F
100
AcDbEntity
  8
LC-001-100-D00-0
 62
     7
370
    50
100
AcDbLine
 10
301.010411
 20
151.859243
 30
0.0
 11
258.71041
 21
151.859243
 31
0.0
  0
ARC
  5
361
330
1F
100
AcDbEntity
  8
LC-001-100-D00-0
 62
     7
370
    50
100
AcDbCircle
 10
258.710411
 20
148.109241
 30
0.0
 40
3.75
100
AcDbArc
 50
90.0
 51
270.0
  0
LINE
  5
362
330
1F
100
AcDbEntity
  8
LC-001-100-D00-0
 62
     7
370
    50
100
AcDbLine
 10
258.71041
 20
144.359243
 30
0.0
 11
301.010411
 21
144.359243
 31
0.0
  0
ARC
  5
363
330
1F
100
AcDbEntity
  8
LC-001-100-D00-0
 62
     7
370
    50
100
AcDbCircle
 10
301.010411
 20
148.109241
 30
0.0
 40
3.75
100
AcDbArc
 50
270.0
 51
90.0
  0
LINE
  5
364
330
1F
100
AcDbEntity
  8
LC-001-100-D00-0
 62
     7
370
    50
100
AcDbLine
 10
274.810411
 20
89.359241
 30
0.0
 11
284.91041
 21
89.359241
 31
0.0
  0
ARC
  5
365
330
1F
100
AcDbEntity
  8
LC-001-100-D00-0
 62
     7
370
    50
100
AcDbCircle
 10
284.910411
 20
93.109241
 30
0.0
 40
3.75
100
AcDbArc
 50
270.0
 51
90.0
  0
LINE
  5
366
330
1F
100
AcDbEntity
  8
LC-001-100-D00-0
 62
     7
370
    50
100
AcDbLine
 10
284.91041
 20
96.859241
 30
0.0
 11
274.810411
 21
96.859241
 31
0.0
  0
ARC
  5
367
330
1F
100
AcDbEntity
  8
LC-001-100-D00-0
 62
     7
370
    50
100
AcDbCircle
 10
274.810411
 20
93.109241
 30
0.0
 40
3.75
100
AcDbArc
 50
90.0
 51
270.0
  0
LINE
  5
368
330
1F
100
AcDbEntity
  8
LC-001-100-D00-0
 62
     7
370
    50
100
AcDbLine
 10
256.860411
 20
117.409241
 30
0.0
 11
256.860411
 21
107.309241
 31
0.0
  0
ARC
  5
369
330
1F
100
AcDbEntity
  8
LC-001-100-D00-0
 62
     7
370
    50
100
AcDbCircle
 10
260.610411
 20
107.309241
 30
0.0
 40
3.75
100
AcDbArc
 50
180.0
 51
0.0
  0
LINE
  5
36A
330
1F
100
AcDbEntity
  8
LC-001-100-D00-0
 62
     7
370
    50
100
AcDbLine
 10
264.360411
 20
107.309241
 30
0.0
 11
264.360411
 21
117.409241
 31
0.0
  0
ARC
  5
36B
330
1F
100
AcDbEntity
  8
LC-001-100-D00-0
 62
     7
370
    50
100
AcDbCircle
 10
260.610411
 20
117.409241
 30
0.0
 40
3.75
100
AcDbArc
 50
0.0
 51
180.0
  0
LINE
  5
36C
330
1F
100
AcDbEntity
  8
LC-001-100-D00-0
 62
     7
370
    50
100
AcDbLine
 10
284.91041
 20
135.359241
 30
0.0
 11
274.810411
 21
135.359241
 31
0.0
  0
ARC
  5
36D
330
1F
100
AcDbEntity
  8
LC-001-100-D00-0
 62
     7
370
    50
100
AcDbCircle
 10
274.810411
 20
131.609241
 30
0.0
 40
3.750000000000028
100
AcDbArc
 50
90.0
 51
270.0
  0
LINE
  5
36E
330
1F
100
AcDbEntity
  8
LC-001-100-D00-0
 62
     7
370
    50
100
AcDbLine
 10
274.810411
 20
127.859241
 30
0.0
 11
284.91041
 21
127.859241
 31
0.0
  0
ARC
  5
36F
330
1F
100
AcDbEntity
  8
LC-001-100-D00-0
 62
     7
370
    50
100
AcDbCircle
 10
284.910411
 20
131.609241
 30
0.0
 40
3.75
100
AcDbArc
 50
270.0
 51
90.0
  0
CIRCLE
  5
370
330
1F
100
AcDbEntity
  8
LC-001-100-D00-0
 62
     7
370
    50
100
AcDbCircle
 10
338.860411
 20
53.359241
 30
0.0
 40
5.700000000000046
  0
LINE
  5
371
330
1F
100
AcDbEntity
  8
LC-001-100-D00-0
 62
     7
370
    50
100
AcDbLine
 10
335.860412
 20
75.10924
 30
0.0
 11
335.860412
 21
149.609242
 31
0.0
  0
ARC
  5
372
330
1F
100
AcDbEntity
  8
LC-001-100-D00-0
 62
     7
370
    50
100
AcDbCircle
 10
332.110411
 20
149.609241
 30
0.0
 40
3.75
100
AcDbArc
 50
0.0
 51
180.0
  0
LINE
  5
373
330
1F
100
AcDbEntity
  8
LC-001-100-D00-0
 62
     7
370
    50
100
AcDbLine
 10
328.360412
 20
149.609242
 30
0.0
 11
328.360412
 21
75.10924
 31
0.0
  0
ARC
  5
374
330
1F
100
AcDbEntity
  8
LC-001-100-D00-0
 62
     7
370
    50
100
AcDbCircle
 10
332.110411
 20
75.109241
 30
0.0
 40
3.75
100
AcDbArc
 50
180.0
 51
360.0
  0
LINE
  5
375
330
1F
100
AcDbEntity
  8
LC-001-100-D00-0
 62
     7
370
    50
100
AcDbLine
 10
319.360412
 20
91.209241
 30
0.0
 11
319.360412
 21
133.509241
 31
0.0
  0
ARC
  5
376
330
1F
100
AcDbEntity
  8
LC-001-100-D00-0
 62
     7
370
    50
100
AcDbCircle
 10
315.610411
 20
133.509241
 30
0.0
 40
3.750000000000114
100
AcDbArc
 50
0.0
 51
180.0
  0
LINE
  5
377
330
1F
100
AcDbEntity
  8
LC-001-100-D00-0
 62
     7
370
    50
100
AcDbLine
 10
311.860412
 20
133.509241
 30
0.0
 11
311.860412
 21
91.209241
 31
0.0
  0
ARC
  5
378
330
1F
100
AcDbEntity
  8
LC-001-100-D00-0
 62
     7
370
    50
100
AcDbCircle
 10
315.610411
 20
91.209241
 30
0.0
 40
3.75
100
AcDbArc
 50
180.0
 51
360.0
  0
LINE
  5
379
330
1F
100
AcDbEntity
  8
LC-001-100-D00-0
 62
     7
370
    50
100
AcDbLine
 10
302.860411
 20
107.309241
 30
0.0
 11
302.860411
 21
117.409241
 31
0.0
  0
ARC
  5
37A
330
1F
100
AcDbEntity
  8
LC-001-100-D00-0
 62
     7
370
    50
100
AcDbCircle
 10
299.110411
 20
117.409241
 30
0.0
 40
3.75
100
AcDbArc
 50
0.0
 51
180.0
  0
LINE
  5
37B
330
1F
100
AcDbEntity
  8
LC-001-100-D00-0
 62
     7
370
    50
100
AcDbLine
 10
295.36041
 20
117.409241
 30
0.0
 11
295.36041
 21
107.309241
 31
0.0
  0
ARC
  5
37C
330
1F
100
AcDbEntity
  8
LC-001-100-D00-0
 62
     7
370
    50
100
AcDbCircle
 10
299.110411
 20
107.309241
 30
0.0
 40
3.75
100
AcDbArc
 50
180.0
 51
0.0
  0
ARC
  5
37D
330
1F
100
AcDbEntity
  8
LC-001-100-D00-0
 62
     7
370
    50
100
AcDbCircle
 10
345.860411
 20
178.359241
 30
0.0
 40
3.0
100
AcDbArc
 50
0.0
 51
90.0
  0
LINE
  5
37E
330
1F
100
AcDbEntity
  8
LC-001-100-D00-0
 62
     7
370
    50
100
AcDbLine
 10
348.860409
 20
46.359241
 30
0.0
 11
348.860409
 21
178.359241
 31
0.0
  0
LINE
  5
37F
330
1F
100
AcDbEntity
  8
LC-001-100-D00-0
 62
     7
370
    50
100
AcDbLine
 10
210.860412
 20
178.359241
 30
0.0
 11
210.860412
 21
46.359241
 31
0.0
  0
ARC
  5
380
330
1F
100
AcDbEntity
  8
LC-001-100-D00-0
 62
     7
370
    50
100
AcDbCircle
 10
213.860411
 20
178.359241
 30
0.0
 40
2.999999999999972
100
AcDbArc
 50
90.0
 51
180.0
  0
LINE
  5
381
330
1F
100
AcDbEntity
  8
LC-001-100-D00-0
 62
     7
370
    50
100
AcDbLine
 10
345.86041
 20
181.359239
 30
0.0
 11
213.860411
 21
181.359239
 31
0.0
  0
LINE
  5
382
330
1F
100
AcDbEntity
  8
LC-001-100-D00-0
 62
     7
370
    50
100
AcDbLine
 10
274.905651
 20
120.849465
 30
0.0
 11
276.258345
 21
119.496772
 31
0.0
  0
ARC
  5
383
330
1F
100
AcDbEntity
  8
LC-001-100-D00-0
 62
     7
370
    50
100
AcDbCircle
 10
274.198558
 20
120.142373
 30
0.0
 40
0.9999807819523128
100
AcDbArc
 50
45.0
 51
135.0
  0
LINE
  5
384
330
1F
100
AcDbEntity
  8
LC-001-100-D00-0
 62
     7
370
    50
100
AcDbLine
 10
273.491465
 20
120.849465
 30
0.0
 11
270.663093
 21
118.021094
 31
0.0
  0
LINE
  5
385
330
1F
100
AcDbEntity
  8
LC-001-100-D00-0
 62
     7
370
    50
100
AcDbLine
 10
270.663093
 20
118.021094
 30
0.0
 11
271.585386
 21
117.0988
 31
0.0
  0
LINE
  5
386
330
1F
100
AcDbEntity
  8
LC-001-100-D00-0
 62
     7
370
    50
100
AcDbLine
 10
272.610165
 20
118.123578
 30
0.0
 11
271.585386
 21
117.0988
 31
0.0
  0
LINE
  5
387
330
1F
100
AcDbEntity
  8
LC-001-100-D00-0
 62
     7
370
    50
100
AcDbLine
 10
272.610165
 20
118.123578
 30
0.0
 11
273.532458
 21
117.201285
 31
0.0
  0
LINE
  5
388
330
1F
100
AcDbEntity
  8
LC-001-100-D00-0
 62
     7
370
    50
100
AcDbLine
 10
273.532458
 20
117.201285
 30
0.0
 11
272.50768
 21
116.176507
 31
0.0
  0
LINE
  5
389
330
1F
100
AcDbEntity
  8
LC-001-100-D00-0
 62
     7
370
    50
100
AcDbLine
 10
272.50768
 20
116.176507
 30
0.0
 11
273.429973
 21
115.254213
 31
0.0
  0
LINE
  5
38A
330
1F
100
AcDbEntity
  8
LC-001-100-D00-0
 62
     7
370
    50
100
AcDbLine
 10
276.258345
 20
118.082585
 30
0.0
 11
273.429973
 21
115.254213
 31
0.0
  0
ARC
  5
38B
330
1F
100
AcDbEntity
  8
LC-001-100-D00-0
 62
     7
370
    50
100
AcDbCircle
 10
275.551252
 20
118.789679
 30
0.0
 40
0.9999808662719755
100
AcDbArc
 50
315.0
 51
45.0
  0
LINE
  5
38C
330
1F
100
AcDbEntity
  8
LC-001-100-D00-0
 62
     7
370
    50
100
AcDbLine
 10
276.145614
 20
112.538573
 30
0.0
 11
278.195156
 21
110.489032
 31
0.0
  0
LINE
  5
38D
330
1F
100
AcDbEntity
  8
LC-001-100-D00-0
 62
     7
370
    50
100
AcDbLine
 10
279.117449
 20
111.411325
 30
0.0
 11
278.195156
 21
110.489032
 31
0.0
  0
LINE
  5
38E
330
1F
100
AcDbEntity
  8
LC-001-100-D00-0
 62
     7
370
    50
100
AcDbLine
 10
277.990201
 20
112.538573
 30
0.0
 11
279.117449
 21
111.411325
 31
0.0
  0
LINE
  5
38F
330
1F
100
AcDbEntity
  8
LC-001-100-D00-0
 62
     7
370
    50
100
AcDbLine
 10
280.603373
 20
115.151744
 30
0.0
 11
277.990201
 21
112.538573
 31
0.0
  0
LINE
  5
390
330
1F
100
AcDbEntity
  8
LC-001-100-D00-0
 62
     7
370
    50
100
AcDbLine
 10
279.68108
 20
116.074038
 30
0.0
 11
280.603373
 21
115.151744
 31
0.0
  0
LINE
  5
391
330
1F
100
AcDbEntity
  8
LC-001-100-D00-0
 62
     7
370
    50
100
AcDbLine
 10
279.68108
 20
116.074038
 30
0.0
 11
276.145614
 21
112.538573
 31
0.0
  0
LINE
  5
392
330
1F
100
AcDbEntity
  8
LC-001-100-D00-0
 62
     7
370
    50
100
AcDbLine
 10
286.444557
 20
107.46596
 30
0.0
 11
286.034648
 21
107.056051
 31
0.0
  0
LINE
  5
393
330
1F
100
AcDbEntity
  8
LC-001-100-D00-0
 62
     7
370
    50
100
AcDbLine
 10
286.444557
 20
107.46596
 30
0.0
 11
287.776758
 21
106.133758
 31
0.0
  0
LINE
  5
394
330
1F
100
AcDbEntity
  8
LC-001-100-D00-0
 62
     7
370
    50
100
AcDbLine
 10
288.699059
 20
107.056059
 30
0.0
 11
287.776758
 21
106.133758
 31
0.0
  0
LINE
  5
395
330
1F
100
AcDbEntity
  8
LC-001-100-D00-0
 62
     7
370
    50
100
AcDbLine
 10
286.444564
 20
109.310554
 30
0.0
 11
288.699059
 21
107.056059
 31
0.0
  0
LINE
  5
396
330
1F
100
AcDbEntity
  8
LC-001-100-D00-0
 62
     7
370
    50
100
AcDbLine
 10
286.444564
 20
109.310554
 30
0.0
 11
282.909098
 21
105.775088
 31
0.0
  0
LINE
  5
397
330
1F
100
AcDbEntity
  8
LC-001-100-D00-0
 62
     7
370
    50
100
AcDbLine
 10
282.909098
 20
105.775088
 30
0.0
 11
285.163593
 21
103.520594
 31
0.0
  0
LINE
  5
398
330
1F
100
AcDbEntity
  8
LC-001-100-D00-0
 62
     7
370
    50
100
AcDbLine
 10
286.085887
 20
104.442887
 30
0.0
 11
285.163593
 21
103.520594
 31
0.0
  0
LINE
  5
399
330
1F
100
AcDbEntity
  8
LC-001-100-D00-0
 62
     7
370
    50
100
AcDbLine
 10
284.753685
 20
105.775088
 30
0.0
 11
286.085887
 21
104.442887
 31
0.0
  0
LINE
  5
39A
330
1F
100
AcDbEntity
  8
LC-001-100-D00-0
 62
     7
370
    50
100
AcDbLine
 10
285.159579
 20
106.180982
 30
0.0
 11
284.753685
 21
105.775088
 31
0.0
  0
LINE
  5
39B
330
1F
100
AcDbEntity
  8
LC-001-100-D00-0
 62
     7
370
    50
100
AcDbLine
 10
286.49178
 20
104.848781
 30
0.0
 11
285.159579
 21
106.180982
 31
0.0
  0
LINE
  5
39C
330
1F
100
AcDbEntity
  8
LC-001-100-D00-0
 62
     7
370
    50
100
AcDbLine
 10
287.366849
 20
105.72385
 30
0.0
 11
286.49178
 21
104.848781
 31
0.0
  0
LINE
  5
39D
330
1F
100
AcDbEntity
  8
LC-001-100-D00-0
 62
     7
370
    50
100
AcDbLine
 10
287.366849
 20
105.72385
 30
0.0
 11
286.034648
 21
107.056051
 31
0.0
  0
ARC
  5
39E
330
1F
100
AcDbEntity
  8
LC-001-100-D00-0
 62
     7
370
    50
100
AcDbCircle
 10
213.860411
 20
46.359241
 30
0.0
 40
3.0
100
AcDbArc
 50
180.0
 51
270.0
  0
ARC
  5
39F
330
1F
100
AcDbEntity
  8
LC-001-100-D00-0
 62
     7
370
    50
100
AcDbCircle
 10
345.860411
 20
46.359241
 30
0.0
 40
3.0
100
AcDbArc
 50
270.0
 51
0.0
  0
LINE
  5
3A0
330
1F
100
AcDbEntity
  8
LC-001-100-D00-0
 62
     7
370
    50
100
AcDbLine
 10
213.860411
 20
43.359243
 30
0.0
 11
345.86041
 21
43.359243
 31
0.0
  0
LINE
  5
3A1
330
1F
100
AcDbEntity
  8
LC-001-100-D00-0
 62
     7
370
    50
100
AcDbLine
 10
290.230352
 20
103.366878
 30
0.0
 11
289.877537
 21
103.014063
 31
0.0
  0
ARC
  5
3A2
330
1F
100
AcDbEntity
  8
LC-001-100-D00-0
 62
     7
370
    50
100
AcDbCircle
 10
289.871682
 20
103.725548
 30
0.0
 40
0.5072354999999965
100
AcDbArc
 50
315.0
 51
45.0
  0
LINE
  5
3A3
330
1F
100
AcDbEntity
  8
LC-001-100-D00-0
 62
     7
370
    50
100
AcDbLine
 10
289.262676
 20
105.051894
 30
0.0
 11
290.230352
 21
104.084217
 31
0.0
  0
LINE
  5
3A4
330
1F
100
AcDbEntity
  8
LC-001-100-D00-0
 62
     7
370
    50
100
AcDbLine
 10
288.192521
 20
103.98174
 30
0.0
 11
289.262676
 21
105.051894
 31
0.0
  0
LINE
  5
3A5
330
1F
100
AcDbEntity
  8
LC-001-100-D00-0
 62
     7
370
    50
100
AcDbLine
 10
289.160197
 20
103.014063
 30
0.0
 11
288.192521
 21
103.98174
 31
0.0
  0
ARC
  5
3A6
330
1F
100
AcDbEntity
  8
LC-001-100-D00-0
 62
     7
370
    50
100
AcDbCircle
 10
289.518867
 20
103.372734
 30
0.0
 40
0.5072360000000348
100
AcDbArc
 50
225.0
 51
315.0
  0
LINE
  5
3A7
330
1F
100
AcDbEntity
  8
LC-001-100-D00-0
 62
     7
370
    50
100
AcDbLine
 10
287.571804
 20
103.361023
 30
0.0
 11
288.539481
 21
102.393347
 31
0.0
  0
LINE
  5
3A8
330
1F
100
AcDbEntity
  8
LC-001-100-D00-0
 62
     7
370
    50
100
AcDbLine
 10
286.649511
 20
102.43873
 30
0.0
 11
287.571804
 21
103.361023
 31
0.0
  0
LINE
  5
3A9
330
1F
100
AcDbEntity
  8
LC-001-100-D00-0
 62
     7
370
    50
100
AcDbLine
 10
286.131271
 20
102.956971
 30
0.0
 11
286.649511
 21
102.43873
 31
0.0
  0
LINE
  5
3AA
330
1F
100
AcDbEntity
  8
LC-001-100-D00-0
 62
     7
370
    50
100
AcDbLine
 10
289.262682
 20
106.088382
 30
0.0
 11
286.131271
 21
102.956971
 31
0.0
  0
LINE
  5
3AB
330
1F
100
AcDbEntity
  8
LC-001-100-D00-0
 62
     7
370
    50
100
AcDbLine
 10
291.120442
 20
104.230621
 30
0.0
 11
289.262682
 21
106.088382
 31
0.0
  0
ARC
  5
3AC
330
1F
100
AcDbEntity
  8
LC-001-100-D00-0
 62
     7
370
    50
100
AcDbCircle
 10
290.615376
 20
103.725555
 30
0.0
 40
0.7142719156801778
100
AcDbArc
 50
315.0
 51
45.0
  0
LINE
  5
3AD
330
1F
100
AcDbEntity
  8
LC-001-100-D00-0
 62
     7
370
    50
100
AcDbLine
 10
290.244015
 20
102.344061
 30
0.0
 11
291.120442
 21
103.220488
 31
0.0
  0
ARC
  5
3AE
330
1F
100
AcDbEntity
  8
LC-001-100-D00-0
 62
     7
370
    50
100
AcDbCircle
 10
289.738948
 20
102.849127
 30
0.0
 40
0.7142719181058501
100
AcDbArc
 50
247.675363
 51
315.0
  0
ARC
  5
3AF
330
1F
100
AcDbEntity
  8
LC-001-100-D00-0
 62
     7
370
    50
100
AcDbCircle
 10
288.806894
 20
101.917074
 30
0.0
 40
0.7142719156802985
100
AcDbArc
 50
315.0
 51
22.324631
  0
LINE
  5
3B0
330
1F
100
AcDbEntity
  8
LC-001-100-D00-0
 62
     7
370
    50
100
AcDbLine
 10
288.494097
 20
100.594144
 30
0.0
 11
289.311961
 21
101.412007
 31
0.0
  0
LINE
  5
3B1
330
1F
100
AcDbEntity
  8
LC-001-100-D00-0
 62
     7
370
    50
100
AcDbLine
 10
288.539481
 20
101.676007
 30
0.0
 11
287.975858
 21
101.112383
 31
0.0
  0
ARC
  5
3B2
330
1F
100
AcDbEntity
  8
LC-001-100-D00-0
 62
     7
370
    50
100
AcDbCircle
 10
288.180811
 20
102.034677
 30
0.0
 40
0.5072360000000146
100
AcDbArc
 50
315.0
 51
45.0
  0
LINE
  5
3B3
330
1F
100
AcDbEntity
  8
LC-001-100-D00-0
 62
     7
370
    50
100
AcDbLine
 10
287.975858
 20
101.112383
 30
0.0
 11
288.494097
 21
100.594144
 31
0.0
  0
LINE
  5
3B4
330
1F
100
AcDbEntity
  8
LC-001-100-D00-0
 62
     7
370
    50
100
AcDbLine
 10
289.262675
 20
104.647842
 30
0.0
 11
288.596574
 21
103.981741
 31
0.0
  0
LINE
  5
3B5
330
1F
100
AcDbEntity
  8
LC-001-100-D00-0
 62
     7
370
    50
100
AcDbLine
 10
289.262675
 20
104.647842
 30
0.0
 11
290.031252
 21
103.879264
 31
0.0
  0
ARC
  5
3B6
330
1F
100
AcDbEntity
  8
LC-001-100-D00-0
 62
     7
370
    50
100
AcDbCircle
 10
289.877537
 20
103.725548
 30
0.0
 40
0.2173870000000402
100
AcDbArc
 50
315.0
 51
45.0
  0
LINE
  5
3B7
330
1F
100
AcDbEntity
  8
LC-001-100-D00-0
 62
     7
370
    50
100
AcDbLine
 10
290.031252
 20
103.571833
 30
0.0
 11
289.672583
 21
103.213163
 31
0.0
  0
ARC
  5
3B8
330
1F
100
AcDbEntity
  8
LC-001-100-D00-0
 62
     7
370
    50
100
AcDbCircle
 10
289.518867
 20
103.366879
 30
0.0
 40
0.2173870000000402
100
AcDbArc
 50
225.0
 51
315.0
  0
LINE
  5
3B9
330
1F
100
AcDbEntity
  8
LC-001-100-D00-0
 62
     7
370
    50
100
AcDbLine
 10
288.596574
 20
103.981741
 30
0.0
 11
289.365152
 21
103.213163
 31
0.0
  0
LINE
  5
3BA
330
1F
100
AcDbEntity
  8
LC-001-100-D00-0
 62
     7
370
    50
100
AcDbLine
 10
286.444556
 20
107.870013
 30
0.0
 11
287.776758
 21
106.537811
 31
0.0
  0
LINE
  5
3BB
330
1F
100
AcDbEntity
  8
LC-001-100-D00-0
 62
     7
370
    50
100
AcDbLine
 10
285.630595
 20
107.056051
 30
0.0
 11
286.444556
 21
107.870013
 31
0.0
  0
LINE
  5
3BC
330
1F
100
AcDbEntity
  8
LC-001-100-D00-0
 62
     7
370
    50
100
AcDbLine
 10
286.962797
 20
105.723849
 30
0.0
 11
285.630595
 21
107.056051
 31
0.0
  0
LINE
  5
3BD
330
1F
100
AcDbEntity
  8
LC-001-100-D00-0
 62
     7
370
    50
100
AcDbLine
 10
286.491781
 20
105.252834
 30
0.0
 11
286.962797
 21
105.723849
 31
0.0
  0
LINE
  5
3BE
330
1F
100
AcDbEntity
  8
LC-001-100-D00-0
 62
     7
370
    50
100
AcDbLine
 10
285.159579
 20
106.585035
 30
0.0
 11
286.491781
 21
105.252834
 31
0.0
  0
LINE
  5
3BF
330
1F
100
AcDbEntity
  8
LC-001-100-D00-0
 62
     7
370
    50
100
AcDbLine
 10
284.349632
 20
105.775088
 30
0.0
 11
285.159579
 21
106.585035
 31
0.0
  0
LINE
  5
3C0
330
1F
100
AcDbEntity
  8
LC-001-100-D00-0
 62
     7
370
    50
100
AcDbLine
 10
285.681834
 20
104.442886
 30
0.0
 11
284.349632
 21
105.775088
 31
0.0
  0
LINE
  5
3C1
330
1F
100
AcDbEntity
  8
LC-001-100-D00-0
 62
     7
370
    50
100
AcDbLine
 10
285.163594
 20
103.924646
 30
0.0
 11
285.681834
 21
104.442886
 31
0.0
  0
LINE
  5
3C2
330
1F
100
AcDbEntity
  8
LC-001-100-D00-0
 62
     7
370
    50
100
AcDbLine
 10
283.313152
 20
105.775088
 30
0.0
 11
285.163594
 21
103.924646
 31
0.0
  0
LINE
  5
3C3
330
1F
100
AcDbEntity
  8
LC-001-100-D00-0
 62
     7
370
    50
100
AcDbLine
 10
286.444564
 20
108.9065
 30
0.0
 11
283.313152
 21
105.775088
 31
0.0
  0
LINE
  5
3C4
330
1F
100
AcDbEntity
  8
LC-001-100-D00-0
 62
     7
370
    50
100
AcDbLine
 10
288.295005
 20
107.056058
 30
0.0
 11
286.444564
 21
108.9065
 31
0.0
  0
LINE
  5
3C5
330
1F
100
AcDbEntity
  8
LC-001-100-D00-0
 62
     7
370
    50
100
AcDbLine
 10
287.776758
 20
106.537811
 30
0.0
 11
288.295005
 21
107.056058
 31
0.0
  0
ARC
  5
3C6
330
1F
100
AcDbEntity
  8
LC-001-100-D00-0
 62
     7
370
    50
100
AcDbCircle
 10
282.757541
 20
111.58339
 30
0.0
 40
0.7142717237079083
100
AcDbArc
 50
326.536963
 51
45.0
  0
ARC
  5
3C7
330
1F
100
AcDbEntity
  8
LC-001-100-D00-0
 62
     7
370
    50
100
AcDbCircle
 10
283.747265
 20
110.593666
 30
0.0
 40
0.7142719156802381
100
AcDbArc
 50
45.0
 51
123.463041
  0
LINE
  5
3C8
330
1F
100
AcDbEntity
  8
LC-001-100-D00-0
 62
     7
370
    50
100
AcDbLine
 10
285.125536
 20
110.225528
 30
0.0
 11
284.252331
 21
111.098733
 31
0.0
  0
ARC
  5
3C9
330
1F
100
AcDbEntity
  8
LC-001-100-D00-0
 62
     7
370
    50
100
AcDbCircle
 10
284.620469
 20
109.720461
 30
0.0
 40
0.714271915680218
100
AcDbArc
 50
315.0
 51
45.0
  0
LINE
  5
3CA
330
1F
100
AcDbEntity
  8
LC-001-100-D00-0
 62
     7
370
    50
100
AcDbLine
 10
284.286692
 20
109.41303
 30
0.0
 11
281.98095
 21
107.107289
 31
0.0
  0
ARC
  5
3CB
330
1F
100
AcDbEntity
  8
LC-001-100-D00-0
 62
     7
370
    50
100
AcDbCircle
 10
283.97926
 20
109.720461
 30
0.0
 40
0.4347731137285985
100
AcDbArc
 50
315.0
 51
45.0
  0
LINE
  5
3CC
330
1F
100
AcDbEntity
  8
LC-001-100-D00-0
 62
     7
370
    50
100
AcDbLine
 10
283.8314
 20
110.483184
 30
0.0
 11
284.286692
 21
110.027892
 31
0.0
  0
ARC
  5
3CD
330
1F
100
AcDbEntity
  8
LC-001-100-D00-0
 62
     7
370
    50
100
AcDbCircle
 10
283.523969
 20
110.175753
 30
0.0
 40
0.4347731137285985
100
AcDbArc
 50
45.0
 51
135.0
  0
LINE
  5
3CE
330
1F
100
AcDbEntity
  8
LC-001-100-D00-0
 62
     7
370
    50
100
AcDbLine
 10
280.910797
 20
108.177443
 30
0.0
 11
283.216538
 21
110.483184
 31
0.0
  0
LINE
  5
3CF
330
1F
100
AcDbEntity
  8
LC-001-100-D00-0
 62
     7
370
    50
100
AcDbLine
 10
280.341318
 20
108.746922
 30
0.0
 11
280.910797
 21
108.177443
 31
0.0
  0
LINE
  5
3D0
330
1F
100
AcDbEntity
  8
LC-001-100-D00-0
 62
     7
370
    50
100
AcDbLine
 10
282.647059
 20
111.052663
 30
0.0
 11
280.341318
 21
108.746922
 31
0.0
  0
ARC
  5
3D1
330
1F
100
AcDbEntity
  8
LC-001-100-D00-0
 62
     7
370
    50
100
AcDbCircle
 10
282.339628
 20
111.360094
 30
0.0
 40
0.4347731137286185
100
AcDbArc
 50
315.0
 51
45.0
  0
LINE
  5
3D2
330
1F
100
AcDbEntity
  8
LC-001-100-D00-0
 62
     7
370
    50
100
AcDbLine
 10
282.191767
 20
112.122817
 30
0.0
 11
282.647059
 21
111.667525
 31
0.0
  0
ARC
  5
3D3
330
1F
100
AcDbEntity
  8
LC-001-100-D00-0
 62
     7
370
    50
100
AcDbCircle
 10
281.884336
 20
111.815386
 30
0.0
 40
0.4347731137285181
100
AcDbArc
 50
45.0
 51
135.0
  0
LINE
  5
3D4
330
1F
100
AcDbEntity
  8
LC-001-100-D00-0
 62
     7
370
    50
100
AcDbLine
 10
279.271164
 20
109.817076
 30
0.0
 11
281.576905
 21
112.122817
 31
0.0
  0
LINE
  5
3D5
330
1F
100
AcDbEntity
  8
LC-001-100-D00-0
 62
     7
370
    50
100
AcDbLine
 10
278.752924
 20
110.335316
 30
0.0
 11
279.271164
 21
109.817076
 31
0.0
  0
LINE
  5
3D6
330
1F
100
AcDbEntity
  8
LC-001-100-D00-0
 62
     7
370
    50
100
AcDbLine
 10
281.379269
 20
112.961662
 30
0.0
 11
278.752924
 21
110.335316
 31
0.0
  0
ARC
  5
3D7
330
1F
100
AcDbEntity
  8
LC-001-100-D00-0
 62
     7
370
    50
100
AcDbCircle
 10
281.884336
 20
112.456595
 30
0.0
 40
0.7142720000000614
100
AcDbArc
 50
45.0
 51
135.0
  0
LINE
  5
3D8
330
1F
100
AcDbEntity
  8
LC-001-100-D00-0
 62
     7
370
    50
100
AcDbLine
 10
283.262607
 20
112.088457
 30
0.0
 11
282.389402
 21
112.961662
 31
0.0
  0
LINE
  5
3D9
330
1F
100
AcDbEntity
  8
LC-001-100-D00-0
 62
     7
370
    50
100
AcDbLine
 10
281.98095
 20
107.107289
 30
0.0
 11
282.49919
 21
106.589049
 31
0.0
  0
LINE
  5
3DA
330
1F
100
AcDbEntity
  8
LC-001-100-D00-0
 62
     7
370
    50
100
AcDbLine
 10
282.49919
 20
106.589049
 30
0.0
 11
285.125536
 21
109.215395
 31
0.0
  0
LINE
  5
3DB
330
1F
100
AcDbEntity
  8
LC-001-100-D00-0
 62
     7
370
    50
100
AcDbLine
 10
278.713395
 20
111.411325
 30
0.0
 11
277.586148
 21
112.538573
 31
0.0
  0
LINE
  5
3DC
330
1F
100
AcDbEntity
  8
LC-001-100-D00-0
 62
     7
370
    50
100
AcDbLine
 10
279.68108
 20
115.669984
 30
0.0
 11
276.549668
 21
112.538573
 31
0.0
  0
LINE
  5
3DD
330
1F
100
AcDbEntity
  8
LC-001-100-D00-0
 62
     7
370
    50
100
AcDbLine
 10
280.19932
 20
115.151744
 30
0.0
 11
279.68108
 21
115.669984
 31
0.0
  0
LINE
  5
3DE
330
1F
100
AcDbEntity
  8
LC-001-100-D00-0
 62
     7
370
    50
100
AcDbLine
 10
277.586148
 20
112.538573
 30
0.0
 11
280.19932
 21
115.151744
 31
0.0
  0
LINE
  5
3DF
330
1F
100
AcDbEntity
  8
LC-001-100-D00-0
 62
     7
370
    50
100
AcDbLine
 10
278.195156
 20
110.893085
 30
0.0
 11
278.713395
 21
111.411325
 31
0.0
  0
LINE
  5
3E0
330
1F
100
AcDbEntity
  8
LC-001-100-D00-0
 62
     7
370
    50
100
AcDbLine
 10
276.549668
 20
112.538573
 30
0.0
 11
278.195156
 21
110.893085
 31
0.0
  0
LINE
  5
3E1
330
1F
100
AcDbEntity
  8
LC-001-100-D00-0
 62
     7
370
    50
100
AcDbLine
 10
276.510139
 20
113.614581
 30
0.0
 11
275.382892
 21
114.741828
 31
0.0
  0
LINE
  5
3E2
330
1F
100
AcDbEntity
  8
LC-001-100-D00-0
 62
     7
370
    50
100
AcDbLine
 10
277.477823
 20
117.873241
 30
0.0
 11
274.346412
 21
114.741829
 31
0.0
  0
LINE
  5
3E3
330
1F
100
AcDbEntity
  8
LC-001-100-D00-0
 62
     7
370
    50
100
AcDbLine
 10
277.996064
 20
117.355
 30
0.0
 11
277.477823
 21
117.873241
 31
0.0
  0
LINE
  5
3E4
330
1F
100
AcDbEntity
  8
LC-001-100-D00-0
 62
     7
370
    50
100
AcDbLine
 10
275.382892
 20
114.741828
 30
0.0
 11
277.996064
 21
117.355
 31
0.0
  0
LINE
  5
3E5
330
1F
100
AcDbEntity
  8
LC-001-100-D00-0
 62
     7
370
    50
100
AcDbLine
 10
274.346412
 20
114.741829
 30
0.0
 11
275.991899
 21
113.096341
 31
0.0
  0
LINE
  5
3E6
330
1F
100
AcDbEntity
  8
LC-001-100-D00-0
 62
     7
370
    50
100
AcDbLine
 10
275.991899
 20
113.096341
 30
0.0
 11
276.510139
 21
113.614581
 31
0.0
  0
LINE
  5
3E7
330
1F
100
AcDbEntity
  8
LC-001-100-D00-0
 62
     7
370
    50
100
AcDbLine
 10
273.134629
 20
119.052096
 30
0.0
 11
273.839889
 21
119.757356
 31
0.0
  0
LINE
  5
3E8
330
1F
100
AcDbEntity
  8
LC-001-100-D00-0
 62
     7
370
    50
100
AcDbLine
 10
274.460975
 20
117.725749
 30
0.0
 11
273.134629
 21
119.052096
 31
0.0
  0
LINE
  5
3E9
330
1F
100
AcDbEntity
  8
LC-001-100-D00-0
 62
     7
370
    50
100
AcDbLine
 10
275.166236
 20
118.43101
 30
0.0
 11
274.460975
 21
117.725749
 31
0.0
  0
ARC
  5
3EA
330
1F
100
AcDbEntity
  8
LC-001-100-D00-0
 62
     7
370
    50
100
AcDbCircle
 10
274.807566
 20
118.78968
 30
0.0
 40
0.5072354320333317
100
AcDbArc
 50
315.0
 51
45.0
  0
LINE
  5
3EB
330
1F
100
AcDbEntity
  8
LC-001-100-D00-0
 62
     7
370
    50
100
AcDbLine
 10
274.557228
 20
119.757356
 30
0.0
 11
275.166236
 21
119.148349
 31
0.0
  0
ARC
  5
3EC
330
1F
100
AcDbEntity
  8
LC-001-100-D00-0
 62
     7
370
    50
100
AcDbCircle
 10
274.198559
 20
119.398687
 30
0.0
 40
0.5072354320333518
100
AcDbArc
 50
45.0
 51
135.0
  0
ARC
  5
3ED
330
1F
100
AcDbEntity
  8
LC-001-100-D00-0
 62
     7
370
    50
100
AcDbCircle
 10
275.551252
 20
118.789679
 30
0.0
 40
0.7142719156802985
100
AcDbArc
 50
315.0
 51
45.0
  0
LINE
  5
3EE
330
1F
100
AcDbEntity
  8
LC-001-100-D00-0
 62
     7
370
    50
100
AcDbLine
 10
273.429973
 20
115.658267
 30
0.0
 11
276.056318
 21
118.284612
 31
0.0
  0
LINE
  5
3EF
330
1F
100
AcDbEntity
  8
LC-001-100-D00-0
 62
     7
370
    50
100
AcDbLine
 10
272.911733
 20
116.176507
 30
0.0
 11
273.429973
 21
115.658267
 31
0.0
  0
LINE
  5
3F0
330
1F
100
AcDbEntity
  8
LC-001-100-D00-0
 62
     7
370
    50
100
AcDbLine
 10
273.936511
 20
117.201285
 30
0.0
 11
272.911733
 21
116.176507
 31
0.0
  0
LINE
  5
3F1
330
1F
100
AcDbEntity
  8
LC-001-100-D00-0
 62
     7
370
    50
100
AcDbLine
 10
272.610165
 20
118.527632
 30
0.0
 11
273.936511
 21
117.201285
 31
0.0
  0
LINE
  5
3F2
330
1F
100
AcDbEntity
  8
LC-001-100-D00-0
 62
     7
370
    50
100
AcDbLine
 10
271.585386
 20
117.502854
 30
0.0
 11
272.610165
 21
118.527632
 31
0.0
  0
LINE
  5
3F3
330
1F
100
AcDbEntity
  8
LC-001-100-D00-0
 62
     7
370
    50
100
AcDbLine
 10
271.067146
 20
118.021094
 30
0.0
 11
271.585386
 21
117.502854
 31
0.0
  0
LINE
  5
3F4
330
1F
100
AcDbEntity
  8
LC-001-100-D00-0
 62
     7
370
    50
100
AcDbLine
 10
273.693492
 20
120.647439
 30
0.0
 11
271.067146
 21
118.021094
 31
0.0
  0
ARC
  5
3F5
330
1F
100
AcDbEntity
  8
LC-001-100-D00-0
 62
     7
370
    50
100
AcDbCircle
 10
274.198558
 20
120.142373
 30
0.0
 40
0.7142720000000413
100
AcDbArc
 50
45.0
 51
135.0
  0
LINE
  5
3F6
330
1F
100
AcDbEntity
  8
LC-001-100-D00-0
 62
     7
370
    50
100
AcDbLine
 10
276.056318
 20
119.294745
 30
0.0
 11
274.703624
 21
120.647439
 31
0.0
  0
LINE
  5
3F7
330
1F
100
AcDbEntity
  8
LC-001-100-D00-0
 62
     7
370
    50
100
AcDbLine
 10
273.538682
 20
119.052096
 30
0.0
 11
274.460975
 21
118.129803
 31
0.0
  0
LINE
  5
3F8
330
1F
100
AcDbEntity
  8
LC-001-100-D00-0
 62
     7
370
    50
100
AcDbLine
 10
274.044843
 20
119.558257
 30
0.0
 11
273.538682
 21
119.052096
 31
0.0
  0
ARC
  5
3F9
330
1F
100
AcDbEntity
  8
LC-001-100-D00-0
 62
     7
370
    50
100
AcDbCircle
 10
274.198559
 20
119.404542
 30
0.0
 40
0.2173865000000622
100
AcDbArc
 50
45.0
 51
135.0
  0
LINE
  5
3FA
330
1F
100
AcDbEntity
  8
LC-001-100-D00-0
 62
     7
370
    50
100
AcDbLine
 10
274.352274
 20
119.558257
 30
0.0
 11
274.967136
 21
118.943395
 31
0.0
  0
ARC
  5
3FB
330
1F
100
AcDbEntity
  8
LC-001-100-D00-0
 62
     7
370
    50
100
AcDbCircle
 10
274.81342
 20
118.78968
 30
0.0
 40
0.2173864999999014
100
AcDbArc
 50
315.0
 51
45.0
  0
LINE
  5
3FC
330
1F
100
AcDbEntity
  8
LC-001-100-D00-0
 62
     7
370
    50
100
AcDbLine
 10
274.967136
 20
118.635964
 30
0.0
 11
274.460975
 21
118.129803
 31
0.0
  0
LINE
  5
3FD
330
1F
100
AcDbEntity
  8
LC-001-100-D00-0
 62
     7
370
    50
100
AcDbLine
 10
271.973342
 20
121.562402
 30
0.0
 11
270.6265
 21
120.21556
 31
0.0
  0
ARC
  5
3FE
330
1F
100
AcDbEntity
  8
LC-001-100-D00-0
 62
     7
370
    50
100
AcDbCircle
 10
271.614673
 20
121.921072
 30
0.0
 40
0.5072354320333317
100
AcDbArc
 50
315.0
 51
45.0
  0
LINE
  5
3FF
330
1F
100
AcDbEntity
  8
LC-001-100-D00-0
 62
     7
370
    50
100
AcDbLine
 10
271.247213
 20
123.00587
 30
0.0
 11
271.973342
 21
122.279741
 31
0.0
  0
LINE
  5
400
330
1F
100
AcDbEntity
  8
LC-001-100-D00-0
 62
     7
370
    50
100
AcDbLine
 10
269.183031
 20
120.941689
 30
0.0
 11
271.247213
 21
123.00587
 31
0.0
  0
LINE
  5
401
330
1F
100
AcDbEntity
  8
LC-001-100-D00-0
 62
     7
370
    50
100
AcDbLine
 10
269.909161
 20
120.21556
 30
0.0
 11
269.183031
 21
120.941689
 31
0.0
  0
ARC
  5
402
330
1F
100
AcDbEntity
  8
LC-001-100-D00-0
 62
     7
370
    50
100
AcDbCircle
 10
270.267831
 20
120.57423
 30
0.0
 40
0.5072354320333317
100
AcDbArc
 50
225.0
 51
315.0
  0
LINE
  5
403
330
1F
100
AcDbEntity
  8
LC-001-100-D00-0
 62
     7
370
    50
100
AcDbLine
 10
268.095312
 20
120.992928
 30
0.0
 11
269.711525
 21
119.376716
 31
0.0
  0
LINE
  5
404
330
1F
100
AcDbEntity
  8
LC-001-100-D00-0
 62
     7
370
    50
100
AcDbLine
 10
271.226724
 20
124.12434
 30
0.0
 11
268.095312
 21
120.992928
 31
0.0
  0
LINE
  5
405
330
1F
100
AcDbEntity
  8
LC-001-100-D00-0
 62
     7
370
    50
100
AcDbLine
 10
272.842937
 20
122.508127
 30
0.0
 11
271.226724
 21
124.12434
 31
0.0
  0
ARC
  5
406
330
1F
100
AcDbEntity
  8
LC-001-100-D00-0
 62
     7
370
    50
100
AcDbCircle
 10
272.33787
 20
122.003061
 30
0.0
 40
0.7142719156802381
100
AcDbArc
 50
315.0
 51
45.0
  0
LINE
  5
407
330
1F
100
AcDbEntity
  8
LC-001-100-D00-0
 62
     7
370
    50
100
AcDbLine
 10
270.721658
 20
119.376716
 30
0.0
 11
272.842937
 21
121.497994
 31
0.0
  0
ARC
  5
408
330
1F
100
AcDbEntity
  8
LC-001-100-D00-0
 62
     7
370
    50
100
AcDbCircle
 10
270.216592
 20
119.881782
 30
0.0
 40
0.7142719156801979
100
AcDbArc
 50
225.0
 51
315.0
  0
LINE
  5
409
330
1F
100
AcDbEntity
  8
LC-001-100-D00-0
 62
     7
370
    50
100
AcDbLine
 10
271.247212
 20
122.601818
 30
0.0
 11
269.587084
 21
120.94169
 31
0.0
  0
LINE
  5
40A
330
1F
100
AcDbEntity
  8
LC-001-100-D00-0
 62
     7
370
    50
100
AcDbLine
 10
271.247212
 20
122.601818
 30
0.0
 11
271.774242
 21
122.074787
 31
0.0
  0
ARC
  5
40B
330
1F
100
AcDbEntity
  8
LC-001-100-D00-0
 62
     7
370
    50
100
AcDbCircle
 10
271.620528
 20
121.921072
 30
0.0
 40
0.217386000000044
100
AcDbArc
 50
315.0
 51
45.0
  0
LINE
  5
40C
330
1F
100
AcDbEntity
  8
LC-001-100-D00-0
 62
     7
370
    50
100
AcDbLine
 10
271.774242
 20
121.767356
 30
0.0
 11
270.421545
 21
120.414659
 31
0.0
  0
ARC
  5
40D
330
1F
100
AcDbEntity
  8
LC-001-100-D00-0
 62
     7
370
    50
100
AcDbCircle
 10
270.26783
 20
120.568374
 30
0.0
 40
0.217386000000044
100
AcDbArc
 50
225.0
 51
315.0
  0
LINE
  5
40E
330
1F
100
AcDbEntity
  8
LC-001-100-D00-0
 62
     7
370
    50
100
AcDbLine
 10
269.587084
 20
120.94169
 30
0.0
 11
270.114115
 21
120.414659
 31
0.0
  0
CIRCLE
  5
40F
330
1F
100
AcDbEntity
  8
LC-001-100-D00-0
 62
     7
370
    50
100
AcDbCircle
 10
338.860411
 20
53.359241
 30
0.0
 40
5.375
  0
CIRCLE
  5
410
330
1F
100
AcDbEntity
  8
LC-001-100-D00-0
 62
     7
370
    50
100
AcDbCircle
 10
220.860411
 20
171.359241
 30
0.0
 40
5.375
  0
ARC
  5
411
330
1F
100
AcDbEntity
  8
LC-001-100-D00-0
 62
     7
370
    50
100
AcDbCircle
 10
213.360411
 20
45.859241
 30
0.0
 40
3.000000000000114
100
AcDbArc
 50
180.0
 51
270.0
  0
ARC
  5
412
330
1F
100
AcDbEntity
  8
LC-001-100-D00-0
 62
     7
370
    50
100
AcDbCircle
 10
213.360411
 20
45.859241
 30
0.0
 40
7.500000000000114
100
AcDbArc
 50
180.0
 51
270.0
  0
LINE
  5
413
330
1F
100
AcDbEntity
  8
LC-001-100-D00-0
 62
     7
370
    50
100
AcDbLine
 10
213.36041
 20
42.859242
 30
0.0
 11
346.360411
 21
42.859242
 31
0.0
  0
LINE
  5
414
330
1F
100
AcDbEntity
  8
LC-001-100-D00-0
 62
     7
370
    50
100
AcDbLine
 10
213.36041
 20
38.35924
 30
0.0
 11
346.360411
 21
38.35924
 31
0.0
  0
ARC
  5
415
330
1F
100
AcDbEntity
  8
LC-001-100-D00-0
 62
     7
370
    50
100
AcDbCircle
 10
346.360411
 20
45.859241
 30
0.0
 40
3.000000000000028
100
AcDbArc
 50
270.0
 51
0.0
  0
ARC
  5
416
330
1F
100
AcDbEntity
  8
LC-001-100-D00-0
 62
     7
370
    50
100
AcDbCircle
 10
218.532735
 20
174.248639
 30
0.0
 40
7.5
100
AcDbArc
 50
90.0
 51
180.0
  0
LINE
  5
417
330
1F
100
AcDbEntity
  8
LC-001-100-D00-0
 62
     7
370
    50
100
AcDbLine
 10
353.860412
 20
178.859242
 30
0.0
 11
353.860412
 21
45.85924
 31
0.0
  0
LINE
  5
418
330
1F
100
AcDbEntity
  8
LC-001-100-D00-0
 62
     7
370
    50
100
AcDbLine
 10
349.36041
 20
178.859242
 30
0.0
 11
349.36041
 21
45.85924
 31
0.0
  0
LINE
  5
419
330
1F
100
AcDbEntity
  8
LC-001-100-D00-0
 62
     7
370
    50
100
AcDbLine
 10
210.360411
 20
178.859242
 30
0.0
 11
210.360411
 21
45.85924
 31
0.0
  0
LINE
  5
41A
330
1F
100
AcDbEntity
  8
LC-001-100-D00-0
 62
     7
370
    50
100
AcDbLine
 10
205.86041
 20
178.859242
 30
0.0
 11
205.86041
 21
45.85924
 31
0.0
  0
ARC
  5
41B
330
1F
100
AcDbEntity
  8
LC-001-100-D00-0
 62
     7
370
    50
100
AcDbCircle
 10
346.360411
 20
178.859241
 30
0.0
 40
3.0
100
AcDbArc
 50
0.0
 51
90.0
  0
ARC
  5
41C
330
1F
100
AcDbEntity
  8
LC-001-100-D00-0
 62
     7
370
    50
100
AcDbCircle
 10
346.360411
 20
178.859241
 30
0.0
 40
7.5
100
AcDbArc
 50
0.0
 51
90.0
  0
ARC
  5
41D
330
1F
100
AcDbEntity
  8
LC-001-100-D00-0
 62
     7
370
    50
100
AcDbCircle
 10
213.360411
 20
178.859241
 30
0.0
 40
3.0
100
AcDbArc
 50
90.0
 51
180.0
  0
ARC
  5
41E
330
1F
100
AcDbEntity
  8
LC-001-100-D00-0
 62
     7
370
    50
100
AcDbCircle
 10
213.360411
 20
178.859241
 30
0.0
 40
7.500000000000028
100
AcDbArc
 50
90.0
 51
180.0
  0
LINE
  5
41F
330
1F
100
AcDbEntity
  8
LC-001-100-D00-0
 62
     7
370
    50
100
AcDbLine
 10
346.360411
 20
181.85924
 30
0.0
 11
213.36041
 21
181.85924
 31
0.0
  0
LINE
  5
420
330
1F
100
AcDbEntity
  8
LC-001-100-D00-0
 62
     7
370
    50
100
AcDbLine
 10
346.360411
 20
186.359242
 30
0.0
 11
213.36041
 21
186.359242
 31
0.0
  0
INSERT
  5
434
330
1F
100
AcDbEntity
  8
LC-001-100-D00-0
 62
     7
370
    50
100
AcDbBlockReference
  2
POLY7
 10
0.0
 20
0.0
 30
0.0
  0
INSERT
  5
444
330
1F
100
AcDbEntity
  8
LC-001-100-D00-0
 62
     7
370
    50
100
AcDbBlockReference
  2
POLY8
 10
0.0
 20
0.0
 30
0.0
  0
INSERT
  5
458
330
1F
100
AcDbEntity
  8
LC-001-100-D00-0
 62
     7
370
    50
100
AcDbBlockReference
  2
POLY9
 10
0.0
 20
0.0
 30
0.0
  0
INSERT
  5
468
330
1F
100
AcDbEntity
  8
LC-001-100-D00-0
 62
     7
370
    50
100
AcDbBlockReference
  2
POLY10
 10
0.0
 20
0.0
 30
0.0
  0
INSERT
  5
47C
330
1F
100
AcDbEntity
  8
LC-001-100-D00-0
 62
     7
370
    50
100
AcDbBlockReference
  2
POLY11
 10
0.0
 20
0.0
 30
0.0
  0
INSERT
  5
48C
330
1F
100
AcDbEntity
  8
LC-001-100-D00-0
 62
     7
370
    50
100
AcDbBlockReference
  2
POLY12
 10
0.0
 20
0.0
 30
0.0
  0
INSERT
  5
4A0
330
1F
100
AcDbEntity
  8
LC-001-100-D00-0
 62
     7
370
    50
100
AcDbBlockReference
  2
POLY13
 10
0.0
 20
0.0
 30
0.0
  0
INSERT
  5
4B0
330
1F
100
AcDbEntity
  8
LC-001-100-D00-0
 62
     7
370
    50
100
AcDbBlockReference
  2
POLY14
 10
0.0
 20
0.0
 30
0.0
  0
INSERT
  5
4C4
330
1F
100
AcDbEntity
  8
LC-001-100-D00-0
 62
     7
370
    50
100
AcDbBlockReference
  2
POLY15
 10
0.0
 20
0.0
 30
0.0
  0
INSERT
  5
4D4
330
1F
100
AcDbEntity
  8
LC-001-100-D00-0
 62
     7
370
    50
100
AcDbBlockReference
  2
POLY16
 10
0.0
 20
0.0
 30
0.0
  0
INSERT
  5
4E8
330
1F
100
AcDbEntity
  8
LC-001-100-D00-0
 62
     7
370
    50
100
AcDbBlockReference
  2
POLY17
 10
0.0
 20
0.0
 30
0.0
  0
INSERT
  5
4F8
330
1F
100
AcDbEntity
  8
LC-001-100-D00-0
 62
     7
370
    50
100
AcDbBlockReference
  2
POLY18
 10
0.0
 20
0.0
 30
0.0
  0
INSERT
  5
50C
330
1F
100
AcDbEntity
  8
LC-001-100-D00-0
 62
     7
370
    50
100
AcDbBlockReference
  2
POLY19
 10
0.0
 20
0.0
 30
0.0
  0
INSERT
  5
51C
330
1F
100
AcDbEntity
  8
LC-001-100-D00-0
 62
     7
370
    50
100
AcDbBlockReference
  2
POLY20
 10
0.0
 20
0.0
 30
0.0
  0
INSERT
  5
52C
330
1F
100
AcDbEntity
  8
LC-001-100-D00-0
 62
     7
370
    50
100
AcDbBlockReference
  2
POLY21
 10
0.0
 20
0.0
 30
0.0
  0
INSERT
  5
540
330
1F
100
AcDbEntity
  8
LC-001-100-D00-0
 62
     7
370
    50
100
AcDbBlockReference
  2
POLY22
 10
0.0
 20
0.0
 30
0.0
  0
LINE
  5
541
330
1F
100
AcDbEntity
  8
LC-001-100-D00-0
 62
     7
370
    50
100
AcDbLine
 10
326.360412
 20
37.359238
 30
0.0
 11
313.360412
 21
37.359238
 31
0.0
  0
ARC
  5
542
330
1F
100
AcDbEntity
  8
LC-001-100-D00-0
 62
     7
370
    50
100
AcDbCircle
 10
313.360411
 20
38.359241
 30
0.0
 40
0.9999999999999836
100
AcDbArc
 50
210.0
 51
270.0
  0
ARC
  5
543
330
1F
100
AcDbEntity
  8
LC-001-100-D00-0
 62
     7
370
    50
100
AcDbCircle
 10
326.360411
 20
38.359241
 30
0.0
 40
1.000000000000028
100
AcDbArc
 50
270.0
 51
330.0
  0
LINE
  5
544
330
1F
100
AcDbEntity
  8
LC-001-100-D00-0
 62
     7
370
    50
100
AcDbLine
 10
233.36041
 20
37.359238
 30
0.0
 11
246.36041
 21
37.359238
 31
0.0
  0
ARC
  5
545
330
1F
100
AcDbEntity
  8
LC-001-100-D00-0
 62
     7
370
    50
100
AcDbCircle
 10
233.360411
 20
38.359241
 30
0.0
 40
1.000000000000082
100
AcDbArc
 50
210.0
 51
270.0
  0
ARC
  5
546
330
1F
100
AcDbEntity
  8
LC-001-100-D00-0
 62
     7
370
    50
100
AcDbCircle
 10
246.360411
 20
38.359241
 30
0.0
 40
1.000000000000028
100
AcDbArc
 50
270.0
 51
330.0
  0
LINE
  5
547
330
1F
100
AcDbEntity
  8
LC-001-100-D00-0
 62
     7
370
    50
100
AcDbLine
 10
354.860414
 20
65.85924
 30
0.0
 11
354.860414
 21
78.85924
 31
0.0
  0
ARC
  5
548
330
1F
100
AcDbEntity
  8
LC-001-100-D00-0
 62
     7
370
    50
100
AcDbCircle
 10
353.860411
 20
65.859241
 30
0.0
 40
1.000000000000008
100
AcDbArc
 50
300.0
 51
0.0
  0
ARC
  5
549
330
1F
100
AcDbEntity
  8
LC-001-100-D00-0
 62
     7
370
    50
100
AcDbCircle
 10
353.860411
 20
78.859241
 30
0.0
 40
1.0
100
AcDbArc
 50
0.0
 51
60.0
  0
LINE
  5
54A
330
1F
100
AcDbEntity
  8
LC-001-100-D00-0
 62
     7
370
    50
100
AcDbLine
 10
204.860408
 20
65.85924
 30
0.0
 11
204.860408
 21
78.85924
 31
0.0
  0
ARC
  5
54B
330
1F
100
AcDbEntity
  8
LC-001-100-D00-0
 62
     7
370
    50
100
AcDbCircle
 10
205.860411
 20
78.859241
 30
0.0
 40
1.000000000000008
100
AcDbArc
 50
120.0
 51
180.0
  0
ARC
  5
54C
330
1F
100
AcDbEntity
  8
LC-001-100-D00-0
 62
     7
370
    50
100
AcDbCircle
 10
205.860411
 20
65.859241
 30
0.0
 40
1.000000000000114
100
AcDbArc
 50
180.0
 51
240.0
  0
LINE
  5
54D
330
1F
100
AcDbEntity
  8
LC-001-100-D00-0
 62
     7
370
    50
100
AcDbLine
 10
354.860414
 20
158.859242
 30
0.0
 11
354.860414
 21
145.859242
 31
0.0
  0
ARC
  5
54E
330
1F
100
AcDbEntity
  8
LC-001-100-D00-0
 62
     7
370
    50
100
AcDbCircle
 10
353.860411
 20
145.859241
 30
0.0
 40
0.9999999999999836
100
AcDbArc
 50
300.0
 51
0.0
  0
ARC
  5
54F
330
1F
100
AcDbEntity
  8
LC-001-100-D00-0
 62
     7
370
    50
100
AcDbCircle
 10
353.860411
 20
158.859241
 30
0.0
 40
1.0
100
AcDbArc
 50
0.0
 51
60.0
  0
LINE
  5
550
330
1F
100
AcDbEntity
  8
LC-001-100-D00-0
 62
     7
370
    50
100
AcDbLine
 10
204.860408
 20
158.859242
 30
0.0
 11
204.860408
 21
145.859242
 31
0.0
  0
ARC
  5
551
330
1F
100
AcDbEntity
  8
LC-001-100-D00-0
 62
     7
370
    50
100
AcDbCircle
 10
205.860411
 20
158.859241
 30
0.0
 40
0.9999999999999836
100
AcDbArc
 50
120.0
 51
180.0
  0
ARC
  5
552
330
1F
100
AcDbEntity
  8
LC-001-100-D00-0
 62
     7
370
    50
100
AcDbCircle
 10
205.860411
 20
145.859241
 30
0.0
 40
1.000000000000114
100
AcDbArc
 50
180.0
 51
240.0
  0
LINE
  5
553
330
1F
100
AcDbEntity
  8
LC-001-100-D00-0
 62
     7
370
    50
100
AcDbLine
 10
326.360412
 20
187.359244
 30
0.0
 11
313.360412
 21
187.359244
 31
0.0
  0
ARC
  5
554
330
1F
100
AcDbEntity
  8
LC-001-100-D00-0
 62
     7
370
    50
100
AcDbCircle
 10
326.360411
 20
186.359241
 30
0.0
 40
0.9999999999999836
100
AcDbArc
 50
30.0
 51
90.0
  0
ARC
  5
555
330
1F
100
AcDbEntity
  8
LC-001-100-D00-0
 62
     7
370
    50
100
AcDbCircle
 10
313.360411
 20
186.359241
 30
0.0
 40
1.0
100
AcDbArc
 50
90.0
 51
150.0
  0
LINE
  5
556
330
1F
100
AcDbEntity
  8
LC-001-100-D00-0
 62
     7
370
    50
100
AcDbLine
 10
233.36041
 20
187.359244
 30
0.0
 11
246.36041
 21
187.359244
 31
0.0
  0
ARC
  5
557
330
1F
100
AcDbEntity
  8
LC-001-100-D00-0
 62
     7
370
    50
100
AcDbCircle
 10
246.360411
 20
186.359241
 30
0.0
 40
0.9999999999998851
100
AcDbArc
 50
30.0
 51
90.0
  0
ARC
  5
558
330
1F
100
AcDbEntity
  8
LC-001-100-D00-0
 62
     7
370
    50
100
AcDbCircle
 10
233.360411
 20
186.359241
 30
0.0
 40
1.0
100
AcDbArc
 50
90.0
 51
150.0
  0
INSERT
  5
55E
330
1F
100
AcDbEntity
  8
LC-001-100-D00-0
 62
     7
370
    50
100
AcDbBlockReference
  2
KLON5
 10
0.0
 20
0.0
 30
0.0
  0
ARC
  5
55F
330
1F
100
AcDbEntity
  8
LC-001-100-D00-0
 62
     7
370
    50
100
AcDbCircle
 10
287.860411
 20
112.359241
 30
0.0
 40
60.49999999999999
100
AcDbArc
 50
57.238355
 51
67.762007
  0
ARC
  5
560
330
1F
100
AcDbEntity
  8
LC-001-100-D00-0
 62
     7
370
    50
100
AcDbCircle
 10
287.860411
 20
112.359241
 30
0.0
 40
60.50000000000007
100
AcDbArc
 50
112.237993
 51
126.711767
  0
ARC
  5
561
330
1F
100
AcDbEntity
  8
LC-001-100-D00-0
 62
     7
370
    50
100
AcDbCircle
 10
287.860411
 20
112.359241
 30
0.0
 40
60.50000000000015
100
AcDbArc
 50
159.048637
 51
200.951363
  0
ARC
  5
562
330
1F
100
AcDbEntity
  8
LC-001-100-D00-0
 62
     7
370
    50
100
AcDbCircle
 10
287.860411
 20
112.359241
 30
0.0
 40
60.50000000000009
100
AcDbArc
 50
233.288233
 51
247.762007
  0
ARC
  5
563
330
1F
100
AcDbEntity
  8
LC-001-100-D00-0
 62
     7
370
    50
100
AcDbCircle
 10
287.860411
 20
112.359241
 30
0.0
 40
60.49999999999995
100
AcDbArc
 50
292.237993
 51
302.761645
  0
INSERT
  5
569
330
1F
100
AcDbEntity
  8
LC-001-100-D00-0
 62
     7
370
    50
100
AcDbBlockReference
  2
KLON6
 10
0.0
 20
0.0
 30
0.0
  0
ENDSEC
  0
SECTION
  2
OBJECTS
  0
DICTIONARY
  5
C
330
0
100
AcDbDictionary
281
     1
  3
ACAD_GROUP
350
D
  3
ACAD_LAYOUT
350
1A
  3
ACAD_MLINESTYLE
350
17
  3
ACAD_PLOTSETTINGS
350
19
  3
ACAD_PLOTSTYLENAME
350
E
  0
DICTIONARY
  5
D
102
{ACAD_REACTORS
330
C
102
}
330
C
100
AcDbDictionary
281
     1
  3
LCGROUP1477
350
56B
  3
LCGROUP1534
350
56C
  3
LCGROUP23
350
56A
  0
DICTIONARY
  5
1A
102
{ACAD_REACTORS
330
C
102
}
330
C
100
AcDbDictionary
281
     1
  3
Layout1
350
1E
  3
Layout2
350
26
  3
Model
350
22
  0
DICTIONARY
  5
17
102
{ACAD_REACTORS
330
C
102
}
330
C
100
AcDbDictionary
281
     1
  3
Standard
350
18
  0
DICTIONARY
  5
19
102
{ACAD_REACTORS
330
C
102
}
330
C
100
AcDbDictionary
281
     1
  0
ACDBDICTIONARYWDFLT
  5
E
102
{ACAD_REACTORS
330
C
102
}
330
C
100
AcDbDictionary
281
     1
  3
Normal
350
F
100
AcDbDictionaryWithDefault
340
F
  0
GROUP
  5
56B
102
{ACAD_REACTORS
330
D
102
}
330
D
100
AcDbGroup
300
Rost 140 x 140-LCMaster-LCGROUP23
 70
     1
 71
     1
340
212
340
213
340
229
340
22A
340
22B
340
22C
340
22E
340
22F
340
230
340
231
340
232
340
248
340
249
340
24A
340
259
340
25D
340
26D
340
26E
340
281
340
282
340
283
340
285
340
286
340
287
  0
GROUP
  5
56C
102
{ACAD_REACTORS
330
D
102
}
330
D
100
AcDbGroup
300
Rost 140 x 140-LCMaster-LCGROUP23
 70
     1
 71
     1
340
272
340
273
340
28F
340
290
340
291
340
292
340
293
340
294
340
295
340
296
340
297
340
2AA
340
2AB
340
2AC
340
2BC
340
2C0
340
2C1
340
2C2
340
2C3
340
2C4
340
2C5
340
2C6
340
2C7
340
2C8
  0
GROUP
  5
56A
102
{ACAD_REACTORS
330
D
102
}
330
D
100
AcDbGroup
300
Rost
 70
     1
 71
     1
340
20A
340
20C
340
20D
340
20E
340
20F
340
210
340
211
340
214
340
215
340
216
340
217
340
218
340
219
340
21A
340
21B
340
21C
340
21D
340
21E
340
21F
340
220
340
221
340
222
340
223
340
224
340
225
340
226
340
227
340
228
340
23D
340
247
340
254
340
255
340
256
340
257
340
258
340
25A
340
25B
340
25C
340
269
340
26A
340
26B
340
26C
340
26F
340
270
340
271
340
274
340
275
340
276
340
277
340
278
340
279
340
27A
340
27B
340
27C
340
27D
340
27E
340
27F
340
280
340
284
340
288
340
289
340
28A
340
28B
340
28C
340
28D
340
28E
340
2A0
340
2A9
340
2B7
340
2B8
340
2B9
340
2BA
340
2BB
340
2BD
340
2BE
340
2BF
340
2C9
340
2CA
340
2CB
340
2CC
340
2CD
340
2CE
340
2CF
340
2D0
340
2D1
340
2D2
340
2D3
340
2D4
  0
LAYOUT
  5
1E
102
{ACAD_REACTORS
330
1A
102
}
330
1A
100
AcDbPlotSettings
  1

  2

  4

  6

 40
0.0
 41
0.0
 42
0.0
 43
0.0
 44
0.0
 45
0.0
 46
0.0
 47
0.0
 48
0.0
 49
0.0
140
0.0
141
0.0
142
1.0
143
1.0
 70
   688
 72
     0
 73
     0
 74
     5
  7

 75
    16
147
1.0
148
0.0
149
0.0
100
AcDbLayout
  1
Layout1
 70
     1
 71
     1
 10
-282.457552
 20
-226.26346
 11
557.542448
 21
367.73654
 12
0.0
 22
0.0
 32
0.0
 14
-282.457552
 24
-226.26346
 34
0.0
 15
557.542448
 25
367.73654
 35
0.0
146
0.0
 13
0.0
 23
0.0
 33
0.0
 16
1.0
 26
0.0
 36
0.0
 17
0.0
 27
1.0
 37
0.0
 76
     0
330
1B
  0
LAYOUT
  5
26
102
{ACAD_REACTORS
330
1A
102
}
330
1A
100
AcDbPlotSettings
  1

  2

  4

  6

 40
0.0
 41
0.0
 42
0.0
 43
0.0
 44
0.0
 45
0.0
 46
0.0
 47
0.0
 48
0.0
 49
0.0
140
0.0
141
0.0
142
1.0
143
1.0
 70
   688
 72
     0
 73
     0
 74
     5
  7

 75
    16
147
1.0
148
0.0
149
0.0
100
AcDbLayout
  1
Layout2
 70
     1
 71
     2
 10
0.0
 20
0.0
 11
0.0
 21
0.0
 12
0.0
 22
0.0
 32
0.0
 14
0.0
 24
0.0
 34
0.0
 15
0.0
 25
0.0
 35
0.0
146
0.0
 13
0.0
 23
0.0
 33
0.0
 16
1.0
 26
0.0
 36
0.0
 17
0.0
 27
1.0
 37
0.0
 76
     0
330
23
  0
LAYOUT
  5
22
102
{ACAD_REACTORS
330
1A
102
}
330
1A
100
AcDbPlotSettings
  1

  2

  4

  6

 40
0.0
 41
0.0
 42
0.0
 43
0.0
 44
0.0
 45
0.0
 46
0.0
 47
0.0
 48
0.0
 49
0.0
140
0.0
141
0.0
142
1.0
143
1.0
 70
  1776
 72
     0
 73
     0
 74
     0
  7

 75
     0
147
1.0
148
0.0
149
0.0
100
AcDbLayout
  1
Model
 70
     1
 71
     0
 10
-282.457552
 20
-226.26346
 11
557.542448
 21
367.73654
 12
0.0
 22
0.0
 32
0.0
 14
-282.457552
 24
-226.26346
 34
0.0
 15
557.542448
 25
367.73654
 35
0.0
146
0.0
 13
0.0
 23
0.0
 33
0.0
 16
1.0
 26
0.0
 36
0.0
 17
0.0
 27
1.0
 37
0.0
 76
     0
330
1F
  0
MLINESTYLE
  5
18
102
{ACAD_REACTORS
330
17
102
}
330
17
100
AcDbMlineStyle
  2
Standard
 70
     0
  3

 62
   256
 51
90.0
 52
90.0
 71
     2
 49
0.5
 62
   256
  6
BYLAYER
 49
-0.5
 62
   256
  6
BYLAYER
  0
ACDBPLACEHOLDER
  5
F
102
{ACAD_REACTORS
330
E
102
}
330
E
  0
ENDSEC
  0
EOF
