  0
SECTION
  2
HEADER
  9
$ACADVER
  1
AC1015
  9
$ACADMAINTVER
 70
     6
  9
$DWGCODEPAGE
  3
ANSI_1252
  9
$INSBASE
 10
0.0
 20
0.0
 30
0.0
  9
$EXTMIN
 10
-306.921457
 20
-201.620342
 30
0.0
  9
$EXTMAX
 10
533.078543
 20
392.379658
 30
0.0
  9
$LIMMIN
 10
-306.921457
 20
-201.620342
  9
$LIMMAX
 10
533.078543
 20
392.379658
  9
$ORTHOMODE
 70
     0
  9
$REGENMODE
 70
     1
  9
$FILLMODE
 70
     1
  9
$QTEXTMODE
 70
     0
  9
$MIRRTEXT
 70
     1
  9
$LTSCALE
 40
2.0
  9
$ATTMODE
 70
     1
  9
$TEXTSIZE
 40
2.5
  9
$TRACEWID
 40
1.0
  9
$TEXTSTYLE
  7
Standard
  9
$CLAYER
  8
0
  9
$CELTYPE
  6
ByLayer
  9
$CECOLOR
 62
     7
  9
$CELTSCALE
 40
1.0
  9
$DISPSILH
 70
     0
  9
$DIMSCALE
 40
2.0
  9
$DIMASZ
 40
3.5
  9
$DIMEXO
 40
0.625
  9
$DIMDLI
 40
3.75
  9
$DIMRND
 40
0.0
  9
$DIMDLE
 40
0.0
  9
$DIMEXE
 40
1.25
  9
$DIMTP
 40
0.0
  9
$DIMTM
 40
0.0
  9
$DIMTXT
 40
3.5
  9
$DIMCEN
 40
2.5
  9
$DIMTSZ
 40
0.0
  9
$DIMTOL
 70
     0
  9
$DIMLIM
 70
     0
  9
$DIMTIH
 70
     0
  9
$DIMTOH
 70
     0
  9
$DIMSE1
 70
     0
  9
$DIMSE2
 70
     0
  9
$DIMTAD
 70
     1
  9
$DIMZIN
 70
     8
  9
$DIMBLK
  1

  9
$DIMASO
 70
     1
  9
$DIMSHO
 70
     1
  9
$DIMPOST
  1

  9
$DIMAPOST
  1

  9
$DIMALT
 70
     0
  9
$DIMALTD
 70
     3
  9
$DIMALTF
 40
0.03937
  9
$DIMLFAC
 40
1.0
  9
$DIMTOFL
 70
     1
  9
$DIMTVP
 40
0.0
  9
$DIMTIX
 70
     0
  9
$DIMSOXD
 70
     0
  9
$DIMSAH
 70
     0
  9
$DIMBLK1
  1

  9
$DIMBLK2
  1

  9
$DIMSTYLE
  2
ISO-25
  9
$DIMCLRD
 70
     0
  9
$DIMCLRE
 70
     0
  9
$DIMCLRT
 70
     0
  9
$DIMTFAC
 40
1.0
  9
$DIMGAP
 40
0.625
  9
$DIMJUST
 70
     0
  9
$DIMSD1
 70
     0
  9
$DIMSD2
 70
     0
  9
$DIMTOLJ
 70
     0
  9
$DIMTZIN
 70
     8
  9
$DIMALTZ
 70
     0
  9
$DIMALTTZ
 70
     0
  9
$DIMUPT
 70
     0
  9
$DIMDEC
 70
     2
  9
$DIMTDEC
 70
     2
  9
$DIMALTU
 70
     2
  9
$DIMALTTD
 70
     3
  9
$DIMTXSTY
  7
Standard
  9
$DIMAUNIT
 70
     0
  9
$DIMADEC
 70
     0
  9
$DIMALTRND
 40
0.0
  9
$DIMAZIN
 70
     0
  9
$DIMDSEP
 70
    44
  9
$DIMATFIT
 70
     3
  9
$DIMFRAC
 70
     0
  9
$DIMLDRBLK
  1

  9
$DIMLUNIT
 70
     2
  9
$DIMLWD
 70
    -2
  9
$DIMLWE
 70
    -2
  9
$DIMTMOVE
 70
     0
  9
$LUNITS
 70
     2
  9
$LUPREC
 70
     4
  9
$SKETCHINC
 40
1.0
  9
$FILLETRAD
 40
10.0
  9
$AUNITS
 70
     0
  9
$AUPREC
 70
     0
  9
$MENU
  1
.
  9
$ELEVATION
 40
0.0
  9
$PELEVATION
 40
0.0
  9
$THICKNESS
 40
0.0
  9
$LIMCHECK
 70
     0
  9
$CHAMFERA
 40
10.0
  9
$CHAMFERB
 40
10.0
  9
$CHAMFERC
 40
20.0
  9
$CHAMFERD
 40
0.0
  9
$SKPOLY
 70
     0
  9
$TDCREATE
 40
2455518.574341354
  9
$TDUCREATE
 40
2455518.532674687
  9
$TDUPDATE
 40
2455518.574341366
  9
$TDUUPDATE
 40
2455518.532674699
  9
$TDINDWG
 40
0.0000000116
  9
$TDUSRTIMER
 40
0.0000000116
  9
$USRTIMER
 70
     1
  9
$ANGBASE
 50
0.0
  9
$ANGDIR
 70
     0
  9
$PDMODE
 70
     0
  9
$PDSIZE
 40
0.0
  9
$PLINEWID
 40
0.0
  9
$SPLFRAME
 70
     0
  9
$SPLINETYPE
 70
     6
  9
$SPLINESEGS
 70
     8
  9
$HANDSEED
  5
507
  9
$SURFTAB1
 70
     6
  9
$SURFTAB2
 70
     6
  9
$SURFTYPE
 70
     6
  9
$SURFU
 70
     6
  9
$SURFV
 70
     6
  9
$UCSBASE
  2

  9
$UCSNAME
  2

  9
$UCSORG
 10
0.0
 20
0.0
 30
0.0
  9
$UCSXDIR
 10
1.0
 20
0.0
 30
0.0
  9
$UCSYDIR
 10
0.0
 20
1.0
 30
0.0
  9
$UCSORTHOREF
  2

  9
$UCSORTHOVIEW
 70
     0
  9
$UCSORGTOP
 10
0.0
 20
0.0
 30
0.0
  9
$UCSORGBOTTOM
 10
0.0
 20
0.0
 30
0.0
  9
$UCSORGLEFT
 10
0.0
 20
0.0
 30
0.0
  9
$UCSORGRIGHT
 10
0.0
 20
0.0
 30
0.0
  9
$UCSORGFRONT
 10
0.0
 20
0.0
 30
0.0
  9
$UCSORGBACK
 10
0.0
 20
0.0
 30
0.0
  9
$PUCSBASE
  2

  9
$PUCSNAME
  2

  9
$PUCSORG
 10
0.0
 20
0.0
 30
0.0
  9
$PUCSXDIR
 10
1.0
 20
0.0
 30
0.0
  9
$PUCSYDIR
 10
0.0
 20
1.0
 30
0.0
  9
$PUCSORTHOREF
  2

  9
$PUCSORTHOVIEW
 70
     0
  9
$PUCSORGTOP
 10
0.0
 20
0.0
 30
0.0
  9
$PUCSORGBOTTOM
 10
0.0
 20
0.0
 30
0.0
  9
$PUCSORGLEFT
 10
0.0
 20
0.0
 30
0.0
  9
$PUCSORGRIGHT
 10
0.0
 20
0.0
 30
0.0
  9
$PUCSORGFRONT
 10
0.0
 20
0.0
 30
0.0
  9
$PUCSORGBACK
 10
0.0
 20
0.0
 30
0.0
  9
$USERI1
 70
     0
  9
$USERI2
 70
     0
  9
$USERI3
 70
     0
  9
$USERI4
 70
     0
  9
$USERI5
 70
     0
  9
$USERR1
 40
0.0
  9
$USERR2
 40
0.0
  9
$USERR3
 40
0.0
  9
$USERR4
 40
0.0
  9
$USERR5
 40
0.0
  9
$WORLDVIEW
 70
     1
  9
$SHADEDGE
 70
     3
  9
$SHADEDIF
 70
    70
  9
$TILEMODE
 70
     1
  9
$MAXACTVP
 70
    64
  9
$PINSBASE
 10
0.0
 20
0.0
 30
0.0
  9
$PLIMCHECK
 70
     0
  9
$PEXTMIN
 10
-306.921457
 20
-201.620342
 30
0.0
  9
$PEXTMAX
 10
533.078543
 20
392.379658
 30
0.0
  9
$PLIMMIN
 10
-306.921457
 20
-201.620342
  9
$PLIMMAX
 10
533.078543
 20
392.379658
  9
$UNITMODE
 70
     0
  9
$VISRETAIN
 70
     1
  9
$PLINEGEN
 70
     0
  9
$PSLTSCALE
 70
     1
  9
$TREEDEPTH
 70
  3020
  9
$CMLSTYLE
  2
Standard
  9
$CMLJUST
 70
     0
  9
$CMLSCALE
 40
20.0
  9
$PROXYGRAPHICS
 70
     1
  9
$MEASUREMENT
 70
     1
  9
$CELWEIGHT
370
    -1
  9
$ENDCAPS
280
     0
  9
$JOINSTYLE
280
     0
  9
$LWDISPLAY
290
     0
  9
$INSUNITS
 70
     4
  9
$HYPERLINKBASE
  1

  9
$STYLESHEET
  1

  9
$XEDIT
290
     1
  9
$CEPSNTYPE
380
     0
  9
$PSTYLEMODE
290
     1
  9
$FINGERPRINTGUID
  2
{FAEB1C30-E019-11D5-929B-00C0DF256EC4}
  9
$VERSIONGUID
  2
{FAEB1C32-E019-11D5-929B-00C0DF256EC4}
  9
$EXTNAMES
290
     1
  9
$PSVPSCALE
 40
0.0
  9
$OLESTARTUP
290
     0
  0
ENDSEC
  0
SECTION
  2
CLASSES
  0
CLASS
  1
ACDBDICTIONARYWDFLT
  2
AcDbDictionaryWithDefault
  3
ObjectDBX Classes
 90
        0
280
     0
281
     0
  0
CLASS
  1
ACDBPLACEHOLDER
  2
AcDbPlaceHolder
  3
ObjectDBX Classes
 90
        0
280
     0
281
     0
  0
CLASS
  1
LAYOUT
  2
AcDbLayout
  3
ObjectDBX Classes
 90
        0
280
     0
281
     0
  0
ENDSEC
  0
SECTION
  2
TABLES
  0
TABLE
  2
VPORT
  5
8
330
0
100
AcDbSymbolTable
 70
     2
  0
VPORT
  5
29
330
8
100
AcDbSymbolTableRecord
100
AcDbViewportTableRecord
  2
*ACTIVE
 70
     0
 10
0.0
 20
0.0
 11
1.0
 21
1.0
 12
113.078543
 22
95.379658
 13
0.0
 23
0.0
 14
1.0
 24
1.0
 15
0.0
 25
0.0
 16
0.0
 26
0.0
 36
1.0
 17
0.0
 27
0.0
 37
0.0
 40
594.0
 41
1.414141
 42
50.0
 43
0.0
 44
0.0
 50
0.0
 51
0.0
 71
    16
 72
   100
 73
     1
 74
     0
 75
     0
 76
     0
 77
     0
 78
     0
281
     0
 65
     0
110
0.0
120
0.0
130
0.0
111
1.0
121
0.0
131
0.0
112
0.0
122
1.0
132
0.0
 79
     0
146
0.0
  0
ENDTAB
  0
TABLE
  2
LTYPE
  5
5
330
0
100
AcDbSymbolTable
 70
     3
  0
LTYPE
  5
14
330
5
100
AcDbSymbolTableRecord
100
AcDbLinetypeTableRecord
  2
ByBlock
 70
     0
  3

 72
    65
 73
     0
 40
0.0
  0
LTYPE
  5
15
330
5
100
AcDbSymbolTableRecord
100
AcDbLinetypeTableRecord
  2
ByLayer
 70
     0
  3

 72
    65
 73
     0
 40
0.0
  0
LTYPE
  5
16
330
5
100
AcDbSymbolTableRecord
100
AcDbLinetypeTableRecord
  2
Continuous
 70
     0
  3
Solid line
 72
    65
 73
     0
 40
0.0
  0
LTYPE
  5
2A
330
5
100
AcDbSymbolTableRecord
100
AcDbLinetypeTableRecord
  2
DASHED
 70
     0
  3
__ __ __ __ __
 72
    65
 73
     2
 40
6.25
 49
5.0
 74
     4
 75
     0
340
0
 46
1.0
 50
0.0
 44
0.0
 45
0.0
 49
-1.25
 74
     4
 75
     0
340
0
 46
1.0
 50
0.0
 44
0.0
 45
0.0
  0
LTYPE
  5
32
330
5
100
AcDbSymbolTableRecord
100
AcDbLinetypeTableRecord
  2
DASHDOT
 70
     0
  3
__ . __ . __ . __ . __
 72
    65
 73
     4
 40
7.5
 49
5.0
 74
     4
 75
     0
340
0
 46
1.0
 50
0.0
 44
0.0
 45
0.0
 49
-1.25
 74
     4
 75
     0
340
0
 46
1.0
 50
0.0
 44
0.0
 45
0.0
 49
0.0
 74
     4
 75
     0
340
0
 46
1.0
 50
0.0
 44
0.0
 45
0.0
 49
-1.25
 74
     4
 75
     0
340
0
 46
1.0
 50
0.0
 44
0.0
 45
0.0
  0
ENDTAB
  0
TABLE
  2
LAYER
  5
2
330
0
100
AcDbSymbolTable
 70
    10
  0
LAYER
  5
10
330
2
100
AcDbSymbolTableRecord
100
AcDbLayerTableRecord
  2
0
 70
     0
 62
     7
  6
Continuous
370
    -3
390
F
  0
LAYER
  5
2B
330
2
100
AcDbSymbolTableRecord
100
AcDbLayerTableRecord
  2
LC-INFO-1-2-mm-A3-0
 70
     1
 62
     7
  6
ByBlock
370
    -3
390
F
  0
LAYER
  5
2C
330
2
100
AcDbSymbolTableRecord
100
AcDbLayerTableRecord
  2
LC-CUT-HIDDEN
 70
     0
 62
     7
  6
DASHED
370
    -3
390
F
  0
LAYER
  5
2D
330
2
100
AcDbSymbolTableRecord
100
AcDbLayerTableRecord
  2
LC-VIEWPORT
 70
     0
 62
     7
  6
ByBlock
370
    -3
390
F
  0
LAYER
  5
2E
330
2
100
AcDbSymbolTableRecord
100
AcDbLayerTableRecord
  2
LC-3D-HIDDEN
 70
     0
 62
     9
  6
DASHED
370
    -3
390
F
  0
LAYER
  5
30
330
2
100
AcDbSymbolTableRecord
100
AcDbLayerTableRecord
  2
LC-001-100-D00-0
 70
     0
 62
     1
  6
ByBlock
370
    -3
390
F
  0
LAYER
  5
33
330
2
100
AcDbSymbolTableRecord
100
AcDbLayerTableRecord
  2
LC-002-002-----0
 70
     0
 62
     2
  6
DASHDOT
370
    -3
390
F
  0
LAYER
  5
485
330
2
100
AcDbSymbolTableRecord
100
AcDbLayerTableRecord
  2
LC-003-003-----0
 70
     0
 62
     2
  6
ByBlock
370
    -3
390
F
  0
LAYER
  5
487
330
2
100
AcDbSymbolTableRecord
100
AcDbLayerTableRecord
  2
Defpoints
 70
     0
 62
     7
  6
Continuous
290
     0
370
    -3
390
F
  0
LAYER
  5
4B2
330
2
100
AcDbSymbolTableRecord
100
AcDbLayerTableRecord
  2
LC-004-005-----0
 70
     0
 62
     2
  6
ByBlock
370
    -3
390
F
  0
ENDTAB
  0
TABLE
  2
STYLE
  5
3
330
0
100
AcDbSymbolTable
 70
     3
  0
STYLE
  5
11
330
3
100
AcDbSymbolTableRecord
100
AcDbTextStyleTableRecord
  2
Standard
 70
     0
 40
0.0
 41
1.0
 50
0.0
 71
     0
 42
2.5
  3
txt
  4

  0
STYLE
  5
2F
330
3
100
AcDbSymbolTableRecord
100
AcDbTextStyleTableRecord
  2
LCTX15-400-0-0-Arial
 70
     0
 40
0.0
 41
0.8
 50
0.0
 71
     0
 42
3.5
  3

  4

1001
ACAD
1000
Arial
1071
 16777218
  0
STYLE
  5
483
330
3
100
AcDbSymbolTableRecord
100
AcDbTextStyleTableRecord
  2
LCTX15-400-0-0pDIN-Schrift
 70
     0
 40
2.5
 41
0.8
 50
15.0
 71
     0
 42
3.5
  3
STANDARD
  4

  0
ENDTAB
  0
TABLE
  2
VIEW
  5
6
330
0
100
AcDbSymbolTable
 70
     0
  0
ENDTAB
  0
TABLE
  2
UCS
  5
7
330
0
100
AcDbSymbolTable
 70
     0
  0
ENDTAB
  0
TABLE
  2
APPID
  5
9
330
0
100
AcDbSymbolTable
 70
     1
  0
APPID
  5
12
330
9
100
AcDbSymbolTableRecord
100
AcDbRegAppTableRecord
  2
ACAD
 70
     0
  0
ENDTAB
  0
TABLE
  2
DIMSTYLE
  5
A
330
0
100
AcDbSymbolTable
 70
     2
100
AcDbDimStyleTable
  0
DIMSTYLE
105
27
330
A
100
AcDbSymbolTableRecord
100
AcDbDimStyleTableRecord
  2
ISO-25
 70
     0
 41
2.5
 42
0.625
 43
3.75
 44
1.25
 73
     0
 74
     0
 77
     1
 78
     8
140
2.5
141
2.5
143
0.03937
147
0.625
171
     3
172
     1
271
     2
272
     2
274
     3
278
    44
283
     0
284
     8
340
11
  0
DIMSTYLE
105
484
102
{ACAD_REACTORS
330
486
330
495
330
4A2
330
4EC
330
4FA
102
}
330
A
100
AcDbSymbolTableRecord
100
AcDbDimStyleTableRecord
  2
LC-DIM-L-0140-02-02
 70
     0
 40
2.0
 41
14.0
 42
0.0
 43
7.5
 44
1.8
 73
     0
 74
     0
 77
     1
 78
     8
 79
     2
140
14.0
141
0.0
146
0.71
147
1.5
176
     2
177
     2
178
     2
179
     2
271
     2
278
    44
289
     1
340
483
  0
ENDTAB
  0
TABLE
  2
BLOCK_RECORD
  5
1
330
0
100
AcDbSymbolTable
 70
    36
  0
BLOCK_RECORD
  5
1F
330
1
100
AcDbSymbolTableRecord
100
AcDbBlockTableRecord
  2
*Model_Space
340
22
  0
BLOCK_RECORD
  5
1B
330
1
100
AcDbSymbolTableRecord
100
AcDbBlockTableRecord
  2
*Paper_Space
340
1E
  0
BLOCK_RECORD
  5
23
330
1
100
AcDbSymbolTableRecord
100
AcDbBlockTableRecord
  2
*Paper_Space0
340
26
  0
BLOCK_RECORD
  5
211
330
1
100
AcDbSymbolTableRecord
100
AcDbBlockTableRecord
  2
POLY1
340
0
102
{BLKREFS
331
222
102
}
  0
BLOCK_RECORD
  5
223
330
1
100
AcDbSymbolTableRecord
100
AcDbBlockTableRecord
  2
POLY2
340
0
102
{BLKREFS
331
234
102
}
  0
BLOCK_RECORD
  5
235
330
1
100
AcDbSymbolTableRecord
100
AcDbBlockTableRecord
  2
POLY3
340
0
102
{BLKREFS
331
246
102
}
  0
BLOCK_RECORD
  5
247
330
1
100
AcDbSymbolTableRecord
100
AcDbBlockTableRecord
  2
POLY4
340
0
102
{BLKREFS
331
258
102
}
  0
BLOCK_RECORD
  5
259
330
1
100
AcDbSymbolTableRecord
100
AcDbBlockTableRecord
  2
POLY5
340
0
102
{BLKREFS
331
26A
102
}
  0
BLOCK_RECORD
  5
26B
330
1
100
AcDbSymbolTableRecord
100
AcDbBlockTableRecord
  2
POLY6
340
0
102
{BLKREFS
331
27C
102
}
  0
BLOCK_RECORD
  5
27D
330
1
100
AcDbSymbolTableRecord
100
AcDbBlockTableRecord
  2
POLY7
340
0
102
{BLKREFS
331
28E
102
}
  0
BLOCK_RECORD
  5
28F
330
1
100
AcDbSymbolTableRecord
100
AcDbBlockTableRecord
  2
POLY8
340
0
102
{BLKREFS
331
2A0
102
}
  0
BLOCK_RECORD
  5
2A1
330
1
100
AcDbSymbolTableRecord
100
AcDbBlockTableRecord
  2
POLY9
340
0
102
{BLKREFS
331
2B2
102
}
  0
BLOCK_RECORD
  5
2B3
330
1
100
AcDbSymbolTableRecord
100
AcDbBlockTableRecord
  2
POLY10
340
0
102
{BLKREFS
331
2C4
102
}
  0
BLOCK_RECORD
  5
2C5
330
1
100
AcDbSymbolTableRecord
100
AcDbBlockTableRecord
  2
POLY11
340
0
102
{BLKREFS
331
2D6
102
}
  0
BLOCK_RECORD
  5
2D7
330
1
100
AcDbSymbolTableRecord
100
AcDbBlockTableRecord
  2
POLY12
340
0
102
{BLKREFS
331
2E8
102
}
  0
BLOCK_RECORD
  5
2E9
330
1
100
AcDbSymbolTableRecord
100
AcDbBlockTableRecord
  2
POLY13
340
0
102
{BLKREFS
331
2FA
102
}
  0
BLOCK_RECORD
  5
2FB
330
1
100
AcDbSymbolTableRecord
100
AcDbBlockTableRecord
  2
POLY14
340
0
102
{BLKREFS
331
30C
102
}
  0
BLOCK_RECORD
  5
30D
330
1
100
AcDbSymbolTableRecord
100
AcDbBlockTableRecord
  2
POLY15
340
0
102
{BLKREFS
331
31E
102
}
  0
BLOCK_RECORD
  5
31F
330
1
100
AcDbSymbolTableRecord
100
AcDbBlockTableRecord
  2
POLY16
340
0
102
{BLKREFS
331
330
102
}
  0
BLOCK_RECORD
  5
34B
330
1
100
AcDbSymbolTableRecord
100
AcDbBlockTableRecord
  2
POLY17
340
0
102
{BLKREFS
331
35A
102
}
  0
BLOCK_RECORD
  5
364
330
1
100
AcDbSymbolTableRecord
100
AcDbBlockTableRecord
  2
KLON1
340
0
102
{BLKREFS
331
369
102
}
  0
BLOCK_RECORD
  5
36D
330
1
100
AcDbSymbolTableRecord
100
AcDbBlockTableRecord
  2
KLON2
340
0
102
{BLKREFS
331
372
102
}
  0
BLOCK_RECORD
  5
3AE
330
1
100
AcDbSymbolTableRecord
100
AcDbBlockTableRecord
  2
POLY18
340
0
102
{BLKREFS
331
3BD
102
}
  0
BLOCK_RECORD
  5
3E7
330
1
100
AcDbSymbolTableRecord
100
AcDbBlockTableRecord
  2
POLY19
340
0
102
{BLKREFS
331
3F2
102
}
  0
BLOCK_RECORD
  5
3F9
330
1
100
AcDbSymbolTableRecord
100
AcDbBlockTableRecord
  2
POLY20
340
0
102
{BLKREFS
331
40A
102
}
  0
BLOCK_RECORD
  5
40B
330
1
100
AcDbSymbolTableRecord
100
AcDbBlockTableRecord
  2
POLY21
340
0
102
{BLKREFS
331
416
102
}
  0
BLOCK_RECORD
  5
41A
330
1
100
AcDbSymbolTableRecord
100
AcDbBlockTableRecord
  2
POLY22
340
0
102
{BLKREFS
331
425
102
}
  0
BLOCK_RECORD
  5
426
330
1
100
AcDbSymbolTableRecord
100
AcDbBlockTableRecord
  2
POLY23
340
0
102
{BLKREFS
331
437
102
}
  0
BLOCK_RECORD
  5
45B
330
1
100
AcDbSymbolTableRecord
100
AcDbBlockTableRecord
  2
KLON3
340
0
102
{BLKREFS
331
465
102
}
  0
BLOCK_RECORD
  5
466
330
1
100
AcDbSymbolTableRecord
100
AcDbBlockTableRecord
  2
KLON4
340
0
102
{BLKREFS
331
471
102
}
  0
BLOCK_RECORD
  5
472
330
1
100
AcDbSymbolTableRecord
100
AcDbBlockTableRecord
  2
KLON5
340
0
102
{BLKREFS
331
477
102
}
  0
BLOCK_RECORD
  5
47D
330
1
100
AcDbSymbolTableRecord
100
AcDbBlockTableRecord
  2
KLON6
340
0
102
{BLKREFS
331
482
102
}
  0
BLOCK_RECORD
  5
488
330
1
100
AcDbSymbolTableRecord
100
AcDbBlockTableRecord
  2
*D30
340
0
  0
BLOCK_RECORD
  5
496
330
1
100
AcDbSymbolTableRecord
100
AcDbBlockTableRecord
  2
*D31
340
0
  0
BLOCK_RECORD
  5
4A3
330
1
100
AcDbSymbolTableRecord
100
AcDbBlockTableRecord
  2
*D32
340
0
  0
BLOCK_RECORD
  5
4AF
330
1
100
AcDbSymbolTableRecord
100
AcDbBlockTableRecord
  2
*X133
340
0
102
{BLKREFS
331
4EB
102
}
  0
BLOCK_RECORD
  5
4ED
330
1
100
AcDbSymbolTableRecord
100
AcDbBlockTableRecord
  2
*D34
340
0
  0
BLOCK_RECORD
  5
4FB
330
1
100
AcDbSymbolTableRecord
100
AcDbBlockTableRecord
  2
*D35
340
0
  0
ENDTAB
  0
ENDSEC
  0
SECTION
  2
BLOCKS
  0
BLOCK
  5
20
330
1F
100
AcDbEntity
  8
0
100
AcDbBlockBegin
  2
*Model_Space
 70
     0
 71
     0
 10
0.0
 20
0.0
 30
0.0
  3
*Model_Space
  1

  0
ENDBLK
  5
21
330
1F
100
AcDbEntity
  8
0
100
AcDbBlockEnd
  0
BLOCK
  5
1C
330
1B
100
AcDbEntity
 67
     1
  8
0
100
AcDbBlockBegin
  2
*Paper_Space
 70
     0
 71
     0
 10
0.0
 20
0.0
 30
0.0
  3
*Paper_Space
  1

  0
ENDBLK
  5
1D
330
1B
100
AcDbEntity
 67
     1
  8
0
100
AcDbBlockEnd
  0
BLOCK
  5
24
330
23
100
AcDbEntity
  8
0
100
AcDbBlockBegin
  2
*Paper_Space0
 70
     0
 71
     0
 10
0.0
 20
0.0
 30
0.0
  3
*Paper_Space0
  1

  0
ENDBLK
  5
25
330
23
100
AcDbEntity
  8
0
100
AcDbBlockEnd
  0
BLOCK
  5
212
330
211
100
AcDbEntity
  8
0
100
AcDbBlockBegin
  2
POLY1
 70
     0
 71
     0
 10
0.0
 20
0.0
 30
0.0
  3
POLY1
  1

  4
POLY1
  0
LINE
  5
214
330
211
100
AcDbEntity
  8
LC-001-100-D00-0
 62
     7
370
    50
100
AcDbLine
 10
273.875071
 20
249.040991
 30
0.0
 11
273.875071
 21
249.040991
 31
0.0
  0
LINE
  5
215
330
211
100
AcDbEntity
  8
LC-001-100-D00-0
 62
     7
370
    50
100
AcDbLine
 10
273.875071
 20
249.040991
 30
0.0
 11
273.869574
 21
249.041062
 31
0.0
  0
LINE
  5
216
330
211
100
AcDbEntity
  8
LC-001-100-D00-0
 62
     7
370
    50
100
AcDbLine
 10
273.869574
 20
249.041062
 30
0.0
 11
273.869574
 21
249.041062
 31
0.0
  0
LINE
  5
217
330
211
100
AcDbEntity
  8
LC-001-100-D00-0
 62
     7
370
    50
100
AcDbLine
 10
273.869574
 20
249.041062
 30
0.0
 11
273.858577
 21
249.041204
 31
0.0
  0
LINE
  5
218
330
211
100
AcDbEntity
  8
LC-001-100-D00-0
 62
     7
370
    50
100
AcDbLine
 10
273.858577
 20
249.041204
 30
0.0
 11
273.858577
 21
249.041204
 31
0.0
  0
LINE
  5
219
330
211
100
AcDbEntity
  8
LC-001-100-D00-0
 62
     7
370
    50
100
AcDbLine
 10
273.858577
 20
249.041204
 30
0.0
 11
273.772976
 21
249.037781
 31
0.0
  0
LINE
  5
21A
330
211
100
AcDbEntity
  8
LC-001-100-D00-0
 62
     7
370
    50
100
AcDbLine
 10
273.772976
 20
249.037781
 30
0.0
 11
273.772976
 21
249.037781
 31
0.0
  0
LINE
  5
21B
330
211
100
AcDbEntity
  8
LC-001-100-D00-0
 62
     7
370
    50
100
AcDbLine
 10
273.772976
 20
249.037781
 30
0.0
 11
273.649963
 21
249.018397
 31
0.0
  0
LINE
  5
21C
330
211
100
AcDbEntity
  8
LC-001-100-D00-0
 62
     7
370
    50
100
AcDbLine
 10
273.649963
 20
249.018397
 30
0.0
 11
273.649963
 21
249.018397
 31
0.0
  0
LINE
  5
21D
330
211
100
AcDbEntity
  8
LC-001-100-D00-0
 62
     7
370
    50
100
AcDbLine
 10
273.649963
 20
249.018397
 30
0.0
 11
273.507973
 21
248.976359
 31
0.0
  0
LINE
  5
21E
330
211
100
AcDbEntity
  8
LC-001-100-D00-0
 62
     7
370
    50
100
AcDbLine
 10
273.507973
 20
248.976359
 30
0.0
 11
273.507973
 21
248.976359
 31
0.0
  0
LINE
  5
21F
330
211
100
AcDbEntity
  8
LC-001-100-D00-0
 62
     7
370
    50
100
AcDbLine
 10
273.507973
 20
248.976359
 30
0.0
 11
273.417922
 21
248.929376
 31
0.0
  0
LINE
  5
220
330
211
100
AcDbEntity
  8
LC-001-100-D00-0
 62
     7
370
    50
100
AcDbLine
 10
273.417922
 20
248.929376
 30
0.0
 11
273.417922
 21
248.929376
 31
0.0
  0
LINE
  5
221
330
211
100
AcDbEntity
  8
LC-001-100-D00-0
 62
     7
370
    50
100
AcDbLine
 10
273.417922
 20
248.929376
 30
0.0
 11
273.37507
 21
248.907018
 31
0.0
  0
ENDBLK
  5
213
330
211
100
AcDbEntity
  8
0
100
AcDbBlockEnd
  0
BLOCK
  5
224
330
223
100
AcDbEntity
  8
0
100
AcDbBlockBegin
  2
POLY2
 70
     0
 71
     0
 10
0.0
 20
0.0
 30
0.0
  3
POLY2
  1

  4
POLY2
  0
LINE
  5
226
330
223
100
AcDbEntity
  8
LC-001-100-D00-0
 62
     7
370
    50
100
AcDbLine
 10
273.37507
 20
234.174967
 30
0.0
 11
273.37507
 21
234.174967
 31
0.0
  0
LINE
  5
227
330
223
100
AcDbEntity
  8
LC-001-100-D00-0
 62
     7
370
    50
100
AcDbLine
 10
273.37507
 20
234.174967
 30
0.0
 11
273.42473
 21
234.149483
 31
0.0
  0
LINE
  5
228
330
223
100
AcDbEntity
  8
LC-001-100-D00-0
 62
     7
370
    50
100
AcDbLine
 10
273.42473
 20
234.149483
 30
0.0
 11
273.42473
 21
234.149483
 31
0.0
  0
LINE
  5
229
330
223
100
AcDbEntity
  8
LC-001-100-D00-0
 62
     7
370
    50
100
AcDbLine
 10
273.42473
 20
234.149483
 30
0.0
 11
273.524207
 21
234.098435
 31
0.0
  0
LINE
  5
22A
330
223
100
AcDbEntity
  8
LC-001-100-D00-0
 62
     7
370
    50
100
AcDbLine
 10
273.524207
 20
234.098435
 30
0.0
 11
273.524207
 21
234.098435
 31
0.0
  0
LINE
  5
22B
330
223
100
AcDbEntity
  8
LC-001-100-D00-0
 62
     7
370
    50
100
AcDbLine
 10
273.524207
 20
234.098435
 30
0.0
 11
273.670767
 21
234.059334
 31
0.0
  0
LINE
  5
22C
330
223
100
AcDbEntity
  8
LC-001-100-D00-0
 62
     7
370
    50
100
AcDbLine
 10
273.670767
 20
234.059334
 30
0.0
 11
273.670767
 21
234.059334
 31
0.0
  0
LINE
  5
22D
330
223
100
AcDbEntity
  8
LC-001-100-D00-0
 62
     7
370
    50
100
AcDbLine
 10
273.670767
 20
234.059334
 30
0.0
 11
273.785718
 21
234.043382
 31
0.0
  0
LINE
  5
22E
330
223
100
AcDbEntity
  8
LC-001-100-D00-0
 62
     7
370
    50
100
AcDbLine
 10
273.785718
 20
234.043382
 30
0.0
 11
273.785718
 21
234.043382
 31
0.0
  0
LINE
  5
22F
330
223
100
AcDbEntity
  8
LC-001-100-D00-0
 62
     7
370
    50
100
AcDbLine
 10
273.785718
 20
234.043382
 30
0.0
 11
273.860949
 21
234.040838
 31
0.0
  0
LINE
  5
230
330
223
100
AcDbEntity
  8
LC-001-100-D00-0
 62
     7
370
    50
100
AcDbLine
 10
273.860949
 20
234.040838
 30
0.0
 11
273.860949
 21
234.040838
 31
0.0
  0
LINE
  5
231
330
223
100
AcDbEntity
  8
LC-001-100-D00-0
 62
     7
370
    50
100
AcDbLine
 10
273.860949
 20
234.040838
 30
0.0
 11
273.87042
 21
234.04094
 31
0.0
  0
LINE
  5
232
330
223
100
AcDbEntity
  8
LC-001-100-D00-0
 62
     7
370
    50
100
AcDbLine
 10
273.87042
 20
234.04094
 30
0.0
 11
273.87042
 21
234.04094
 31
0.0
  0
LINE
  5
233
330
223
100
AcDbEntity
  8
LC-001-100-D00-0
 62
     7
370
    50
100
AcDbLine
 10
273.87042
 20
234.04094
 30
0.0
 11
273.875071
 21
234.04099
 31
0.0
  0
ENDBLK
  5
225
330
223
100
AcDbEntity
  8
0
100
AcDbBlockEnd
  0
BLOCK
  5
236
330
235
100
AcDbEntity
  8
0
100
AcDbBlockBegin
  2
POLY3
 70
     0
 71
     0
 10
0.0
 20
0.0
 30
0.0
  3
POLY3
  1

  4
POLY3
  0
LINE
  5
238
330
235
100
AcDbEntity
  8
LC-001-100-D00-0
 62
     7
370
    50
100
AcDbLine
 10
315.37507
 20
275.540993
 30
0.0
 11
315.37507
 21
275.540993
 31
0.0
  0
LINE
  5
239
330
235
100
AcDbEntity
  8
LC-001-100-D00-0
 62
     7
370
    50
100
AcDbLine
 10
315.37507
 20
275.540993
 30
0.0
 11
315.375143
 21
275.54649
 31
0.0
  0
LINE
  5
23A
330
235
100
AcDbEntity
  8
LC-001-100-D00-0
 62
     7
370
    50
100
AcDbLine
 10
315.375143
 20
275.54649
 30
0.0
 11
315.375143
 21
275.54649
 31
0.0
  0
LINE
  5
23B
330
235
100
AcDbEntity
  8
LC-001-100-D00-0
 62
     7
370
    50
100
AcDbLine
 10
315.375143
 20
275.54649
 30
0.0
 11
315.375289
 21
275.557487
 31
0.0
  0
LINE
  5
23C
330
235
100
AcDbEntity
  8
LC-001-100-D00-0
 62
     7
370
    50
100
AcDbLine
 10
315.375289
 20
275.557487
 30
0.0
 11
315.375289
 21
275.557487
 31
0.0
  0
LINE
  5
23D
330
235
100
AcDbEntity
  8
LC-001-100-D00-0
 62
     7
370
    50
100
AcDbLine
 10
315.375289
 20
275.557487
 30
0.0
 11
315.371856
 21
275.643087
 31
0.0
  0
LINE
  5
23E
330
235
100
AcDbEntity
  8
LC-001-100-D00-0
 62
     7
370
    50
100
AcDbLine
 10
315.371856
 20
275.643087
 30
0.0
 11
315.371856
 21
275.643087
 31
0.0
  0
LINE
  5
23F
330
235
100
AcDbEntity
  8
LC-001-100-D00-0
 62
     7
370
    50
100
AcDbLine
 10
315.371856
 20
275.643087
 30
0.0
 11
315.352482
 21
275.766101
 31
0.0
  0
LINE
  5
240
330
235
100
AcDbEntity
  8
LC-001-100-D00-0
 62
     7
370
    50
100
AcDbLine
 10
315.352482
 20
275.766101
 30
0.0
 11
315.352482
 21
275.766101
 31
0.0
  0
LINE
  5
241
330
235
100
AcDbEntity
  8
LC-001-100-D00-0
 62
     7
370
    50
100
AcDbLine
 10
315.352482
 20
275.766101
 30
0.0
 11
315.310437
 21
275.90809
 31
0.0
  0
LINE
  5
242
330
235
100
AcDbEntity
  8
LC-001-100-D00-0
 62
     7
370
    50
100
AcDbLine
 10
315.310437
 20
275.90809
 30
0.0
 11
315.310437
 21
275.90809
 31
0.0
  0
LINE
  5
243
330
235
100
AcDbEntity
  8
LC-001-100-D00-0
 62
     7
370
    50
100
AcDbLine
 10
315.310437
 20
275.90809
 30
0.0
 11
315.263454
 21
275.998142
 31
0.0
  0
LINE
  5
244
330
235
100
AcDbEntity
  8
LC-001-100-D00-0
 62
     7
370
    50
100
AcDbLine
 10
315.263454
 20
275.998142
 30
0.0
 11
315.263454
 21
275.998142
 31
0.0
  0
LINE
  5
245
330
235
100
AcDbEntity
  8
LC-001-100-D00-0
 62
     7
370
    50
100
AcDbLine
 10
315.263454
 20
275.998142
 30
0.0
 11
315.241097
 21
276.040994
 31
0.0
  0
ENDBLK
  5
237
330
235
100
AcDbEntity
  8
0
100
AcDbBlockEnd
  0
BLOCK
  5
248
330
247
100
AcDbEntity
  8
0
100
AcDbBlockBegin
  2
POLY4
 70
     0
 71
     0
 10
0.0
 20
0.0
 30
0.0
  3
POLY4
  1

  4
POLY4
  0
LINE
  5
24A
330
247
100
AcDbEntity
  8
LC-001-100-D00-0
 62
     7
370
    50
100
AcDbLine
 10
300.509046
 20
276.040994
 30
0.0
 11
300.509046
 21
276.040994
 31
0.0
  0
LINE
  5
24B
330
247
100
AcDbEntity
  8
LC-001-100-D00-0
 62
     7
370
    50
100
AcDbLine
 10
300.509046
 20
276.040994
 30
0.0
 11
300.483561
 21
275.991335
 31
0.0
  0
LINE
  5
24C
330
247
100
AcDbEntity
  8
LC-001-100-D00-0
 62
     7
370
    50
100
AcDbLine
 10
300.483561
 20
275.991335
 30
0.0
 11
300.483561
 21
275.991335
 31
0.0
  0
LINE
  5
24D
330
247
100
AcDbEntity
  8
LC-001-100-D00-0
 62
     7
370
    50
100
AcDbLine
 10
300.483561
 20
275.991335
 30
0.0
 11
300.432511
 21
275.891857
 31
0.0
  0
LINE
  5
24E
330
247
100
AcDbEntity
  8
LC-001-100-D00-0
 62
     7
370
    50
100
AcDbLine
 10
300.432511
 20
275.891857
 30
0.0
 11
300.432511
 21
275.891857
 31
0.0
  0
LINE
  5
24F
330
247
100
AcDbEntity
  8
LC-001-100-D00-0
 62
     7
370
    50
100
AcDbLine
 10
300.432511
 20
275.891857
 30
0.0
 11
300.39342
 21
275.74529
 31
0.0
  0
LINE
  5
250
330
247
100
AcDbEntity
  8
LC-001-100-D00-0
 62
     7
370
    50
100
AcDbLine
 10
300.39342
 20
275.74529
 30
0.0
 11
300.39342
 21
275.74529
 31
0.0
  0
LINE
  5
251
330
247
100
AcDbEntity
  8
LC-001-100-D00-0
 62
     7
370
    50
100
AcDbLine
 10
300.39342
 20
275.74529
 30
0.0
 11
300.377459
 21
275.630347
 31
0.0
  0
LINE
  5
252
330
247
100
AcDbEntity
  8
LC-001-100-D00-0
 62
     7
370
    50
100
AcDbLine
 10
300.377459
 20
275.630347
 30
0.0
 11
300.377459
 21
275.630347
 31
0.0
  0
LINE
  5
253
330
247
100
AcDbEntity
  8
LC-001-100-D00-0
 62
     7
370
    50
100
AcDbLine
 10
300.377459
 20
275.630347
 30
0.0
 11
300.374916
 21
275.555114
 31
0.0
  0
LINE
  5
254
330
247
100
AcDbEntity
  8
LC-001-100-D00-0
 62
     7
370
    50
100
AcDbLine
 10
300.374916
 20
275.555114
 30
0.0
 11
300.374916
 21
275.555114
 31
0.0
  0
LINE
  5
255
330
247
100
AcDbEntity
  8
LC-001-100-D00-0
 62
     7
370
    50
100
AcDbLine
 10
300.374916
 20
275.555114
 30
0.0
 11
300.375021
 21
275.545644
 31
0.0
  0
LINE
  5
256
330
247
100
AcDbEntity
  8
LC-001-100-D00-0
 62
     7
370
    50
100
AcDbLine
 10
300.375021
 20
275.545644
 30
0.0
 11
300.375021
 21
275.545644
 31
0.0
  0
LINE
  5
257
330
247
100
AcDbEntity
  8
LC-001-100-D00-0
 62
     7
370
    50
100
AcDbLine
 10
300.375021
 20
275.545644
 30
0.0
 11
300.375073
 21
275.540993
 31
0.0
  0
ENDBLK
  5
249
330
247
100
AcDbEntity
  8
0
100
AcDbBlockEnd
  0
BLOCK
  5
25A
330
259
100
AcDbEntity
  8
0
100
AcDbBlockBegin
  2
POLY5
 70
     0
 71
     0
 10
0.0
 20
0.0
 30
0.0
  3
POLY5
  1

  4
POLY5
  0
LINE
  5
25C
330
259
100
AcDbEntity
  8
LC-001-100-D00-0
 62
     7
370
    50
100
AcDbLine
 10
395.375072
 20
275.540993
 30
0.0
 11
395.375072
 21
275.540993
 31
0.0
  0
LINE
  5
25D
330
259
100
AcDbEntity
  8
LC-001-100-D00-0
 62
     7
370
    50
100
AcDbLine
 10
395.375072
 20
275.540993
 30
0.0
 11
395.375143
 21
275.54649
 31
0.0
  0
LINE
  5
25E
330
259
100
AcDbEntity
  8
LC-001-100-D00-0
 62
     7
370
    50
100
AcDbLine
 10
395.375143
 20
275.54649
 30
0.0
 11
395.375143
 21
275.54649
 31
0.0
  0
LINE
  5
25F
330
259
100
AcDbEntity
  8
LC-001-100-D00-0
 62
     7
370
    50
100
AcDbLine
 10
395.375143
 20
275.54649
 30
0.0
 11
395.375285
 21
275.557487
 31
0.0
  0
LINE
  5
260
330
259
100
AcDbEntity
  8
LC-001-100-D00-0
 62
     7
370
    50
100
AcDbLine
 10
395.375285
 20
275.557487
 30
0.0
 11
395.375285
 21
275.557487
 31
0.0
  0
LINE
  5
261
330
259
100
AcDbEntity
  8
LC-001-100-D00-0
 62
     7
370
    50
100
AcDbLine
 10
395.375285
 20
275.557487
 30
0.0
 11
395.371862
 21
275.643088
 31
0.0
  0
LINE
  5
262
330
259
100
AcDbEntity
  8
LC-001-100-D00-0
 62
     7
370
    50
100
AcDbLine
 10
395.371862
 20
275.643088
 30
0.0
 11
395.371862
 21
275.643088
 31
0.0
  0
LINE
  5
263
330
259
100
AcDbEntity
  8
LC-001-100-D00-0
 62
     7
370
    50
100
AcDbLine
 10
395.371862
 20
275.643088
 30
0.0
 11
395.352478
 21
275.7661
 31
0.0
  0
LINE
  5
264
330
259
100
AcDbEntity
  8
LC-001-100-D00-0
 62
     7
370
    50
100
AcDbLine
 10
395.352478
 20
275.7661
 30
0.0
 11
395.352478
 21
275.7661
 31
0.0
  0
LINE
  5
265
330
259
100
AcDbEntity
  8
LC-001-100-D00-0
 62
     7
370
    50
100
AcDbLine
 10
395.352478
 20
275.7661
 30
0.0
 11
395.310441
 21
275.908091
 31
0.0
  0
LINE
  5
266
330
259
100
AcDbEntity
  8
LC-001-100-D00-0
 62
     7
370
    50
100
AcDbLine
 10
395.310441
 20
275.908091
 30
0.0
 11
395.310441
 21
275.908091
 31
0.0
  0
LINE
  5
267
330
259
100
AcDbEntity
  8
LC-001-100-D00-0
 62
     7
370
    50
100
AcDbLine
 10
395.310441
 20
275.908091
 30
0.0
 11
395.263454
 21
275.998142
 31
0.0
  0
LINE
  5
268
330
259
100
AcDbEntity
  8
LC-001-100-D00-0
 62
     7
370
    50
100
AcDbLine
 10
395.263454
 20
275.998142
 30
0.0
 11
395.263454
 21
275.998142
 31
0.0
  0
LINE
  5
269
330
259
100
AcDbEntity
  8
LC-001-100-D00-0
 62
     7
370
    50
100
AcDbLine
 10
395.263454
 20
275.998142
 30
0.0
 11
395.241096
 21
276.040994
 31
0.0
  0
ENDBLK
  5
25B
330
259
100
AcDbEntity
  8
0
100
AcDbBlockEnd
  0
BLOCK
  5
26C
330
26B
100
AcDbEntity
  8
0
100
AcDbBlockBegin
  2
POLY6
 70
     0
 71
     0
 10
0.0
 20
0.0
 30
0.0
  3
POLY6
  1

  4
POLY6
  0
LINE
  5
26E
330
26B
100
AcDbEntity
  8
LC-001-100-D00-0
 62
     7
370
    50
100
AcDbLine
 10
380.509048
 20
276.040994
 30
0.0
 11
380.509048
 21
276.040994
 31
0.0
  0
LINE
  5
26F
330
26B
100
AcDbEntity
  8
LC-001-100-D00-0
 62
     7
370
    50
100
AcDbLine
 10
380.509048
 20
276.040994
 30
0.0
 11
380.483562
 21
275.991335
 31
0.0
  0
LINE
  5
270
330
26B
100
AcDbEntity
  8
LC-001-100-D00-0
 62
     7
370
    50
100
AcDbLine
 10
380.483562
 20
275.991335
 30
0.0
 11
380.483562
 21
275.991335
 31
0.0
  0
LINE
  5
271
330
26B
100
AcDbEntity
  8
LC-001-100-D00-0
 62
     7
370
    50
100
AcDbLine
 10
380.483562
 20
275.991335
 30
0.0
 11
380.432508
 21
275.891858
 31
0.0
  0
LINE
  5
272
330
26B
100
AcDbEntity
  8
LC-001-100-D00-0
 62
     7
370
    50
100
AcDbLine
 10
380.432508
 20
275.891858
 30
0.0
 11
380.432508
 21
275.891858
 31
0.0
  0
LINE
  5
273
330
26B
100
AcDbEntity
  8
LC-001-100-D00-0
 62
     7
370
    50
100
AcDbLine
 10
380.432508
 20
275.891858
 30
0.0
 11
380.393419
 21
275.74529
 31
0.0
  0
LINE
  5
274
330
26B
100
AcDbEntity
  8
LC-001-100-D00-0
 62
     7
370
    50
100
AcDbLine
 10
380.393419
 20
275.74529
 30
0.0
 11
380.393419
 21
275.74529
 31
0.0
  0
LINE
  5
275
330
26B
100
AcDbEntity
  8
LC-001-100-D00-0
 62
     7
370
    50
100
AcDbLine
 10
380.393419
 20
275.74529
 30
0.0
 11
380.377456
 21
275.630347
 31
0.0
  0
LINE
  5
276
330
26B
100
AcDbEntity
  8
LC-001-100-D00-0
 62
     7
370
    50
100
AcDbLine
 10
380.377456
 20
275.630347
 30
0.0
 11
380.377456
 21
275.630347
 31
0.0
  0
LINE
  5
277
330
26B
100
AcDbEntity
  8
LC-001-100-D00-0
 62
     7
370
    50
100
AcDbLine
 10
380.377456
 20
275.630347
 30
0.0
 11
380.374921
 21
275.555114
 31
0.0
  0
LINE
  5
278
330
26B
100
AcDbEntity
  8
LC-001-100-D00-0
 62
     7
370
    50
100
AcDbLine
 10
380.374921
 20
275.555114
 30
0.0
 11
380.374921
 21
275.555114
 31
0.0
  0
LINE
  5
279
330
26B
100
AcDbEntity
  8
LC-001-100-D00-0
 62
     7
370
    50
100
AcDbLine
 10
380.374921
 20
275.555114
 30
0.0
 11
380.375022
 21
275.545644
 31
0.0
  0
LINE
  5
27A
330
26B
100
AcDbEntity
  8
LC-001-100-D00-0
 62
     7
370
    50
100
AcDbLine
 10
380.375022
 20
275.545644
 30
0.0
 11
380.375022
 21
275.545644
 31
0.0
  0
LINE
  5
27B
330
26B
100
AcDbEntity
  8
LC-001-100-D00-0
 62
     7
370
    50
100
AcDbLine
 10
380.375022
 20
275.545644
 30
0.0
 11
380.375071
 21
275.540993
 31
0.0
  0
ENDBLK
  5
26D
330
26B
100
AcDbEntity
  8
0
100
AcDbBlockEnd
  0
BLOCK
  5
27E
330
27D
100
AcDbEntity
  8
0
100
AcDbBlockBegin
  2
POLY7
 70
     0
 71
     0
 10
0.0
 20
0.0
 30
0.0
  3
POLY7
  1

  4
POLY7
  0
LINE
  5
280
330
27D
100
AcDbEntity
  8
LC-001-100-D00-0
 62
     7
370
    50
100
AcDbLine
 10
422.375074
 20
248.907018
 30
0.0
 11
422.375074
 21
248.907018
 31
0.0
  0
LINE
  5
281
330
27D
100
AcDbEntity
  8
LC-001-100-D00-0
 62
     7
370
    50
100
AcDbLine
 10
422.375074
 20
248.907018
 30
0.0
 11
422.325415
 21
248.932503
 31
0.0
  0
LINE
  5
282
330
27D
100
AcDbEntity
  8
LC-001-100-D00-0
 62
     7
370
    50
100
AcDbLine
 10
422.325415
 20
248.932503
 30
0.0
 11
422.325415
 21
248.932503
 31
0.0
  0
LINE
  5
283
330
27D
100
AcDbEntity
  8
LC-001-100-D00-0
 62
     7
370
    50
100
AcDbLine
 10
422.325415
 20
248.932503
 30
0.0
 11
422.225938
 21
248.983553
 31
0.0
  0
LINE
  5
284
330
27D
100
AcDbEntity
  8
LC-001-100-D00-0
 62
     7
370
    50
100
AcDbLine
 10
422.225938
 20
248.983553
 30
0.0
 11
422.225938
 21
248.983553
 31
0.0
  0
LINE
  5
285
330
27D
100
AcDbEntity
  8
LC-001-100-D00-0
 62
     7
370
    50
100
AcDbLine
 10
422.225938
 20
248.983553
 30
0.0
 11
422.079371
 21
249.022643
 31
0.0
  0
LINE
  5
286
330
27D
100
AcDbEntity
  8
LC-001-100-D00-0
 62
     7
370
    50
100
AcDbLine
 10
422.079371
 20
249.022643
 30
0.0
 11
422.079371
 21
249.022643
 31
0.0
  0
LINE
  5
287
330
27D
100
AcDbEntity
  8
LC-001-100-D00-0
 62
     7
370
    50
100
AcDbLine
 10
422.079371
 20
249.022643
 30
0.0
 11
421.964428
 21
249.038607
 31
0.0
  0
LINE
  5
288
330
27D
100
AcDbEntity
  8
LC-001-100-D00-0
 62
     7
370
    50
100
AcDbLine
 10
421.964428
 20
249.038607
 30
0.0
 11
421.964428
 21
249.038607
 31
0.0
  0
LINE
  5
289
330
27D
100
AcDbEntity
  8
LC-001-100-D00-0
 62
     7
370
    50
100
AcDbLine
 10
421.964428
 20
249.038607
 30
0.0
 11
421.889195
 21
249.041142
 31
0.0
  0
LINE
  5
28A
330
27D
100
AcDbEntity
  8
LC-001-100-D00-0
 62
     7
370
    50
100
AcDbLine
 10
421.889195
 20
249.041142
 30
0.0
 11
421.889195
 21
249.041142
 31
0.0
  0
LINE
  5
28B
330
27D
100
AcDbEntity
  8
LC-001-100-D00-0
 62
     7
370
    50
100
AcDbLine
 10
421.889195
 20
249.041142
 30
0.0
 11
421.879725
 21
249.041041
 31
0.0
  0
LINE
  5
28C
330
27D
100
AcDbEntity
  8
LC-001-100-D00-0
 62
     7
370
    50
100
AcDbLine
 10
421.879725
 20
249.041041
 30
0.0
 11
421.879725
 21
249.041041
 31
0.0
  0
LINE
  5
28D
330
27D
100
AcDbEntity
  8
LC-001-100-D00-0
 62
     7
370
    50
100
AcDbLine
 10
421.879725
 20
249.041041
 30
0.0
 11
421.875073
 21
249.040991
 31
0.0
  0
ENDBLK
  5
27F
330
27D
100
AcDbEntity
  8
0
100
AcDbBlockEnd
  0
BLOCK
  5
290
330
28F
100
AcDbEntity
  8
0
100
AcDbBlockBegin
  2
POLY8
 70
     0
 71
     0
 10
0.0
 20
0.0
 30
0.0
  3
POLY8
  1

  4
POLY8
  0
LINE
  5
292
330
28F
100
AcDbEntity
  8
LC-001-100-D00-0
 62
     7
370
    50
100
AcDbLine
 10
421.875073
 20
234.04099
 30
0.0
 11
421.875073
 21
234.04099
 31
0.0
  0
LINE
  5
293
330
28F
100
AcDbEntity
  8
LC-001-100-D00-0
 62
     7
370
    50
100
AcDbLine
 10
421.875073
 20
234.04099
 30
0.0
 11
421.880571
 21
234.040919
 31
0.0
  0
LINE
  5
294
330
28F
100
AcDbEntity
  8
LC-001-100-D00-0
 62
     7
370
    50
100
AcDbLine
 10
421.880571
 20
234.040919
 30
0.0
 11
421.880571
 21
234.040919
 31
0.0
  0
LINE
  5
295
330
28F
100
AcDbEntity
  8
LC-001-100-D00-0
 62
     7
370
    50
100
AcDbLine
 10
421.880571
 20
234.040919
 30
0.0
 11
421.891568
 21
234.040776
 31
0.0
  0
LINE
  5
296
330
28F
100
AcDbEntity
  8
LC-001-100-D00-0
 62
     7
370
    50
100
AcDbLine
 10
421.891568
 20
234.040776
 30
0.0
 11
421.891568
 21
234.040776
 31
0.0
  0
LINE
  5
297
330
28F
100
AcDbEntity
  8
LC-001-100-D00-0
 62
     7
370
    50
100
AcDbLine
 10
421.891568
 20
234.040776
 30
0.0
 11
421.977168
 21
234.044207
 31
0.0
  0
LINE
  5
298
330
28F
100
AcDbEntity
  8
LC-001-100-D00-0
 62
     7
370
    50
100
AcDbLine
 10
421.977168
 20
234.044207
 30
0.0
 11
421.977168
 21
234.044207
 31
0.0
  0
LINE
  5
299
330
28F
100
AcDbEntity
  8
LC-001-100-D00-0
 62
     7
370
    50
100
AcDbLine
 10
421.977168
 20
234.044207
 30
0.0
 11
422.100182
 21
234.063582
 31
0.0
  0
LINE
  5
29A
330
28F
100
AcDbEntity
  8
LC-001-100-D00-0
 62
     7
370
    50
100
AcDbLine
 10
422.100182
 20
234.063582
 30
0.0
 11
422.100182
 21
234.063582
 31
0.0
  0
LINE
  5
29B
330
28F
100
AcDbEntity
  8
LC-001-100-D00-0
 62
     7
370
    50
100
AcDbLine
 10
422.100182
 20
234.063582
 30
0.0
 11
422.242171
 21
234.105627
 31
0.0
  0
LINE
  5
29C
330
28F
100
AcDbEntity
  8
LC-001-100-D00-0
 62
     7
370
    50
100
AcDbLine
 10
422.242171
 20
234.105627
 30
0.0
 11
422.242171
 21
234.105627
 31
0.0
  0
LINE
  5
29D
330
28F
100
AcDbEntity
  8
LC-001-100-D00-0
 62
     7
370
    50
100
AcDbLine
 10
422.242171
 20
234.105627
 30
0.0
 11
422.332223
 21
234.15261
 31
0.0
  0
LINE
  5
29E
330
28F
100
AcDbEntity
  8
LC-001-100-D00-0
 62
     7
370
    50
100
AcDbLine
 10
422.332223
 20
234.15261
 30
0.0
 11
422.332223
 21
234.15261
 31
0.0
  0
LINE
  5
29F
330
28F
100
AcDbEntity
  8
LC-001-100-D00-0
 62
     7
370
    50
100
AcDbLine
 10
422.332223
 20
234.15261
 30
0.0
 11
422.375074
 21
234.174967
 31
0.0
  0
ENDBLK
  5
291
330
28F
100
AcDbEntity
  8
0
100
AcDbBlockEnd
  0
BLOCK
  5
2A2
330
2A1
100
AcDbEntity
  8
0
100
AcDbBlockBegin
  2
POLY9
 70
     0
 71
     0
 10
0.0
 20
0.0
 30
0.0
  3
POLY9
  1

  4
POLY9
  0
LINE
  5
2A4
330
2A1
100
AcDbEntity
  8
LC-001-100-D00-0
 62
     7
370
    50
100
AcDbLine
 10
273.875071
 20
169.040993
 30
0.0
 11
273.875071
 21
169.040993
 31
0.0
  0
LINE
  5
2A5
330
2A1
100
AcDbEntity
  8
LC-001-100-D00-0
 62
     7
370
    50
100
AcDbLine
 10
273.875071
 20
169.040993
 30
0.0
 11
273.869574
 21
169.041064
 31
0.0
  0
LINE
  5
2A6
330
2A1
100
AcDbEntity
  8
LC-001-100-D00-0
 62
     7
370
    50
100
AcDbLine
 10
273.869574
 20
169.041064
 30
0.0
 11
273.869574
 21
169.041064
 31
0.0
  0
LINE
  5
2A7
330
2A1
100
AcDbEntity
  8
LC-001-100-D00-0
 62
     7
370
    50
100
AcDbLine
 10
273.869574
 20
169.041064
 30
0.0
 11
273.858577
 21
169.041208
 31
0.0
  0
LINE
  5
2A8
330
2A1
100
AcDbEntity
  8
LC-001-100-D00-0
 62
     7
370
    50
100
AcDbLine
 10
273.858577
 20
169.041208
 30
0.0
 11
273.858577
 21
169.041208
 31
0.0
  0
LINE
  5
2A9
330
2A1
100
AcDbEntity
  8
LC-001-100-D00-0
 62
     7
370
    50
100
AcDbLine
 10
273.858577
 20
169.041208
 30
0.0
 11
273.772977
 21
169.037776
 31
0.0
  0
LINE
  5
2AA
330
2A1
100
AcDbEntity
  8
LC-001-100-D00-0
 62
     7
370
    50
100
AcDbLine
 10
273.772977
 20
169.037776
 30
0.0
 11
273.772977
 21
169.037776
 31
0.0
  0
LINE
  5
2AB
330
2A1
100
AcDbEntity
  8
LC-001-100-D00-0
 62
     7
370
    50
100
AcDbLine
 10
273.772977
 20
169.037776
 30
0.0
 11
273.649963
 21
169.018402
 31
0.0
  0
LINE
  5
2AC
330
2A1
100
AcDbEntity
  8
LC-001-100-D00-0
 62
     7
370
    50
100
AcDbLine
 10
273.649963
 20
169.018402
 30
0.0
 11
273.649963
 21
169.018402
 31
0.0
  0
LINE
  5
2AD
330
2A1
100
AcDbEntity
  8
LC-001-100-D00-0
 62
     7
370
    50
100
AcDbLine
 10
273.649963
 20
169.018402
 30
0.0
 11
273.507974
 21
168.976356
 31
0.0
  0
LINE
  5
2AE
330
2A1
100
AcDbEntity
  8
LC-001-100-D00-0
 62
     7
370
    50
100
AcDbLine
 10
273.507974
 20
168.976356
 30
0.0
 11
273.507974
 21
168.976356
 31
0.0
  0
LINE
  5
2AF
330
2A1
100
AcDbEntity
  8
LC-001-100-D00-0
 62
     7
370
    50
100
AcDbLine
 10
273.507974
 20
168.976356
 30
0.0
 11
273.417922
 21
168.929373
 31
0.0
  0
LINE
  5
2B0
330
2A1
100
AcDbEntity
  8
LC-001-100-D00-0
 62
     7
370
    50
100
AcDbLine
 10
273.417922
 20
168.929373
 30
0.0
 11
273.417922
 21
168.929373
 31
0.0
  0
LINE
  5
2B1
330
2A1
100
AcDbEntity
  8
LC-001-100-D00-0
 62
     7
370
    50
100
AcDbLine
 10
273.417922
 20
168.929373
 30
0.0
 11
273.37507
 21
168.907016
 31
0.0
  0
ENDBLK
  5
2A3
330
2A1
100
AcDbEntity
  8
0
100
AcDbBlockEnd
  0
BLOCK
  5
2B4
330
2B3
100
AcDbEntity
  8
0
100
AcDbBlockBegin
  2
POLY10
 70
     0
 71
     0
 10
0.0
 20
0.0
 30
0.0
  3
POLY10
  1

  4
POLY10
  0
LINE
  5
2B6
330
2B3
100
AcDbEntity
  8
LC-001-100-D00-0
 62
     7
370
    50
100
AcDbLine
 10
273.37507
 20
154.174965
 30
0.0
 11
273.37507
 21
154.174965
 31
0.0
  0
LINE
  5
2B7
330
2B3
100
AcDbEntity
  8
LC-001-100-D00-0
 62
     7
370
    50
100
AcDbLine
 10
273.37507
 20
154.174965
 30
0.0
 11
273.42473
 21
154.149481
 31
0.0
  0
LINE
  5
2B8
330
2B3
100
AcDbEntity
  8
LC-001-100-D00-0
 62
     7
370
    50
100
AcDbLine
 10
273.42473
 20
154.149481
 30
0.0
 11
273.42473
 21
154.149481
 31
0.0
  0
LINE
  5
2B9
330
2B3
100
AcDbEntity
  8
LC-001-100-D00-0
 62
     7
370
    50
100
AcDbLine
 10
273.42473
 20
154.149481
 30
0.0
 11
273.524206
 21
154.098431
 31
0.0
  0
LINE
  5
2BA
330
2B3
100
AcDbEntity
  8
LC-001-100-D00-0
 62
     7
370
    50
100
AcDbLine
 10
273.524206
 20
154.098431
 30
0.0
 11
273.524206
 21
154.098431
 31
0.0
  0
LINE
  5
2BB
330
2B3
100
AcDbEntity
  8
LC-001-100-D00-0
 62
     7
370
    50
100
AcDbLine
 10
273.524206
 20
154.098431
 30
0.0
 11
273.670767
 21
154.059338
 31
0.0
  0
LINE
  5
2BC
330
2B3
100
AcDbEntity
  8
LC-001-100-D00-0
 62
     7
370
    50
100
AcDbLine
 10
273.670767
 20
154.059338
 30
0.0
 11
273.670767
 21
154.059338
 31
0.0
  0
LINE
  5
2BD
330
2B3
100
AcDbEntity
  8
LC-001-100-D00-0
 62
     7
370
    50
100
AcDbLine
 10
273.670767
 20
154.059338
 30
0.0
 11
273.785717
 21
154.043377
 31
0.0
  0
LINE
  5
2BE
330
2B3
100
AcDbEntity
  8
LC-001-100-D00-0
 62
     7
370
    50
100
AcDbLine
 10
273.785717
 20
154.043377
 30
0.0
 11
273.785717
 21
154.043377
 31
0.0
  0
LINE
  5
2BF
330
2B3
100
AcDbEntity
  8
LC-001-100-D00-0
 62
     7
370
    50
100
AcDbLine
 10
273.785717
 20
154.043377
 30
0.0
 11
273.860949
 21
154.040841
 31
0.0
  0
LINE
  5
2C0
330
2B3
100
AcDbEntity
  8
LC-001-100-D00-0
 62
     7
370
    50
100
AcDbLine
 10
273.860949
 20
154.040841
 30
0.0
 11
273.860949
 21
154.040841
 31
0.0
  0
LINE
  5
2C1
330
2B3
100
AcDbEntity
  8
LC-001-100-D00-0
 62
     7
370
    50
100
AcDbLine
 10
273.860949
 20
154.040841
 30
0.0
 11
273.87042
 21
154.040943
 31
0.0
  0
LINE
  5
2C2
330
2B3
100
AcDbEntity
  8
LC-001-100-D00-0
 62
     7
370
    50
100
AcDbLine
 10
273.87042
 20
154.040943
 30
0.0
 11
273.87042
 21
154.040943
 31
0.0
  0
LINE
  5
2C3
330
2B3
100
AcDbEntity
  8
LC-001-100-D00-0
 62
     7
370
    50
100
AcDbLine
 10
273.87042
 20
154.040943
 30
0.0
 11
273.875071
 21
154.040992
 31
0.0
  0
ENDBLK
  5
2B5
330
2B3
100
AcDbEntity
  8
0
100
AcDbBlockEnd
  0
BLOCK
  5
2C6
330
2C5
100
AcDbEntity
  8
0
100
AcDbBlockBegin
  2
POLY11
 70
     0
 71
     0
 10
0.0
 20
0.0
 30
0.0
  3
POLY11
  1

  4
POLY11
  0
LINE
  5
2C8
330
2C5
100
AcDbEntity
  8
LC-001-100-D00-0
 62
     7
370
    50
100
AcDbLine
 10
421.875073
 20
154.040992
 30
0.0
 11
421.875073
 21
154.040992
 31
0.0
  0
LINE
  5
2C9
330
2C5
100
AcDbEntity
  8
LC-001-100-D00-0
 62
     7
370
    50
100
AcDbLine
 10
421.875073
 20
154.040992
 30
0.0
 11
421.880571
 21
154.040921
 31
0.0
  0
LINE
  5
2CA
330
2C5
100
AcDbEntity
  8
LC-001-100-D00-0
 62
     7
370
    50
100
AcDbLine
 10
421.880571
 20
154.040921
 30
0.0
 11
421.880571
 21
154.040921
 31
0.0
  0
LINE
  5
2CB
330
2C5
100
AcDbEntity
  8
LC-001-100-D00-0
 62
     7
370
    50
100
AcDbLine
 10
421.880571
 20
154.040921
 30
0.0
 11
421.891568
 21
154.040779
 31
0.0
  0
LINE
  5
2CC
330
2C5
100
AcDbEntity
  8
LC-001-100-D00-0
 62
     7
370
    50
100
AcDbLine
 10
421.891568
 20
154.040779
 30
0.0
 11
421.891568
 21
154.040779
 31
0.0
  0
LINE
  5
2CD
330
2C5
100
AcDbEntity
  8
LC-001-100-D00-0
 62
     7
370
    50
100
AcDbLine
 10
421.891568
 20
154.040779
 30
0.0
 11
421.977169
 21
154.044203
 31
0.0
  0
LINE
  5
2CE
330
2C5
100
AcDbEntity
  8
LC-001-100-D00-0
 62
     7
370
    50
100
AcDbLine
 10
421.977169
 20
154.044203
 30
0.0
 11
421.977169
 21
154.044203
 31
0.0
  0
LINE
  5
2CF
330
2C5
100
AcDbEntity
  8
LC-001-100-D00-0
 62
     7
370
    50
100
AcDbLine
 10
421.977169
 20
154.044203
 30
0.0
 11
422.100181
 21
154.063586
 31
0.0
  0
LINE
  5
2D0
330
2C5
100
AcDbEntity
  8
LC-001-100-D00-0
 62
     7
370
    50
100
AcDbLine
 10
422.100181
 20
154.063586
 30
0.0
 11
422.100181
 21
154.063586
 31
0.0
  0
LINE
  5
2D1
330
2C5
100
AcDbEntity
  8
LC-001-100-D00-0
 62
     7
370
    50
100
AcDbLine
 10
422.100181
 20
154.063586
 30
0.0
 11
422.242171
 21
154.105624
 31
0.0
  0
LINE
  5
2D2
330
2C5
100
AcDbEntity
  8
LC-001-100-D00-0
 62
     7
370
    50
100
AcDbLine
 10
422.242171
 20
154.105624
 30
0.0
 11
422.242171
 21
154.105624
 31
0.0
  0
LINE
  5
2D3
330
2C5
100
AcDbEntity
  8
LC-001-100-D00-0
 62
     7
370
    50
100
AcDbLine
 10
422.242171
 20
154.105624
 30
0.0
 11
422.332223
 21
154.152608
 31
0.0
  0
LINE
  5
2D4
330
2C5
100
AcDbEntity
  8
LC-001-100-D00-0
 62
     7
370
    50
100
AcDbLine
 10
422.332223
 20
154.152608
 30
0.0
 11
422.332223
 21
154.152608
 31
0.0
  0
LINE
  5
2D5
330
2C5
100
AcDbEntity
  8
LC-001-100-D00-0
 62
     7
370
    50
100
AcDbLine
 10
422.332223
 20
154.152608
 30
0.0
 11
422.375074
 21
154.174965
 31
0.0
  0
ENDBLK
  5
2C7
330
2C5
100
AcDbEntity
  8
0
100
AcDbBlockEnd
  0
BLOCK
  5
2D8
330
2D7
100
AcDbEntity
  8
0
100
AcDbBlockBegin
  2
POLY12
 70
     0
 71
     0
 10
0.0
 20
0.0
 30
0.0
  3
POLY12
  1

  4
POLY12
  0
LINE
  5
2DA
330
2D7
100
AcDbEntity
  8
LC-001-100-D00-0
 62
     7
370
    50
100
AcDbLine
 10
422.375074
 20
168.907016
 30
0.0
 11
422.375074
 21
168.907016
 31
0.0
  0
LINE
  5
2DB
330
2D7
100
AcDbEntity
  8
LC-001-100-D00-0
 62
     7
370
    50
100
AcDbLine
 10
422.375074
 20
168.907016
 30
0.0
 11
422.325415
 21
168.9325
 31
0.0
  0
LINE
  5
2DC
330
2D7
100
AcDbEntity
  8
LC-001-100-D00-0
 62
     7
370
    50
100
AcDbLine
 10
422.325415
 20
168.9325
 30
0.0
 11
422.325415
 21
168.9325
 31
0.0
  0
LINE
  5
2DD
330
2D7
100
AcDbEntity
  8
LC-001-100-D00-0
 62
     7
370
    50
100
AcDbLine
 10
422.325415
 20
168.9325
 30
0.0
 11
422.225937
 21
168.98355
 31
0.0
  0
LINE
  5
2DE
330
2D7
100
AcDbEntity
  8
LC-001-100-D00-0
 62
     7
370
    50
100
AcDbLine
 10
422.225937
 20
168.98355
 30
0.0
 11
422.225937
 21
168.98355
 31
0.0
  0
LINE
  5
2DF
330
2D7
100
AcDbEntity
  8
LC-001-100-D00-0
 62
     7
370
    50
100
AcDbLine
 10
422.225937
 20
168.98355
 30
0.0
 11
422.079372
 21
169.022648
 31
0.0
  0
LINE
  5
2E0
330
2D7
100
AcDbEntity
  8
LC-001-100-D00-0
 62
     7
370
    50
100
AcDbLine
 10
422.079372
 20
169.022648
 30
0.0
 11
422.079372
 21
169.022648
 31
0.0
  0
LINE
  5
2E1
330
2D7
100
AcDbEntity
  8
LC-001-100-D00-0
 62
     7
370
    50
100
AcDbLine
 10
422.079372
 20
169.022648
 30
0.0
 11
421.964428
 21
169.038602
 31
0.0
  0
LINE
  5
2E2
330
2D7
100
AcDbEntity
  8
LC-001-100-D00-0
 62
     7
370
    50
100
AcDbLine
 10
421.964428
 20
169.038602
 30
0.0
 11
421.964428
 21
169.038602
 31
0.0
  0
LINE
  5
2E3
330
2D7
100
AcDbEntity
  8
LC-001-100-D00-0
 62
     7
370
    50
100
AcDbLine
 10
421.964428
 20
169.038602
 30
0.0
 11
421.889195
 21
169.041145
 31
0.0
  0
LINE
  5
2E4
330
2D7
100
AcDbEntity
  8
LC-001-100-D00-0
 62
     7
370
    50
100
AcDbLine
 10
421.889195
 20
169.041145
 30
0.0
 11
421.889195
 21
169.041145
 31
0.0
  0
LINE
  5
2E5
330
2D7
100
AcDbEntity
  8
LC-001-100-D00-0
 62
     7
370
    50
100
AcDbLine
 10
421.889195
 20
169.041145
 30
0.0
 11
421.879725
 21
169.041043
 31
0.0
  0
LINE
  5
2E6
330
2D7
100
AcDbEntity
  8
LC-001-100-D00-0
 62
     7
370
    50
100
AcDbLine
 10
421.879725
 20
169.041043
 30
0.0
 11
421.879725
 21
169.041043
 31
0.0
  0
LINE
  5
2E7
330
2D7
100
AcDbEntity
  8
LC-001-100-D00-0
 62
     7
370
    50
100
AcDbLine
 10
421.879725
 20
169.041043
 30
0.0
 11
421.875073
 21
169.040993
 31
0.0
  0
ENDBLK
  5
2D9
330
2D7
100
AcDbEntity
  8
0
100
AcDbBlockEnd
  0
BLOCK
  5
2EA
330
2E9
100
AcDbEntity
  8
0
100
AcDbBlockBegin
  2
POLY13
 70
     0
 71
     0
 10
0.0
 20
0.0
 30
0.0
  3
POLY13
  1

  4
POLY13
  0
LINE
  5
2EC
330
2E9
100
AcDbEntity
  8
LC-001-100-D00-0
 62
     7
370
    50
100
AcDbLine
 10
300.375073
 20
127.540991
 30
0.0
 11
300.375073
 21
127.540991
 31
0.0
  0
LINE
  5
2ED
330
2E9
100
AcDbEntity
  8
LC-001-100-D00-0
 62
     7
370
    50
100
AcDbLine
 10
300.375073
 20
127.540991
 30
0.0
 11
300.375
 21
127.535493
 31
0.0
  0
LINE
  5
2EE
330
2E9
100
AcDbEntity
  8
LC-001-100-D00-0
 62
     7
370
    50
100
AcDbLine
 10
300.375
 20
127.535493
 30
0.0
 11
300.375
 21
127.535493
 31
0.0
  0
LINE
  5
2EF
330
2E9
100
AcDbEntity
  8
LC-001-100-D00-0
 62
     7
370
    50
100
AcDbLine
 10
300.375
 20
127.535493
 30
0.0
 11
300.374853
 21
127.524496
 31
0.0
  0
LINE
  5
2F0
330
2E9
100
AcDbEntity
  8
LC-001-100-D00-0
 62
     7
370
    50
100
AcDbLine
 10
300.374853
 20
127.524496
 30
0.0
 11
300.374853
 21
127.524496
 31
0.0
  0
LINE
  5
2F1
330
2E9
100
AcDbEntity
  8
LC-001-100-D00-0
 62
     7
370
    50
100
AcDbLine
 10
300.374853
 20
127.524496
 30
0.0
 11
300.378287
 21
127.438896
 31
0.0
  0
LINE
  5
2F2
330
2E9
100
AcDbEntity
  8
LC-001-100-D00-0
 62
     7
370
    50
100
AcDbLine
 10
300.378287
 20
127.438896
 30
0.0
 11
300.378287
 21
127.438896
 31
0.0
  0
LINE
  5
2F3
330
2E9
100
AcDbEntity
  8
LC-001-100-D00-0
 62
     7
370
    50
100
AcDbLine
 10
300.378287
 20
127.438896
 30
0.0
 11
300.39766
 21
127.315882
 31
0.0
  0
LINE
  5
2F4
330
2E9
100
AcDbEntity
  8
LC-001-100-D00-0
 62
     7
370
    50
100
AcDbLine
 10
300.39766
 20
127.315882
 30
0.0
 11
300.39766
 21
127.315882
 31
0.0
  0
LINE
  5
2F5
330
2E9
100
AcDbEntity
  8
LC-001-100-D00-0
 62
     7
370
    50
100
AcDbLine
 10
300.39766
 20
127.315882
 30
0.0
 11
300.439706
 21
127.173893
 31
0.0
  0
LINE
  5
2F6
330
2E9
100
AcDbEntity
  8
LC-001-100-D00-0
 62
     7
370
    50
100
AcDbLine
 10
300.439706
 20
127.173893
 30
0.0
 11
300.439706
 21
127.173893
 31
0.0
  0
LINE
  5
2F7
330
2E9
100
AcDbEntity
  8
LC-001-100-D00-0
 62
     7
370
    50
100
AcDbLine
 10
300.439706
 20
127.173893
 30
0.0
 11
300.486689
 21
127.083841
 31
0.0
  0
LINE
  5
2F8
330
2E9
100
AcDbEntity
  8
LC-001-100-D00-0
 62
     7
370
    50
100
AcDbLine
 10
300.486689
 20
127.083841
 30
0.0
 11
300.486689
 21
127.083841
 31
0.0
  0
LINE
  5
2F9
330
2E9
100
AcDbEntity
  8
LC-001-100-D00-0
 62
     7
370
    50
100
AcDbLine
 10
300.486689
 20
127.083841
 30
0.0
 11
300.509046
 21
127.04099
 31
0.0
  0
ENDBLK
  5
2EB
330
2E9
100
AcDbEntity
  8
0
100
AcDbBlockEnd
  0
BLOCK
  5
2FC
330
2FB
100
AcDbEntity
  8
0
100
AcDbBlockBegin
  2
POLY14
 70
     0
 71
     0
 10
0.0
 20
0.0
 30
0.0
  3
POLY14
  1

  4
POLY14
  0
LINE
  5
2FE
330
2FB
100
AcDbEntity
  8
LC-001-100-D00-0
 62
     7
370
    50
100
AcDbLine
 10
315.241097
 20
127.04099
 30
0.0
 11
315.241097
 21
127.04099
 31
0.0
  0
LINE
  5
2FF
330
2FB
100
AcDbEntity
  8
LC-001-100-D00-0
 62
     7
370
    50
100
AcDbLine
 10
315.241097
 20
127.04099
 30
0.0
 11
315.266582
 21
127.090649
 31
0.0
  0
LINE
  5
300
330
2FB
100
AcDbEntity
  8
LC-001-100-D00-0
 62
     7
370
    50
100
AcDbLine
 10
315.266582
 20
127.090649
 30
0.0
 11
315.266582
 21
127.090649
 31
0.0
  0
LINE
  5
301
330
2FB
100
AcDbEntity
  8
LC-001-100-D00-0
 62
     7
370
    50
100
AcDbLine
 10
315.266582
 20
127.090649
 30
0.0
 11
315.317632
 21
127.190126
 31
0.0
  0
LINE
  5
302
330
2FB
100
AcDbEntity
  8
LC-001-100-D00-0
 62
     7
370
    50
100
AcDbLine
 10
315.317632
 20
127.190126
 30
0.0
 11
315.317632
 21
127.190126
 31
0.0
  0
LINE
  5
303
330
2FB
100
AcDbEntity
  8
LC-001-100-D00-0
 62
     7
370
    50
100
AcDbLine
 10
315.317632
 20
127.190126
 30
0.0
 11
315.356723
 21
127.336693
 31
0.0
  0
LINE
  5
304
330
2FB
100
AcDbEntity
  8
LC-001-100-D00-0
 62
     7
370
    50
100
AcDbLine
 10
315.356723
 20
127.336693
 30
0.0
 11
315.356723
 21
127.336693
 31
0.0
  0
LINE
  5
305
330
2FB
100
AcDbEntity
  8
LC-001-100-D00-0
 62
     7
370
    50
100
AcDbLine
 10
315.356723
 20
127.336693
 30
0.0
 11
315.372684
 21
127.451636
 31
0.0
  0
LINE
  5
306
330
2FB
100
AcDbEntity
  8
LC-001-100-D00-0
 62
     7
370
    50
100
AcDbLine
 10
315.372684
 20
127.451636
 30
0.0
 11
315.372684
 21
127.451636
 31
0.0
  0
LINE
  5
307
330
2FB
100
AcDbEntity
  8
LC-001-100-D00-0
 62
     7
370
    50
100
AcDbLine
 10
315.372684
 20
127.451636
 30
0.0
 11
315.375227
 21
127.526869
 31
0.0
  0
LINE
  5
308
330
2FB
100
AcDbEntity
  8
LC-001-100-D00-0
 62
     7
370
    50
100
AcDbLine
 10
315.375227
 20
127.526869
 30
0.0
 11
315.375227
 21
127.526869
 31
0.0
  0
LINE
  5
309
330
2FB
100
AcDbEntity
  8
LC-001-100-D00-0
 62
     7
370
    50
100
AcDbLine
 10
315.375227
 20
127.526869
 30
0.0
 11
315.375122
 21
127.536339
 31
0.0
  0
LINE
  5
30A
330
2FB
100
AcDbEntity
  8
LC-001-100-D00-0
 62
     7
370
    50
100
AcDbLine
 10
315.375122
 20
127.536339
 30
0.0
 11
315.375122
 21
127.536339
 31
0.0
  0
LINE
  5
30B
330
2FB
100
AcDbEntity
  8
LC-001-100-D00-0
 62
     7
370
    50
100
AcDbLine
 10
315.375122
 20
127.536339
 30
0.0
 11
315.37507
 21
127.540991
 31
0.0
  0
ENDBLK
  5
2FD
330
2FB
100
AcDbEntity
  8
0
100
AcDbBlockEnd
  0
BLOCK
  5
30E
330
30D
100
AcDbEntity
  8
0
100
AcDbBlockBegin
  2
POLY15
 70
     0
 71
     0
 10
0.0
 20
0.0
 30
0.0
  3
POLY15
  1

  4
POLY15
  0
LINE
  5
310
330
30D
100
AcDbEntity
  8
LC-001-100-D00-0
 62
     7
370
    50
100
AcDbLine
 10
380.375071
 20
127.540991
 30
0.0
 11
380.375071
 21
127.540991
 31
0.0
  0
LINE
  5
311
330
30D
100
AcDbEntity
  8
LC-001-100-D00-0
 62
     7
370
    50
100
AcDbLine
 10
380.375071
 20
127.540991
 30
0.0
 11
380.375
 21
127.535493
 31
0.0
  0
LINE
  5
312
330
30D
100
AcDbEntity
  8
LC-001-100-D00-0
 62
     7
370
    50
100
AcDbLine
 10
380.375
 20
127.535493
 30
0.0
 11
380.375
 21
127.535493
 31
0.0
  0
LINE
  5
313
330
30D
100
AcDbEntity
  8
LC-001-100-D00-0
 62
     7
370
    50
100
AcDbLine
 10
380.375
 20
127.535493
 30
0.0
 11
380.374858
 21
127.524496
 31
0.0
  0
LINE
  5
314
330
30D
100
AcDbEntity
  8
LC-001-100-D00-0
 62
     7
370
    50
100
AcDbLine
 10
380.374858
 20
127.524496
 30
0.0
 11
380.374858
 21
127.524496
 31
0.0
  0
LINE
  5
315
330
30D
100
AcDbEntity
  8
LC-001-100-D00-0
 62
     7
370
    50
100
AcDbLine
 10
380.374858
 20
127.524496
 30
0.0
 11
380.378281
 21
127.438895
 31
0.0
  0
LINE
  5
316
330
30D
100
AcDbEntity
  8
LC-001-100-D00-0
 62
     7
370
    50
100
AcDbLine
 10
380.378281
 20
127.438895
 30
0.0
 11
380.378281
 21
127.438895
 31
0.0
  0
LINE
  5
317
330
30D
100
AcDbEntity
  8
LC-001-100-D00-0
 62
     7
370
    50
100
AcDbLine
 10
380.378281
 20
127.438895
 30
0.0
 11
380.397666
 21
127.315883
 31
0.0
  0
LINE
  5
318
330
30D
100
AcDbEntity
  8
LC-001-100-D00-0
 62
     7
370
    50
100
AcDbLine
 10
380.397666
 20
127.315883
 30
0.0
 11
380.397666
 21
127.315883
 31
0.0
  0
LINE
  5
319
330
30D
100
AcDbEntity
  8
LC-001-100-D00-0
 62
     7
370
    50
100
AcDbLine
 10
380.397666
 20
127.315883
 30
0.0
 11
380.439702
 21
127.173892
 31
0.0
  0
LINE
  5
31A
330
30D
100
AcDbEntity
  8
LC-001-100-D00-0
 62
     7
370
    50
100
AcDbLine
 10
380.439702
 20
127.173892
 30
0.0
 11
380.439702
 21
127.173892
 31
0.0
  0
LINE
  5
31B
330
30D
100
AcDbEntity
  8
LC-001-100-D00-0
 62
     7
370
    50
100
AcDbLine
 10
380.439702
 20
127.173892
 30
0.0
 11
380.486689
 21
127.083841
 31
0.0
  0
LINE
  5
31C
330
30D
100
AcDbEntity
  8
LC-001-100-D00-0
 62
     7
370
    50
100
AcDbLine
 10
380.486689
 20
127.083841
 30
0.0
 11
380.486689
 21
127.083841
 31
0.0
  0
LINE
  5
31D
330
30D
100
AcDbEntity
  8
LC-001-100-D00-0
 62
     7
370
    50
100
AcDbLine
 10
380.486689
 20
127.083841
 30
0.0
 11
380.509048
 21
127.04099
 31
0.0
  0
ENDBLK
  5
30F
330
30D
100
AcDbEntity
  8
0
100
AcDbBlockEnd
  0
BLOCK
  5
320
330
31F
100
AcDbEntity
  8
0
100
AcDbBlockBegin
  2
POLY16
 70
     0
 71
     0
 10
0.0
 20
0.0
 30
0.0
  3
POLY16
  1

  4
POLY16
  0
LINE
  5
322
330
31F
100
AcDbEntity
  8
LC-001-100-D00-0
 62
     7
370
    50
100
AcDbLine
 10
395.241096
 20
127.04099
 30
0.0
 11
395.241096
 21
127.04099
 31
0.0
  0
LINE
  5
323
330
31F
100
AcDbEntity
  8
LC-001-100-D00-0
 62
     7
370
    50
100
AcDbLine
 10
395.241096
 20
127.04099
 30
0.0
 11
395.266581
 21
127.090648
 31
0.0
  0
LINE
  5
324
330
31F
100
AcDbEntity
  8
LC-001-100-D00-0
 62
     7
370
    50
100
AcDbLine
 10
395.266581
 20
127.090648
 30
0.0
 11
395.266581
 21
127.090648
 31
0.0
  0
LINE
  5
325
330
31F
100
AcDbEntity
  8
LC-001-100-D00-0
 62
     7
370
    50
100
AcDbLine
 10
395.266581
 20
127.090648
 30
0.0
 11
395.317635
 21
127.190125
 31
0.0
  0
LINE
  5
326
330
31F
100
AcDbEntity
  8
LC-001-100-D00-0
 62
     7
370
    50
100
AcDbLine
 10
395.317635
 20
127.190125
 30
0.0
 11
395.317635
 21
127.190125
 31
0.0
  0
LINE
  5
327
330
31F
100
AcDbEntity
  8
LC-001-100-D00-0
 62
     7
370
    50
100
AcDbLine
 10
395.317635
 20
127.190125
 30
0.0
 11
395.356724
 21
127.336693
 31
0.0
  0
LINE
  5
328
330
31F
100
AcDbEntity
  8
LC-001-100-D00-0
 62
     7
370
    50
100
AcDbLine
 10
395.356724
 20
127.336693
 30
0.0
 11
395.356724
 21
127.336693
 31
0.0
  0
LINE
  5
329
330
31F
100
AcDbEntity
  8
LC-001-100-D00-0
 62
     7
370
    50
100
AcDbLine
 10
395.356724
 20
127.336693
 30
0.0
 11
395.372687
 21
127.451636
 31
0.0
  0
LINE
  5
32A
330
31F
100
AcDbEntity
  8
LC-001-100-D00-0
 62
     7
370
    50
100
AcDbLine
 10
395.372687
 20
127.451636
 30
0.0
 11
395.372687
 21
127.451636
 31
0.0
  0
LINE
  5
32B
330
31F
100
AcDbEntity
  8
LC-001-100-D00-0
 62
     7
370
    50
100
AcDbLine
 10
395.372687
 20
127.451636
 30
0.0
 11
395.375223
 21
127.526869
 31
0.0
  0
LINE
  5
32C
330
31F
100
AcDbEntity
  8
LC-001-100-D00-0
 62
     7
370
    50
100
AcDbLine
 10
395.375223
 20
127.526869
 30
0.0
 11
395.375223
 21
127.526869
 31
0.0
  0
LINE
  5
32D
330
31F
100
AcDbEntity
  8
LC-001-100-D00-0
 62
     7
370
    50
100
AcDbLine
 10
395.375223
 20
127.526869
 30
0.0
 11
395.375121
 21
127.536339
 31
0.0
  0
LINE
  5
32E
330
31F
100
AcDbEntity
  8
LC-001-100-D00-0
 62
     7
370
    50
100
AcDbLine
 10
395.375121
 20
127.536339
 30
0.0
 11
395.375121
 21
127.536339
 31
0.0
  0
LINE
  5
32F
330
31F
100
AcDbEntity
  8
LC-001-100-D00-0
 62
     7
370
    50
100
AcDbLine
 10
395.375121
 20
127.536339
 30
0.0
 11
395.375072
 21
127.540991
 31
0.0
  0
ENDBLK
  5
321
330
31F
100
AcDbEntity
  8
0
100
AcDbBlockEnd
  0
BLOCK
  5
34C
330
34B
100
AcDbEntity
  8
0
100
AcDbBlockBegin
  2
POLY17
 70
     0
 71
     0
 10
0.0
 20
0.0
 30
0.0
  3
POLY17
  1

  4
POLY17
  0
LINE
  5
34E
330
34B
100
AcDbEntity
  8
LC-001-100-D00-0
 62
     7
370
    50
100
AcDbLine
 10
278.875074
 20
183.898713
 30
0.0
 11
278.875074
 21
183.898713
 31
0.0
  0
LINE
  5
34F
330
34B
100
AcDbEntity
  8
LC-001-100-D00-0
 62
     7
370
    50
100
AcDbLine
 10
278.875074
 20
183.898713
 30
0.0
 11
278.715238
 21
188.979582
 31
0.0
  0
LINE
  5
350
330
34B
100
AcDbEntity
  8
LC-001-100-D00-0
 62
     7
370
    50
100
AcDbLine
 10
278.715238
 20
188.979582
 30
0.0
 11
278.715238
 21
188.979582
 31
0.0
  0
LINE
  5
351
330
34B
100
AcDbEntity
  8
LC-001-100-D00-0
 62
     7
370
    50
100
AcDbLine
 10
278.715238
 20
188.979582
 30
0.0
 11
278.530738
 21
194.844478
 31
0.0
  0
LINE
  5
352
330
34B
100
AcDbEntity
  8
LC-001-100-D00-0
 62
     7
370
    50
100
AcDbLine
 10
278.530738
 20
194.844478
 30
0.0
 11
278.492632
 21
199.404646
 31
0.0
  0
LINE
  5
353
330
34B
100
AcDbEntity
  8
LC-001-100-D00-0
 62
     7
370
    50
100
AcDbLine
 10
278.492632
 20
199.404646
 30
0.0
 11
278.509977
 21
204.33078
 31
0.0
  0
LINE
  5
354
330
34B
100
AcDbEntity
  8
LC-001-100-D00-0
 62
     7
370
    50
100
AcDbLine
 10
278.509977
 20
204.33078
 30
0.0
 11
278.509977
 21
204.33078
 31
0.0
  0
LINE
  5
355
330
34B
100
AcDbEntity
  8
LC-001-100-D00-0
 62
     7
370
    50
100
AcDbLine
 10
278.509977
 20
204.33078
 30
0.0
 11
278.579055
 21
211.01272
 31
0.0
  0
LINE
  5
356
330
34B
100
AcDbEntity
  8
LC-001-100-D00-0
 62
     7
370
    50
100
AcDbLine
 10
278.579055
 20
211.01272
 30
0.0
 11
278.579055
 21
211.01272
 31
0.0
  0
LINE
  5
357
330
34B
100
AcDbEntity
  8
LC-001-100-D00-0
 62
     7
370
    50
100
AcDbLine
 10
278.579055
 20
211.01272
 30
0.0
 11
278.792575
 21
216.906163
 31
0.0
  0
LINE
  5
358
330
34B
100
AcDbEntity
  8
LC-001-100-D00-0
 62
     7
370
    50
100
AcDbLine
 10
278.792575
 20
216.906163
 30
0.0
 11
278.792575
 21
216.906163
 31
0.0
  0
LINE
  5
359
330
34B
100
AcDbEntity
  8
LC-001-100-D00-0
 62
     7
370
    50
100
AcDbLine
 10
278.792575
 20
216.906163
 30
0.0
 11
278.875074
 21
219.18327
 31
0.0
  0
ENDBLK
  5
34D
330
34B
100
AcDbEntity
  8
0
100
AcDbBlockEnd
  0
BLOCK
  5
365
330
364
100
AcDbEntity
  8
0
100
AcDbBlockBegin
  2
KLON1
 70
     0
 71
     0
 10
0.0
 20
0.0
 30
0.0
  3
KLON1
  1

  4
KLON1
  0
LINE
  5
367
330
364
100
AcDbEntity
  8
LC-001-100-D00-0
 62
     8
370
    15
100
AcDbLine
 10
307.980935
 20
256.450135
 30
0.0
 11
308.432943
 21
256.710209
 31
0.0
  0
LINE
  5
368
330
364
100
AcDbEntity
  8
LC-001-100-D00-0
 62
     8
370
    15
100
AcDbLine
 10
308.432943
 20
256.710209
 30
0.0
 11
309.740546
 21
257.43518
 31
0.0
  0
ENDBLK
  5
366
330
364
100
AcDbEntity
  8
0
100
AcDbBlockEnd
  0
BLOCK
  5
36E
330
36D
100
AcDbEntity
  8
0
100
AcDbBlockBegin
  2
KLON2
 70
     0
 71
     0
 10
0.0
 20
0.0
 30
0.0
  3
KLON2
  1

  4
KLON2
  0
LINE
  5
370
330
36D
100
AcDbEntity
  8
LC-001-100-D00-0
 62
     8
370
    15
100
AcDbLine
 10
309.740546
 20
145.646803
 30
0.0
 11
308.432943
 21
146.371774
 31
0.0
  0
LINE
  5
371
330
36D
100
AcDbEntity
  8
LC-001-100-D00-0
 62
     8
370
    15
100
AcDbLine
 10
308.432943
 20
146.371774
 30
0.0
 11
307.980935
 21
146.631848
 31
0.0
  0
ENDBLK
  5
36F
330
36D
100
AcDbEntity
  8
0
100
AcDbBlockEnd
  0
BLOCK
  5
3AF
330
3AE
100
AcDbEntity
  8
0
100
AcDbBlockBegin
  2
POLY18
 70
     0
 71
     0
 10
0.0
 20
0.0
 30
0.0
  3
POLY18
  1

  4
POLY18
  0
LINE
  5
3B1
330
3AE
100
AcDbEntity
  8
LC-001-100-D00-0
 62
     7
370
    50
100
AcDbLine
 10
40.756961
 20
267.790994
 30
0.0
 11
40.756961
 21
267.790994
 31
0.0
  0
LINE
  5
3B2
330
3AE
100
AcDbEntity
  8
LC-001-100-D00-0
 62
     7
370
    50
100
AcDbLine
 10
40.756961
 20
267.790994
 30
0.0
 11
40.464686
 21
267.816928
 31
0.0
  0
LINE
  5
3B3
330
3AE
100
AcDbEntity
  8
LC-001-100-D00-0
 62
     7
370
    50
100
AcDbLine
 10
40.464686
 20
267.816928
 30
0.0
 11
40.464686
 21
267.816928
 31
0.0
  0
LINE
  5
3B4
330
3AE
100
AcDbEntity
  8
LC-001-100-D00-0
 62
     7
370
    50
100
AcDbLine
 10
40.464686
 20
267.816928
 30
0.0
 11
39.878517
 21
267.868938
 31
0.0
  0
LINE
  5
3B5
330
3AE
100
AcDbEntity
  8
LC-001-100-D00-0
 62
     7
370
    50
100
AcDbLine
 10
39.878517
 20
267.868938
 30
0.0
 11
39.878517
 21
267.868938
 31
0.0
  0
LINE
  5
3B6
330
3AE
100
AcDbEntity
  8
LC-001-100-D00-0
 62
     7
370
    50
100
AcDbLine
 10
39.878517
 20
267.868938
 30
0.0
 11
39.115968
 21
268.207246
 31
0.0
  0
LINE
  5
3B7
330
3AE
100
AcDbEntity
  8
LC-001-100-D00-0
 62
     7
370
    50
100
AcDbLine
 10
39.115968
 20
268.207246
 30
0.0
 11
39.115968
 21
268.207246
 31
0.0
  0
LINE
  5
3B8
330
3AE
100
AcDbEntity
  8
LC-001-100-D00-0
 62
     7
370
    50
100
AcDbLine
 10
39.115968
 20
268.207246
 30
0.0
 11
38.503273
 21
268.689672
 31
0.0
  0
LINE
  5
3B9
330
3AE
100
AcDbEntity
  8
LC-001-100-D00-0
 62
     7
370
    50
100
AcDbLine
 10
38.503273
 20
268.689672
 30
0.0
 11
38.503273
 21
268.689672
 31
0.0
  0
LINE
  5
3BA
330
3AE
100
AcDbEntity
  8
LC-001-100-D00-0
 62
     7
370
    50
100
AcDbLine
 10
38.503273
 20
268.689672
 30
0.0
 11
38.417924
 21
268.790751
 31
0.0
  0
LINE
  5
3BB
330
3AE
100
AcDbEntity
  8
LC-001-100-D00-0
 62
     7
370
    50
100
AcDbLine
 10
38.417924
 20
268.790751
 30
0.0
 11
38.417924
 21
268.790751
 31
0.0
  0
LINE
  5
3BC
330
3AE
100
AcDbEntity
  8
LC-001-100-D00-0
 62
     7
370
    50
100
AcDbLine
 10
38.417924
 20
268.790751
 30
0.0
 11
38.37507
 21
268.841504
 31
0.0
  0
ENDBLK
  5
3B0
330
3AE
100
AcDbEntity
  8
0
100
AcDbBlockEnd
  0
BLOCK
  5
3E8
330
3E7
100
AcDbEntity
  8
0
100
AcDbBlockBegin
  2
POLY19
 70
     0
 71
     0
 10
0.0
 20
0.0
 30
0.0
  3
POLY19
  1

  4
POLY19
  0
LINE
  5
3EA
330
3E7
100
AcDbEntity
  8
LC-001-100-D00-0
 62
     7
370
    50
100
AcDbLine
 10
37.517933
 20
270.941067
 30
0.0
 11
37.517933
 21
270.941067
 31
0.0
  0
LINE
  5
3EB
330
3E7
100
AcDbEntity
  8
LC-001-100-D00-0
 62
     7
370
    50
100
AcDbLine
 10
37.517933
 20
270.941067
 30
0.0
 11
37.539302
 21
270.907563
 31
0.0
  0
LINE
  5
3EC
330
3E7
100
AcDbEntity
  8
LC-001-100-D00-0
 62
     7
370
    50
100
AcDbLine
 10
37.539302
 20
270.907563
 30
0.0
 11
37.539302
 21
270.907563
 31
0.0
  0
LINE
  5
3ED
330
3E7
100
AcDbEntity
  8
LC-001-100-D00-0
 62
     7
370
    50
100
AcDbLine
 10
37.539302
 20
270.907563
 30
0.0
 11
37.574182
 21
270.852875
 31
0.0
  0
LINE
  5
3EE
330
3E7
100
AcDbEntity
  8
LC-001-100-D00-0
 62
     7
370
    50
100
AcDbLine
 10
37.574182
 20
270.852875
 30
0.0
 11
37.574182
 21
270.852875
 31
0.0
  0
LINE
  5
3EF
330
3E7
100
AcDbEntity
  8
LC-001-100-D00-0
 62
     7
370
    50
100
AcDbLine
 10
37.574182
 20
270.852875
 30
0.0
 11
37.791065
 21
270.808271
 31
0.0
  0
LINE
  5
3F0
330
3E7
100
AcDbEntity
  8
LC-001-100-D00-0
 62
     7
370
    50
100
AcDbLine
 10
37.791065
 20
270.808271
 30
0.0
 11
37.791065
 21
270.808271
 31
0.0
  0
LINE
  5
3F1
330
3E7
100
AcDbEntity
  8
LC-001-100-D00-0
 62
     7
370
    50
100
AcDbLine
 10
37.791065
 20
270.808271
 30
0.0
 11
37.875076
 21
270.790994
 31
0.0
  0
ENDBLK
  5
3E9
330
3E7
100
AcDbEntity
  8
0
100
AcDbBlockEnd
  0
BLOCK
  5
3FA
330
3F9
100
AcDbEntity
  8
0
100
AcDbBlockBegin
  2
POLY20
 70
     0
 71
     0
 10
0.0
 20
0.0
 30
0.0
  3
POLY20
  1

  4
POLY20
  0
LINE
  5
3FC
330
3F9
100
AcDbEntity
  8
LC-001-100-D00-0
 62
     7
370
    50
100
AcDbLine
 10
32.375073
 20
271.390994
 30
0.0
 11
32.375073
 21
271.390994
 31
0.0
  0
LINE
  5
3FD
330
3F9
100
AcDbEntity
  8
LC-001-100-D00-0
 62
     7
370
    50
100
AcDbLine
 10
32.375073
 20
271.390994
 30
0.0
 11
32.424732
 21
271.395067
 31
0.0
  0
LINE
  5
3FE
330
3F9
100
AcDbEntity
  8
LC-001-100-D00-0
 62
     7
370
    50
100
AcDbLine
 10
32.424732
 20
271.395067
 30
0.0
 11
32.424732
 21
271.395067
 31
0.0
  0
LINE
  5
3FF
330
3F9
100
AcDbEntity
  8
LC-001-100-D00-0
 62
     7
370
    50
100
AcDbLine
 10
32.424732
 20
271.395067
 30
0.0
 11
32.524209
 21
271.403226
 31
0.0
  0
LINE
  5
400
330
3F9
100
AcDbEntity
  8
LC-001-100-D00-0
 62
     7
370
    50
100
AcDbLine
 10
32.524209
 20
271.403226
 30
0.0
 11
32.524209
 21
271.403226
 31
0.0
  0
LINE
  5
401
330
3F9
100
AcDbEntity
  8
LC-001-100-D00-0
 62
     7
370
    50
100
AcDbLine
 10
32.524209
 20
271.403226
 30
0.0
 11
32.670769
 21
271.477226
 31
0.0
  0
LINE
  5
402
330
3F9
100
AcDbEntity
  8
LC-001-100-D00-0
 62
     7
370
    50
100
AcDbLine
 10
32.670769
 20
271.477226
 30
0.0
 11
32.670769
 21
271.477226
 31
0.0
  0
LINE
  5
403
330
3F9
100
AcDbEntity
  8
LC-001-100-D00-0
 62
     7
370
    50
100
AcDbLine
 10
32.670769
 20
271.477226
 30
0.0
 11
32.78572
 21
271.591835
 31
0.0
  0
LINE
  5
404
330
3F9
100
AcDbEntity
  8
LC-001-100-D00-0
 62
     7
370
    50
100
AcDbLine
 10
32.78572
 20
271.591835
 30
0.0
 11
32.78572
 21
271.591835
 31
0.0
  0
LINE
  5
405
330
3F9
100
AcDbEntity
  8
LC-001-100-D00-0
 62
     7
370
    50
100
AcDbLine
 10
32.78572
 20
271.591835
 30
0.0
 11
32.860951
 21
271.734411
 31
0.0
  0
LINE
  5
406
330
3F9
100
AcDbEntity
  8
LC-001-100-D00-0
 62
     7
370
    50
100
AcDbLine
 10
32.860951
 20
271.734411
 30
0.0
 11
32.860951
 21
271.734411
 31
0.0
  0
LINE
  5
407
330
3F9
100
AcDbEntity
  8
LC-001-100-D00-0
 62
     7
370
    50
100
AcDbLine
 10
32.860951
 20
271.734411
 30
0.0
 11
32.870422
 21
271.839417
 31
0.0
  0
LINE
  5
408
330
3F9
100
AcDbEntity
  8
LC-001-100-D00-0
 62
     7
370
    50
100
AcDbLine
 10
32.870422
 20
271.839417
 30
0.0
 11
32.870422
 21
271.839417
 31
0.0
  0
LINE
  5
409
330
3F9
100
AcDbEntity
  8
LC-001-100-D00-0
 62
     7
370
    50
100
AcDbLine
 10
32.870422
 20
271.839417
 30
0.0
 11
32.875074
 21
271.890994
 31
0.0
  0
ENDBLK
  5
3FB
330
3F9
100
AcDbEntity
  8
0
100
AcDbBlockEnd
  0
BLOCK
  5
40C
330
40B
100
AcDbEntity
  8
0
100
AcDbBlockBegin
  2
POLY21
 70
     0
 71
     0
 10
0.0
 20
0.0
 30
0.0
  3
POLY21
  1

  4
POLY21
  0
LINE
  5
40E
330
40B
100
AcDbEntity
  8
LC-001-100-D00-0
 62
     7
370
    50
100
AcDbLine
 10
32.875074
 20
270.476781
 30
0.0
 11
32.875074
 21
270.476781
 31
0.0
  0
LINE
  5
40F
330
40B
100
AcDbEntity
  8
LC-001-100-D00-0
 62
     7
370
    50
100
AcDbLine
 10
32.875074
 20
270.476781
 30
0.0
 11
32.78084
 21
270.449097
 31
0.0
  0
LINE
  5
410
330
40B
100
AcDbEntity
  8
LC-001-100-D00-0
 62
     7
370
    50
100
AcDbLine
 10
32.78084
 20
270.449097
 30
0.0
 11
32.78084
 21
270.449097
 31
0.0
  0
LINE
  5
411
330
40B
100
AcDbEntity
  8
LC-001-100-D00-0
 62
     7
370
    50
100
AcDbLine
 10
32.78084
 20
270.449097
 30
0.0
 11
32.608561
 21
270.398484
 31
0.0
  0
LINE
  5
412
330
40B
100
AcDbEntity
  8
LC-001-100-D00-0
 62
     7
370
    50
100
AcDbLine
 10
32.608561
 20
270.398484
 30
0.0
 11
32.608561
 21
270.398484
 31
0.0
  0
LINE
  5
413
330
40B
100
AcDbEntity
  8
LC-001-100-D00-0
 62
     7
370
    50
100
AcDbLine
 10
32.608561
 20
270.398484
 30
0.0
 11
32.447869
 21
270.39333
 31
0.0
  0
LINE
  5
414
330
40B
100
AcDbEntity
  8
LC-001-100-D00-0
 62
     7
370
    50
100
AcDbLine
 10
32.447869
 20
270.39333
 30
0.0
 11
32.447869
 21
270.39333
 31
0.0
  0
LINE
  5
415
330
40B
100
AcDbEntity
  8
LC-001-100-D00-0
 62
     7
370
    50
100
AcDbLine
 10
32.447869
 20
270.39333
 30
0.0
 11
32.375073
 21
270.390994
 31
0.0
  0
ENDBLK
  5
40D
330
40B
100
AcDbEntity
  8
0
100
AcDbBlockEnd
  0
BLOCK
  5
41B
330
41A
100
AcDbEntity
  8
0
100
AcDbBlockBegin
  2
POLY22
 70
     0
 71
     0
 10
0.0
 20
0.0
 30
0.0
  3
POLY22
  1

  4
POLY22
  0
LINE
  5
41D
330
41A
100
AcDbEntity
  8
LC-001-100-D00-0
 62
     7
370
    50
100
AcDbLine
 10
181.375077
 20
270.390994
 30
0.0
 11
181.375077
 21
270.390994
 31
0.0
  0
LINE
  5
41E
330
41A
100
AcDbEntity
  8
LC-001-100-D00-0
 62
     7
370
    50
100
AcDbLine
 10
181.375077
 20
270.390994
 30
0.0
 11
181.28632
 21
270.394549
 31
0.0
  0
LINE
  5
41F
330
41A
100
AcDbEntity
  8
LC-001-100-D00-0
 62
     7
370
    50
100
AcDbLine
 10
181.28632
 20
270.394549
 30
0.0
 11
181.28632
 21
270.394549
 31
0.0
  0
LINE
  5
420
330
41A
100
AcDbEntity
  8
LC-001-100-D00-0
 62
     7
370
    50
100
AcDbLine
 10
181.28632
 20
270.394549
 30
0.0
 11
181.124056
 21
270.401049
 31
0.0
  0
LINE
  5
421
330
41A
100
AcDbEntity
  8
LC-001-100-D00-0
 62
     7
370
    50
100
AcDbLine
 10
181.124056
 20
270.401049
 30
0.0
 11
181.124056
 21
270.401049
 31
0.0
  0
LINE
  5
422
330
41A
100
AcDbEntity
  8
LC-001-100-D00-0
 62
     7
370
    50
100
AcDbLine
 10
181.124056
 20
270.401049
 30
0.0
 11
180.952702
 21
270.453169
 31
0.0
  0
LINE
  5
423
330
41A
100
AcDbEntity
  8
LC-001-100-D00-0
 62
     7
370
    50
100
AcDbLine
 10
180.952702
 20
270.453169
 30
0.0
 11
180.952702
 21
270.453169
 31
0.0
  0
LINE
  5
424
330
41A
100
AcDbEntity
  8
LC-001-100-D00-0
 62
     7
370
    50
100
AcDbLine
 10
180.952702
 20
270.453169
 30
0.0
 11
180.875076
 21
270.476781
 31
0.0
  0
ENDBLK
  5
41C
330
41A
100
AcDbEntity
  8
0
100
AcDbBlockEnd
  0
BLOCK
  5
427
330
426
100
AcDbEntity
  8
0
100
AcDbBlockBegin
  2
POLY23
 70
     0
 71
     0
 10
0.0
 20
0.0
 30
0.0
  3
POLY23
  1

  4
POLY23
  0
LINE
  5
429
330
426
100
AcDbEntity
  8
LC-001-100-D00-0
 62
     7
370
    50
100
AcDbLine
 10
180.875076
 20
271.890994
 30
0.0
 11
180.875076
 21
271.890994
 31
0.0
  0
LINE
  5
42A
330
426
100
AcDbEntity
  8
LC-001-100-D00-0
 62
     7
370
    50
100
AcDbLine
 10
180.875076
 20
271.890994
 30
0.0
 11
180.880573
 21
271.834909
 31
0.0
  0
LINE
  5
42B
330
426
100
AcDbEntity
  8
LC-001-100-D00-0
 62
     7
370
    50
100
AcDbLine
 10
180.880573
 20
271.834909
 30
0.0
 11
180.880573
 21
271.834909
 31
0.0
  0
LINE
  5
42C
330
426
100
AcDbEntity
  8
LC-001-100-D00-0
 62
     7
370
    50
100
AcDbLine
 10
180.880573
 20
271.834909
 30
0.0
 11
180.89157
 21
271.722724
 31
0.0
  0
LINE
  5
42D
330
426
100
AcDbEntity
  8
LC-001-100-D00-0
 62
     7
370
    50
100
AcDbLine
 10
180.89157
 20
271.722724
 30
0.0
 11
180.89157
 21
271.722724
 31
0.0
  0
LINE
  5
42E
330
426
100
AcDbEntity
  8
LC-001-100-D00-0
 62
     7
370
    50
100
AcDbLine
 10
180.89157
 20
271.722724
 30
0.0
 11
180.97717
 21
271.573654
 31
0.0
  0
LINE
  5
42F
330
426
100
AcDbEntity
  8
LC-001-100-D00-0
 62
     7
370
    50
100
AcDbLine
 10
180.97717
 20
271.573654
 30
0.0
 11
180.97717
 21
271.573654
 31
0.0
  0
LINE
  5
430
330
426
100
AcDbEntity
  8
LC-001-100-D00-0
 62
     7
370
    50
100
AcDbLine
 10
180.97717
 20
271.573654
 30
0.0
 11
181.100184
 21
271.463192
 31
0.0
  0
LINE
  5
431
330
426
100
AcDbEntity
  8
LC-001-100-D00-0
 62
     7
370
    50
100
AcDbLine
 10
181.100184
 20
271.463192
 30
0.0
 11
181.100184
 21
271.463192
 31
0.0
  0
LINE
  5
432
330
426
100
AcDbEntity
  8
LC-001-100-D00-0
 62
     7
370
    50
100
AcDbLine
 10
181.100184
 20
271.463192
 30
0.0
 11
181.242173
 21
271.400499
 31
0.0
  0
LINE
  5
433
330
426
100
AcDbEntity
  8
LC-001-100-D00-0
 62
     7
370
    50
100
AcDbLine
 10
181.242173
 20
271.400499
 30
0.0
 11
181.242173
 21
271.400499
 31
0.0
  0
LINE
  5
434
330
426
100
AcDbEntity
  8
LC-001-100-D00-0
 62
     7
370
    50
100
AcDbLine
 10
181.242173
 20
271.400499
 30
0.0
 11
181.332225
 21
271.394059
 31
0.0
  0
LINE
  5
435
330
426
100
AcDbEntity
  8
LC-001-100-D00-0
 62
     7
370
    50
100
AcDbLine
 10
181.332225
 20
271.394059
 30
0.0
 11
181.332225
 21
271.394059
 31
0.0
  0
LINE
  5
436
330
426
100
AcDbEntity
  8
LC-001-100-D00-0
 62
     7
370
    50
100
AcDbLine
 10
181.332225
 20
271.394059
 30
0.0
 11
181.375077
 21
271.390994
 31
0.0
  0
ENDBLK
  5
428
330
426
100
AcDbEntity
  8
0
100
AcDbBlockEnd
  0
BLOCK
  5
45C
330
45B
100
AcDbEntity
  8
0
100
AcDbBlockBegin
  2
KLON3
 70
     0
 71
     0
 10
0.0
 20
0.0
 30
0.0
  3
KLON3
  1

  4
KLON3
  0
LINE
  5
45E
330
45B
100
AcDbEntity
  8
LC-001-100-D00-0
 62
     7
370
    25
100
AcDbLine
 10
34.574903
 20
128.179194
 30
0.0
 11
37.375074
 21
130.979364
 31
0.0
  0
LINE
  5
45F
330
45B
100
AcDbEntity
  8
LC-001-100-D00-0
 62
     7
370
    25
100
AcDbLine
 10
33.875074
 20
149.930004
 30
0.0
 11
37.375074
 21
153.430004
 31
0.0
  0
LINE
  5
460
330
45B
100
AcDbEntity
  8
LC-001-100-D00-0
 62
     7
370
    25
100
AcDbLine
 10
33.875074
 20
172.380644
 30
0.0
 11
37.375074
 21
175.880644
 31
0.0
  0
LINE
  5
461
330
45B
100
AcDbEntity
  8
LC-001-100-D00-0
 62
     7
370
    25
100
AcDbLine
 10
33.875074
 20
194.831285
 30
0.0
 11
37.375074
 21
198.331285
 31
0.0
  0
LINE
  5
462
330
45B
100
AcDbEntity
  8
LC-001-100-D00-0
 62
     7
370
    25
100
AcDbLine
 10
33.875074
 20
217.281925
 30
0.0
 11
37.375074
 21
220.781925
 31
0.0
  0
LINE
  5
463
330
45B
100
AcDbEntity
  8
LC-001-100-D00-0
 62
     7
370
    25
100
AcDbLine
 10
33.875074
 20
239.732565
 30
0.0
 11
37.375074
 21
243.232565
 31
0.0
  0
LINE
  5
464
330
45B
100
AcDbEntity
  8
LC-001-100-D00-0
 62
     7
370
    25
100
AcDbLine
 10
33.875074
 20
262.183206
 30
0.0
 11
37.375074
 21
265.683206
 31
0.0
  0
ENDBLK
  5
45D
330
45B
100
AcDbEntity
  8
0
100
AcDbBlockEnd
  0
BLOCK
  5
467
330
466
100
AcDbEntity
  8
0
100
AcDbBlockBegin
  2
KLON4
 70
     0
 71
     0
 10
0.0
 20
0.0
 30
0.0
  3
KLON4
  1

  4
KLON4
  0
LINE
  5
469
330
466
100
AcDbEntity
  8
LC-001-100-D00-0
 62
     7
370
    25
100
AcDbLine
 10
175.375074
 20
134.275522
 30
0.0
 11
178.875074
 21
137.775522
 31
0.0
  0
LINE
  5
46A
330
466
100
AcDbEntity
  8
LC-001-100-D00-0
 62
     7
370
    25
100
AcDbLine
 10
175.375074
 20
156.726162
 30
0.0
 11
178.875074
 21
160.226162
 31
0.0
  0
LINE
  5
46B
330
466
100
AcDbEntity
  8
LC-001-100-D00-0
 62
     7
370
    25
100
AcDbLine
 10
175.375074
 20
179.176803
 30
0.0
 11
178.875074
 21
182.676803
 31
0.0
  0
LINE
  5
46C
330
466
100
AcDbEntity
  8
LC-001-100-D00-0
 62
     7
370
    25
100
AcDbLine
 10
175.375074
 20
201.627443
 30
0.0
 11
178.875074
 21
205.127443
 31
0.0
  0
LINE
  5
46D
330
466
100
AcDbEntity
  8
LC-001-100-D00-0
 62
     7
370
    25
100
AcDbLine
 10
175.375074
 20
224.078083
 30
0.0
 11
178.875074
 21
227.578083
 31
0.0
  0
LINE
  5
46E
330
466
100
AcDbEntity
  8
LC-001-100-D00-0
 62
     7
370
    25
100
AcDbLine
 10
175.375074
 20
246.528724
 30
0.0
 11
178.875074
 21
250.028724
 31
0.0
  0
LINE
  5
46F
330
466
100
AcDbEntity
  8
LC-001-100-D00-0
 62
     7
370
    25
100
AcDbLine
 10
161.375074
 20
254.979364
 30
0.0
 11
163.375074
 21
256.979364
 31
0.0
  0
LINE
  5
470
330
466
100
AcDbEntity
  8
LC-001-100-D00-0
 62
     7
370
    25
100
AcDbLine
 10
168.686704
 20
262.290994
 30
0.0
 11
171.686704
 21
265.290994
 31
0.0
  0
ENDBLK
  5
468
330
466
100
AcDbEntity
  8
0
100
AcDbBlockEnd
  0
BLOCK
  5
473
330
472
100
AcDbEntity
  8
0
100
AcDbBlockBegin
  2
KLON5
 70
     0
 71
     0
 10
0.0
 20
0.0
 30
0.0
  3
KLON5
  1

  4
KLON5
  0
LINE
  5
475
330
472
100
AcDbEntity
  8
LC-001-100-D00-0
 62
     7
370
    25
100
AcDbLine
 10
176.229075
 20
269.833365
 30
0.0
 11
177.332703
 21
270.936993
 31
0.0
  0
LINE
  5
476
330
472
100
AcDbEntity
  8
LC-001-100-D00-0
 62
     7
370
    25
100
AcDbLine
 10
179.875074
 20
273.479364
 30
0.0
 11
180.838845
 21
274.443135
 31
0.0
  0
ENDBLK
  5
474
330
472
100
AcDbEntity
  8
0
100
AcDbBlockEnd
  0
BLOCK
  5
47E
330
47D
100
AcDbEntity
  8
0
100
AcDbBlockBegin
  2
KLON6
 70
     0
 71
     0
 10
0.0
 20
0.0
 30
0.0
  3
KLON6
  1

  4
KLON6
  0
LINE
  5
480
330
47D
100
AcDbEntity
  8
LC-001-100-D00-0
 62
     7
370
    25
100
AcDbLine
 10
109.834783
 20
270.790994
 30
0.0
 11
114.834783
 21
275.790994
 31
0.0
  0
LINE
  5
481
330
47D
100
AcDbEntity
  8
LC-001-100-D00-0
 62
     7
370
    25
100
AcDbLine
 10
91.375074
 20
274.781925
 30
0.0
 11
92.384143
 21
275.790994
 31
0.0
  0
ENDBLK
  5
47F
330
47D
100
AcDbEntity
  8
0
100
AcDbBlockEnd
  0
BLOCK
  5
493
330
488
100
AcDbEntity
  8
0
100
AcDbBlockBegin
  2
*D30
 70
     1
 71
     0
 10
0.0
 20
0.0
 30
0.0
  3
*D30
  1

  0
LINE
  5
489
330
488
100
AcDbEntity
  8
LC-003-003-----0
 62
     2
370
    -2
100
AcDbLine
 10
40.375074
 20
276.290994
 30
0.0
 11
8.420471
 21
276.290994
 31
0.0
  0
LINE
  5
48A
330
488
100
AcDbEntity
  8
LC-003-003-----0
 62
     2
370
    -2
100
AcDbLine
 10
31.875072
 20
270.390994
 30
0.0
 11
8.420471
 21
270.390994
 31
0.0
  0
LINE
  5
48B
330
488
100
AcDbEntity
  8
LC-003-003-----0
 62
     2
370
    -2
100
AcDbLine
 10
12.020471
 20
304.290994
 30
0.0
 11
12.020471
 21
332.290994
 31
0.0
  0
LINE
  5
48C
330
488
100
AcDbEntity
  8
LC-003-003-----0
 62
     2
370
    -2
100
AcDbLine
 10
12.020471
 20
242.390994
 30
0.0
 11
12.020471
 21
238.8675
 31
0.0
  0
SOLID
  5
48D
330
488
100
AcDbEntity
  8
LC-003-003-----0
 62
     2
100
AcDbTrace
 10
7.353805
 20
304.290994
 30
0.0
 11
16.687138
 21
304.290994
 31
0.0
 12
12.020471
 22
276.290994
 32
0.0
 13
12.020471
 23
276.290994
 33
0.0
  0
SOLID
  5
48E
330
488
100
AcDbEntity
  8
LC-003-003-----0
 62
     2
100
AcDbTrace
 10
16.687138
 20
242.390994
 30
0.0
 11
7.353805
 21
242.390994
 31
0.0
 12
12.020471
 22
270.390994
 32
0.0
 13
12.020471
 23
270.390994
 33
0.0
  0
MTEXT
  5
48F
330
488
100
AcDbEntity
  8
LC-003-003-----0
 62
     2
100
AcDbMText
 10
-18.779529
 20
250.413658
 30
0.0
 40
28.0
 41
0.0
 71
     5
 72
     1
  1
\A1;6
  7
LCTX15-400-0-0pDIN-Schrift
 11
6.123031769111886E-17
 21
1.0
 31
0.0
 73
     1
 44
1.0
  0
POINT
  5
490
330
488
100
AcDbEntity
  8
Defpoints
 62
     0
100
AcDbPoint
 10
40.375074
 20
276.290994
 30
0.0
  0
POINT
  5
491
330
488
100
AcDbEntity
  8
Defpoints
 62
     0
100
AcDbPoint
 10
31.875072
 20
270.390994
 30
0.0
  0
POINT
  5
492
330
488
100
AcDbEntity
  8
Defpoints
 62
     0
100
AcDbPoint
 10
12.020471
 20
270.390994
 30
0.0
  0
ENDBLK
  5
494
330
488
100
AcDbEntity
  8
0
100
AcDbBlockEnd
  0
BLOCK
  5
4A0
330
496
100
AcDbEntity
  8
0
100
AcDbBlockBegin
  2
*D31
 70
     1
 71
     0
 10
0.0
 20
0.0
 30
0.0
  3
*D31
  1

  0
LINE
  5
497
330
496
100
AcDbEntity
  8
LC-003-003-----0
 62
     2
370
    -2
100
AcDbLine
 10
32.875074
 20
274.040994
 30
0.0
 11
32.875074
 21
302.721658
 31
0.0
  0
LINE
  5
498
330
496
100
AcDbEntity
  8
LC-003-003-----0
 62
     2
370
    -2
100
AcDbLine
 10
179.875074
 20
274.040994
 30
0.0
 11
179.875074
 21
302.721658
 31
0.0
  0
LINE
  5
499
330
496
100
AcDbEntity
  8
LC-003-003-----0
 62
     2
370
    -2
100
AcDbLine
 10
60.875074
 20
299.121658
 30
0.0
 11
151.875074
 21
299.121658
 31
0.0
  0
SOLID
  5
49A
330
496
100
AcDbEntity
  8
LC-003-003-----0
 62
     2
100
AcDbTrace
 10
60.875074
 20
303.788325
 30
0.0
 11
60.875074
 21
294.454992
 31
0.0
 12
32.875074
 22
299.121658
 32
0.0
 13
32.875074
 23
299.121658
 33
0.0
  0
SOLID
  5
49B
330
496
100
AcDbEntity
  8
LC-003-003-----0
 62
     2
100
AcDbTrace
 10
151.875074
 20
294.454992
 30
0.0
 11
151.875074
 21
303.788325
 31
0.0
 12
179.875074
 22
299.121658
 32
0.0
 13
179.875074
 23
299.121658
 33
0.0
  0
MTEXT
  5
49C
330
496
100
AcDbEntity
  8
LC-003-003-----0
 62
     2
100
AcDbMText
 10
99.781428
 20
329.921658
 30
0.0
 40
28.0
 41
0.0
 71
     5
 72
     1
  1
\A1;150
  7
LCTX15-400-0-0pDIN-Schrift
 73
     1
 44
1.0
  0
POINT
  5
49D
330
496
100
AcDbEntity
  8
Defpoints
 62
     0
100
AcDbPoint
 10
32.875074
 20
274.040994
 30
0.0
  0
POINT
  5
49E
330
496
100
AcDbEntity
  8
Defpoints
 62
     0
100
AcDbPoint
 10
179.875074
 20
274.040994
 30
0.0
  0
POINT
  5
49F
330
496
100
AcDbEntity
  8
Defpoints
 62
     0
100
AcDbPoint
 10
179.875074
 20
299.121658
 30
0.0
  0
ENDBLK
  5
4A1
330
496
100
AcDbEntity
  8
0
100
AcDbBlockEnd
  0
BLOCK
  5
4AD
330
4A3
100
AcDbEntity
  8
0
100
AcDbBlockBegin
  2
*D32
 70
     1
 71
     0
 10
0.0
 20
0.0
 30
0.0
  3
*D32
  1

  0
LINE
  5
4A4
330
4A3
100
AcDbEntity
  8
LC-003-003-----0
 62
     2
370
    -2
100
AcDbLine
 10
33.875076
 20
130.790997
 30
0.0
 11
33.875076
 21
72.177658
 31
0.0
  0
LINE
  5
4A5
330
4A3
100
AcDbEntity
  8
LC-003-003-----0
 62
     2
370
    -2
100
AcDbLine
 10
178.875071
 20
130.790997
 30
0.0
 11
178.875071
 21
72.177658
 31
0.0
  0
LINE
  5
4A6
330
4A3
100
AcDbEntity
  8
LC-003-003-----0
 62
     2
370
    -2
100
AcDbLine
 10
61.875076
 20
75.777658
 30
0.0
 11
150.875071
 21
75.777658
 31
0.0
  0
SOLID
  5
4A7
330
4A3
100
AcDbEntity
  8
LC-003-003-----0
 62
     2
100
AcDbTrace
 10
61.875076
 20
80.444325
 30
0.0
 11
61.875076
 21
71.110992
 31
0.0
 12
33.875076
 22
75.777658
 32
0.0
 13
33.875076
 23
75.777658
 33
0.0
  0
SOLID
  5
4A8
330
4A3
100
AcDbEntity
  8
LC-003-003-----0
 62
     2
100
AcDbTrace
 10
150.875071
 20
71.110992
 30
0.0
 11
150.875071
 21
80.444325
 31
0.0
 12
178.875071
 22
75.777658
 32
0.0
 13
178.875071
 23
75.777658
 33
0.0
  0
MTEXT
  5
4A9
330
4A3
100
AcDbEntity
  8
LC-003-003-----0
 62
     2
100
AcDbMText
 10
103.327326
 20
106.577658
 30
0.0
 40
28.0
 41
0.0
 71
     5
 72
     1
  1
%%c\A1;145
  7
LCTX15-400-0-0pDIN-Schrift
 73
     1
 44
1.0
  0
POINT
  5
4AA
330
4A3
100
AcDbEntity
  8
Defpoints
 62
     0
100
AcDbPoint
 10
33.875076
 20
130.790997
 30
0.0
  0
POINT
  5
4AB
330
4A3
100
AcDbEntity
  8
Defpoints
 62
     0
100
AcDbPoint
 10
178.875071
 20
130.790997
 30
0.0
  0
POINT
  5
4AC
330
4A3
100
AcDbEntity
  8
Defpoints
 62
     0
100
AcDbPoint
 10
178.875071
 20
75.777658
 30
0.0
  0
ENDBLK
  5
4AE
330
4A3
100
AcDbEntity
  8
0
100
AcDbBlockEnd
  0
BLOCK
  5
4B0
330
4AF
100
AcDbEntity
  8
0
100
AcDbBlockBegin
  2
*X133
 70
     1
 71
     0
 10
0.0
 20
0.0
 30
0.0
  3
*X133
  1

  4
*X1
  0
LINE
  5
4B3
330
4AF
100
AcDbEntity
  8
LC-004-005-----0
 62
     7
370
    25
100
AcDbLine
 10
172.045823
 20
126.790989
 30
0.0
 11
175.375072
 21
130.120238
 31
0.0
  0
LINE
  5
4B4
330
4AF
100
AcDbEntity
  8
LC-004-005-----0
 62
     7
370
    25
100
AcDbLine
 10
166.388969
 20
126.790989
 30
0.0
 11
175.375072
 21
135.777092
 31
0.0
  0
LINE
  5
4B5
330
4AF
100
AcDbEntity
  8
LC-004-005-----0
 62
     7
370
    25
100
AcDbLine
 10
160.732115
 20
126.790989
 30
0.0
 11
175.375072
 21
141.433946
 31
0.0
  0
LINE
  5
4B6
330
4AF
100
AcDbEntity
  8
LC-004-005-----0
 62
     7
370
    25
100
AcDbLine
 10
155.07526
 20
126.790989
 30
0.0
 11
175.375072
 21
147.090801
 31
0.0
  0
LINE
  5
4B7
330
4AF
100
AcDbEntity
  8
LC-004-005-----0
 62
     7
370
    25
100
AcDbLine
 10
149.418406
 20
126.790989
 30
0.0
 11
172.418406
 21
149.790989
 31
0.0
  0
LINE
  5
4B8
330
4AF
100
AcDbEntity
  8
LC-004-005-----0
 62
     7
370
    25
100
AcDbLine
 10
143.761552
 20
126.790989
 30
0.0
 11
166.761552
 21
149.790989
 31
0.0
  0
LINE
  5
4B9
330
4AF
100
AcDbEntity
  8
LC-004-005-----0
 62
     7
370
    25
100
AcDbLine
 10
138.104698
 20
126.790989
 30
0.0
 11
161.104698
 21
149.790989
 31
0.0
  0
LINE
  5
4BA
330
4AF
100
AcDbEntity
  8
LC-004-005-----0
 62
     7
370
    25
100
AcDbLine
 10
132.447843
 20
126.790989
 30
0.0
 11
155.447843
 21
149.790989
 31
0.0
  0
LINE
  5
4BB
330
4AF
100
AcDbEntity
  8
LC-004-005-----0
 62
     7
370
    25
100
AcDbLine
 10
126.790989
 20
126.790989
 30
0.0
 11
149.790989
 21
149.790989
 31
0.0
  0
LINE
  5
4BC
330
4AF
100
AcDbEntity
  8
LC-004-005-----0
 62
     7
370
    25
100
AcDbLine
 10
121.134135
 20
126.790989
 30
0.0
 11
144.134135
 21
149.790989
 31
0.0
  0
LINE
  5
4BD
330
4AF
100
AcDbEntity
  8
LC-004-005-----0
 62
     7
370
    25
100
AcDbLine
 10
115.477281
 20
126.790989
 30
0.0
 11
138.477281
 21
149.790989
 31
0.0
  0
LINE
  5
4BE
330
4AF
100
AcDbEntity
  8
LC-004-005-----0
 62
     7
370
    25
100
AcDbLine
 10
109.820426
 20
126.790989
 30
0.0
 11
132.820426
 21
149.790989
 31
0.0
  0
LINE
  5
4BF
330
4AF
100
AcDbEntity
  8
LC-004-005-----0
 62
     7
370
    25
100
AcDbLine
 10
104.163572
 20
126.790989
 30
0.0
 11
127.163572
 21
149.790989
 31
0.0
  0
LINE
  5
4C0
330
4AF
100
AcDbEntity
  8
LC-004-005-----0
 62
     7
370
    25
100
AcDbLine
 10
98.506718
 20
126.790989
 30
0.0
 11
121.506718
 21
149.790989
 31
0.0
  0
LINE
  5
4C1
330
4AF
100
AcDbEntity
  8
LC-004-005-----0
 62
     7
370
    25
100
AcDbLine
 10
92.849864
 20
126.790989
 30
0.0
 11
115.849864
 21
149.790989
 31
0.0
  0
LINE
  5
4C2
330
4AF
100
AcDbEntity
  8
LC-004-005-----0
 62
     7
370
    25
100
AcDbLine
 10
87.193009
 20
126.790989
 30
0.0
 11
110.193009
 21
149.790989
 31
0.0
  0
LINE
  5
4C3
330
4AF
100
AcDbEntity
  8
LC-004-005-----0
 62
     7
370
    25
100
AcDbLine
 10
81.536155
 20
126.790989
 30
0.0
 11
104.536155
 21
149.790989
 31
0.0
  0
LINE
  5
4C4
330
4AF
100
AcDbEntity
  8
LC-004-005-----0
 62
     7
370
    25
100
AcDbLine
 10
75.879301
 20
126.790989
 30
0.0
 11
98.879301
 21
149.790989
 31
0.0
  0
LINE
  5
4C5
330
4AF
100
AcDbEntity
  8
LC-004-005-----0
 62
     7
370
    25
100
AcDbLine
 10
70.222447
 20
126.790989
 30
0.0
 11
93.222447
 21
149.790989
 31
0.0
  0
LINE
  5
4C6
330
4AF
100
AcDbEntity
  8
LC-004-005-----0
 62
     7
370
    25
100
AcDbLine
 10
64.565592
 20
126.790989
 30
0.0
 11
87.565592
 21
149.790989
 31
0.0
  0
LINE
  5
4C7
330
4AF
100
AcDbEntity
  8
LC-004-005-----0
 62
     7
370
    25
100
AcDbLine
 10
58.908738
 20
126.790989
 30
0.0
 11
81.908738
 21
149.790989
 31
0.0
  0
LINE
  5
4C8
330
4AF
100
AcDbEntity
  8
LC-004-005-----0
 62
     7
370
    25
100
AcDbLine
 10
53.251884
 20
126.790989
 30
0.0
 11
76.251884
 21
149.790989
 31
0.0
  0
LINE
  5
4C9
330
4AF
100
AcDbEntity
  8
LC-004-005-----0
 62
     7
370
    25
100
AcDbLine
 10
47.59503
 20
126.790989
 30
0.0
 11
70.59503
 21
149.790989
 31
0.0
  0
LINE
  5
4CA
330
4AF
100
AcDbEntity
  8
LC-004-005-----0
 62
     7
370
    25
100
AcDbLine
 10
41.938175
 20
126.790989
 30
0.0
 11
64.938175
 21
149.790989
 31
0.0
  0
LINE
  5
4CB
330
4AF
100
AcDbEntity
  8
LC-004-005-----0
 62
     7
370
    25
100
AcDbLine
 10
37.375075
 20
127.884743
 30
0.0
 11
59.281321
 21
149.790989
 31
0.0
  0
LINE
  5
4CC
330
4AF
100
AcDbEntity
  8
LC-004-005-----0
 62
     7
370
    25
100
AcDbLine
 10
37.375075
 20
133.541598
 30
0.0
 11
53.624467
 21
149.790989
 31
0.0
  0
LINE
  5
4CD
330
4AF
100
AcDbEntity
  8
LC-004-005-----0
 62
     7
370
    25
100
AcDbLine
 10
37.375075
 20
139.198452
 30
0.0
 11
47.967613
 21
149.790989
 31
0.0
  0
LINE
  5
4CE
330
4AF
100
AcDbEntity
  8
LC-004-005-----0
 62
     7
370
    25
100
AcDbLine
 10
37.375075
 20
144.855306
 30
0.0
 11
42.310758
 21
149.790989
 31
0.0
  0
LINE
  5
4CF
330
4AF
100
AcDbEntity
  8
LC-004-005-----0
 62
     7
370
    25
100
AcDbLine
 10
175.375072
 20
147.06562
 30
0.0
 11
172.649703
 21
149.790989
 31
0.0
  0
LINE
  5
4D0
330
4AF
100
AcDbEntity
  8
LC-004-005-----0
 62
     7
370
    25
100
AcDbLine
 10
175.375072
 20
141.408766
 30
0.0
 11
166.992849
 21
149.790989
 31
0.0
  0
LINE
  5
4D1
330
4AF
100
AcDbEntity
  8
LC-004-005-----0
 62
     7
370
    25
100
AcDbLine
 10
175.375072
 20
135.751912
 30
0.0
 11
161.335995
 21
149.790989
 31
0.0
  0
LINE
  5
4D2
330
4AF
100
AcDbEntity
  8
LC-004-005-----0
 62
     7
370
    25
100
AcDbLine
 10
175.375072
 20
130.095058
 30
0.0
 11
155.67914
 21
149.790989
 31
0.0
  0
LINE
  5
4D3
330
4AF
100
AcDbEntity
  8
LC-004-005-----0
 62
     7
370
    25
100
AcDbLine
 10
173.022286
 20
126.790989
 30
0.0
 11
150.022286
 21
149.790989
 31
0.0
  0
LINE
  5
4D4
330
4AF
100
AcDbEntity
  8
LC-004-005-----0
 62
     7
370
    25
100
AcDbLine
 10
167.365432
 20
126.790989
 30
0.0
 11
144.365432
 21
149.790989
 31
0.0
  0
LINE
  5
4D5
330
4AF
100
AcDbEntity
  8
LC-004-005-----0
 62
     7
370
    25
100
AcDbLine
 10
161.708578
 20
126.790989
 30
0.0
 11
138.708578
 21
149.790989
 31
0.0
  0
LINE
  5
4D6
330
4AF
100
AcDbEntity
  8
LC-004-005-----0
 62
     7
370
    25
100
AcDbLine
 10
156.051723
 20
126.790989
 30
0.0
 11
133.051723
 21
149.790989
 31
0.0
  0
LINE
  5
4D7
330
4AF
100
AcDbEntity
  8
LC-004-005-----0
 62
     7
370
    25
100
AcDbLine
 10
150.394869
 20
126.790989
 30
0.0
 11
127.394869
 21
149.790989
 31
0.0
  0
LINE
  5
4D8
330
4AF
100
AcDbEntity
  8
LC-004-005-----0
 62
     7
370
    25
100
AcDbLine
 10
144.738015
 20
126.790989
 30
0.0
 11
121.738015
 21
149.790989
 31
0.0
  0
LINE
  5
4D9
330
4AF
100
AcDbEntity
  8
LC-004-005-----0
 62
     7
370
    25
100
AcDbLine
 10
139.081161
 20
126.790989
 30
0.0
 11
116.081161
 21
149.790989
 31
0.0
  0
LINE
  5
4DA
330
4AF
100
AcDbEntity
  8
LC-004-005-----0
 62
     7
370
    25
100
AcDbLine
 10
133.424306
 20
126.790989
 30
0.0
 11
110.424306
 21
149.790989
 31
0.0
  0
LINE
  5
4DB
330
4AF
100
AcDbEntity
  8
LC-004-005-----0
 62
     7
370
    25
100
AcDbLine
 10
127.767452
 20
126.790989
 30
0.0
 11
104.767452
 21
149.790989
 31
0.0
  0
LINE
  5
4DC
330
4AF
100
AcDbEntity
  8
LC-004-005-----0
 62
     7
370
    25
100
AcDbLine
 10
122.110598
 20
126.790989
 30
0.0
 11
99.110598
 21
149.790989
 31
0.0
  0
LINE
  5
4DD
330
4AF
100
AcDbEntity
  8
LC-004-005-----0
 62
     7
370
    25
100
AcDbLine
 10
116.453744
 20
126.790989
 30
0.0
 11
93.453744
 21
149.790989
 31
0.0
  0
LINE
  5
4DE
330
4AF
100
AcDbEntity
  8
LC-004-005-----0
 62
     7
370
    25
100
AcDbLine
 10
110.796889
 20
126.790989
 30
0.0
 11
87.796889
 21
149.790989
 31
0.0
  0
LINE
  5
4DF
330
4AF
100
AcDbEntity
  8
LC-004-005-----0
 62
     7
370
    25
100
AcDbLine
 10
105.140035
 20
126.790989
 30
0.0
 11
82.140035
 21
149.790989
 31
0.0
  0
LINE
  5
4E0
330
4AF
100
AcDbEntity
  8
LC-004-005-----0
 62
     7
370
    25
100
AcDbLine
 10
99.483181
 20
126.790989
 30
0.0
 11
76.483181
 21
149.790989
 31
0.0
  0
LINE
  5
4E1
330
4AF
100
AcDbEntity
  8
LC-004-005-----0
 62
     7
370
    25
100
AcDbLine
 10
93.826327
 20
126.790989
 30
0.0
 11
70.826327
 21
149.790989
 31
0.0
  0
LINE
  5
4E2
330
4AF
100
AcDbEntity
  8
LC-004-005-----0
 62
     7
370
    25
100
AcDbLine
 10
88.169472
 20
126.790989
 30
0.0
 11
65.169472
 21
149.790989
 31
0.0
  0
LINE
  5
4E3
330
4AF
100
AcDbEntity
  8
LC-004-005-----0
 62
     7
370
    25
100
AcDbLine
 10
82.512618
 20
126.790989
 30
0.0
 11
59.512618
 21
149.790989
 31
0.0
  0
LINE
  5
4E4
330
4AF
100
AcDbEntity
  8
LC-004-005-----0
 62
     7
370
    25
100
AcDbLine
 10
76.855764
 20
126.790989
 30
0.0
 11
53.855764
 21
149.790989
 31
0.0
  0
LINE
  5
4E5
330
4AF
100
AcDbEntity
  8
LC-004-005-----0
 62
     7
370
    25
100
AcDbLine
 10
71.19891
 20
126.790989
 30
0.0
 11
48.19891
 21
149.790989
 31
0.0
  0
LINE
  5
4E6
330
4AF
100
AcDbEntity
  8
LC-004-005-----0
 62
     7
370
    25
100
AcDbLine
 10
65.542055
 20
126.790989
 30
0.0
 11
42.542055
 21
149.790989
 31
0.0
  0
LINE
  5
4E7
330
4AF
100
AcDbEntity
  8
LC-004-005-----0
 62
     7
370
    25
100
AcDbLine
 10
59.885201
 20
126.790989
 30
0.0
 11
37.375075
 21
149.301115
 31
0.0
  0
LINE
  5
4E8
330
4AF
100
AcDbEntity
  8
LC-004-005-----0
 62
     7
370
    25
100
AcDbLine
 10
54.228347
 20
126.790989
 30
0.0
 11
37.375075
 21
143.644261
 31
0.0
  0
LINE
  5
4E9
330
4AF
100
AcDbEntity
  8
LC-004-005-----0
 62
     7
370
    25
100
AcDbLine
 10
48.571493
 20
126.790989
 30
0.0
 11
37.375075
 21
137.987406
 31
0.0
  0
LINE
  5
4EA
330
4AF
100
AcDbEntity
  8
LC-004-005-----0
 62
     7
370
    25
100
AcDbLine
 10
42.914638
 20
126.790989
 30
0.0
 11
37.375075
 21
132.330552
 31
0.0
  0
ENDBLK
  5
4B1
330
4AF
100
AcDbEntity
  8
0
100
AcDbBlockEnd
  0
BLOCK
  5
4F8
330
4ED
100
AcDbEntity
  8
0
100
AcDbBlockBegin
  2
*D34
 70
     1
 71
     0
 10
0.0
 20
0.0
 30
0.0
  3
*D34
  1

  0
LINE
  5
4EE
330
4ED
100
AcDbEntity
  8
LC-003-003-----0
 62
     2
370
    -2
100
AcDbLine
 10
175.375072
 20
126.790989
 30
0.0
 11
202.666552
 21
126.790989
 31
0.0
  0
LINE
  5
4EF
330
4ED
100
AcDbEntity
  8
LC-003-003-----0
 62
     2
370
    -2
100
AcDbLine
 10
175.375072
 20
149.790989
 30
0.0
 11
202.666552
 21
149.790989
 31
0.0
  0
LINE
  5
4F0
330
4ED
100
AcDbEntity
  8
LC-003-003-----0
 62
     2
370
    -2
100
AcDbLine
 10
199.066552
 20
177.790989
 30
0.0
 11
199.066552
 21
205.790989
 31
0.0
  0
LINE
  5
4F1
330
4ED
100
AcDbEntity
  8
LC-003-003-----0
 62
     2
370
    -2
100
AcDbLine
 10
199.066552
 20
98.790989
 30
0.0
 11
199.066552
 21
2.71837
 31
0.0
  0
SOLID
  5
4F2
330
4ED
100
AcDbEntity
  8
LC-003-003-----0
 62
     2
100
AcDbTrace
 10
203.733218
 20
98.790989
 30
0.0
 11
194.399885
 21
98.790989
 31
0.0
 12
199.066552
 22
126.790989
 32
0.0
 13
199.066552
 23
126.790989
 33
0.0
  0
SOLID
  5
4F3
330
4ED
100
AcDbEntity
  8
LC-003-003-----0
 62
     2
100
AcDbTrace
 10
194.399885
 20
177.790989
 30
0.0
 11
203.733218
 21
177.790989
 31
0.0
 12
199.066552
 22
149.790989
 32
0.0
 13
199.066552
 23
149.790989
 33
0.0
  0
MTEXT
  5
4F4
330
4ED
100
AcDbEntity
  8
LC-003-003-----0
 62
     2
100
AcDbMText
 10
168.266552
 20
27.069658
 30
0.0
 40
28.0
 41
0.0
 71
     5
 72
     1
  1
\A1;23
  7
LCTX15-400-0-0pDIN-Schrift
 11
6.123031769111886E-17
 21
1.0
 31
0.0
 73
     1
 44
1.0
  0
POINT
  5
4F5
330
4ED
100
AcDbEntity
  8
Defpoints
 62
     0
100
AcDbPoint
 10
175.375072
 20
126.790989
 30
0.0
  0
POINT
  5
4F6
330
4ED
100
AcDbEntity
  8
Defpoints
 62
     0
100
AcDbPoint
 10
175.375072
 20
149.790989
 30
0.0
  0
POINT
  5
4F7
330
4ED
100
AcDbEntity
  8
Defpoints
 62
     0
100
AcDbPoint
 10
199.066552
 20
149.790989
 30
0.0
  0
ENDBLK
  5
4F9
330
4ED
100
AcDbEntity
  8
0
100
AcDbBlockEnd
  0
BLOCK
  5
505
330
4FB
100
AcDbEntity
  8
0
100
AcDbBlockBegin
  2
*D35
 70
     1
 71
     0
 10
0.0
 20
0.0
 30
0.0
  3
*D35
  1

  0
LINE
  5
4FC
330
4FB
100
AcDbEntity
  8
LC-003-003-----0
 62
     2
370
    -2
100
AcDbLine
 10
175.375072
 20
149.790989
 30
0.0
 11
257.627959
 21
149.790989
 31
0.0
  0
LINE
  5
4FD
330
4FB
100
AcDbEntity
  8
LC-003-003-----0
 62
     2
370
    -2
100
AcDbLine
 10
176.000075
 20
276.290994
 30
0.0
 11
257.627959
 21
276.290994
 31
0.0
  0
LINE
  5
4FE
330
4FB
100
AcDbEntity
  8
LC-003-003-----0
 62
     2
370
    -2
100
AcDbLine
 10
254.027959
 20
177.790989
 30
0.0
 11
254.027959
 21
248.290994
 31
0.0
  0
SOLID
  5
4FF
330
4FB
100
AcDbEntity
  8
LC-003-003-----0
 62
     2
100
AcDbTrace
 10
249.361293
 20
177.790989
 30
0.0
 11
258.694626
 21
177.790989
 31
0.0
 12
254.027959
 22
149.790989
 32
0.0
 13
254.027959
 23
149.790989
 33
0.0
  0
SOLID
  5
500
330
4FB
100
AcDbEntity
  8
LC-003-003-----0
 62
     2
100
AcDbTrace
 10
258.694626
 20
248.290994
 30
0.0
 11
249.361293
 21
248.290994
 31
0.0
 12
254.027959
 22
276.290994
 32
0.0
 13
254.027959
 23
276.290994
 33
0.0
  0
MTEXT
  5
501
330
4FB
100
AcDbEntity
  8
LC-003-003-----0
 62
     2
100
AcDbMText
 10
223.227959
 20
207.051658
 30
0.0
 40
28.0
 41
0.0
 71
     5
 72
     1
  1
\A1;6-127
  7
LCTX15-400-0-0pDIN-Schrift
 11
6.123031769111886E-17
 21
1.0
 31
0.0
 73
     1
 44
1.0
  0
POINT
  5
502
330
4FB
100
AcDbEntity
  8
Defpoints
 62
     0
100
AcDbPoint
 10
175.375072
 20
149.790989
 30
0.0
  0
POINT
  5
503
330
4FB
100
AcDbEntity
  8
Defpoints
 62
     0
100
AcDbPoint
 10
176.000075
 20
276.290994
 30
0.0
  0
POINT
  5
504
330
4FB
100
AcDbEntity
  8
Defpoints
 62
     0
100
AcDbPoint
 10
254.027959
 20
276.290994
 30
0.0
  0
ENDBLK
  5
506
330
4FB
100
AcDbEntity
  8
0
100
AcDbBlockEnd
  0
ENDSEC
  0
SECTION
  2
ENTITIES
  0
LINE
  5
31
330
1F
100
AcDbEntity
  8
LC-001-100-D00-0
 62
     7
370
    50
100
AcDbLine
 10
326.725071
 20
241.040992
 30
0.0
 11
369.025071
 21
241.040992
 31
0.0
  0
LINE
  5
34
330
1F
100
AcDbEntity
  8
LC-002-002-----0
 62
     7
370
    25
100
AcDbLine
 10
106.375074
 20
126.790989
 30
0.0
 11
106.375074
 21
275.790994
 31
0.0
  0
LINE
  5
35
330
1F
100
AcDbEntity
  8
LC-001-100-D00-0
 62
     7
370
    50
100
AcDbLine
 10
281.375071
 20
270.54099
 30
0.0
 11
414.375071
 21
270.54099
 31
0.0
  0
LINE
  5
36
330
1F
100
AcDbEntity
  8
LC-002-002-----0
  6
ByBlock
 62
     7
370
    50
100
AcDbLine
 10
175.375072
 20
149.790989
 30
0.0
 11
37.375075
 21
149.790989
 31
0.0
  0
LINE
  5
37
330
1F
100
AcDbEntity
  8
LC-001-100-D00-0
 62
     7
370
    50
100
AcDbLine
 10
339.392595
 20
213.912455
 30
0.0
 11
338.378078
 21
214.926972
 31
0.0
  0
LINE
  5
38
330
1F
100
AcDbEntity
  8
LC-001-100-D00-0
 62
     7
370
    50
100
AcDbLine
 10
337.256207
 20
213.805098
 30
0.0
 11
338.378078
 21
214.926972
 31
0.0
  0
ARC
  5
39
330
1F
100
AcDbEntity
  8
LC-001-100-D00-0
 62
     7
370
    50
100
AcDbCircle
 10
338.034004
 20
213.027301
 30
0.0
 40
1.099971125000004
100
AcDbArc
 50
135.0
 51
176.229305
  0
ARC
  5
3A
330
1F
100
AcDbEntity
  8
LC-001-100-D00-0
 62
     7
370
    50
100
AcDbCircle
 10
337.008752
 20
212.002049
 30
0.0
 40
1.099971561457319
100
AcDbArc
 50
93.770686
 51
135.000058
  0
LINE
  5
3B
330
1F
100
AcDbEntity
  8
LC-001-100-D00-0
 62
     7
370
    50
100
AcDbLine
 10
335.26689
 20
211.81578
 30
0.0
 11
336.230954
 21
212.779845
 31
0.0
  0
ARC
  5
3C
330
1F
100
AcDbEntity
  8
LC-001-100-D00-0
 62
     7
370
    50
100
AcDbCircle
 10
336.044687
 20
211.037984
 30
0.0
 40
1.099970728885036
100
AcDbArc
 50
135.000058
 51
225.0
  0
LINE
  5
3D
330
1F
100
AcDbEntity
  8
LC-001-100-D00-0
 62
     7
370
    50
100
AcDbLine
 10
337.53264
 20
207.994437
 30
0.0
 11
335.266891
 21
210.260187
 31
0.0
  0
LINE
  5
3E
330
1F
100
AcDbEntity
  8
LC-001-100-D00-0
 62
     7
370
    50
100
AcDbLine
 10
337.53264
 20
207.994437
 30
0.0
 11
341.421627
 21
211.883423
 31
0.0
  0
LINE
  5
3F
330
1F
100
AcDbEntity
  8
LC-001-100-D00-0
 62
     7
370
    50
100
AcDbLine
 10
341.421627
 20
211.883423
 30
0.0
 11
340.407111
 21
212.897939
 31
0.0
  0
LINE
  5
40
330
1F
100
AcDbEntity
  8
LC-001-100-D00-0
 62
     7
370
    50
100
AcDbLine
 10
340.407111
 20
212.897939
 30
0.0
 11
339.392595
 21
211.883423
 31
0.0
  0
LINE
  5
41
330
1F
100
AcDbEntity
  8
LC-001-100-D00-0
 62
     7
370
    50
100
AcDbLine
 10
339.392595
 20
211.883423
 30
0.0
 11
338.547164
 21
212.728853
 31
0.0
  0
ARC
  5
42
330
1F
100
AcDbEntity
  8
LC-001-100-D00-0
 62
     7
370
    50
100
AcDbCircle
 10
338.71625
 20
212.897939
 30
0.0
 40
0.2391235000001632
100
AcDbArc
 50
135.0
 51
225.0
  0
LINE
  5
43
330
1F
100
AcDbEntity
  8
LC-001-100-D00-0
 62
     7
370
    50
100
AcDbLine
 10
339.392595
 20
213.912455
 30
0.0
 11
338.547164
 21
213.067025
 31
0.0
  0
LINE
  5
44
330
1F
100
AcDbEntity
  8
LC-001-100-D00-0
 62
     7
370
    50
100
AcDbLine
 10
345.986949
 20
207.3181
 30
0.0
 11
344.972432
 21
208.332616
 31
0.0
  0
LINE
  5
45
330
1F
100
AcDbEntity
  8
LC-001-100-D00-0
 62
     7
370
    50
100
AcDbLine
 10
341.861244
 20
205.221428
 30
0.0
 11
344.972432
 21
208.332616
 31
0.0
  0
ARC
  5
46
330
1F
100
AcDbEntity
  8
LC-001-100-D00-0
 62
     7
370
    50
100
AcDbCircle
 10
342.639041
 20
204.443631
 30
0.0
 40
1.099971191669154
100
AcDbArc
 50
135.0
 51
225.0
  0
LINE
  5
47
330
1F
100
AcDbEntity
  8
LC-001-100-D00-0
 62
     7
370
    50
100
AcDbLine
 10
342.821763
 20
202.705315
 30
0.0
 11
341.861244
 21
203.665834
 31
0.0
  0
ARC
  5
48
330
1F
100
AcDbEntity
  8
LC-001-100-D00-0
 62
     7
370
    50
100
AcDbCircle
 10
343.59956
 20
203.483112
 30
0.0
 40
1.099971191669074
100
AcDbArc
 50
225.0
 51
269.415318
  0
ARC
  5
49
330
1F
100
AcDbEntity
  8
LC-001-100-D00-0
 62
     7
370
    50
100
AcDbCircle
 10
344.68825
 20
202.394422
 30
0.0
 40
1.099971687453178
100
AcDbArc
 50
180.584658
 51
225.0
  0
LINE
  5
4A
330
1F
100
AcDbEntity
  8
LC-001-100-D00-0
 62
     7
370
    50
100
AcDbLine
 10
344.870972
 20
200.656106
 30
0.0
 11
343.910452
 21
201.616625
 31
0.0
  0
ARC
  5
4B
330
1F
100
AcDbEntity
  8
LC-001-100-D00-0
 62
     7
370
    50
100
AcDbCircle
 10
345.648769
 20
201.433903
 30
0.0
 40
1.099971125000044
100
AcDbArc
 50
225.0
 51
315.0
  0
LINE
  5
4C
330
1F
100
AcDbEntity
  8
LC-001-100-D00-0
 62
     7
370
    50
100
AcDbLine
 10
346.426566
 20
200.656106
 30
0.0
 11
349.537755
 21
203.767295
 31
0.0
  0
LINE
  5
4D
330
1F
100
AcDbEntity
  8
LC-001-100-D00-0
 62
     7
370
    50
100
AcDbLine
 10
349.537755
 20
203.767295
 30
0.0
 11
348.523239
 21
204.781811
 31
0.0
  0
LINE
  5
4E
330
1F
100
AcDbEntity
  8
LC-001-100-D00-0
 62
     7
370
    50
100
AcDbLine
 10
345.761492
 20
202.020064
 30
0.0
 11
348.523239
 21
204.781811
 31
0.0
  0
ARC
  5
4F
330
1F
100
AcDbEntity
  8
LC-001-100-D00-0
 62
     7
370
    50
100
AcDbCircle
 10
345.648768
 20
202.132788
 30
0.0
 40
0.159416124999953
100
AcDbArc
 50
225.0
 51
315.0
  0
LINE
  5
50
330
1F
100
AcDbEntity
  8
LC-001-100-D00-0
 62
     7
370
    50
100
AcDbLine
 10
345.536043
 20
202.020064
 30
0.0
 11
345.028786
 21
202.527322
 31
0.0
  0
ARC
  5
51
330
1F
100
AcDbEntity
  8
LC-001-100-D00-0
 62
     7
370
    50
100
AcDbCircle
 10
345.14151
 20
202.640046
 30
0.0
 40
0.159416124999953
100
AcDbArc
 50
135.0
 51
225.0
  0
LINE
  5
52
330
1F
100
AcDbEntity
  8
LC-001-100-D00-0
 62
     7
370
    50
100
AcDbLine
 10
345.028786
 20
202.75277
 30
0.0
 11
347.790533
 21
205.514517
 31
0.0
  0
LINE
  5
53
330
1F
100
AcDbEntity
  8
LC-001-100-D00-0
 62
     7
370
    50
100
AcDbLine
 10
347.790533
 20
205.514517
 30
0.0
 11
346.719655
 21
206.585395
 31
0.0
  0
LINE
  5
54
330
1F
100
AcDbEntity
  8
LC-001-100-D00-0
 62
     7
370
    50
100
AcDbLine
 10
343.957908
 20
203.823648
 30
0.0
 11
346.719655
 21
206.585395
 31
0.0
  0
ARC
  5
55
330
1F
100
AcDbEntity
  8
LC-001-100-D00-0
 62
     7
370
    50
100
AcDbCircle
 10
343.845184
 20
203.936372
 30
0.0
 40
0.159415437500026
100
AcDbArc
 50
225.0
 51
315.0
  0
LINE
  5
56
330
1F
100
AcDbEntity
  8
LC-001-100-D00-0
 62
     7
370
    50
100
AcDbLine
 10
343.732461
 20
203.823648
 30
0.0
 11
343.225202
 21
204.330906
 31
0.0
  0
ARC
  5
57
330
1F
100
AcDbEntity
  8
LC-001-100-D00-0
 62
     7
370
    50
100
AcDbCircle
 10
343.337925
 20
204.44363
 30
0.0
 40
0.1594147499999783
100
AcDbArc
 50
135.0
 51
225.0
  0
LINE
  5
58
330
1F
100
AcDbEntity
  8
LC-001-100-D00-0
 62
     7
370
    50
100
AcDbLine
 10
343.225202
 20
204.556353
 30
0.0
 11
345.986949
 21
207.3181
 31
0.0
  0
LINE
  5
59
330
1F
100
AcDbEntity
  8
LC-001-100-D00-0
 62
     7
370
    50
100
AcDbLine
 10
354.384887
 20
198.920163
 30
0.0
 11
352.130407
 21
201.174643
 31
0.0
  0
LINE
  5
5A
330
1F
100
AcDbEntity
  8
LC-001-100-D00-0
 62
     7
370
    50
100
AcDbLine
 10
351.115891
 20
200.160127
 30
0.0
 11
352.130407
 21
201.174643
 31
0.0
  0
LINE
  5
5B
330
1F
100
AcDbEntity
  8
LC-001-100-D00-0
 62
     7
370
    50
100
AcDbLine
 10
352.355854
 20
198.920163
 30
0.0
 11
351.115891
 21
200.160127
 31
0.0
  0
LINE
  5
5C
330
1F
100
AcDbEntity
  8
LC-001-100-D00-0
 62
     7
370
    50
100
AcDbLine
 10
349.481385
 20
196.045693
 30
0.0
 11
352.355854
 21
198.920163
 31
0.0
  0
LINE
  5
5D
330
1F
100
AcDbEntity
  8
LC-001-100-D00-0
 62
     7
370
    50
100
AcDbLine
 10
350.495901
 20
195.031177
 30
0.0
 11
349.481385
 21
196.045693
 31
0.0
  0
LINE
  5
5E
330
1F
100
AcDbEntity
  8
LC-001-100-D00-0
 62
     7
370
    50
100
AcDbLine
 10
350.495901
 20
195.031177
 30
0.0
 11
354.384887
 21
198.920163
 31
0.0
  0
LINE
  5
5F
330
1F
100
AcDbEntity
  8
LC-001-100-D00-0
 62
     7
370
    50
100
AcDbLine
 10
357.372065
 20
188.155011
 30
0.0
 11
355.372014
 21
190.155062
 31
0.0
  0
LINE
  5
60
330
1F
100
AcDbEntity
  8
LC-001-100-D00-0
 62
     7
370
    50
100
AcDbLine
 10
357.372065
 20
188.155011
 30
0.0
 11
361.261047
 21
192.044002
 31
0.0
  0
LINE
  5
61
330
1F
100
AcDbEntity
  8
LC-001-100-D00-0
 62
     7
370
    50
100
AcDbLine
 10
361.261047
 20
192.044002
 30
0.0
 11
359.261
 21
194.044049
 31
0.0
  0
ARC
  5
62
330
1F
100
AcDbEntity
  8
LC-001-100-D00-0
 62
     7
370
    50
100
AcDbCircle
 10
358.483203
 20
193.266252
 30
0.0
 40
1.099971124999963
100
AcDbArc
 50
45.0
 51
135.0
  0
LINE
  5
63
330
1F
100
AcDbEntity
  8
LC-001-100-D00-0
 62
     7
370
    50
100
AcDbLine
 10
355.372014
 20
191.710657
 30
0.0
 11
357.705407
 21
194.044049
 31
0.0
  0
ARC
  5
64
330
1F
100
AcDbEntity
  8
LC-001-100-D00-0
 62
     7
370
    50
100
AcDbCircle
 10
356.149812
 20
190.93286
 30
0.0
 40
1.099971812500051
100
AcDbArc
 50
135.0
 51
225.0
  0
CIRCLE
  5
65
330
1F
100
AcDbEntity
  8
LC-001-100-D00-0
 62
     7
370
    50
100
AcDbCircle
 10
406.875071
 20
142.540992
 30
0.0
 40
5.5
  0
LINE
  5
66
330
1F
100
AcDbEntity
  8
LC-001-100-D00-0
 62
     7
370
    50
100
AcDbLine
 10
385.12507
 20
257.540993
 30
0.0
 11
310.625071
 21
257.540993
 31
0.0
  0
ARC
  5
67
330
1F
100
AcDbEntity
  8
LC-001-100-D00-0
 62
     7
370
    50
100
AcDbCircle
 10
310.625071
 20
253.790992
 30
0.0
 40
3.75
100
AcDbArc
 50
90.0
 51
270.0
  0
LINE
  5
68
330
1F
100
AcDbEntity
  8
LC-001-100-D00-0
 62
     7
370
    50
100
AcDbLine
 10
310.625071
 20
250.040993
 30
0.0
 11
385.12507
 21
250.040993
 31
0.0
  0
ARC
  5
69
330
1F
100
AcDbEntity
  8
LC-001-100-D00-0
 62
     7
370
    50
100
AcDbCircle
 10
385.125071
 20
253.790992
 30
0.0
 40
3.75
100
AcDbArc
 50
270.0
 51
90.0
  0
LINE
  5
6A
330
1F
100
AcDbEntity
  8
LC-001-100-D00-0
 62
     7
370
    50
100
AcDbLine
 10
403.87507
 20
164.290991
 30
0.0
 11
403.87507
 21
238.790993
 31
0.0
  0
ARC
  5
6B
330
1F
100
AcDbEntity
  8
LC-001-100-D00-0
 62
     7
370
    50
100
AcDbCircle
 10
400.125071
 20
238.790992
 30
0.0
 40
3.75
100
AcDbArc
 50
0.0
 51
180.0
  0
LINE
  5
6C
330
1F
100
AcDbEntity
  8
LC-001-100-D00-0
 62
     7
370
    50
100
AcDbLine
 10
396.37507
 20
238.790993
 30
0.0
 11
396.37507
 21
164.290991
 31
0.0
  0
ARC
  5
6D
330
1F
100
AcDbEntity
  8
LC-001-100-D00-0
 62
     7
370
    50
100
AcDbCircle
 10
400.125071
 20
164.290992
 30
0.0
 40
3.750000000000114
100
AcDbArc
 50
180.0
 51
0.0
  0
LINE
  5
6E
330
1F
100
AcDbEntity
  8
LC-001-100-D00-0
 62
     7
370
    50
100
AcDbLine
 10
310.625071
 20
145.54099
 30
0.0
 11
385.12507
 21
145.54099
 31
0.0
  0
ARC
  5
6F
330
1F
100
AcDbEntity
  8
LC-001-100-D00-0
 62
     7
370
    50
100
AcDbCircle
 10
385.125071
 20
149.290992
 30
0.0
 40
3.75
100
AcDbArc
 50
270.0
 51
90.0
  0
LINE
  5
70
330
1F
100
AcDbEntity
  8
LC-001-100-D00-0
 62
     7
370
    50
100
AcDbLine
 10
385.12507
 20
153.04099
 30
0.0
 11
310.625071
 21
153.04099
 31
0.0
  0
ARC
  5
71
330
1F
100
AcDbEntity
  8
LC-001-100-D00-0
 62
     7
370
    50
100
AcDbCircle
 10
310.625071
 20
149.290992
 30
0.0
 40
3.75
100
AcDbArc
 50
90.0
 51
270.0
  0
ARC
  5
72
330
1F
100
AcDbEntity
  8
LC-001-100-D00-0
 62
     7
370
    50
100
AcDbCircle
 10
326.725071
 20
237.290992
 30
0.0
 40
3.75
100
AcDbArc
 50
90.0
 51
270.0
  0
LINE
  5
73
330
1F
100
AcDbEntity
  8
LC-001-100-D00-0
 62
     7
370
    50
100
AcDbLine
 10
326.725072
 20
233.540993
 30
0.0
 11
369.025071
 21
233.540993
 31
0.0
  0
ARC
  5
74
330
1F
100
AcDbEntity
  8
LC-001-100-D00-0
 62
     7
370
    50
100
AcDbCircle
 10
369.025071
 20
237.290992
 30
0.0
 40
3.75
100
AcDbArc
 50
270.0
 51
90.0
  0
LINE
  5
75
330
1F
100
AcDbEntity
  8
LC-001-100-D00-0
 62
     7
370
    50
100
AcDbLine
 10
387.375071
 20
180.390991
 30
0.0
 11
387.375071
 21
222.690992
 31
0.0
  0
ARC
  5
76
330
1F
100
AcDbEntity
  8
LC-001-100-D00-0
 62
     7
370
    50
100
AcDbCircle
 10
383.625071
 20
222.690992
 30
0.0
 40
3.75
100
AcDbArc
 50
0.0
 51
180.0
  0
LINE
  5
77
330
1F
100
AcDbEntity
  8
LC-001-100-D00-0
 62
     7
370
    50
100
AcDbLine
 10
379.87507
 20
222.690992
 30
0.0
 11
379.87507
 21
180.390991
 31
0.0
  0
ARC
  5
78
330
1F
100
AcDbEntity
  8
LC-001-100-D00-0
 62
     7
370
    50
100
AcDbCircle
 10
383.625071
 20
180.390992
 30
0.0
 40
3.750000000000114
100
AcDbArc
 50
180.0
 51
0.0
  0
LINE
  5
79
330
1F
100
AcDbEntity
  8
LC-001-100-D00-0
 62
     7
370
    50
100
AcDbLine
 10
326.725072
 20
162.04099
 30
0.0
 11
369.025071
 21
162.04099
 31
0.0
  0
ARC
  5
7A
330
1F
100
AcDbEntity
  8
LC-001-100-D00-0
 62
     7
370
    50
100
AcDbCircle
 10
369.025071
 20
165.790992
 30
0.0
 40
3.75
100
AcDbArc
 50
270.0
 51
90.0
  0
LINE
  5
7B
330
1F
100
AcDbEntity
  8
LC-001-100-D00-0
 62
     7
370
    50
100
AcDbLine
 10
369.025071
 20
169.54099
 30
0.0
 11
326.725072
 21
169.54099
 31
0.0
  0
ARC
  5
7C
330
1F
100
AcDbEntity
  8
LC-001-100-D00-0
 62
     7
370
    50
100
AcDbCircle
 10
326.725071
 20
165.790992
 30
0.0
 40
3.75
100
AcDbArc
 50
90.0
 51
270.0
  0
LINE
  5
7D
330
1F
100
AcDbEntity
  8
LC-001-100-D00-0
 62
     7
370
    50
100
AcDbLine
 10
352.925071
 20
224.540992
 30
0.0
 11
342.825071
 21
224.540992
 31
0.0
  0
ARC
  5
7E
330
1F
100
AcDbEntity
  8
LC-001-100-D00-0
 62
     7
370
    50
100
AcDbCircle
 10
342.825071
 20
220.790992
 30
0.0
 40
3.75
100
AcDbArc
 50
90.0
 51
270.0
  0
LINE
  5
7F
330
1F
100
AcDbEntity
  8
LC-001-100-D00-0
 62
     7
370
    50
100
AcDbLine
 10
342.825071
 20
217.040991
 30
0.0
 11
352.925071
 21
217.040991
 31
0.0
  0
ARC
  5
80
330
1F
100
AcDbEntity
  8
LC-001-100-D00-0
 62
     7
370
    50
100
AcDbCircle
 10
352.925071
 20
220.790992
 30
0.0
 40
3.75
100
AcDbArc
 50
270.0
 51
90.0
  0
LINE
  5
81
330
1F
100
AcDbEntity
  8
LC-001-100-D00-0
 62
     7
370
    50
100
AcDbLine
 10
370.875071
 20
196.490992
 30
0.0
 11
370.875071
 21
206.590991
 31
0.0
  0
ARC
  5
82
330
1F
100
AcDbEntity
  8
LC-001-100-D00-0
 62
     7
370
    50
100
AcDbCircle
 10
367.125071
 20
206.590992
 30
0.0
 40
3.75
100
AcDbArc
 50
0.0
 51
180.0
  0
LINE
  5
83
330
1F
100
AcDbEntity
  8
LC-001-100-D00-0
 62
     7
370
    50
100
AcDbLine
 10
363.375072
 20
206.590991
 30
0.0
 11
363.375072
 21
196.490992
 31
0.0
  0
ARC
  5
84
330
1F
100
AcDbEntity
  8
LC-001-100-D00-0
 62
     7
370
    50
100
AcDbCircle
 10
367.125071
 20
196.490992
 30
0.0
 40
3.750000000000114
100
AcDbArc
 50
180.0
 51
0.0
  0
LINE
  5
85
330
1F
100
AcDbEntity
  8
LC-001-100-D00-0
 62
     7
370
    50
100
AcDbLine
 10
342.825071
 20
178.540992
 30
0.0
 11
352.925071
 21
178.540992
 31
0.0
  0
ARC
  5
86
330
1F
100
AcDbEntity
  8
LC-001-100-D00-0
 62
     7
370
    50
100
AcDbCircle
 10
352.925071
 20
182.290992
 30
0.0
 40
3.75
100
AcDbArc
 50
270.0
 51
90.0
  0
LINE
  5
87
330
1F
100
AcDbEntity
  8
LC-001-100-D00-0
 62
     7
370
    50
100
AcDbLine
 10
352.925071
 20
186.040992
 30
0.0
 11
342.825071
 21
186.040992
 31
0.0
  0
ARC
  5
88
330
1F
100
AcDbEntity
  8
LC-001-100-D00-0
 62
     7
370
    50
100
AcDbCircle
 10
342.825071
 20
182.290992
 30
0.0
 40
3.75
100
AcDbArc
 50
90.0
 51
270.0
  0
CIRCLE
  5
89
330
1F
100
AcDbEntity
  8
LC-001-100-D00-0
 62
     7
370
    50
100
AcDbCircle
 10
288.875071
 20
260.540992
 30
0.0
 40
5.5
  0
LINE
  5
8A
330
1F
100
AcDbEntity
  8
LC-001-100-D00-0
 62
     7
370
    50
100
AcDbLine
 10
291.875071
 20
238.790993
 30
0.0
 11
291.875071
 21
164.290991
 31
0.0
  0
ARC
  5
8B
330
1F
100
AcDbEntity
  8
LC-001-100-D00-0
 62
     7
370
    50
100
AcDbCircle
 10
295.625071
 20
164.290992
 30
0.0
 40
3.75
100
AcDbArc
 50
180.0
 51
0.0
  0
LINE
  5
8C
330
1F
100
AcDbEntity
  8
LC-001-100-D00-0
 62
     7
370
    50
100
AcDbLine
 10
299.375071
 20
164.290991
 30
0.0
 11
299.375071
 21
238.790993
 31
0.0
  0
ARC
  5
8D
330
1F
100
AcDbEntity
  8
LC-001-100-D00-0
 62
     7
370
    50
100
AcDbCircle
 10
295.625071
 20
238.790992
 30
0.0
 40
3.75
100
AcDbArc
 50
0.0
 51
180.0
  0
LINE
  5
8E
330
1F
100
AcDbEntity
  8
LC-001-100-D00-0
 62
     7
370
    50
100
AcDbLine
 10
308.375071
 20
222.690992
 30
0.0
 11
308.375071
 21
180.390991
 31
0.0
  0
ARC
  5
8F
330
1F
100
AcDbEntity
  8
LC-001-100-D00-0
 62
     7
370
    50
100
AcDbCircle
 10
312.125071
 20
180.390992
 30
0.0
 40
3.75
100
AcDbArc
 50
180.0
 51
0.0
  0
LINE
  5
90
330
1F
100
AcDbEntity
  8
LC-001-100-D00-0
 62
     7
370
    50
100
AcDbLine
 10
315.875071
 20
180.390991
 30
0.0
 11
315.875071
 21
222.690992
 31
0.0
  0
ARC
  5
91
330
1F
100
AcDbEntity
  8
LC-001-100-D00-0
 62
     7
370
    50
100
AcDbCircle
 10
312.125071
 20
222.690992
 30
0.0
 40
3.75
100
AcDbArc
 50
0.0
 51
180.0
  0
LINE
  5
92
330
1F
100
AcDbEntity
  8
LC-001-100-D00-0
 62
     7
370
    50
100
AcDbLine
 10
324.875071
 20
206.590991
 30
0.0
 11
324.875071
 21
196.490992
 31
0.0
  0
ARC
  5
93
330
1F
100
AcDbEntity
  8
LC-001-100-D00-0
 62
     7
370
    50
100
AcDbCircle
 10
328.625071
 20
196.490992
 30
0.0
 40
3.75
100
AcDbArc
 50
180.0
 51
0.0
  0
LINE
  5
94
330
1F
100
AcDbEntity
  8
LC-001-100-D00-0
 62
     7
370
    50
100
AcDbLine
 10
332.375072
 20
196.490992
 30
0.0
 11
332.375072
 21
206.590991
 31
0.0
  0
ARC
  5
95
330
1F
100
AcDbEntity
  8
LC-001-100-D00-0
 62
     7
370
    50
100
AcDbCircle
 10
328.625071
 20
206.590992
 30
0.0
 40
3.75
100
AcDbArc
 50
0.0
 51
180.0
  0
LINE
  5
96
330
1F
100
AcDbEntity
  8
LC-001-100-D00-0
 62
     7
370
    50
100
AcDbLine
 10
353.325272
 20
192.201805
 30
0.0
 11
351.837318
 21
193.68976
 31
0.0
  0
ARC
  5
97
330
1F
100
AcDbEntity
  8
LC-001-100-D00-0
 62
     7
370
    50
100
AcDbCircle
 10
354.103069
 20
192.979603
 30
0.0
 40
1.099971125000004
100
AcDbArc
 50
225.0
 51
315.0
  0
LINE
  5
98
330
1F
100
AcDbEntity
  8
LC-001-100-D00-0
 62
     7
370
    50
100
AcDbLine
 10
354.880866
 20
192.201805
 30
0.0
 11
357.992055
 21
195.312995
 31
0.0
  0
LINE
  5
99
330
1F
100
AcDbEntity
  8
LC-001-100-D00-0
 62
     7
370
    50
100
AcDbLine
 10
357.992055
 20
195.312995
 30
0.0
 11
356.977539
 21
196.327511
 31
0.0
  0
LINE
  5
9A
330
1F
100
AcDbEntity
  8
LC-001-100-D00-0
 62
     7
370
    50
100
AcDbLine
 10
356.977539
 20
196.327511
 30
0.0
 11
355.850291
 21
195.200263
 31
0.0
  0
LINE
  5
9B
330
1F
100
AcDbEntity
  8
LC-001-100-D00-0
 62
     7
370
    50
100
AcDbLine
 10
355.850291
 20
195.200263
 30
0.0
 11
354.835775
 21
196.214779
 31
0.0
  0
LINE
  5
9C
330
1F
100
AcDbEntity
  8
LC-001-100-D00-0
 62
     7
370
    50
100
AcDbLine
 10
355.963023
 20
197.342027
 30
0.0
 11
354.835775
 21
196.214779
 31
0.0
  0
LINE
  5
9D
330
1F
100
AcDbEntity
  8
LC-001-100-D00-0
 62
     7
370
    50
100
AcDbLine
 10
355.963023
 20
197.342027
 30
0.0
 11
354.948507
 21
198.356543
 31
0.0
  0
LINE
  5
9E
330
1F
100
AcDbEntity
  8
LC-001-100-D00-0
 62
     7
370
    50
100
AcDbLine
 10
351.837318
 20
195.245354
 30
0.0
 11
354.948507
 21
198.356543
 31
0.0
  0
ARC
  5
9F
330
1F
100
AcDbEntity
  8
LC-001-100-D00-0
 62
     7
370
    50
100
AcDbCircle
 10
352.615115
 20
194.467557
 30
0.0
 40
1.099971125000004
100
AcDbArc
 50
135.0
 51
225.0
  0
LINE
  5
A0
330
1F
100
AcDbEntity
  8
LC-001-100-D00-0
 62
     7
370
    50
100
AcDbLine
 10
351.961321
 20
201.343729
 30
0.0
 11
349.706841
 21
203.598209
 31
0.0
  0
LINE
  5
A1
330
1F
100
AcDbEntity
  8
LC-001-100-D00-0
 62
     7
370
    50
100
AcDbLine
 10
348.692325
 20
202.583693
 30
0.0
 11
349.706841
 21
203.598209
 31
0.0
  0
LINE
  5
A2
330
1F
100
AcDbEntity
  8
LC-001-100-D00-0
 62
     7
370
    50
100
AcDbLine
 10
349.932289
 20
201.343729
 30
0.0
 11
348.692325
 21
202.583693
 31
0.0
  0
LINE
  5
A3
330
1F
100
AcDbEntity
  8
LC-001-100-D00-0
 62
     7
370
    50
100
AcDbLine
 10
347.057819
 20
198.469258
 30
0.0
 11
349.932289
 21
201.343729
 31
0.0
  0
LINE
  5
A4
330
1F
100
AcDbEntity
  8
LC-001-100-D00-0
 62
     7
370
    50
100
AcDbLine
 10
348.072335
 20
197.454743
 30
0.0
 11
347.057819
 21
198.469258
 31
0.0
  0
LINE
  5
A5
330
1F
100
AcDbEntity
  8
LC-001-100-D00-0
 62
     7
370
    50
100
AcDbLine
 10
348.072335
 20
197.454743
 30
0.0
 11
351.961321
 21
201.343729
 31
0.0
  0
LINE
  5
A6
330
1F
100
AcDbEntity
  8
LC-001-100-D00-0
 62
     7
370
    50
100
AcDbLine
 10
339.618041
 20
208.839875
 30
0.0
 11
341.083455
 21
207.374462
 31
0.0
  0
LINE
  5
A7
330
1F
100
AcDbEntity
  8
LC-001-100-D00-0
 62
     7
370
    50
100
AcDbLine
 10
340.632559
 20
206.923566
 30
0.0
 11
341.083455
 21
207.374462
 31
0.0
  0
LINE
  5
A8
330
1F
100
AcDbEntity
  8
LC-001-100-D00-0
 62
     7
370
    50
100
AcDbLine
 10
340.632559
 20
206.923566
 30
0.0
 11
339.167146
 21
208.388979
 31
0.0
  0
LINE
  5
A9
330
1F
100
AcDbEntity
  8
LC-001-100-D00-0
 62
     7
370
    50
100
AcDbLine
 10
338.152622
 20
207.374455
 30
0.0
 11
339.167146
 21
208.388979
 31
0.0
  0
LINE
  5
AA
330
1F
100
AcDbEntity
  8
LC-001-100-D00-0
 62
     7
370
    50
100
AcDbLine
 10
340.632551
 20
204.894527
 30
0.0
 11
338.152622
 21
207.374455
 31
0.0
  0
LINE
  5
AB
330
1F
100
AcDbEntity
  8
LC-001-100-D00-0
 62
     7
370
    50
100
AcDbLine
 10
340.632551
 20
204.894527
 30
0.0
 11
344.521537
 21
208.783513
 31
0.0
  0
LINE
  5
AC
330
1F
100
AcDbEntity
  8
LC-001-100-D00-0
 62
     7
370
    50
100
AcDbLine
 10
344.521537
 20
208.783513
 30
0.0
 11
342.041608
 21
211.263441
 31
0.0
  0
LINE
  5
AD
330
1F
100
AcDbEntity
  8
LC-001-100-D00-0
 62
     7
370
    50
100
AcDbLine
 10
342.041608
 20
211.263441
 30
0.0
 11
341.027092
 21
210.248926
 31
0.0
  0
LINE
  5
AE
330
1F
100
AcDbEntity
  8
LC-001-100-D00-0
 62
     7
370
    50
100
AcDbLine
 10
342.492505
 20
208.783513
 30
0.0
 11
341.027092
 21
210.248926
 31
0.0
  0
LINE
  5
AF
330
1F
100
AcDbEntity
  8
LC-001-100-D00-0
 62
     7
370
    50
100
AcDbLine
 10
342.492505
 20
208.783513
 30
0.0
 11
342.046025
 21
208.337033
 31
0.0
  0
LINE
  5
B0
330
1F
100
AcDbEntity
  8
LC-001-100-D00-0
 62
     7
370
    50
100
AcDbLine
 10
340.580612
 20
209.802446
 30
0.0
 11
342.046025
 21
208.337033
 31
0.0
  0
LINE
  5
B1
330
1F
100
AcDbEntity
  8
LC-001-100-D00-0
 62
     7
370
    50
100
AcDbLine
 10
340.580612
 20
209.802446
 30
0.0
 11
339.618041
 21
208.839875
 31
0.0
  0
LINE
  5
B2
330
1F
100
AcDbEntity
  8
LC-001-100-D00-0
 62
     7
370
    50
100
AcDbLine
 10
416.875071
 20
268.040992
 30
0.0
 11
416.875071
 21
135.040992
 31
0.0
  0
LINE
  5
B3
330
1F
100
AcDbEntity
  8
LC-001-100-D00-0
 62
     7
370
    50
100
AcDbLine
 10
278.875074
 20
135.040992
 30
0.0
 11
278.875074
 21
268.040992
 31
0.0
  0
LINE
  5
B4
330
1F
100
AcDbEntity
  8
LC-001-100-D00-0
 62
     7
370
    50
100
AcDbLine
 10
338.709811
 20
210.756184
 30
0.0
 11
337.532649
 21
209.579021
 31
0.0
  0
LINE
  5
B5
330
1F
100
AcDbEntity
  8
LC-001-100-D00-0
 62
     7
370
    50
100
AcDbLine
 10
337.532649
 20
209.579021
 30
0.0
 11
336.46821
 21
210.643459
 31
0.0
  0
ARC
  5
B6
330
1F
100
AcDbEntity
  8
LC-001-100-D00-0
 62
     7
370
    50
100
AcDbCircle
 10
336.862744
 20
211.037993
 30
0.0
 40
0.5579550625000617
100
AcDbArc
 50
135.0
 51
225.0
  0
LINE
  5
B7
330
1F
100
AcDbEntity
  8
LC-001-100-D00-0
 62
     7
370
    50
100
AcDbLine
 10
336.46821
 20
211.432527
 30
0.0
 11
336.856304
 21
211.820621
 31
0.0
  0
ARC
  5
B8
330
1F
100
AcDbEntity
  8
LC-001-100-D00-0
 62
     7
370
    50
100
AcDbCircle
 10
337.250839
 20
211.426086
 30
0.0
 40
0.557955750000029
100
AcDbArc
 50
45.0
 51
135.0
  0
LINE
  5
B9
330
1F
100
AcDbEntity
  8
LC-001-100-D00-0
 62
     7
370
    50
100
AcDbLine
 10
337.645373
 20
211.820621
 30
0.0
 11
338.709811
 21
210.756184
 31
0.0
  0
ARC
  5
BA
330
1F
100
AcDbEntity
  8
LC-001-100-D00-0
 62
     7
370
    50
100
AcDbCircle
 10
353.433165
 20
194.467557
 30
0.0
 40
0.5579557500001093
100
AcDbArc
 50
135.0
 51
225.0
  0
LINE
  5
BB
330
1F
100
AcDbEntity
  8
LC-001-100-D00-0
 62
     7
370
    50
100
AcDbLine
 10
353.038631
 20
194.862091
 30
0.0
 11
353.814412
 21
195.637871
 31
0.0
  0
LINE
  5
BC
330
1F
100
AcDbEntity
  8
LC-001-100-D00-0
 62
     7
370
    50
100
AcDbLine
 10
353.814412
 20
195.637871
 30
0.0
 11
355.273383
 21
194.178899
 31
0.0
  0
LINE
  5
BD
330
1F
100
AcDbEntity
  8
LC-001-100-D00-0
 62
     7
370
    50
100
AcDbLine
 10
355.273383
 20
194.178899
 30
0.0
 11
354.497603
 21
193.403118
 31
0.0
  0
ARC
  5
BE
330
1F
100
AcDbEntity
  8
LC-001-100-D00-0
 62
     7
370
    50
100
AcDbCircle
 10
354.103069
 20
193.797653
 30
0.0
 40
0.5579557499999888
100
AcDbArc
 50
225.0
 51
315.0
  0
LINE
  5
BF
330
1F
100
AcDbEntity
  8
LC-001-100-D00-0
 62
     7
370
    50
100
AcDbLine
 10
353.708534
 20
193.403118
 30
0.0
 11
353.038631
 21
194.073022
 31
0.0
  0
LINE
  5
C0
330
1F
100
AcDbEntity
  8
LC-001-100-D00-0
 62
     7
370
    50
100
AcDbLine
 10
359.620113
 20
192.10036
 30
0.0
 11
357.349528
 21
189.829775
 31
0.0
  0
LINE
  5
C1
330
1F
100
AcDbEntity
  8
LC-001-100-D00-0
 62
     7
370
    50
100
AcDbLine
 10
357.349528
 20
189.829775
 30
0.0
 11
356.55079
 21
190.628514
 31
0.0
  0
ARC
  5
C2
330
1F
100
AcDbEntity
  8
LC-001-100-D00-0
 62
     7
370
    50
100
AcDbCircle
 10
356.945325
 20
191.023048
 30
0.0
 40
0.5579557500001093
100
AcDbArc
 50
135.0
 51
225.0
  0
LINE
  5
C3
330
1F
100
AcDbEntity
  8
LC-001-100-D00-0
 62
     7
370
    50
100
AcDbLine
 10
356.55079
 20
191.417582
 30
0.0
 11
358.032307
 21
192.899099
 31
0.0
  0
ARC
  5
C4
330
1F
100
AcDbEntity
  8
LC-001-100-D00-0
 62
     7
370
    50
100
AcDbCircle
 10
358.426841
 20
192.504564
 30
0.0
 40
0.5579557500001093
100
AcDbArc
 50
45.0
 51
135.0
  0
LINE
  5
C5
330
1F
100
AcDbEntity
  8
LC-001-100-D00-0
 62
     7
370
    50
100
AcDbLine
 10
358.821376
 20
192.899099
 30
0.0
 11
359.620113
 21
192.10036
 31
0.0
  0
LINE
  5
C6
330
1F
100
AcDbEntity
  8
LC-001-100-D00-0
 62
     7
370
    50
100
AcDbLine
 10
414.375071
 20
132.540993
 30
0.0
 11
281.375071
 21
132.540993
 31
0.0
  0
ELLIPSE
  5
C7
330
1F
100
AcDbEntity
  8
LC-001-100-D00-0
 62
     7
370
    50
100
AcDbEllipse
 10
406.169967
 20
144.970898
 30
0.0
 11
0.7287600456431075
 21
-0.7287600456431074
 31
0.0
210
0.0
220
0.0
230
1.0
 40
0.970288
 41
2.371273620688696
 42
3.911911686490552
  0
LINE
  5
C8
330
1F
100
AcDbEntity
  8
LC-001-100-D00-0
 62
     7
370
    50
100
AcDbLine
 10
405.15454
 20
144.236326
 30
0.0
 11
405.15454
 21
145.001516
 31
0.0
  0
LINE
  5
C9
330
1F
100
AcDbEntity
  8
LC-001-100-D00-0
 62
     7
370
    50
100
AcDbLine
 10
404.389347
 20
144.236326
 30
0.0
 11
405.15454
 21
144.236326
 31
0.0
  0
ELLIPSE
  5
CA
330
1F
100
AcDbEntity
  8
LC-001-100-D00-0
 62
     7
370
    50
100
AcDbEllipse
 10
404.419967
 20
143.220898
 30
0.0
 11
0.7287600456257304
 21
-0.7287600456257303
 31
0.0
210
0.0
220
0.0
230
1.0
 40
0.970288
 41
2.371273620688923
 42
3.911911686490943
  0
LINE
  5
CB
330
1F
100
AcDbEntity
  8
LC-001-100-D00-0
 62
     7
370
    50
100
AcDbLine
 10
403.40454
 20
141.82407
 30
0.0
 11
403.40454
 21
143.251516
 31
0.0
  0
ELLIPSE
  5
CC
330
1F
100
AcDbEntity
  8
LC-001-100-D00-0
 62
     7
370
    50
100
AcDbEllipse
 10
404.419967
 20
141.85469
 30
0.0
 11
-0.7287600456430708
 21
-0.728760045643071
 31
0.0
210
0.0
220
0.0
230
1.0
 40
0.970288
 41
2.371273620688892
 42
3.911911686490696
  0
LINE
  5
CD
330
1F
100
AcDbEntity
  8
LC-001-100-D00-0
 62
     7
370
    50
100
AcDbLine
 10
405.15454
 20
140.839264
 30
0.0
 11
404.389347
 21
140.839264
 31
0.0
  0
LINE
  5
CE
330
1F
100
AcDbEntity
  8
LC-001-100-D00-0
 62
     7
370
    50
100
AcDbLine
 10
405.15454
 20
140.07407
 30
0.0
 11
405.15454
 21
140.839264
 31
0.0
  0
ELLIPSE
  5
CF
330
1F
100
AcDbEntity
  8
LC-001-100-D00-0
 62
     7
370
    50
100
AcDbEllipse
 10
406.169967
 20
140.10469
 30
0.0
 11
-0.7287600456865794
 21
-0.7287600456865795
 31
0.0
210
0.0
220
0.0
230
1.0
 40
0.970288
 41
2.3712736206891
 42
3.911911686490904
  0
LINE
  5
D0
330
1F
100
AcDbEntity
  8
LC-001-100-D00-0
 62
     7
370
    50
100
AcDbLine
 10
407.566796
 20
139.089264
 30
0.0
 11
406.139347
 21
139.089264
 31
0.0
  0
ELLIPSE
  5
D1
330
1F
100
AcDbEntity
  8
LC-001-100-D00-0
 62
     7
370
    50
100
AcDbEllipse
 10
407.536176
 20
140.10469
 30
0.0
 11
0.7287600456257669
 21
-0.7287600456257668
 31
0.0
210
0.0
220
0.0
230
1.0
 40
0.970288
 41
5.512866274278771
 42
7.053504340080655
  0
LINE
  5
D2
330
1F
100
AcDbEntity
  8
LC-001-100-D00-0
 62
     7
370
    50
100
AcDbLine
 10
408.551602
 20
140.839264
 30
0.0
 11
408.551602
 21
140.07407
 31
0.0
  0
LINE
  5
D3
330
1F
100
AcDbEntity
  8
LC-001-100-D00-0
 62
     7
370
    50
100
AcDbLine
 10
409.316796
 20
140.839264
 30
0.0
 11
408.551602
 21
140.839264
 31
0.0
  0
ELLIPSE
  5
D4
330
1F
100
AcDbEntity
  8
LC-001-100-D00-0
 62
     7
370
    50
100
AcDbEllipse
 10
409.286176
 20
141.85469
 30
0.0
 11
0.7287600456604828
 21
-0.7287600456604825
 31
0.0
210
0.0
220
0.0
230
1.0
 40
0.970288
 41
5.512866274278845
 42
7.053504340080609
  0
LINE
  5
D5
330
1F
100
AcDbEntity
  8
LC-001-100-D00-0
 62
     7
370
    50
100
AcDbLine
 10
410.301602
 20
143.251516
 30
0.0
 11
410.301602
 21
141.82407
 31
0.0
  0
ELLIPSE
  5
D6
330
1F
100
AcDbEntity
  8
LC-001-100-D00-0
 62
     7
370
    50
100
AcDbEllipse
 10
409.286176
 20
143.220898
 30
0.0
 11
-0.7287600456431419
 21
-0.7287600456431422
 31
0.0
210
0.0
220
0.0
230
1.0
 40
0.970288
 41
5.51286627427854
 42
7.053504340080606
  0
LINE
  5
D7
330
1F
100
AcDbEntity
  8
LC-001-100-D00-0
 62
     7
370
    50
100
AcDbLine
 10
408.551602
 20
144.236326
 30
0.0
 11
409.316796
 21
144.236326
 31
0.0
  0
LINE
  5
D8
330
1F
100
AcDbEntity
  8
LC-001-100-D00-0
 62
     7
370
    50
100
AcDbLine
 10
408.551602
 20
145.001516
 30
0.0
 11
408.551602
 21
144.236326
 31
0.0
  0
ELLIPSE
  5
D9
330
1F
100
AcDbEntity
  8
LC-001-100-D00-0
 62
     7
370
    50
100
AcDbEllipse
 10
407.536176
 20
144.970898
 30
0.0
 11
-0.7287600456430708
 21
-0.728760045643071
 31
0.0
210
0.0
220
0.0
230
1.0
 40
0.970288
 41
5.512866274278683
 42
7.053504340080545
  0
LINE
  5
DA
330
1F
100
AcDbEntity
  8
LC-001-100-D00-0
 62
     7
370
    50
100
AcDbLine
 10
406.139347
 20
145.986326
 30
0.0
 11
407.566796
 21
145.986326
 31
0.0
  0
CIRCLE
  5
DB
330
1F
100
AcDbEntity
  8
LC-001-100-D00-0
 62
     7
370
    50
100
AcDbCircle
 10
406.853071
 20
142.537794
 30
0.0
 40
5.375
  0
LINE
  5
DC
330
1F
100
AcDbEntity
  8
LC-001-100-D00-0
 62
     7
370
    50
100
AcDbLine
 10
408.059197
 20
145.001516
 30
0.0
 11
408.551602
 21
145.001516
 31
0.0
  0
ELLIPSE
  5
DD
330
1F
100
AcDbEntity
  8
LC-001-100-D00-0
 62
     7
370
    50
100
AcDbEllipse
 10
407.536176
 20
144.970898
 30
0.0
 11
-0.3857116010575036
 21
-0.3857116010575036
 31
0.0
210
0.0
220
0.0
230
1.0
 40
0.916626
 41
5.512866274278876
 42
7.053504340080082
  0
LINE
  5
DE
330
1F
100
AcDbEntity
  8
LC-001-100-D00-0
 62
     7
370
    50
100
AcDbLine
 10
407.566796
 20
145.986326
 30
0.0
 11
407.566796
 21
145.493921
 31
0.0
  0
LINE
  5
DF
330
1F
100
AcDbEntity
  8
LC-001-100-D00-0
 62
     7
370
    50
100
AcDbLine
 10
406.139347
 20
145.986326
 30
0.0
 11
406.139347
 21
145.493921
 31
0.0
  0
ELLIPSE
  5
E0
330
1F
100
AcDbEntity
  8
LC-001-100-D00-0
 62
     7
370
    50
100
AcDbEllipse
 10
406.169967
 20
144.970898
 30
0.0
 11
0.385711601462099
 21
-0.385711601462099
 31
0.0
210
0.0
220
0.0
230
1.0
 40
0.916626
 41
2.371273620689231
 42
3.911911686491118
  0
LINE
  5
E1
330
1F
100
AcDbEntity
  8
LC-001-100-D00-0
 62
     7
370
    50
100
AcDbLine
 10
405.15454
 20
145.001516
 30
0.0
 11
405.646945
 21
145.001516
 31
0.0
  0
LINE
  5
E2
330
1F
100
AcDbEntity
  8
LC-001-100-D00-0
 62
     7
370
    50
100
AcDbLine
 10
407.566796
 20
145.493921
 30
0.0
 11
406.139347
 21
145.493921
 31
0.0
  0
LINE
  5
E3
330
1F
100
AcDbEntity
  8
LC-001-100-D00-0
 62
     7
370
    50
100
AcDbLine
 10
405.646945
 20
145.001516
 30
0.0
 11
405.646945
 21
144.236326
 31
0.0
  0
LINE
  5
E4
330
1F
100
AcDbEntity
  8
LC-001-100-D00-0
 62
     7
370
    50
100
AcDbLine
 10
405.15454
 20
144.236326
 30
0.0
 11
405.646945
 21
144.236326
 31
0.0
  0
LINE
  5
E5
330
1F
100
AcDbEntity
  8
LC-001-100-D00-0
 62
     7
370
    50
100
AcDbLine
 10
408.059197
 20
144.236326
 30
0.0
 11
408.059197
 21
145.001516
 31
0.0
  0
LINE
  5
E6
330
1F
100
AcDbEntity
  8
LC-001-100-D00-0
 62
     7
370
    50
100
AcDbLine
 10
408.059197
 20
144.236326
 30
0.0
 11
408.551602
 21
144.236326
 31
0.0
  0
ELLIPSE
  5
E7
330
1F
100
AcDbEntity
  8
LC-001-100-D00-0
 62
     7
370
    50
100
AcDbEllipse
 10
409.286176
 20
143.220898
 30
0.0
 11
-0.3857116014069157
 21
-0.3857116014069158
 31
0.0
210
0.0
220
0.0
230
1.0
 40
0.916626
 41
5.51286627427826
 42
7.053504340080801
  0
LINE
  5
E8
330
1F
100
AcDbEntity
  8
LC-001-100-D00-0
 62
     7
370
    50
100
AcDbLine
 10
409.316796
 20
143.743921
 30
0.0
 11
409.316796
 21
144.236326
 31
0.0
  0
LINE
  5
E9
330
1F
100
AcDbEntity
  8
LC-001-100-D00-0
 62
     7
370
    50
100
AcDbLine
 10
409.809197
 20
143.251516
 30
0.0
 11
410.301602
 21
143.251516
 31
0.0
  0
LINE
  5
EA
330
1F
100
AcDbEntity
  8
LC-001-100-D00-0
 62
     7
370
    50
100
AcDbLine
 10
405.15454
 20
144.236326
 30
0.0
 11
405.15454
 21
143.743921
 31
0.0
  0
LINE
  5
EB
330
1F
100
AcDbEntity
  8
LC-001-100-D00-0
 62
     7
370
    50
100
AcDbLine
 10
405.15454
 20
143.743921
 30
0.0
 11
404.389347
 21
143.743921
 31
0.0
  0
LINE
  5
EC
330
1F
100
AcDbEntity
  8
LC-001-100-D00-0
 62
     7
370
    50
100
AcDbLine
 10
404.389347
 20
144.236326
 30
0.0
 11
404.389347
 21
143.743921
 31
0.0
  0
LINE
  5
ED
330
1F
100
AcDbEntity
  8
LC-001-100-D00-0
 62
     7
370
    50
100
AcDbLine
 10
408.551602
 20
143.743921
 30
0.0
 11
408.551602
 21
144.236326
 31
0.0
  0
ARC
  5
EE
330
1F
100
AcDbEntity
  8
LC-001-100-D00-0
 62
     7
370
    50
100
AcDbCircle
 10
408.569405
 20
144.254129
 30
0.0
 40
0.5105182589169528
100
AcDbArc
 50
181.998404
 51
268.001596
  0
ELLIPSE
  5
EF
330
1F
100
AcDbEntity
  8
LC-001-100-D00-0
 62
     7
370
    50
100
AcDbEllipse
 10
404.419967
 20
143.220898
 30
0.0
 11
0.3857116010758958
 21
-0.3857116010758958
 31
0.0
210
0.0
220
0.0
230
1.0
 40
0.916626
 41
2.37127362068845
 42
3.91191168649054
  0
LINE
  5
F0
330
1F
100
AcDbEntity
  8
LC-001-100-D00-0
 62
     7
370
    50
100
AcDbLine
 10
403.40454
 20
143.251516
 30
0.0
 11
403.896945
 21
143.251516
 31
0.0
  0
ARC
  5
F1
330
1F
100
AcDbEntity
  8
LC-001-100-D00-0
 62
     7
370
    50
100
AcDbCircle
 10
405.13674
 20
144.254126
 30
0.0
 40
0.5105158628405154
100
AcDbArc
 50
271.998153
 51
358.001847
  0
LINE
  5
F2
330
1F
100
AcDbEntity
  8
LC-001-100-D00-0
 62
     7
370
    50
100
AcDbLine
 10
409.316796
 20
143.743921
 30
0.0
 11
408.551602
 21
143.743921
 31
0.0
  0
LINE
  5
F3
330
1F
100
AcDbEntity
  8
LC-001-100-D00-0
 62
     7
370
    50
100
AcDbLine
 10
409.809197
 20
141.82407
 30
0.0
 11
409.809197
 21
143.251516
 31
0.0
  0
LINE
  5
F4
330
1F
100
AcDbEntity
  8
LC-001-100-D00-0
 62
     7
370
    50
100
AcDbLine
 10
409.809197
 20
141.82407
 30
0.0
 11
410.301602
 21
141.82407
 31
0.0
  0
LINE
  5
F5
330
1F
100
AcDbEntity
  8
LC-001-100-D00-0
 62
     7
370
    50
100
AcDbLine
 10
403.896945
 20
143.251516
 30
0.0
 11
403.896945
 21
141.82407
 31
0.0
  0
LINE
  5
F6
330
1F
100
AcDbEntity
  8
LC-001-100-D00-0
 62
     7
370
    50
100
AcDbLine
 10
403.40454
 20
141.82407
 30
0.0
 11
403.896945
 21
141.82407
 31
0.0
  0
ELLIPSE
  5
F7
330
1F
100
AcDbEntity
  8
LC-001-100-D00-0
 62
     7
370
    50
100
AcDbEllipse
 10
404.419967
 20
141.85469
 30
0.0
 11
-0.3857116010942879
 21
-0.3857116010942879
 31
0.0
210
0.0
220
0.0
230
1.0
 40
0.916626
 41
2.371273620688717
 42
3.911911686491306
  0
LINE
  5
F8
330
1F
100
AcDbEntity
  8
LC-001-100-D00-0
 62
     7
370
    50
100
AcDbLine
 10
404.389347
 20
140.839264
 30
0.0
 11
404.389347
 21
141.331669
 31
0.0
  0
ELLIPSE
  5
F9
330
1F
100
AcDbEntity
  8
LC-001-100-D00-0
 62
     7
370
    50
100
AcDbEllipse
 10
409.286176
 20
141.85469
 30
0.0
 11
0.3857116011494645
 21
-0.3857116011494644
 31
0.0
210
0.0
220
0.0
230
0.9999999999999999
 40
0.916626
 41
5.512866274278795
 42
7.053504340080691
  0
LINE
  5
FA
330
1F
100
AcDbEntity
  8
LC-001-100-D00-0
 62
     7
370
    50
100
AcDbLine
 10
409.316796
 20
141.331669
 30
0.0
 11
409.316796
 21
140.839264
 31
0.0
  0
LINE
  5
FB
330
1F
100
AcDbEntity
  8
LC-001-100-D00-0
 62
     7
370
    50
100
AcDbLine
 10
408.551602
 20
141.331669
 30
0.0
 11
409.316796
 21
141.331669
 31
0.0
  0
LINE
  5
FC
330
1F
100
AcDbEntity
  8
LC-001-100-D00-0
 62
     7
370
    50
100
AcDbLine
 10
408.551602
 20
141.331669
 30
0.0
 11
408.551602
 21
140.839264
 31
0.0
  0
LINE
  5
FD
330
1F
100
AcDbEntity
  8
LC-001-100-D00-0
 62
     7
370
    50
100
AcDbLine
 10
405.15454
 20
140.839264
 30
0.0
 11
405.15454
 21
141.331669
 31
0.0
  0
ARC
  5
FE
330
1F
100
AcDbEntity
  8
LC-001-100-D00-0
 62
     7
370
    50
100
AcDbCircle
 10
405.136737
 20
140.821461
 30
0.0
 40
0.5105182589169528
100
AcDbArc
 50
1.998404
 51
88.001596
  0
LINE
  5
FF
330
1F
100
AcDbEntity
  8
LC-001-100-D00-0
 62
     7
370
    50
100
AcDbLine
 10
405.15454
 20
140.839264
 30
0.0
 11
405.646945
 21
140.839264
 31
0.0
  0
LINE
  5
100
330
1F
100
AcDbEntity
  8
LC-001-100-D00-0
 62
     7
370
    50
100
AcDbLine
 10
408.059197
 20
140.839264
 30
0.0
 11
408.551602
 21
140.839264
 31
0.0
  0
ARC
  5
101
330
1F
100
AcDbEntity
  8
LC-001-100-D00-0
 62
     7
370
    50
100
AcDbCircle
 10
408.569407
 20
140.821459
 30
0.0
 40
0.5105206550953302
100
AcDbArc
 50
91.998654
 51
178.001346
  0
LINE
  5
102
330
1F
100
AcDbEntity
  8
LC-001-100-D00-0
 62
     7
370
    50
100
AcDbLine
 10
404.389347
 20
141.331669
 30
0.0
 11
405.15454
 21
141.331669
 31
0.0
  0
LINE
  5
103
330
1F
100
AcDbEntity
  8
LC-001-100-D00-0
 62
     7
370
    50
100
AcDbLine
 10
408.059197
 20
140.07407
 30
0.0
 11
408.059197
 21
140.839264
 31
0.0
  0
LINE
  5
104
330
1F
100
AcDbEntity
  8
LC-001-100-D00-0
 62
     7
370
    50
100
AcDbLine
 10
408.059197
 20
140.07407
 30
0.0
 11
408.551602
 21
140.07407
 31
0.0
  0
LINE
  5
105
330
1F
100
AcDbEntity
  8
LC-001-100-D00-0
 62
     7
370
    50
100
AcDbLine
 10
405.646945
 20
140.839264
 30
0.0
 11
405.646945
 21
140.07407
 31
0.0
  0
LINE
  5
106
330
1F
100
AcDbEntity
  8
LC-001-100-D00-0
 62
     7
370
    50
100
AcDbLine
 10
405.15454
 20
140.07407
 30
0.0
 11
405.646945
 21
140.07407
 31
0.0
  0
ELLIPSE
  5
107
330
1F
100
AcDbEntity
  8
LC-001-100-D00-0
 62
     7
370
    50
100
AcDbEllipse
 10
407.536176
 20
140.10469
 30
0.0
 11
0.3857116011310656
 21
-0.3857116011310655
 31
0.0
210
0.0
220
0.0
230
1.0
 40
0.916626
 41
5.512866274278676
 42
7.053504340080252
  0
LINE
  5
108
330
1F
100
AcDbEntity
  8
LC-001-100-D00-0
 62
     7
370
    50
100
AcDbLine
 10
407.566796
 20
139.581669
 30
0.0
 11
407.566796
 21
139.089264
 31
0.0
  0
ELLIPSE
  5
109
330
1F
100
AcDbEntity
  8
LC-001-100-D00-0
 62
     7
370
    50
100
AcDbEllipse
 10
406.169967
 20
140.10469
 30
0.0
 11
-0.3857116014620922
 21
-0.3857116014620922
 31
0.0
210
0.0
220
0.0
230
1.0
 40
0.916626
 41
2.37127362068901
 42
3.911911686490509
  0
LINE
  5
10A
330
1F
100
AcDbEntity
  8
LC-001-100-D00-0
 62
     7
370
    50
100
AcDbLine
 10
406.139347
 20
139.581669
 30
0.0
 11
406.139347
 21
139.089264
 31
0.0
  0
LINE
  5
10B
330
1F
100
AcDbEntity
  8
LC-001-100-D00-0
 62
     7
370
    50
100
AcDbLine
 10
406.139347
 20
139.581669
 30
0.0
 11
407.566796
 21
139.581669
 31
0.0
  0
ARC
  5
10C
330
1F
100
AcDbEntity
  8
LC-001-100-D00-0
 62
     7
370
    50
100
AcDbCircle
 10
406.540422
 20
144.600444
 30
0.0
 40
0.5105140484762732
100
AcDbArc
 50
91.997963
 51
178.002037
  0
LINE
  5
10D
330
1F
100
AcDbEntity
  8
LC-001-100-D00-0
 62
     7
370
    50
100
AcDbLine
 10
406.030218
 20
144.618243
 30
0.0
 11
405.646945
 21
145.001516
 31
0.0
  0
LINE
  5
10E
330
1F
100
AcDbEntity
  8
LC-001-100-D00-0
 62
     7
370
    50
100
AcDbLine
 10
406.139347
 20
145.493921
 30
0.0
 11
406.522623
 21
145.110648
 31
0.0
  0
ARC
  5
10F
330
1F
100
AcDbEntity
  8
LC-001-100-D00-0
 62
     7
370
    50
100
AcDbCircle
 10
407.165725
 20
144.600448
 30
0.0
 40
0.5105101380230904
100
AcDbArc
 50
1.997539
 51
88.002027
  0
LINE
  5
110
330
1F
100
AcDbEntity
  8
LC-001-100-D00-0
 62
     7
370
    50
100
AcDbLine
 10
407.183523
 20
145.110648
 30
0.0
 11
407.566796
 21
145.493921
 31
0.0
  0
LINE
  5
111
330
1F
100
AcDbEntity
  8
LC-001-100-D00-0
 62
     7
370
    50
100
AcDbLine
 10
408.059197
 20
145.001516
 30
0.0
 11
407.675925
 21
144.618243
 31
0.0
  0
ELLIPSE
  5
112
330
1F
100
AcDbEntity
  8
LC-001-100-D00-0
 62
     7
370
    50
100
AcDbEllipse
 10
405.507195
 20
143.883671
 30
0.0
 11
0.385711601443707
 21
-0.3857116014437069
 31
0.0
210
0.0
220
0.0
230
1.0
 40
0.916626
 41
5.512866274278086
 42
7.053504340080226
  0
LINE
  5
113
330
1F
100
AcDbEntity
  8
LC-001-100-D00-0
 62
     7
370
    50
100
AcDbLine
 10
405.537813
 20
143.360648
 30
0.0
 11
405.15454
 21
143.743921
 31
0.0
  0
LINE
  5
114
330
1F
100
AcDbEntity
  8
LC-001-100-D00-0
 62
     7
370
    50
100
AcDbLine
 10
405.646945
 20
144.236326
 30
0.0
 11
406.030218
 21
143.853053
 31
0.0
  0
ELLIPSE
  5
115
330
1F
100
AcDbEntity
  8
LC-001-100-D00-0
 62
     7
370
    50
100
AcDbEllipse
 10
408.198948
 20
143.883671
 30
0.0
 11
-0.3857116011678565
 21
-0.3857116011678566
 31
0.0
210
0.0
220
0.0
230
1.0
 40
0.916626
 41
2.371273620688248
 42
3.911911686491223
  0
LINE
  5
116
330
1F
100
AcDbEntity
  8
LC-001-100-D00-0
 62
     7
370
    50
100
AcDbLine
 10
407.675925
 20
143.853053
 30
0.0
 11
408.059197
 21
144.236326
 31
0.0
  0
LINE
  5
117
330
1F
100
AcDbEntity
  8
LC-001-100-D00-0
 62
     7
370
    50
100
AcDbLine
 10
408.551602
 20
143.743921
 30
0.0
 11
408.16833
 21
143.360648
 31
0.0
  0
ARC
  5
118
330
1F
100
AcDbEntity
  8
LC-001-100-D00-0
 62
     7
370
    50
100
AcDbCircle
 10
404.790422
 20
142.850444
 30
0.0
 40
0.5105143312145942
100
AcDbArc
 50
91.998411
 51
178.002022
  0
LINE
  5
119
330
1F
100
AcDbEntity
  8
LC-001-100-D00-0
 62
     7
370
    50
100
AcDbLine
 10
404.280218
 20
142.868243
 30
0.0
 11
403.896945
 21
143.251516
 31
0.0
  0
LINE
  5
11A
330
1F
100
AcDbEntity
  8
LC-001-100-D00-0
 62
     7
370
    50
100
AcDbLine
 10
404.389347
 20
143.743921
 30
0.0
 11
404.77262
 21
143.360648
 31
0.0
  0
ARC
  5
11B
330
1F
100
AcDbEntity
  8
LC-001-100-D00-0
 62
     7
370
    50
100
AcDbCircle
 10
408.915724
 20
142.850448
 30
0.0
 40
0.5105101380228652
100
AcDbArc
 50
1.997539
 51
88.002027
  0
LINE
  5
11C
330
1F
100
AcDbEntity
  8
LC-001-100-D00-0
 62
     7
370
    50
100
AcDbLine
 10
408.933523
 20
143.360648
 30
0.0
 11
409.316796
 21
143.743921
 31
0.0
  0
LINE
  5
11D
330
1F
100
AcDbEntity
  8
LC-001-100-D00-0
 62
     7
370
    50
100
AcDbLine
 10
409.809197
 20
143.251516
 30
0.0
 11
409.425924
 21
142.868243
 31
0.0
  0
ARC
  5
11E
330
1F
100
AcDbEntity
  8
LC-001-100-D00-0
 62
     7
370
    50
100
AcDbCircle
 10
404.790416
 20
142.22514
 30
0.0
 40
0.5105086064368652
100
AcDbArc
 50
181.997798
 51
268.002202
  0
LINE
  5
11F
330
1F
100
AcDbEntity
  8
LC-001-100-D00-0
 62
     7
370
    50
100
AcDbLine
 10
404.77262
 20
141.714942
 30
0.0
 11
404.389347
 21
141.331669
 31
0.0
  0
LINE
  5
120
330
1F
100
AcDbEntity
  8
LC-001-100-D00-0
 62
     7
370
    50
100
AcDbLine
 10
403.896945
 20
141.82407
 30
0.0
 11
404.280218
 21
142.207343
 31
0.0
  0
ARC
  5
121
330
1F
100
AcDbEntity
  8
LC-001-100-D00-0
 62
     7
370
    50
100
AcDbCircle
 10
408.91573
 20
142.225136
 30
0.0
 40
0.51050441334176
100
AcDbArc
 50
271.997359
 51
358.002641
  0
LINE
  5
122
330
1F
100
AcDbEntity
  8
LC-001-100-D00-0
 62
     7
370
    50
100
AcDbLine
 10
409.425924
 20
142.207343
 30
0.0
 11
409.809197
 21
141.82407
 31
0.0
  0
LINE
  5
123
330
1F
100
AcDbEntity
  8
LC-001-100-D00-0
 62
     7
370
    50
100
AcDbLine
 10
409.316796
 20
141.331669
 30
0.0
 11
408.933523
 21
141.714942
 31
0.0
  0
ELLIPSE
  5
124
330
1F
100
AcDbEntity
  8
LC-001-100-D00-0
 62
     7
370
    50
100
AcDbEllipse
 10
408.198948
 20
141.191917
 30
0.0
 11
0.3857116011678888
 21
-0.3857116011678888
 31
0.0
210
0.0
220
0.0
230
1.0
 40
0.916626
 41
2.371273620688483
 42
3.911911686490546
  0
LINE
  5
125
330
1F
100
AcDbEntity
  8
LC-001-100-D00-0
 62
     7
370
    50
100
AcDbLine
 10
408.16833
 20
141.714942
 30
0.0
 11
408.551602
 21
141.331669
 31
0.0
  0
LINE
  5
126
330
1F
100
AcDbEntity
  8
LC-001-100-D00-0
 62
     7
370
    50
100
AcDbLine
 10
408.059197
 20
140.839264
 30
0.0
 11
407.675925
 21
141.222536
 31
0.0
  0
ELLIPSE
  5
127
330
1F
100
AcDbEntity
  8
LC-001-100-D00-0
 62
     7
370
    50
100
AcDbEllipse
 10
405.507195
 20
141.191917
 30
0.0
 11
-0.3857116014988765
 21
-0.3857116014988766
 31
0.0
210
0.0
220
0.0
230
1.0
 40
0.916626
 41
5.512866274278295
 42
7.053504340080821
  0
LINE
  5
128
330
1F
100
AcDbEntity
  8
LC-001-100-D00-0
 62
     7
370
    50
100
AcDbLine
 10
406.030218
 20
141.222536
 30
0.0
 11
405.646945
 21
140.839264
 31
0.0
  0
LINE
  5
129
330
1F
100
AcDbEntity
  8
LC-001-100-D00-0
 62
     7
370
    50
100
AcDbLine
 10
405.15454
 20
141.331669
 30
0.0
 11
405.537813
 21
141.714942
 31
0.0
  0
ARC
  5
12A
330
1F
100
AcDbEntity
  8
LC-001-100-D00-0
 62
     7
370
    50
100
AcDbCircle
 10
407.16573
 20
140.475136
 30
0.0
 40
0.510504413342044
100
AcDbArc
 50
271.997359
 51
358.002641
  0
LINE
  5
12B
330
1F
100
AcDbEntity
  8
LC-001-100-D00-0
 62
     7
370
    50
100
AcDbLine
 10
407.675925
 20
140.457343
 30
0.0
 11
408.059197
 21
140.07407
 31
0.0
  0
LINE
  5
12C
330
1F
100
AcDbEntity
  8
LC-001-100-D00-0
 62
     7
370
    50
100
AcDbLine
 10
407.566796
 20
139.581669
 30
0.0
 11
407.183523
 21
139.964942
 31
0.0
  0
ARC
  5
12D
330
1F
100
AcDbEntity
  8
LC-001-100-D00-0
 62
     7
370
    50
100
AcDbCircle
 10
406.540416
 20
140.47514
 30
0.0
 40
0.5105083238152537
100
AcDbArc
 50
181.997783
 51
268.002651
  0
LINE
  5
12E
330
1F
100
AcDbEntity
  8
LC-001-100-D00-0
 62
     7
370
    50
100
AcDbLine
 10
406.522623
 20
139.964942
 30
0.0
 11
406.139347
 21
139.581669
 31
0.0
  0
LINE
  5
12F
330
1F
100
AcDbEntity
  8
LC-001-100-D00-0
 62
     7
370
    50
100
AcDbLine
 10
405.646945
 20
140.07407
 30
0.0
 11
406.030218
 21
140.457343
 31
0.0
  0
LINE
  5
130
330
1F
100
AcDbEntity
  8
LC-001-100-D00-0
 62
     7
370
    50
100
AcDbLine
 10
406.522623
 20
145.110648
 30
0.0
 11
407.183523
 21
145.110648
 31
0.0
  0
LINE
  5
131
330
1F
100
AcDbEntity
  8
LC-001-100-D00-0
 62
     7
370
    50
100
AcDbLine
 10
407.675925
 20
144.618243
 30
0.0
 11
407.675925
 21
143.853053
 31
0.0
  0
LINE
  5
132
330
1F
100
AcDbEntity
  8
LC-001-100-D00-0
 62
     7
370
    50
100
AcDbLine
 10
406.030218
 20
143.853053
 30
0.0
 11
406.030218
 21
144.618243
 31
0.0
  0
LINE
  5
133
330
1F
100
AcDbEntity
  8
LC-001-100-D00-0
 62
     7
370
    50
100
AcDbLine
 10
404.77262
 20
143.360648
 30
0.0
 11
405.537813
 21
143.360648
 31
0.0
  0
LINE
  5
134
330
1F
100
AcDbEntity
  8
LC-001-100-D00-0
 62
     7
370
    50
100
AcDbLine
 10
408.16833
 20
143.360648
 30
0.0
 11
408.933523
 21
143.360648
 31
0.0
  0
LINE
  5
135
330
1F
100
AcDbEntity
  8
LC-001-100-D00-0
 62
     7
370
    50
100
AcDbLine
 10
409.425924
 20
142.868243
 30
0.0
 11
409.425924
 21
142.207343
 31
0.0
  0
LINE
  5
136
330
1F
100
AcDbEntity
  8
LC-001-100-D00-0
 62
     7
370
    50
100
AcDbLine
 10
404.280218
 20
142.207343
 30
0.0
 11
404.280218
 21
142.868243
 31
0.0
  0
LINE
  5
137
330
1F
100
AcDbEntity
  8
LC-001-100-D00-0
 62
     7
370
    50
100
AcDbLine
 10
408.933523
 20
141.714942
 30
0.0
 11
408.16833
 21
141.714942
 31
0.0
  0
LINE
  5
138
330
1F
100
AcDbEntity
  8
LC-001-100-D00-0
 62
     7
370
    50
100
AcDbLine
 10
405.537813
 20
141.714942
 30
0.0
 11
404.77262
 21
141.714942
 31
0.0
  0
LINE
  5
139
330
1F
100
AcDbEntity
  8
LC-001-100-D00-0
 62
     7
370
    50
100
AcDbLine
 10
407.675925
 20
141.222536
 30
0.0
 11
407.675925
 21
140.457343
 31
0.0
  0
LINE
  5
13A
330
1F
100
AcDbEntity
  8
LC-001-100-D00-0
 62
     7
370
    50
100
AcDbLine
 10
406.030218
 20
140.457343
 30
0.0
 11
406.030218
 21
141.222536
 31
0.0
  0
LINE
  5
13B
330
1F
100
AcDbEntity
  8
LC-001-100-D00-0
 62
     7
370
    50
100
AcDbLine
 10
407.183523
 20
139.964942
 30
0.0
 11
406.522623
 21
139.964942
 31
0.0
  0
LINE
  5
13C
330
1F
100
AcDbEntity
  8
LC-001-100-D00-0
 62
     7
370
    50
100
AcDbLine
 10
407.183523
 20
144.618243
 30
0.0
 11
406.522623
 21
144.618243
 31
0.0
  0
LINE
  5
13D
330
1F
100
AcDbEntity
  8
LC-001-100-D00-0
 62
     7
370
    50
100
AcDbLine
 10
406.522623
 20
144.618243
 30
0.0
 11
406.522623
 21
145.110648
 31
0.0
  0
LINE
  5
13E
330
1F
100
AcDbEntity
  8
LC-001-100-D00-0
 62
     7
370
    50
100
AcDbLine
 10
407.183523
 20
144.618243
 30
0.0
 11
407.183523
 21
145.110648
 31
0.0
  0
LINE
  5
13F
330
1F
100
AcDbEntity
  8
LC-001-100-D00-0
 62
     7
370
    50
100
AcDbLine
 10
407.183523
 20
144.618243
 30
0.0
 11
407.675925
 21
144.618243
 31
0.0
  0
LINE
  5
140
330
1F
100
AcDbEntity
  8
LC-001-100-D00-0
 62
     7
370
    50
100
AcDbLine
 10
406.522623
 20
144.618243
 30
0.0
 11
406.030218
 21
144.618243
 31
0.0
  0
LINE
  5
141
330
1F
100
AcDbEntity
  8
LC-001-100-D00-0
 62
     7
370
    50
100
AcDbLine
 10
407.183523
 20
143.853053
 30
0.0
 11
407.183523
 21
144.618243
 31
0.0
  0
LINE
  5
142
330
1F
100
AcDbEntity
  8
LC-001-100-D00-0
 62
     7
370
    50
100
AcDbLine
 10
407.183523
 20
143.853053
 30
0.0
 11
407.675925
 21
143.853053
 31
0.0
  0
LINE
  5
143
330
1F
100
AcDbEntity
  8
LC-001-100-D00-0
 62
     7
370
    50
100
AcDbLine
 10
406.522623
 20
144.618243
 30
0.0
 11
406.522623
 21
143.853053
 31
0.0
  0
LINE
  5
144
330
1F
100
AcDbEntity
  8
LC-001-100-D00-0
 62
     7
370
    50
100
AcDbLine
 10
406.522623
 20
143.853053
 30
0.0
 11
406.030218
 21
143.853053
 31
0.0
  0
ELLIPSE
  5
145
330
1F
100
AcDbEntity
  8
LC-001-100-D00-0
 62
     7
370
    50
100
AcDbEllipse
 10
408.198948
 20
143.883671
 30
0.0
 11
-0.7287600456257303
 21
-0.7287600456257304
 31
0.0
210
0.0
220
0.0
230
1.0
 40
0.970288
 41
2.371273620688957
 42
3.911911686490741
  0
LINE
  5
146
330
1F
100
AcDbEntity
  8
LC-001-100-D00-0
 62
     7
370
    50
100
AcDbLine
 10
408.16833
 20
142.868243
 30
0.0
 11
408.16833
 21
143.360648
 31
0.0
  0
ELLIPSE
  5
147
330
1F
100
AcDbEntity
  8
LC-001-100-D00-0
 62
     7
370
    50
100
AcDbEllipse
 10
405.507195
 20
143.883671
 30
0.0
 11
0.728760045591017
 21
-0.7287600455910169
 31
0.0
210
0.0
220
0.0
230
1.0
 40
0.970288
 41
5.512866274278954
 42
7.053504340080781
  0
LINE
  5
148
330
1F
100
AcDbEntity
  8
LC-001-100-D00-0
 62
     7
370
    50
100
AcDbLine
 10
405.537813
 20
143.360648
 30
0.0
 11
405.537813
 21
142.868243
 31
0.0
  0
LINE
  5
149
330
1F
100
AcDbEntity
  8
LC-001-100-D00-0
 62
     7
370
    50
100
AcDbLine
 10
405.537813
 20
142.868243
 30
0.0
 11
404.77262
 21
142.868243
 31
0.0
  0
LINE
  5
14A
330
1F
100
AcDbEntity
  8
LC-001-100-D00-0
 62
     7
370
    50
100
AcDbLine
 10
404.77262
 20
143.360648
 30
0.0
 11
404.77262
 21
142.868243
 31
0.0
  0
LINE
  5
14B
330
1F
100
AcDbEntity
  8
LC-001-100-D00-0
 62
     7
370
    50
100
AcDbLine
 10
404.280218
 20
142.868243
 30
0.0
 11
404.77262
 21
142.868243
 31
0.0
  0
LINE
  5
14C
330
1F
100
AcDbEntity
  8
LC-001-100-D00-0
 62
     7
370
    50
100
AcDbLine
 10
408.933523
 20
142.868243
 30
0.0
 11
408.16833
 21
142.868243
 31
0.0
  0
LINE
  5
14D
330
1F
100
AcDbEntity
  8
LC-001-100-D00-0
 62
     7
370
    50
100
AcDbLine
 10
408.933523
 20
142.868243
 30
0.0
 11
408.933523
 21
143.360648
 31
0.0
  0
LINE
  5
14E
330
1F
100
AcDbEntity
  8
LC-001-100-D00-0
 62
     7
370
    50
100
AcDbLine
 10
408.933523
 20
142.868243
 30
0.0
 11
409.425924
 21
142.868243
 31
0.0
  0
LINE
  5
14F
330
1F
100
AcDbEntity
  8
LC-001-100-D00-0
 62
     7
370
    50
100
AcDbLine
 10
404.77262
 20
142.868243
 30
0.0
 11
404.77262
 21
142.207343
 31
0.0
  0
LINE
  5
150
330
1F
100
AcDbEntity
  8
LC-001-100-D00-0
 62
     7
370
    50
100
AcDbLine
 10
404.280218
 20
142.207343
 30
0.0
 11
404.77262
 21
142.207343
 31
0.0
  0
LINE
  5
151
330
1F
100
AcDbEntity
  8
LC-001-100-D00-0
 62
     7
370
    50
100
AcDbLine
 10
408.16833
 20
142.207343
 30
0.0
 11
408.933523
 21
142.207343
 31
0.0
  0
LINE
  5
152
330
1F
100
AcDbEntity
  8
LC-001-100-D00-0
 62
     7
370
    50
100
AcDbLine
 10
408.933523
 20
142.207343
 30
0.0
 11
408.933523
 21
141.714942
 31
0.0
  0
LINE
  5
153
330
1F
100
AcDbEntity
  8
LC-001-100-D00-0
 62
     7
370
    50
100
AcDbLine
 10
408.16833
 20
142.207343
 30
0.0
 11
408.16833
 21
141.714942
 31
0.0
  0
LINE
  5
154
330
1F
100
AcDbEntity
  8
LC-001-100-D00-0
 62
     7
370
    50
100
AcDbLine
 10
408.933523
 20
142.207343
 30
0.0
 11
408.933523
 21
142.868243
 31
0.0
  0
LINE
  5
155
330
1F
100
AcDbEntity
  8
LC-001-100-D00-0
 62
     7
370
    50
100
AcDbLine
 10
408.933523
 20
142.207343
 30
0.0
 11
409.425924
 21
142.207343
 31
0.0
  0
ELLIPSE
  5
156
330
1F
100
AcDbEntity
  8
LC-001-100-D00-0
 62
     7
370
    50
100
AcDbEllipse
 10
408.198948
 20
141.191917
 30
0.0
 11
0.7287600456605169
 21
-0.7287600456605168
 31
0.0
210
0.0
220
0.0
230
1.0
 40
0.970288
 41
2.371273620688883
 42
3.91191168649093
  0
LINE
  5
157
330
1F
100
AcDbEntity
  8
LC-001-100-D00-0
 62
     7
370
    50
100
AcDbLine
 10
407.675925
 20
141.222536
 30
0.0
 11
407.183523
 21
141.222536
 31
0.0
  0
LINE
  5
158
330
1F
100
AcDbEntity
  8
LC-001-100-D00-0
 62
     7
370
    50
100
AcDbLine
 10
405.537813
 20
141.714942
 30
0.0
 11
405.537813
 21
142.207343
 31
0.0
  0
ELLIPSE
  5
159
330
1F
100
AcDbEntity
  8
LC-001-100-D00-0
 62
     7
370
    50
100
AcDbEllipse
 10
405.507195
 20
141.191917
 30
0.0
 11
-0.7287600456778207
 21
-0.7287600456778208
 31
0.0
210
0.0
220
0.0
230
1.0
 40
0.970288
 41
5.512866274278757
 42
7.053504340080584
  0
LINE
  5
15A
330
1F
100
AcDbEntity
  8
LC-001-100-D00-0
 62
     7
370
    50
100
AcDbLine
 10
406.030218
 20
141.222536
 30
0.0
 11
406.522623
 21
141.222536
 31
0.0
  0
LINE
  5
15B
330
1F
100
AcDbEntity
  8
LC-001-100-D00-0
 62
     7
370
    50
100
AcDbLine
 10
404.77262
 20
141.714942
 30
0.0
 11
404.77262
 21
142.207343
 31
0.0
  0
LINE
  5
15C
330
1F
100
AcDbEntity
  8
LC-001-100-D00-0
 62
     7
370
    50
100
AcDbLine
 10
404.77262
 20
142.207343
 30
0.0
 11
405.537813
 21
142.207343
 31
0.0
  0
LINE
  5
15D
330
1F
100
AcDbEntity
  8
LC-001-100-D00-0
 62
     7
370
    50
100
AcDbLine
 10
406.522623
 20
141.222536
 30
0.0
 11
406.522623
 21
140.457343
 31
0.0
  0
LINE
  5
15E
330
1F
100
AcDbEntity
  8
LC-001-100-D00-0
 62
     7
370
    50
100
AcDbLine
 10
406.030218
 20
140.457343
 30
0.0
 11
406.522623
 21
140.457343
 31
0.0
  0
LINE
  5
15F
330
1F
100
AcDbEntity
  8
LC-001-100-D00-0
 62
     7
370
    50
100
AcDbLine
 10
407.675925
 20
140.457343
 30
0.0
 11
407.183523
 21
140.457343
 31
0.0
  0
LINE
  5
160
330
1F
100
AcDbEntity
  8
LC-001-100-D00-0
 62
     7
370
    50
100
AcDbLine
 10
407.183523
 20
140.457343
 30
0.0
 11
407.183523
 21
141.222536
 31
0.0
  0
LINE
  5
161
330
1F
100
AcDbEntity
  8
LC-001-100-D00-0
 62
     7
370
    50
100
AcDbLine
 10
406.522623
 20
139.964942
 30
0.0
 11
406.522623
 21
140.457343
 31
0.0
  0
LINE
  5
162
330
1F
100
AcDbEntity
  8
LC-001-100-D00-0
 62
     7
370
    50
100
AcDbLine
 10
406.522623
 20
140.457343
 30
0.0
 11
407.183523
 21
140.457343
 31
0.0
  0
LINE
  5
163
330
1F
100
AcDbEntity
  8
LC-001-100-D00-0
 62
     7
370
    50
100
AcDbLine
 10
407.183523
 20
139.964942
 30
0.0
 11
407.183523
 21
140.457343
 31
0.0
  0
ELLIPSE
  5
164
330
1F
100
AcDbEntity
  8
LC-001-100-D00-0
 62
     7
370
    50
100
AcDbEllipse
 10
288.18877
 20
262.952096
 30
0.0
 11
0.7287600456170451
 21
-0.728760045617045
 31
0.0
210
0.0
220
0.0
230
1.0
 40
0.970288
 41
2.371273620688868
 42
3.911911686490494
  0
LINE
  5
165
330
1F
100
AcDbEntity
  8
LC-001-100-D00-0
 62
     7
370
    50
100
AcDbLine
 10
287.173345
 20
262.217522
 30
0.0
 11
287.173345
 21
262.982715
 31
0.0
  0
LINE
  5
166
330
1F
100
AcDbEntity
  8
LC-001-100-D00-0
 62
     7
370
    50
100
AcDbLine
 10
286.408151
 20
262.217522
 30
0.0
 11
287.173345
 21
262.217522
 31
0.0
  0
ELLIPSE
  5
167
330
1F
100
AcDbEntity
  8
LC-001-100-D00-0
 62
     7
370
    50
100
AcDbEllipse
 10
286.43877
 20
261.202096
 30
0.0
 11
0.7287600456431422
 21
-0.7287600456431419
 31
0.0
210
0.0
220
0.0
230
1.0
 40
0.970288
 41
2.371273620688831
 42
3.911911686490867
  0
LINE
  5
168
330
1F
100
AcDbEntity
  8
LC-001-100-D00-0
 62
     7
370
    50
100
AcDbLine
 10
285.423345
 20
259.805269
 30
0.0
 11
285.423345
 21
261.232715
 31
0.0
  0
ELLIPSE
  5
169
330
1F
100
AcDbEntity
  8
LC-001-100-D00-0
 62
     7
370
    50
100
AcDbEllipse
 10
286.43877
 20
259.835887
 30
0.0
 11
-0.7287600455909803
 21
-0.7287600455909804
 31
0.0
210
0.0
220
0.0
230
1.0
 40
0.970288
 41
2.371273620688594
 42
3.911911686490712
  0
LINE
  5
16A
330
1F
100
AcDbEntity
  8
LC-001-100-D00-0
 62
     7
370
    50
100
AcDbLine
 10
287.173345
 20
258.820459
 30
0.0
 11
286.408151
 21
258.820459
 31
0.0
  0
LINE
  5
16B
330
1F
100
AcDbEntity
  8
LC-001-100-D00-0
 62
     7
370
    50
100
AcDbLine
 10
287.173345
 20
258.05527
 30
0.0
 11
287.173345
 21
258.820459
 31
0.0
  0
ELLIPSE
  5
16C
330
1F
100
AcDbEntity
  8
LC-001-100-D00-0
 62
     7
370
    50
100
AcDbEllipse
 10
288.18877
 20
258.085887
 30
0.0
 11
-0.728760045712642
 21
-0.7287600457126421
 31
0.0
210
0.0
220
0.0
230
1.0
 40
0.970288
 41
2.371273620688942
 42
3.911911686490529
  0
LINE
  5
16D
330
1F
100
AcDbEntity
  8
LC-001-100-D00-0
 62
     7
370
    50
100
AcDbLine
 10
289.585597
 20
257.070459
 30
0.0
 11
288.158151
 21
257.070459
 31
0.0
  0
ELLIPSE
  5
16E
330
1F
100
AcDbEntity
  8
LC-001-100-D00-0
 62
     7
370
    50
100
AcDbEllipse
 10
289.554978
 20
258.085887
 30
0.0
 11
0.7287600456344547
 21
-0.7287600456344546
 31
0.0
210
0.0
220
0.0
230
1.0
 40
0.970288
 41
5.512866274278919
 42
7.05350434008065
  0
LINE
  5
16F
330
1F
100
AcDbEntity
  8
LC-001-100-D00-0
 62
     7
370
    50
100
AcDbLine
 10
290.570403
 20
258.820459
 30
0.0
 11
290.570403
 21
258.05527
 31
0.0
  0
LINE
  5
170
330
1F
100
AcDbEntity
  8
LC-001-100-D00-0
 62
     7
370
    50
100
AcDbLine
 10
291.335597
 20
258.820459
 30
0.0
 11
290.570403
 21
258.820459
 31
0.0
  0
ELLIPSE
  5
171
330
1F
100
AcDbEntity
  8
LC-001-100-D00-0
 62
     7
370
    50
100
AcDbEllipse
 10
291.304978
 20
259.835887
 30
0.0
 11
0.7287600456343835
 21
-0.7287600456343834
 31
0.0
210
0.0
220
0.0
230
1.0
 40
0.970288
 41
5.512866274278648
 42
7.053504340080525
  0
LINE
  5
172
330
1F
100
AcDbEntity
  8
LC-001-100-D00-0
 62
     7
370
    50
100
AcDbLine
 10
292.320403
 20
261.232715
 30
0.0
 11
292.320403
 21
259.805269
 31
0.0
  0
ELLIPSE
  5
173
330
1F
100
AcDbEntity
  8
LC-001-100-D00-0
 62
     7
370
    50
100
AcDbEllipse
 10
291.304978
 20
261.202096
 30
0.0
 11
-0.7287600456257325
 21
-0.7287600456257326
 31
0.0
210
0.0
220
0.0
230
1.0
 40
0.970288
 41
5.512866274278869
 42
7.053504340080188
  0
LINE
  5
174
330
1F
100
AcDbEntity
  8
LC-001-100-D00-0
 62
     7
370
    50
100
AcDbLine
 10
290.570403
 20
262.217522
 30
0.0
 11
291.335597
 21
262.217522
 31
0.0
  0
LINE
  5
175
330
1F
100
AcDbEntity
  8
LC-001-100-D00-0
 62
     7
370
    50
100
AcDbLine
 10
290.570403
 20
262.982715
 30
0.0
 11
290.570403
 21
262.217522
 31
0.0
  0
ELLIPSE
  5
176
330
1F
100
AcDbEntity
  8
LC-001-100-D00-0
 62
     7
370
    50
100
AcDbEllipse
 10
289.554978
 20
262.952096
 30
0.0
 11
-0.7287600455562303
 21
-0.7287600455562304
 31
0.0
210
0.0
220
0.0
230
1.0
 40
0.970288
 41
5.512866274279186
 42
7.053504340080494
  0
LINE
  5
177
330
1F
100
AcDbEntity
  8
LC-001-100-D00-0
 62
     7
370
    50
100
AcDbLine
 10
288.158151
 20
263.967521
 30
0.0
 11
289.585597
 21
263.967521
 31
0.0
  0
CIRCLE
  5
178
330
1F
100
AcDbEntity
  8
LC-001-100-D00-0
 62
     7
370
    50
100
AcDbCircle
 10
288.871874
 20
260.518992
 30
0.0
 40
5.374999999999943
  0
LINE
  5
179
330
1F
100
AcDbEntity
  8
LC-001-100-D00-0
 62
     7
370
    50
100
AcDbLine
 10
288.158151
 20
263.967521
 30
0.0
 11
288.158151
 21
263.47512
 31
0.0
  0
ELLIPSE
  5
17A
330
1F
100
AcDbEntity
  8
LC-001-100-D00-0
 62
     7
370
    50
100
AcDbEllipse
 10
288.18877
 20
262.952096
 30
0.0
 11
0.3857116013701383
 21
-0.3857116013701382
 31
0.0
210
0.0
220
0.0
230
1.0
 40
0.916626
 41
2.371273620688985
 42
3.911911686491365
  0
LINE
  5
17B
330
1F
100
AcDbEntity
  8
LC-001-100-D00-0
 62
     7
370
    50
100
AcDbLine
 10
287.173345
 20
262.982715
 30
0.0
 11
287.665746
 21
262.982715
 31
0.0
  0
LINE
  5
17C
330
1F
100
AcDbEntity
  8
LC-001-100-D00-0
 62
     7
370
    50
100
AcDbLine
 10
289.585597
 20
263.967521
 30
0.0
 11
289.585597
 21
263.47512
 31
0.0
  0
LINE
  5
17D
330
1F
100
AcDbEntity
  8
LC-001-100-D00-0
 62
     7
370
    50
100
AcDbLine
 10
289.585597
 20
263.47512
 30
0.0
 11
288.158151
 21
263.47512
 31
0.0
  0
LINE
  5
17E
330
1F
100
AcDbEntity
  8
LC-001-100-D00-0
 62
     7
370
    50
100
AcDbLine
 10
290.078002
 20
262.982715
 30
0.0
 11
290.570403
 21
262.982715
 31
0.0
  0
ELLIPSE
  5
17F
330
1F
100
AcDbEntity
  8
LC-001-100-D00-0
 62
     7
370
    50
100
AcDbEllipse
 10
289.554978
 20
262.952096
 30
0.0
 11
-0.3857116012781773
 21
-0.3857116012781774
 31
0.0
210
0.0
220
0.0
230
1.0
 40
0.916626
 41
5.512866274278506
 42
7.053504340080339
  0
LINE
  5
180
330
1F
100
AcDbEntity
  8
LC-001-100-D00-0
 62
     7
370
    50
100
AcDbLine
 10
287.665746
 20
262.982715
 30
0.0
 11
287.665746
 21
262.217522
 31
0.0
  0
LINE
  5
181
330
1F
100
AcDbEntity
  8
LC-001-100-D00-0
 62
     7
370
    50
100
AcDbLine
 10
287.173345
 20
262.217522
 30
0.0
 11
287.665746
 21
262.217522
 31
0.0
  0
LINE
  5
182
330
1F
100
AcDbEntity
  8
LC-001-100-D00-0
 62
     7
370
    50
100
AcDbLine
 10
290.078002
 20
262.217522
 30
0.0
 11
290.078002
 21
262.982715
 31
0.0
  0
LINE
  5
183
330
1F
100
AcDbEntity
  8
LC-001-100-D00-0
 62
     7
370
    50
100
AcDbLine
 10
290.078002
 20
262.217522
 30
0.0
 11
290.570403
 21
262.217522
 31
0.0
  0
LINE
  5
184
330
1F
100
AcDbEntity
  8
LC-001-100-D00-0
 62
     7
370
    50
100
AcDbLine
 10
287.173345
 20
262.217522
 30
0.0
 11
287.173345
 21
261.72512
 31
0.0
  0
LINE
  5
185
330
1F
100
AcDbEntity
  8
LC-001-100-D00-0
 62
     7
370
    50
100
AcDbLine
 10
287.173345
 20
261.72512
 30
0.0
 11
286.408151
 21
261.72512
 31
0.0
  0
LINE
  5
186
330
1F
100
AcDbEntity
  8
LC-001-100-D00-0
 62
     7
370
    50
100
AcDbLine
 10
286.408151
 20
262.217522
 30
0.0
 11
286.408151
 21
261.72512
 31
0.0
  0
LINE
  5
187
330
1F
100
AcDbEntity
  8
LC-001-100-D00-0
 62
     7
370
    50
100
AcDbLine
 10
290.570403
 20
261.72512
 30
0.0
 11
290.570403
 21
262.217522
 31
0.0
  0
ARC
  5
188
330
1F
100
AcDbEntity
  8
LC-001-100-D00-0
 62
     7
370
    50
100
AcDbCircle
 10
290.588196
 20
262.235314
 30
0.0
 40
0.5105044133419872
100
AcDbArc
 50
181.997359
 51
268.002641
  0
LINE
  5
189
330
1F
100
AcDbEntity
  8
LC-001-100-D00-0
 62
     7
370
    50
100
AcDbLine
 10
291.335597
 20
261.72512
 30
0.0
 11
290.570403
 21
261.72512
 31
0.0
  0
LINE
  5
18A
330
1F
100
AcDbEntity
  8
LC-001-100-D00-0
 62
     7
370
    50
100
AcDbLine
 10
291.335597
 20
261.72512
 30
0.0
 11
291.335597
 21
262.217522
 31
0.0
  0
ELLIPSE
  5
18B
330
1F
100
AcDbEntity
  8
LC-001-100-D00-0
 62
     7
370
    50
100
AcDbEllipse
 10
286.43877
 20
261.202096
 30
0.0
 11
0.3857116012598175
 21
-0.3857116012598174
 31
0.0
210
0.0
220
0.0
230
1.0
 40
0.916626
 41
2.371273620688873
 42
3.911911686491155
  0
LINE
  5
18C
330
1F
100
AcDbEntity
  8
LC-001-100-D00-0
 62
     7
370
    50
100
AcDbLine
 10
285.423345
 20
261.232715
 30
0.0
 11
285.915746
 21
261.232715
 31
0.0
  0
ELLIPSE
  5
18D
330
1F
100
AcDbEntity
  8
LC-001-100-D00-0
 62
     7
370
    50
100
AcDbEllipse
 10
291.304978
 20
261.202096
 30
0.0
 11
-0.385711601223033
 21
-0.3857116012230332
 31
0.0
210
0.0
220
0.0
230
1.0
 40
0.916626
 41
5.51286627427801
 42
7.053504340080066
  0
LINE
  5
18E
330
1F
100
AcDbEntity
  8
LC-001-100-D00-0
 62
     7
370
    50
100
AcDbLine
 10
291.828002
 20
261.232715
 30
0.0
 11
292.320403
 21
261.232715
 31
0.0
  0
ARC
  5
18F
330
1F
100
AcDbEntity
  8
LC-001-100-D00-0
 62
     7
370
    50
100
AcDbCircle
 10
287.155552
 20
262.235314
 30
0.0
 40
0.5105044133419304
100
AcDbArc
 50
271.997359
 51
358.002641
  0
LINE
  5
190
330
1F
100
AcDbEntity
  8
LC-001-100-D00-0
 62
     7
370
    50
100
AcDbLine
 10
291.828002
 20
259.805269
 30
0.0
 11
291.828002
 21
261.232715
 31
0.0
  0
LINE
  5
191
330
1F
100
AcDbEntity
  8
LC-001-100-D00-0
 62
     7
370
    50
100
AcDbLine
 10
291.828002
 20
259.805269
 30
0.0
 11
292.320403
 21
259.805269
 31
0.0
  0
LINE
  5
192
330
1F
100
AcDbEntity
  8
LC-001-100-D00-0
 62
     7
370
    50
100
AcDbLine
 10
285.915746
 20
261.232715
 30
0.0
 11
285.915746
 21
259.805269
 31
0.0
  0
LINE
  5
193
330
1F
100
AcDbEntity
  8
LC-001-100-D00-0
 62
     7
370
    50
100
AcDbLine
 10
285.423345
 20
259.805269
 30
0.0
 11
285.915746
 21
259.805269
 31
0.0
  0
ELLIPSE
  5
194
330
1F
100
AcDbEntity
  8
LC-001-100-D00-0
 62
     7
370
    50
100
AcDbEllipse
 10
291.304978
 20
259.835887
 30
0.0
 11
0.3857116012046409
 21
-0.3857116012046409
 31
0.0
210
0.0
220
0.0
230
1.0
 40
0.916626
 41
5.512866274278767
 42
7.053504340080957
  0
LINE
  5
195
330
1F
100
AcDbEntity
  8
LC-001-100-D00-0
 62
     7
370
    50
100
AcDbLine
 10
291.335597
 20
259.312864
 30
0.0
 11
291.335597
 21
258.820459
 31
0.0
  0
ELLIPSE
  5
196
330
1F
100
AcDbEntity
  8
LC-001-100-D00-0
 62
     7
370
    50
100
AcDbEllipse
 10
286.43877
 20
259.835887
 30
0.0
 11
-0.3857116012414252
 21
-0.3857116012414252
 31
0.0
210
0.0
220
0.0
230
1.0
 40
0.916626
 41
2.371273620688649
 42
3.911911686491046
  0
LINE
  5
197
330
1F
100
AcDbEntity
  8
LC-001-100-D00-0
 62
     7
370
    50
100
AcDbLine
 10
286.408151
 20
258.820459
 30
0.0
 11
286.408151
 21
259.312864
 31
0.0
  0
LINE
  5
198
330
1F
100
AcDbEntity
  8
LC-001-100-D00-0
 62
     7
370
    50
100
AcDbLine
 10
286.408151
 20
259.312864
 30
0.0
 11
287.173345
 21
259.312864
 31
0.0
  0
LINE
  5
199
330
1F
100
AcDbEntity
  8
LC-001-100-D00-0
 62
     7
370
    50
100
AcDbLine
 10
287.173345
 20
258.820459
 30
0.0
 11
287.173345
 21
259.312864
 31
0.0
  0
ARC
  5
19A
330
1F
100
AcDbEntity
  8
LC-001-100-D00-0
 62
     7
370
    50
100
AcDbCircle
 10
287.155546
 20
258.802665
 30
0.0
 40
0.5105101380228652
100
AcDbArc
 50
1.997539
 51
88.002027
  0
LINE
  5
19B
330
1F
100
AcDbEntity
  8
LC-001-100-D00-0
 62
     7
370
    50
100
AcDbLine
 10
287.173345
 20
258.820459
 30
0.0
 11
287.665746
 21
258.820459
 31
0.0
  0
LINE
  5
19C
330
1F
100
AcDbEntity
  8
LC-001-100-D00-0
 62
     7
370
    50
100
AcDbLine
 10
290.570403
 20
259.312864
 30
0.0
 11
291.335597
 21
259.312864
 31
0.0
  0
LINE
  5
19D
330
1F
100
AcDbEntity
  8
LC-001-100-D00-0
 62
     7
370
    50
100
AcDbLine
 10
290.570403
 20
259.312864
 30
0.0
 11
290.570403
 21
258.820459
 31
0.0
  0
LINE
  5
19E
330
1F
100
AcDbEntity
  8
LC-001-100-D00-0
 62
     7
370
    50
100
AcDbLine
 10
290.078002
 20
258.820459
 30
0.0
 11
290.570403
 21
258.820459
 31
0.0
  0
ARC
  5
19F
330
1F
100
AcDbEntity
  8
LC-001-100-D00-0
 62
     7
370
    50
100
AcDbCircle
 10
290.588202
 20
258.802665
 30
0.0
 40
0.5105101380229309
100
AcDbArc
 50
91.997973
 51
178.002461
  0
LINE
  5
1A0
330
1F
100
AcDbEntity
  8
LC-001-100-D00-0
 62
     7
370
    50
100
AcDbLine
 10
290.078002
 20
258.05527
 30
0.0
 11
290.078002
 21
258.820459
 31
0.0
  0
LINE
  5
1A1
330
1F
100
AcDbEntity
  8
LC-001-100-D00-0
 62
     7
370
    50
100
AcDbLine
 10
290.078002
 20
258.05527
 30
0.0
 11
290.570403
 21
258.05527
 31
0.0
  0
LINE
  5
1A2
330
1F
100
AcDbEntity
  8
LC-001-100-D00-0
 62
     7
370
    50
100
AcDbLine
 10
287.665746
 20
258.820459
 30
0.0
 11
287.665746
 21
258.05527
 31
0.0
  0
LINE
  5
1A3
330
1F
100
AcDbEntity
  8
LC-001-100-D00-0
 62
     7
370
    50
100
AcDbLine
 10
287.173345
 20
258.05527
 30
0.0
 11
287.665746
 21
258.05527
 31
0.0
  0
ELLIPSE
  5
1A4
330
1F
100
AcDbEntity
  8
LC-001-100-D00-0
 62
     7
370
    50
100
AcDbEllipse
 10
289.554978
 20
258.085887
 30
0.0
 11
0.3857116015356609
 21
-0.3857116015356608
 31
0.0
210
0.0
220
0.0
230
1.0
 40
0.916626
 41
5.512866274278421
 42
7.053504340080431
  0
LINE
  5
1A5
330
1F
100
AcDbEntity
  8
LC-001-100-D00-0
 62
     7
370
    50
100
AcDbLine
 10
289.585597
 20
257.562865
 30
0.0
 11
289.585597
 21
257.070459
 31
0.0
  0
ELLIPSE
  5
1A6
330
1F
100
AcDbEntity
  8
LC-001-100-D00-0
 62
     7
370
    50
100
AcDbEllipse
 10
288.18877
 20
258.085887
 30
0.0
 11
-0.3857116012413541
 21
-0.3857116012413542
 31
0.0
210
0.0
220
0.0
230
1.0
 40
0.916626
 41
2.371273620688949
 42
3.911911686490861
  0
LINE
  5
1A7
330
1F
100
AcDbEntity
  8
LC-001-100-D00-0
 62
     7
370
    50
100
AcDbLine
 10
288.158151
 20
257.562865
 30
0.0
 11
288.158151
 21
257.070459
 31
0.0
  0
LINE
  5
1A8
330
1F
100
AcDbEntity
  8
LC-001-100-D00-0
 62
     7
370
    50
100
AcDbLine
 10
288.158151
 20
257.562865
 30
0.0
 11
289.585597
 21
257.562865
 31
0.0
  0
ARC
  5
1A9
330
1F
100
AcDbEntity
  8
LC-001-100-D00-0
 62
     7
370
    50
100
AcDbCircle
 10
288.559229
 20
262.581637
 30
0.0
 40
0.51052065509513
100
AcDbArc
 50
91.998654
 51
178.001346
  0
LINE
  5
1AA
330
1F
100
AcDbEntity
  8
LC-001-100-D00-0
 62
     7
370
    50
100
AcDbLine
 10
288.049019
 20
262.599442
 30
0.0
 11
287.665746
 21
262.982715
 31
0.0
  0
LINE
  5
1AB
330
1F
100
AcDbEntity
  8
LC-001-100-D00-0
 62
     7
370
    50
100
AcDbLine
 10
288.158151
 20
263.47512
 30
0.0
 11
288.541424
 21
263.091847
 31
0.0
  0
ARC
  5
1AC
330
1F
100
AcDbEntity
  8
LC-001-100-D00-0
 62
     7
370
    50
100
AcDbCircle
 10
289.184519
 20
262.581637
 30
0.0
 40
0.5105206550950183
100
AcDbArc
 50
1.998654
 51
88.001346
  0
LINE
  5
1AD
330
1F
100
AcDbEntity
  8
LC-001-100-D00-0
 62
     7
370
    50
100
AcDbLine
 10
289.202324
 20
263.091847
 30
0.0
 11
289.585597
 21
263.47512
 31
0.0
  0
LINE
  5
1AE
330
1F
100
AcDbEntity
  8
LC-001-100-D00-0
 62
     7
370
    50
100
AcDbLine
 10
290.078002
 20
262.982715
 30
0.0
 11
289.694729
 21
262.599442
 31
0.0
  0
ELLIPSE
  5
1AF
330
1F
100
AcDbEntity
  8
LC-001-100-D00-0
 62
     7
370
    50
100
AcDbEllipse
 10
287.525997
 20
261.864868
 30
0.0
 11
0.3857116010942169
 21
-0.3857116010942168
 31
0.0
210
0.0
220
0.0
230
1.0
 40
0.916626
 41
5.51286627427884
 42
7.053504340080883
  0
LINE
  5
1B0
330
1F
100
AcDbEntity
  8
LC-001-100-D00-0
 62
     7
370
    50
100
AcDbLine
 10
287.556617
 20
261.341847
 30
0.0
 11
287.173345
 21
261.72512
 31
0.0
  0
LINE
  5
1B1
330
1F
100
AcDbEntity
  8
LC-001-100-D00-0
 62
     7
370
    50
100
AcDbLine
 10
287.665746
 20
262.217522
 30
0.0
 11
288.049019
 21
261.834249
 31
0.0
  0
ELLIPSE
  5
1B2
330
1F
100
AcDbEntity
  8
LC-001-100-D00-0
 62
     7
370
    50
100
AcDbEllipse
 10
290.217751
 20
261.864868
 30
0.0
 11
-0.385711601241393
 21
-0.385711601241393
 31
0.0
210
0.0
220
0.0
230
1.0
 40
0.916626
 41
2.371273620688885
 42
3.911911686490702
  0
LINE
  5
1B3
330
1F
100
AcDbEntity
  8
LC-001-100-D00-0
 62
     7
370
    50
100
AcDbLine
 10
289.694729
 20
261.834249
 30
0.0
 11
290.078002
 21
262.217522
 31
0.0
  0
LINE
  5
1B4
330
1F
100
AcDbEntity
  8
LC-001-100-D00-0
 62
     7
370
    50
100
AcDbLine
 10
290.570403
 20
261.72512
 30
0.0
 11
290.18713
 21
261.341847
 31
0.0
  0
ARC
  5
1B5
330
1F
100
AcDbEntity
  8
LC-001-100-D00-0
 62
     7
370
    50
100
AcDbCircle
 10
290.934519
 20
260.831637
 30
0.0
 40
0.510520655095387
100
AcDbArc
 50
1.998654
 51
88.001346
  0
LINE
  5
1B6
330
1F
100
AcDbEntity
  8
LC-001-100-D00-0
 62
     7
370
    50
100
AcDbLine
 10
290.952324
 20
261.341847
 30
0.0
 11
291.335597
 21
261.72512
 31
0.0
  0
LINE
  5
1B7
330
1F
100
AcDbEntity
  8
LC-001-100-D00-0
 62
     7
370
    50
100
AcDbLine
 10
291.828002
 20
261.232715
 30
0.0
 11
291.444729
 21
260.849442
 31
0.0
  0
ARC
  5
1B8
330
1F
100
AcDbEntity
  8
LC-001-100-D00-0
 62
     7
370
    50
100
AcDbCircle
 10
286.809229
 20
260.831637
 30
0.0
 40
0.5105206550950164
100
AcDbArc
 50
91.998654
 51
178.001346
  0
LINE
  5
1B9
330
1F
100
AcDbEntity
  8
LC-001-100-D00-0
 62
     7
370
    50
100
AcDbLine
 10
286.299019
 20
260.849442
 30
0.0
 11
285.915746
 21
261.232715
 31
0.0
  0
LINE
  5
1BA
330
1F
100
AcDbEntity
  8
LC-001-100-D00-0
 62
     7
370
    50
100
AcDbLine
 10
286.408151
 20
261.72512
 30
0.0
 11
286.791424
 21
261.341847
 31
0.0
  0
ARC
  5
1BB
330
1F
100
AcDbEntity
  8
LC-001-100-D00-0
 62
     7
370
    50
100
AcDbCircle
 10
290.934521
 20
260.206345
 30
0.0
 40
0.5105182589170096
100
AcDbArc
 50
271.998404
 51
358.001596
  0
LINE
  5
1BC
330
1F
100
AcDbEntity
  8
LC-001-100-D00-0
 62
     7
370
    50
100
AcDbLine
 10
291.444729
 20
260.188542
 30
0.0
 11
291.828002
 21
259.805269
 31
0.0
  0
LINE
  5
1BD
330
1F
100
AcDbEntity
  8
LC-001-100-D00-0
 62
     7
370
    50
100
AcDbLine
 10
291.335597
 20
259.312864
 30
0.0
 11
290.952324
 21
259.696137
 31
0.0
  0
ARC
  5
1BE
330
1F
100
AcDbEntity
  8
LC-001-100-D00-0
 62
     7
370
    50
100
AcDbCircle
 10
286.809227
 20
260.206345
 30
0.0
 40
0.5105182589165552
100
AcDbArc
 50
181.998404
 51
268.001596
  0
LINE
  5
1BF
330
1F
100
AcDbEntity
  8
LC-001-100-D00-0
 62
     7
370
    50
100
AcDbLine
 10
286.791424
 20
259.696137
 30
0.0
 11
286.408151
 21
259.312864
 31
0.0
  0
LINE
  5
1C0
330
1F
100
AcDbEntity
  8
LC-001-100-D00-0
 62
     7
370
    50
100
AcDbLine
 10
285.915746
 20
259.805269
 30
0.0
 11
286.299019
 21
260.188542
 31
0.0
  0
ELLIPSE
  5
1C1
330
1F
100
AcDbEntity
  8
LC-001-100-D00-0
 62
     7
370
    50
100
AcDbEllipse
 10
290.217751
 20
259.173115
 30
0.0
 11
0.3857116011494577
 21
-0.3857116011494576
 31
0.0
210
0.0
220
0.0
230
1.0
 40
0.916626
 41
2.371273620688423
 42
3.911911686490842
  0
LINE
  5
1C2
330
1F
100
AcDbEntity
  8
LC-001-100-D00-0
 62
     7
370
    50
100
AcDbLine
 10
290.18713
 20
259.696137
 30
0.0
 11
290.570403
 21
259.312864
 31
0.0
  0
LINE
  5
1C3
330
1F
100
AcDbEntity
  8
LC-001-100-D00-0
 62
     7
370
    50
100
AcDbLine
 10
290.078002
 20
258.820459
 30
0.0
 11
289.694729
 21
259.203732
 31
0.0
  0
ELLIPSE
  5
1C4
330
1F
100
AcDbEntity
  8
LC-001-100-D00-0
 62
     7
370
    50
100
AcDbEllipse
 10
287.525997
 20
259.173115
 30
0.0
 11
-0.3857116013149228
 21
-0.3857116013149228
 31
0.0
210
0.0
220
0.0
230
1.0
 40
0.916626
 41
5.512866274278328
 42
7.053504340080517
  0
LINE
  5
1C5
330
1F
100
AcDbEntity
  8
LC-001-100-D00-0
 62
     7
370
    50
100
AcDbLine
 10
288.049019
 20
259.203732
 30
0.0
 11
287.665746
 21
258.820459
 31
0.0
  0
LINE
  5
1C6
330
1F
100
AcDbEntity
  8
LC-001-100-D00-0
 62
     7
370
    50
100
AcDbLine
 10
287.173345
 20
259.312864
 30
0.0
 11
287.556617
 21
259.696137
 31
0.0
  0
ARC
  5
1C7
330
1F
100
AcDbEntity
  8
LC-001-100-D00-0
 62
     7
370
    50
100
AcDbCircle
 10
288.559227
 20
258.456345
 30
0.0
 40
0.5105182589169528
100
AcDbArc
 50
181.998404
 51
268.001596
  0
LINE
  5
1C8
330
1F
100
AcDbEntity
  8
LC-001-100-D00-0
 62
     7
370
    50
100
AcDbLine
 10
288.541424
 20
257.946137
 30
0.0
 11
288.158151
 21
257.562865
 31
0.0
  0
LINE
  5
1C9
330
1F
100
AcDbEntity
  8
LC-001-100-D00-0
 62
     7
370
    50
100
AcDbLine
 10
287.665746
 20
258.05527
 30
0.0
 11
288.049019
 21
258.438542
 31
0.0
  0
ARC
  5
1CA
330
1F
100
AcDbEntity
  8
LC-001-100-D00-0
 62
     7
370
    50
100
AcDbCircle
 10
289.184521
 20
258.456345
 30
0.0
 40
0.5105182589167256
100
AcDbArc
 50
271.998404
 51
358.001596
  0
LINE
  5
1CB
330
1F
100
AcDbEntity
  8
LC-001-100-D00-0
 62
     7
370
    50
100
AcDbLine
 10
289.694729
 20
258.438542
 30
0.0
 11
290.078002
 21
258.05527
 31
0.0
  0
LINE
  5
1CC
330
1F
100
AcDbEntity
  8
LC-001-100-D00-0
 62
     7
370
    50
100
AcDbLine
 10
289.585597
 20
257.562865
 30
0.0
 11
289.202324
 21
257.946137
 31
0.0
  0
LINE
  5
1CD
330
1F
100
AcDbEntity
  8
LC-001-100-D00-0
 62
     7
370
    50
100
AcDbLine
 10
288.541424
 20
263.091847
 30
0.0
 11
289.202324
 21
263.091847
 31
0.0
  0
LINE
  5
1CE
330
1F
100
AcDbEntity
  8
LC-001-100-D00-0
 62
     7
370
    50
100
AcDbLine
 10
289.694729
 20
262.599442
 30
0.0
 11
289.694729
 21
261.834249
 31
0.0
  0
LINE
  5
1CF
330
1F
100
AcDbEntity
  8
LC-001-100-D00-0
 62
     7
370
    50
100
AcDbLine
 10
288.049019
 20
261.834249
 30
0.0
 11
288.049019
 21
262.599442
 31
0.0
  0
LINE
  5
1D0
330
1F
100
AcDbEntity
  8
LC-001-100-D00-0
 62
     7
370
    50
100
AcDbLine
 10
286.791424
 20
261.341847
 30
0.0
 11
287.556617
 21
261.341847
 31
0.0
  0
LINE
  5
1D1
330
1F
100
AcDbEntity
  8
LC-001-100-D00-0
 62
     7
370
    50
100
AcDbLine
 10
290.18713
 20
261.341847
 30
0.0
 11
290.952324
 21
261.341847
 31
0.0
  0
LINE
  5
1D2
330
1F
100
AcDbEntity
  8
LC-001-100-D00-0
 62
     7
370
    50
100
AcDbLine
 10
286.299019
 20
260.188542
 30
0.0
 11
286.299019
 21
260.849442
 31
0.0
  0
LINE
  5
1D3
330
1F
100
AcDbEntity
  8
LC-001-100-D00-0
 62
     7
370
    50
100
AcDbLine
 10
291.444729
 20
260.849442
 30
0.0
 11
291.444729
 21
260.188542
 31
0.0
  0
LINE
  5
1D4
330
1F
100
AcDbEntity
  8
LC-001-100-D00-0
 62
     7
370
    50
100
AcDbLine
 10
290.952324
 20
259.696137
 30
0.0
 11
290.18713
 21
259.696137
 31
0.0
  0
LINE
  5
1D5
330
1F
100
AcDbEntity
  8
LC-001-100-D00-0
 62
     7
370
    50
100
AcDbLine
 10
287.556617
 20
259.696137
 30
0.0
 11
286.791424
 21
259.696137
 31
0.0
  0
LINE
  5
1D6
330
1F
100
AcDbEntity
  8
LC-001-100-D00-0
 62
     7
370
    50
100
AcDbLine
 10
288.049019
 20
258.438542
 30
0.0
 11
288.049019
 21
259.203732
 31
0.0
  0
LINE
  5
1D7
330
1F
100
AcDbEntity
  8
LC-001-100-D00-0
 62
     7
370
    50
100
AcDbLine
 10
289.694729
 20
259.203732
 30
0.0
 11
289.694729
 21
258.438542
 31
0.0
  0
LINE
  5
1D8
330
1F
100
AcDbEntity
  8
LC-001-100-D00-0
 62
     7
370
    50
100
AcDbLine
 10
289.202324
 20
257.946137
 30
0.0
 11
288.541424
 21
257.946137
 31
0.0
  0
LINE
  5
1D9
330
1F
100
AcDbEntity
  8
LC-001-100-D00-0
 62
     7
370
    50
100
AcDbLine
 10
289.202324
 20
262.599442
 30
0.0
 11
289.202324
 21
263.091847
 31
0.0
  0
LINE
  5
1DA
330
1F
100
AcDbEntity
  8
LC-001-100-D00-0
 62
     7
370
    50
100
AcDbLine
 10
289.202324
 20
262.599442
 30
0.0
 11
289.694729
 21
262.599442
 31
0.0
  0
LINE
  5
1DB
330
1F
100
AcDbEntity
  8
LC-001-100-D00-0
 62
     7
370
    50
100
AcDbLine
 10
288.541424
 20
262.599442
 30
0.0
 11
288.049019
 21
262.599442
 31
0.0
  0
LINE
  5
1DC
330
1F
100
AcDbEntity
  8
LC-001-100-D00-0
 62
     7
370
    50
100
AcDbLine
 10
288.541424
 20
262.599442
 30
0.0
 11
288.541424
 21
263.091847
 31
0.0
  0
LINE
  5
1DD
330
1F
100
AcDbEntity
  8
LC-001-100-D00-0
 62
     7
370
    50
100
AcDbLine
 10
289.202324
 20
262.599442
 30
0.0
 11
288.541424
 21
262.599442
 31
0.0
  0
LINE
  5
1DE
330
1F
100
AcDbEntity
  8
LC-001-100-D00-0
 62
     7
370
    50
100
AcDbLine
 10
289.202324
 20
261.834249
 30
0.0
 11
289.202324
 21
262.599442
 31
0.0
  0
LINE
  5
1DF
330
1F
100
AcDbEntity
  8
LC-001-100-D00-0
 62
     7
370
    50
100
AcDbLine
 10
289.202324
 20
261.834249
 30
0.0
 11
289.694729
 21
261.834249
 31
0.0
  0
LINE
  5
1E0
330
1F
100
AcDbEntity
  8
LC-001-100-D00-0
 62
     7
370
    50
100
AcDbLine
 10
288.541424
 20
262.599442
 30
0.0
 11
288.541424
 21
261.834249
 31
0.0
  0
LINE
  5
1E1
330
1F
100
AcDbEntity
  8
LC-001-100-D00-0
 62
     7
370
    50
100
AcDbLine
 10
288.541424
 20
261.834249
 30
0.0
 11
288.049019
 21
261.834249
 31
0.0
  0
ELLIPSE
  5
1E2
330
1F
100
AcDbEntity
  8
LC-001-100-D00-0
 62
     7
370
    50
100
AcDbEllipse
 10
290.217751
 20
261.864868
 30
0.0
 11
-0.7287600456257303
 21
-0.7287600456257304
 31
0.0
210
0.0
220
0.0
230
1.0
 40
0.970288
 41
2.371273620688937
 42
3.911911686490877
  0
LINE
  5
1E3
330
1F
100
AcDbEntity
  8
LC-001-100-D00-0
 62
     7
370
    50
100
AcDbLine
 10
290.18713
 20
260.849442
 30
0.0
 11
290.18713
 21
261.341847
 31
0.0
  0
ELLIPSE
  5
1E4
330
1F
100
AcDbEntity
  8
LC-001-100-D00-0
 62
     7
370
    50
100
AcDbEllipse
 10
287.525997
 20
261.864868
 30
0.0
 11
0.7287600456431422
 21
-0.7287600456431419
 31
0.0
210
0.0
220
0.0
230
1.0
 40
0.970288
 41
5.512866274278681
 42
7.053504340080719
  0
LINE
  5
1E5
330
1F
100
AcDbEntity
  8
LC-001-100-D00-0
 62
     7
370
    50
100
AcDbLine
 10
287.556617
 20
261.341847
 30
0.0
 11
287.556617
 21
260.849442
 31
0.0
  0
LINE
  5
1E6
330
1F
100
AcDbEntity
  8
LC-001-100-D00-0
 62
     7
370
    50
100
AcDbLine
 10
290.952324
 20
260.849442
 30
0.0
 11
290.952324
 21
261.341847
 31
0.0
  0
LINE
  5
1E7
330
1F
100
AcDbEntity
  8
LC-001-100-D00-0
 62
     7
370
    50
100
AcDbLine
 10
290.952324
 20
260.849442
 30
0.0
 11
291.444729
 21
260.849442
 31
0.0
  0
LINE
  5
1E8
330
1F
100
AcDbEntity
  8
LC-001-100-D00-0
 62
     7
370
    50
100
AcDbLine
 10
290.952324
 20
260.849442
 30
0.0
 11
290.18713
 21
260.849442
 31
0.0
  0
LINE
  5
1E9
330
1F
100
AcDbEntity
  8
LC-001-100-D00-0
 62
     7
370
    50
100
AcDbLine
 10
286.791424
 20
261.341847
 30
0.0
 11
286.791424
 21
260.849442
 31
0.0
  0
LINE
  5
1EA
330
1F
100
AcDbEntity
  8
LC-001-100-D00-0
 62
     7
370
    50
100
AcDbLine
 10
286.299019
 20
260.849442
 30
0.0
 11
286.791424
 21
260.849442
 31
0.0
  0
LINE
  5
1EB
330
1F
100
AcDbEntity
  8
LC-001-100-D00-0
 62
     7
370
    50
100
AcDbLine
 10
287.556617
 20
260.849442
 30
0.0
 11
286.791424
 21
260.849442
 31
0.0
  0
LINE
  5
1EC
330
1F
100
AcDbEntity
  8
LC-001-100-D00-0
 62
     7
370
    50
100
AcDbLine
 10
290.18713
 20
260.188542
 30
0.0
 11
290.952324
 21
260.188542
 31
0.0
  0
LINE
  5
1ED
330
1F
100
AcDbEntity
  8
LC-001-100-D00-0
 62
     7
370
    50
100
AcDbLine
 10
290.952324
 20
260.188542
 30
0.0
 11
290.952324
 21
259.696137
 31
0.0
  0
LINE
  5
1EE
330
1F
100
AcDbEntity
  8
LC-001-100-D00-0
 62
     7
370
    50
100
AcDbLine
 10
290.18713
 20
260.188542
 30
0.0
 11
290.18713
 21
259.696137
 31
0.0
  0
ELLIPSE
  5
1EF
330
1F
100
AcDbEntity
  8
LC-001-100-D00-0
 62
     7
370
    50
100
AcDbEllipse
 10
290.217751
 20
259.173115
 30
0.0
 11
0.7287600455909804
 21
-0.7287600455909803
 31
0.0
210
0.0
220
0.0
230
1.0
 40
0.970288
 41
2.371273620688716
 42
3.911911686490531
  0
LINE
  5
1F0
330
1F
100
AcDbEntity
  8
LC-001-100-D00-0
 62
     7
370
    50
100
AcDbLine
 10
289.694729
 20
259.203732
 30
0.0
 11
289.202324
 21
259.203732
 31
0.0
  0
LINE
  5
1F1
330
1F
100
AcDbEntity
  8
LC-001-100-D00-0
 62
     7
370
    50
100
AcDbLine
 10
286.791424
 20
260.849442
 30
0.0
 11
286.791424
 21
260.188542
 31
0.0
  0
LINE
  5
1F2
330
1F
100
AcDbEntity
  8
LC-001-100-D00-0
 62
     7
370
    50
100
AcDbLine
 10
286.299019
 20
260.188542
 30
0.0
 11
286.791424
 21
260.188542
 31
0.0
  0
LINE
  5
1F3
330
1F
100
AcDbEntity
  8
LC-001-100-D00-0
 62
     7
370
    50
100
AcDbLine
 10
290.952324
 20
260.188542
 30
0.0
 11
290.952324
 21
260.849442
 31
0.0
  0
LINE
  5
1F4
330
1F
100
AcDbEntity
  8
LC-001-100-D00-0
 62
     7
370
    50
100
AcDbLine
 10
290.952324
 20
260.188542
 30
0.0
 11
291.444729
 21
260.188542
 31
0.0
  0
LINE
  5
1F5
330
1F
100
AcDbEntity
  8
LC-001-100-D00-0
 62
     7
370
    50
100
AcDbLine
 10
286.791424
 20
259.696137
 30
0.0
 11
286.791424
 21
260.188542
 31
0.0
  0
LINE
  5
1F6
330
1F
100
AcDbEntity
  8
LC-001-100-D00-0
 62
     7
370
    50
100
AcDbLine
 10
286.791424
 20
260.188542
 30
0.0
 11
287.556617
 21
260.188542
 31
0.0
  0
LINE
  5
1F7
330
1F
100
AcDbEntity
  8
LC-001-100-D00-0
 62
     7
370
    50
100
AcDbLine
 10
287.556617
 20
259.696137
 30
0.0
 11
287.556617
 21
260.188542
 31
0.0
  0
ELLIPSE
  5
1F8
330
1F
100
AcDbEntity
  8
LC-001-100-D00-0
 62
     7
370
    50
100
AcDbEllipse
 10
287.525997
 20
259.173115
 30
0.0
 11
-0.7287600455910169
 21
-0.728760045591017
 31
0.0
210
0.0
220
0.0
230
1.0
 40
0.970288
 41
5.512866274278665
 42
7.05350434008062
  0
LINE
  5
1F9
330
1F
100
AcDbEntity
  8
LC-001-100-D00-0
 62
     7
370
    50
100
AcDbLine
 10
288.049019
 20
259.203732
 30
0.0
 11
288.541424
 21
259.203732
 31
0.0
  0
LINE
  5
1FA
330
1F
100
AcDbEntity
  8
LC-001-100-D00-0
 62
     7
370
    50
100
AcDbLine
 10
289.694729
 20
258.438542
 30
0.0
 11
289.202324
 21
258.438542
 31
0.0
  0
LINE
  5
1FB
330
1F
100
AcDbEntity
  8
LC-001-100-D00-0
 62
     7
370
    50
100
AcDbLine
 10
289.202324
 20
258.438542
 30
0.0
 11
289.202324
 21
259.203732
 31
0.0
  0
LINE
  5
1FC
330
1F
100
AcDbEntity
  8
LC-001-100-D00-0
 62
     7
370
    50
100
AcDbLine
 10
288.541424
 20
259.203732
 30
0.0
 11
288.541424
 21
258.438542
 31
0.0
  0
LINE
  5
1FD
330
1F
100
AcDbEntity
  8
LC-001-100-D00-0
 62
     7
370
    50
100
AcDbLine
 10
288.049019
 20
258.438542
 30
0.0
 11
288.541424
 21
258.438542
 31
0.0
  0
LINE
  5
1FE
330
1F
100
AcDbEntity
  8
LC-001-100-D00-0
 62
     7
370
    50
100
AcDbLine
 10
289.202324
 20
257.946137
 30
0.0
 11
289.202324
 21
258.438542
 31
0.0
  0
LINE
  5
1FF
330
1F
100
AcDbEntity
  8
LC-001-100-D00-0
 62
     7
370
    50
100
AcDbLine
 10
288.541424
 20
257.946137
 30
0.0
 11
288.541424
 21
258.438542
 31
0.0
  0
LINE
  5
200
330
1F
100
AcDbEntity
  8
LC-001-100-D00-0
 62
     7
370
    50
100
AcDbLine
 10
288.541424
 20
258.438542
 30
0.0
 11
289.202324
 21
258.438542
 31
0.0
  0
ARC
  5
201
330
1F
100
AcDbEntity
  8
LC-001-100-D00-0
 62
     7
370
    50
100
AcDbCircle
 10
281.375071
 20
268.040992
 30
0.0
 40
3.000000000000057
100
AcDbArc
 50
90.0
 51
180.0
  0
ARC
  5
202
330
1F
100
AcDbEntity
  8
LC-001-100-D00-0
 62
     7
370
    50
100
AcDbCircle
 10
281.375071
 20
268.040992
 30
0.0
 40
7.500000000000114
100
AcDbArc
 50
90.0
 51
180.0
  0
ARC
  5
203
330
1F
100
AcDbEntity
  8
LC-001-100-D00-0
 62
     7
370
    50
100
AcDbCircle
 10
414.375071
 20
268.040992
 30
0.0
 40
3.0
100
AcDbArc
 50
0.0
 51
90.0
  0
ARC
  5
204
330
1F
100
AcDbEntity
  8
LC-001-100-D00-0
 62
     7
370
    50
100
AcDbCircle
 10
414.375071
 20
268.040992
 30
0.0
 40
7.500000000000114
100
AcDbArc
 50
0.0
 51
90.0
  0
LINE
  5
205
330
1F
100
AcDbEntity
  8
LC-001-100-D00-0
 62
     7
370
    50
100
AcDbLine
 10
414.375073
 20
271.040991
 30
0.0
 11
281.375072
 21
271.040991
 31
0.0
  0
LINE
  5
206
330
1F
100
AcDbEntity
  8
LC-001-100-D00-0
 62
     7
370
    50
100
AcDbLine
 10
414.375073
 20
275.540993
 30
0.0
 11
281.375072
 21
275.540993
 31
0.0
  0
LINE
  5
207
330
1F
100
AcDbEntity
  8
LC-001-100-D00-0
 62
     7
370
    50
100
AcDbLine
 10
417.375072
 20
135.040991
 30
0.0
 11
417.375072
 21
268.040992
 31
0.0
  0
LINE
  5
208
330
1F
100
AcDbEntity
  8
LC-001-100-D00-0
 62
     7
370
    50
100
AcDbLine
 10
421.875073
 20
135.040991
 30
0.0
 11
421.875073
 21
268.040992
 31
0.0
  0
LINE
  5
209
330
1F
100
AcDbEntity
  8
LC-001-100-D00-0
 62
     7
370
    50
100
AcDbLine
 10
273.875071
 20
135.040991
 30
0.0
 11
273.875071
 21
268.040992
 31
0.0
  0
LINE
  5
20A
330
1F
100
AcDbEntity
  8
LC-001-100-D00-0
 62
     7
370
    50
100
AcDbLine
 10
278.375073
 20
135.040991
 30
0.0
 11
278.375073
 21
268.040992
 31
0.0
  0
ARC
  5
20B
330
1F
100
AcDbEntity
  8
LC-001-100-D00-0
 62
     7
370
    50
100
AcDbCircle
 10
281.375071
 20
135.040992
 30
0.0
 40
3.0
100
AcDbArc
 50
180.0
 51
270.0
  0
ARC
  5
20C
330
1F
100
AcDbEntity
  8
LC-001-100-D00-0
 62
     7
370
    50
100
AcDbCircle
 10
281.375071
 20
135.040992
 30
0.0
 40
7.5
100
AcDbArc
 50
180.0
 51
270.0
  0
ARC
  5
20D
330
1F
100
AcDbEntity
  8
LC-001-100-D00-0
 62
     7
370
    50
100
AcDbCircle
 10
414.375071
 20
135.040992
 30
0.0
 40
3.000000000000057
100
AcDbArc
 50
270.0
 51
0.0
  0
ARC
  5
20E
330
1F
100
AcDbEntity
  8
LC-001-100-D00-0
 62
     7
370
    50
100
AcDbCircle
 10
414.375071
 20
135.040992
 30
0.0
 40
7.500000000000057
100
AcDbArc
 50
270.0
 51
0.0
  0
LINE
  5
20F
330
1F
100
AcDbEntity
  8
LC-001-100-D00-0
 62
     7
370
    50
100
AcDbLine
 10
281.375072
 20
132.040992
 30
0.0
 11
414.375073
 21
132.040992
 31
0.0
  0
LINE
  5
210
330
1F
100
AcDbEntity
  8
LC-001-100-D00-0
 62
     7
370
    50
100
AcDbLine
 10
281.375072
 20
127.540991
 30
0.0
 11
414.375073
 21
127.540991
 31
0.0
  0
INSERT
  5
222
330
1F
100
AcDbEntity
  8
LC-001-100-D00-0
 62
     7
370
    50
100
AcDbBlockReference
  2
POLY1
 10
0.0
 20
0.0
 30
0.0
  0
INSERT
  5
234
330
1F
100
AcDbEntity
  8
LC-001-100-D00-0
 62
     7
370
    50
100
AcDbBlockReference
  2
POLY2
 10
0.0
 20
0.0
 30
0.0
  0
INSERT
  5
246
330
1F
100
AcDbEntity
  8
LC-001-100-D00-0
 62
     7
370
    50
100
AcDbBlockReference
  2
POLY3
 10
0.0
 20
0.0
 30
0.0
  0
INSERT
  5
258
330
1F
100
AcDbEntity
  8
LC-001-100-D00-0
 62
     7
370
    50
100
AcDbBlockReference
  2
POLY4
 10
0.0
 20
0.0
 30
0.0
  0
INSERT
  5
26A
330
1F
100
AcDbEntity
  8
LC-001-100-D00-0
 62
     7
370
    50
100
AcDbBlockReference
  2
POLY5
 10
0.0
 20
0.0
 30
0.0
  0
INSERT
  5
27C
330
1F
100
AcDbEntity
  8
LC-001-100-D00-0
 62
     7
370
    50
100
AcDbBlockReference
  2
POLY6
 10
0.0
 20
0.0
 30
0.0
  0
INSERT
  5
28E
330
1F
100
AcDbEntity
  8
LC-001-100-D00-0
 62
     7
370
    50
100
AcDbBlockReference
  2
POLY7
 10
0.0
 20
0.0
 30
0.0
  0
INSERT
  5
2A0
330
1F
100
AcDbEntity
  8
LC-001-100-D00-0
 62
     7
370
    50
100
AcDbBlockReference
  2
POLY8
 10
0.0
 20
0.0
 30
0.0
  0
INSERT
  5
2B2
330
1F
100
AcDbEntity
  8
LC-001-100-D00-0
 62
     7
370
    50
100
AcDbBlockReference
  2
POLY9
 10
0.0
 20
0.0
 30
0.0
  0
INSERT
  5
2C4
330
1F
100
AcDbEntity
  8
LC-001-100-D00-0
 62
     7
370
    50
100
AcDbBlockReference
  2
POLY10
 10
0.0
 20
0.0
 30
0.0
  0
INSERT
  5
2D6
330
1F
100
AcDbEntity
  8
LC-001-100-D00-0
 62
     7
370
    50
100
AcDbBlockReference
  2
POLY11
 10
0.0
 20
0.0
 30
0.0
  0
INSERT
  5
2E8
330
1F
100
AcDbEntity
  8
LC-001-100-D00-0
 62
     7
370
    50
100
AcDbBlockReference
  2
POLY12
 10
0.0
 20
0.0
 30
0.0
  0
INSERT
  5
2FA
330
1F
100
AcDbEntity
  8
LC-001-100-D00-0
 62
     7
370
    50
100
AcDbBlockReference
  2
POLY13
 10
0.0
 20
0.0
 30
0.0
  0
INSERT
  5
30C
330
1F
100
AcDbEntity
  8
LC-001-100-D00-0
 62
     7
370
    50
100
AcDbBlockReference
  2
POLY14
 10
0.0
 20
0.0
 30
0.0
  0
INSERT
  5
31E
330
1F
100
AcDbEntity
  8
LC-001-100-D00-0
 62
     7
370
    50
100
AcDbBlockReference
  2
POLY15
 10
0.0
 20
0.0
 30
0.0
  0
INSERT
  5
330
330
1F
100
AcDbEntity
  8
LC-001-100-D00-0
 62
     7
370
    50
100
AcDbBlockReference
  2
POLY16
 10
0.0
 20
0.0
 30
0.0
  0
LINE
  5
331
330
1F
100
AcDbEntity
  8
LC-001-100-D00-0
 62
     7
370
    50
100
AcDbLine
 10
394.37507
 20
276.540995
 30
0.0
 11
381.375073
 21
276.540995
 31
0.0
  0
ARC
  5
332
330
1F
100
AcDbEntity
  8
LC-001-100-D00-0
 62
     7
370
    50
100
AcDbCircle
 10
394.375071
 20
275.540992
 30
0.0
 40
1.00000000000011
100
AcDbArc
 50
30.0
 51
90.0
  0
ARC
  5
333
330
1F
100
AcDbEntity
  8
LC-001-100-D00-0
 62
     7
370
    50
100
AcDbCircle
 10
381.375071
 20
275.540992
 30
0.0
 40
1.0
100
AcDbArc
 50
90.0
 51
150.0
  0
LINE
  5
334
330
1F
100
AcDbEntity
  8
LC-001-100-D00-0
 62
     7
370
    50
100
AcDbLine
 10
301.375071
 20
276.540995
 30
0.0
 11
314.375072
 21
276.540995
 31
0.0
  0
ARC
  5
335
330
1F
100
AcDbEntity
  8
LC-001-100-D00-0
 62
     7
370
    50
100
AcDbCircle
 10
314.375071
 20
275.540992
 30
0.0
 40
1.00000000000011
100
AcDbArc
 50
30.0
 51
90.0
  0
ARC
  5
336
330
1F
100
AcDbEntity
  8
LC-001-100-D00-0
 62
     7
370
    50
100
AcDbCircle
 10
301.375071
 20
275.540992
 30
0.0
 40
1.0
100
AcDbArc
 50
90.0
 51
150.0
  0
LINE
  5
337
330
1F
100
AcDbEntity
  8
LC-001-100-D00-0
 62
     7
370
    50
100
AcDbLine
 10
272.875069
 20
248.040993
 30
0.0
 11
272.875069
 21
235.040992
 31
0.0
  0
ARC
  5
338
330
1F
100
AcDbEntity
  8
LC-001-100-D00-0
 62
     7
370
    50
100
AcDbCircle
 10
273.875071
 20
248.040992
 30
0.0
 40
0.9999999999999836
100
AcDbArc
 50
120.0
 51
180.0
  0
ARC
  5
339
330
1F
100
AcDbEntity
  8
LC-001-100-D00-0
 62
     7
370
    50
100
AcDbCircle
 10
273.875071
 20
235.040992
 30
0.0
 40
1.000000000000057
100
AcDbArc
 50
180.0
 51
240.0
  0
LINE
  5
33A
330
1F
100
AcDbEntity
  8
LC-001-100-D00-0
 62
     7
370
    50
100
AcDbLine
 10
422.875068
 20
248.040993
 30
0.0
 11
422.875068
 21
235.040992
 31
0.0
  0
ARC
  5
33B
330
1F
100
AcDbEntity
  8
LC-001-100-D00-0
 62
     7
370
    50
100
AcDbCircle
 10
421.875071
 20
235.040992
 30
0.0
 40
0.9999999999999344
100
AcDbArc
 50
300.0
 51
0.0
  0
ARC
  5
33C
330
1F
100
AcDbEntity
  8
LC-001-100-D00-0
 62
     7
370
    50
100
AcDbCircle
 10
421.875071
 20
248.040992
 30
0.0
 40
1.0
100
AcDbArc
 50
0.0
 51
60.0
  0
LINE
  5
33D
330
1F
100
AcDbEntity
  8
LC-001-100-D00-0
 62
     7
370
    50
100
AcDbLine
 10
422.875068
 20
155.04099
 30
0.0
 11
422.875068
 21
168.040991
 31
0.0
  0
ARC
  5
33E
330
1F
100
AcDbEntity
  8
LC-001-100-D00-0
 62
     7
370
    50
100
AcDbCircle
 10
421.875071
 20
155.040992
 30
0.0
 40
0.9999999999999344
100
AcDbArc
 50
300.0
 51
0.0
  0
ARC
  5
33F
330
1F
100
AcDbEntity
  8
LC-001-100-D00-0
 62
     7
370
    50
100
AcDbCircle
 10
421.875071
 20
168.040992
 30
0.0
 40
1.0
100
AcDbArc
 50
0.0
 51
60.0
  0
LINE
  5
340
330
1F
100
AcDbEntity
  8
LC-001-100-D00-0
 62
     7
370
    50
100
AcDbLine
 10
272.875069
 20
155.04099
 30
0.0
 11
272.875069
 21
168.040991
 31
0.0
  0
ARC
  5
341
330
1F
100
AcDbEntity
  8
LC-001-100-D00-0
 62
     7
370
    50
100
AcDbCircle
 10
273.875071
 20
168.040992
 30
0.0
 40
0.9999999999999836
100
AcDbArc
 50
120.0
 51
180.0
  0
ARC
  5
342
330
1F
100
AcDbEntity
  8
LC-001-100-D00-0
 62
     7
370
    50
100
AcDbCircle
 10
273.875071
 20
155.040992
 30
0.0
 40
1.000000000000057
100
AcDbArc
 50
180.0
 51
240.0
  0
LINE
  5
343
330
1F
100
AcDbEntity
  8
LC-001-100-D00-0
 62
     7
370
    50
100
AcDbLine
 10
301.375071
 20
126.540989
 30
0.0
 11
314.375072
 21
126.540989
 31
0.0
  0
ARC
  5
344
330
1F
100
AcDbEntity
  8
LC-001-100-D00-0
 62
     7
370
    50
100
AcDbCircle
 10
301.375071
 20
127.540992
 30
0.0
 40
1.000000000000033
100
AcDbArc
 50
210.0
 51
270.0
  0
ARC
  5
345
330
1F
100
AcDbEntity
  8
LC-001-100-D00-0
 62
     7
370
    50
100
AcDbCircle
 10
314.375071
 20
127.540992
 30
0.0
 40
1.000000000000057
100
AcDbArc
 50
270.0
 51
330.0
  0
LINE
  5
346
330
1F
100
AcDbEntity
  8
LC-001-100-D00-0
 62
     7
370
    50
100
AcDbLine
 10
394.37507
 20
126.540989
 30
0.0
 11
381.375073
 21
126.540989
 31
0.0
  0
ARC
  5
347
330
1F
100
AcDbEntity
  8
LC-001-100-D00-0
 62
     7
370
    50
100
AcDbCircle
 10
381.375071
 20
127.540992
 30
0.0
 40
0.9999999999999836
100
AcDbArc
 50
210.0
 51
270.0
  0
ARC
  5
348
330
1F
100
AcDbEntity
  8
LC-001-100-D00-0
 62
     7
370
    50
100
AcDbCircle
 10
394.375071
 20
127.540992
 30
0.0
 40
1.000000000000057
100
AcDbArc
 50
270.0
 51
330.0
  0
ARC
  5
349
330
1F
100
AcDbEntity
  8
LC-001-100-D00-0
 62
     7
370
    50
100
AcDbCircle
 10
281.375071
 20
268.040992
 30
0.0
 40
2.500000000000114
100
AcDbArc
 50
90.0
 51
180.0
  0
ARC
  5
34A
330
1F
100
AcDbEntity
  8
LC-001-100-D00-0
 62
     7
370
    50
100
AcDbCircle
 10
414.375071
 20
268.040992
 30
0.0
 40
2.500000000000114
100
AcDbArc
 50
0.0
 51
90.0
  0
INSERT
  5
35A
330
1F
100
AcDbEntity
  8
LC-001-100-D00-0
 62
     7
370
    50
100
AcDbBlockReference
  2
POLY17
 10
0.0
 20
0.0
 30
0.0
  0
ARC
  5
35B
330
1F
100
AcDbEntity
  8
LC-001-100-D00-0
 62
     7
370
    50
100
AcDbCircle
 10
414.375071
 20
135.040992
 30
0.0
 40
2.5
100
AcDbArc
 50
270.0
 51
0.0
  0
ARC
  5
35C
330
1F
100
AcDbEntity
  8
LC-001-100-D00-0
 62
     7
370
    50
100
AcDbCircle
 10
281.375071
 20
135.040992
 30
0.0
 40
2.5
100
AcDbArc
 50
180.0
 51
270.0
  0
ARC
  5
35D
330
1F
100
AcDbEntity
  8
LC-001-100-D00-0
 62
     7
370
    50
100
AcDbCircle
 10
339.875071
 20
201.540992
 30
0.0
 40
60.49999999999999
100
AcDbArc
 50
217.496697
 51
222.652658
  0
ARC
  5
35E
330
1F
100
AcDbEntity
  8
LC-001-100-D00-0
 62
     7
370
    50
100
AcDbCircle
 10
339.875071
 20
201.540992
 30
0.0
 40
60.49999999999997
100
AcDbArc
 50
237.238355
 51
247.762007
  0
ARC
  5
35F
330
1F
100
AcDbEntity
  8
LC-001-100-D00-0
 62
     7
370
    50
100
AcDbCircle
 10
339.875071
 20
201.540992
 30
0.0
 40
60.5
100
AcDbArc
 50
292.237993
 51
306.711767
  0
ARC
  5
360
330
1F
100
AcDbEntity
  8
LC-001-100-D00-0
 62
     7
370
    50
100
AcDbCircle
 10
339.875071
 20
201.540992
 30
0.0
 40
60.5000000000001
100
AcDbArc
 50
339.048637
 51
20.951363
  0
ARC
  5
361
330
1F
100
AcDbEntity
  8
LC-001-100-D00-0
 62
     7
370
    50
100
AcDbCircle
 10
339.875071
 20
201.540992
 30
0.0
 40
60.50000000000006
100
AcDbArc
 50
53.288233
 51
67.762007
  0
ARC
  5
362
330
1F
100
AcDbEntity
  8
LC-001-100-D00-0
 62
     7
370
    50
100
AcDbCircle
 10
339.875071
 20
201.540992
 30
0.0
 40
60.50000000000005
100
AcDbArc
 50
112.237993
 51
122.761645
  0
ARC
  5
363
330
1F
100
AcDbEntity
  8
LC-001-100-D00-0
 62
     7
370
    50
100
AcDbCircle
 10
339.875071
 20
201.540992
 30
0.0
 40
60.49999999999998
100
AcDbArc
 50
137.347342
 51
142.503303
  0
INSERT
  5
369
330
1F
100
AcDbEntity
  8
LC-001-100-D00-0
 62
     7
370
    50
100
AcDbBlockReference
  2
KLON1
 10
0.0
 20
0.0
 30
0.0
  0
ARC
  5
36A
330
1F
100
AcDbEntity
  8
LC-001-100-D00-0
 62
     7
370
    50
100
AcDbCircle
 10
339.875071
 20
201.540992
 30
0.0
 40
63.50000000000014
100
AcDbArc
 50
49.798535
 51
61.871172
  0
ARC
  5
36B
330
1F
100
AcDbEntity
  8
LC-001-100-D00-0
 62
     7
370
    50
100
AcDbCircle
 10
339.875071
 20
201.540992
 30
0.0
 40
63.49999999999995
100
AcDbArc
 50
332.843579
 51
27.156421
  0
ARC
  5
36C
330
1F
100
AcDbEntity
  8
LC-001-100-D00-0
 62
     7
370
    50
100
AcDbCircle
 10
339.875071
 20
201.540992
 30
0.0
 40
63.50000000000006
100
AcDbArc
 50
298.128828
 51
310.201465
  0
INSERT
  5
372
330
1F
100
AcDbEntity
  8
LC-001-100-D00-0
 62
     7
370
    50
100
AcDbBlockReference
  2
KLON2
 10
0.0
 20
0.0
 30
0.0
  0
ARC
  5
373
330
1F
100
AcDbEntity
  8
LC-001-100-D00-0
 62
     7
370
    50
100
AcDbCircle
 10
173.475074
 20
269.790994
 30
0.0
 40
0.400000000000091
100
AcDbArc
 50
270.0
 51
0.0
  0
LINE
  5
374
330
1F
100
AcDbEntity
  8
LC-001-100-D00-0
 62
     7
370
    50
100
AcDbLine
 10
40.375074
 20
276.290994
 30
0.0
 11
35.125074
 21
276.290994
 31
0.0
  0
LINE
  5
375
330
1F
100
AcDbEntity
  8
LC-001-100-D00-0
 62
     7
370
    50
100
AcDbLine
 10
178.625075
 20
276.290994
 30
0.0
 11
173.375075
 21
276.290994
 31
0.0
  0
LINE
  5
376
330
1F
100
AcDbEntity
  8
LC-001-100-D00-0
 62
     7
370
    50
100
AcDbLine
 10
173.375075
 20
276.290994
 30
0.0
 11
40.375074
 21
276.290994
 31
0.0
  0
LINE
  5
377
330
1F
100
AcDbEntity
  8
LC-001-100-D00-0
 62
     7
370
    50
100
AcDbLine
 10
170.87507
 20
268.460994
 30
0.0
 11
170.87507
 21
269.390994
 31
0.0
  0
LINE
  5
378
330
1F
100
AcDbEntity
  8
LC-001-100-D00-0
 62
     7
370
    50
100
AcDbLine
 10
91.375074
 20
270.790994
 30
0.0
 11
91.375074
 21
275.790994
 31
0.0
  0
LINE
  5
379
330
1F
100
AcDbEntity
  8
LC-001-100-D00-0
 62
     7
370
    50
100
AcDbLine
 10
122.375074
 20
275.790994
 30
0.0
 11
122.375074
 21
270.790994
 31
0.0
  0
LINE
  5
37A
330
1F
100
AcDbEntity
  8
LC-001-100-D00-0
 62
     7
370
    50
100
AcDbLine
 10
122.375074
 20
275.790994
 30
0.0
 11
110.76406
 21
275.790994
 31
0.0
  0
LINE
  5
37B
330
1F
100
AcDbEntity
  8
LC-001-100-D00-0
 62
     7
370
    50
100
AcDbLine
 10
108.735028
 20
275.790994
 30
0.0
 11
106.311454
 21
275.790994
 31
0.0
  0
LINE
  5
37C
330
1F
100
AcDbEntity
  8
LC-001-100-D00-0
 62
     7
370
    50
100
AcDbLine
 10
102.986088
 20
275.790994
 30
0.0
 11
91.375074
 21
275.790994
 31
0.0
  0
LINE
  5
37D
330
1F
100
AcDbEntity
  8
LC-001-100-D00-0
 62
     7
370
    50
100
AcDbLine
 10
122.375074
 20
270.790994
 30
0.0
 11
91.375074
 21
270.790994
 31
0.0
  0
LINE
  5
37E
330
1F
100
AcDbEntity
  8
LC-001-100-D00-0
 62
     7
370
    50
100
AcDbLine
 10
162.875073
 20
270.790994
 30
0.0
 11
162.875073
 21
275.790994
 31
0.0
  0
ARC
  5
37F
330
1F
100
AcDbEntity
  8
LC-001-100-D00-0
 62
     7
370
    50
100
AcDbCircle
 10
174.875074
 20
274.790994
 30
0.0
 40
1.0
100
AcDbArc
 50
0.0
 51
90.0
  0
LINE
  5
380
330
1F
100
AcDbEntity
  8
LC-001-100-D00-0
 62
     7
370
    50
100
AcDbLine
 10
175.875073
 20
274.790994
 30
0.0
 11
175.875073
 21
270.790994
 31
0.0
  0
LINE
  5
381
330
1F
100
AcDbEntity
  8
LC-001-100-D00-0
 62
     7
370
    50
100
AcDbLine
 10
174.875071
 20
275.790994
 30
0.0
 11
162.875073
 21
275.790994
 31
0.0
  0
LINE
  5
382
330
1F
100
AcDbEntity
  8
LC-001-100-D00-0
 62
     7
370
    50
100
AcDbLine
 10
175.875073
 20
270.790994
 30
0.0
 11
162.875073
 21
270.790994
 31
0.0
  0
ARC
  5
383
330
1F
100
AcDbEntity
  8
LC-001-100-D00-0
 62
     7
370
    50
100
AcDbCircle
 10
38.875074
 20
274.790994
 30
0.0
 40
1.0
100
AcDbArc
 50
90.0
 51
180.0
  0
LINE
  5
384
330
1F
100
AcDbEntity
  8
LC-001-100-D00-0
 62
     7
370
    50
100
AcDbLine
 10
50.875073
 20
275.790994
 30
0.0
 11
50.875073
 21
270.790994
 31
0.0
  0
LINE
  5
385
330
1F
100
AcDbEntity
  8
LC-001-100-D00-0
 62
     7
370
    50
100
AcDbLine
 10
37.875076
 20
270.790994
 30
0.0
 11
37.875076
 21
274.790994
 31
0.0
  0
LINE
  5
386
330
1F
100
AcDbEntity
  8
LC-001-100-D00-0
 62
     7
370
    50
100
AcDbLine
 10
50.875073
 20
275.790994
 30
0.0
 11
38.875071
 21
275.790994
 31
0.0
  0
LINE
  5
387
330
1F
100
AcDbEntity
  8
LC-001-100-D00-0
 62
     7
370
    50
100
AcDbLine
 10
50.875073
 20
270.790994
 30
0.0
 11
37.875076
 21
270.790994
 31
0.0
  0
LINE
  5
388
330
1F
100
AcDbEntity
  8
LC-001-100-D00-0
 62
     7
370
    50
100
AcDbLine
 10
58.375073
 20
270.790994
 30
0.0
 11
58.375073
 21
275.790994
 31
0.0
  0
LINE
  5
389
330
1F
100
AcDbEntity
  8
LC-001-100-D00-0
 62
     7
370
    50
100
AcDbLine
 10
67.375073
 20
275.790994
 30
0.0
 11
67.375073
 21
270.790994
 31
0.0
  0
LINE
  5
38A
330
1F
100
AcDbEntity
  8
LC-001-100-D00-0
 62
     7
370
    50
100
AcDbLine
 10
67.375073
 20
275.790994
 30
0.0
 11
58.375073
 21
275.790994
 31
0.0
  0
LINE
  5
38B
330
1F
100
AcDbEntity
  8
LC-001-100-D00-0
 62
     7
370
    50
100
AcDbLine
 10
67.375073
 20
270.790994
 30
0.0
 11
58.375073
 21
270.790994
 31
0.0
  0
LINE
  5
38C
330
1F
100
AcDbEntity
  8
LC-001-100-D00-0
 62
     7
370
    50
100
AcDbLine
 10
74.875073
 20
270.790994
 30
0.0
 11
74.875073
 21
275.790994
 31
0.0
  0
LINE
  5
38D
330
1F
100
AcDbEntity
  8
LC-001-100-D00-0
 62
     7
370
    50
100
AcDbLine
 10
83.875073
 20
275.790994
 30
0.0
 11
83.875073
 21
270.790994
 31
0.0
  0
LINE
  5
38E
330
1F
100
AcDbEntity
  8
LC-001-100-D00-0
 62
     7
370
    50
100
AcDbLine
 10
83.875073
 20
275.790994
 30
0.0
 11
74.875073
 21
275.790994
 31
0.0
  0
LINE
  5
38F
330
1F
100
AcDbEntity
  8
LC-001-100-D00-0
 62
     7
370
    50
100
AcDbLine
 10
83.875073
 20
270.790994
 30
0.0
 11
74.875073
 21
270.790994
 31
0.0
  0
LINE
  5
390
330
1F
100
AcDbEntity
  8
LC-001-100-D00-0
 62
     7
370
    50
100
AcDbLine
 10
155.375072
 20
275.790994
 30
0.0
 11
155.375072
 21
270.790994
 31
0.0
  0
LINE
  5
391
330
1F
100
AcDbEntity
  8
LC-001-100-D00-0
 62
     7
370
    50
100
AcDbLine
 10
146.375073
 20
270.790994
 30
0.0
 11
146.375073
 21
275.790994
 31
0.0
  0
LINE
  5
392
330
1F
100
AcDbEntity
  8
LC-001-100-D00-0
 62
     7
370
    50
100
AcDbLine
 10
155.375072
 20
275.790994
 30
0.0
 11
146.375073
 21
275.790994
 31
0.0
  0
LINE
  5
393
330
1F
100
AcDbEntity
  8
LC-001-100-D00-0
 62
     7
370
    50
100
AcDbLine
 10
155.375072
 20
270.790994
 30
0.0
 11
146.375073
 21
270.790994
 31
0.0
  0
LINE
  5
394
330
1F
100
AcDbEntity
  8
LC-001-100-D00-0
 62
     7
370
    50
100
AcDbLine
 10
138.875072
 20
275.790994
 30
0.0
 11
138.875072
 21
270.790994
 31
0.0
  0
LINE
  5
395
330
1F
100
AcDbEntity
  8
LC-001-100-D00-0
 62
     7
370
    50
100
AcDbLine
 10
129.875073
 20
270.790994
 30
0.0
 11
129.875073
 21
275.790994
 31
0.0
  0
LINE
  5
396
330
1F
100
AcDbEntity
  8
LC-001-100-D00-0
 62
     7
370
    50
100
AcDbLine
 10
138.875072
 20
275.790994
 30
0.0
 11
129.875073
 21
275.790994
 31
0.0
  0
LINE
  5
397
330
1F
100
AcDbEntity
  8
LC-001-100-D00-0
 62
     7
370
    50
100
AcDbLine
 10
138.875072
 20
270.790994
 30
0.0
 11
129.875073
 21
270.790994
 31
0.0
  0
LINE
  5
398
330
1F
100
AcDbEntity
  8
LC-001-100-D00-0
 62
     7
370
    50
100
AcDbLine
 10
110.76406
 20
275.790994
 30
0.0
 11
108.735028
 21
275.790994
 31
0.0
  0
LINE
  5
399
330
1F
100
AcDbEntity
  8
LC-001-100-D00-0
 62
     7
370
    50
100
AcDbLine
 10
104.536046
 20
275.790994
 30
0.0
 11
104.761494
 21
275.790994
 31
0.0
  0
LINE
  5
39A
330
1F
100
AcDbEntity
  8
LC-001-100-D00-0
 62
     7
370
    50
100
AcDbLine
 10
104.761494
 20
275.790994
 30
0.0
 11
106.311454
 21
275.790994
 31
0.0
  0
LINE
  5
39B
330
1F
100
AcDbEntity
  8
LC-001-100-D00-0
 62
     7
370
    50
100
AcDbLine
 10
104.536046
 20
275.790994
 30
0.0
 11
104.028788
 21
275.790994
 31
0.0
  0
LINE
  5
39C
330
1F
100
AcDbEntity
  8
LC-001-100-D00-0
 62
     7
370
    50
100
AcDbLine
 10
103.982096
 20
275.790994
 30
0.0
 11
104.028788
 21
275.790994
 31
0.0
  0
LINE
  5
39D
330
1F
100
AcDbEntity
  8
LC-001-100-D00-0
 62
     7
370
    50
100
AcDbLine
 10
102.986088
 20
275.790994
 30
0.0
 11
103.982096
 21
275.790994
 31
0.0
  0
LINE
  5
39E
330
1F
100
AcDbEntity
  8
LC-001-100-D00-0
 62
     7
370
    50
100
AcDbLine
 10
91.375074
 20
275.790994
 30
0.0
 11
83.875073
 21
275.790994
 31
0.0
  0
LINE
  5
39F
330
1F
100
AcDbEntity
  8
LC-001-100-D00-0
 62
     7
370
    50
100
AcDbLine
 10
83.875073
 20
270.790994
 30
0.0
 11
91.375074
 21
270.790994
 31
0.0
  0
LINE
  5
3A0
330
1F
100
AcDbEntity
  8
LC-001-100-D00-0
 62
     7
370
    50
100
AcDbLine
 10
129.875073
 20
275.790994
 30
0.0
 11
122.375074
 21
275.790994
 31
0.0
  0
LINE
  5
3A1
330
1F
100
AcDbEntity
  8
LC-001-100-D00-0
 62
     7
370
    50
100
AcDbLine
 10
122.375074
 20
270.790994
 30
0.0
 11
129.875073
 21
270.790994
 31
0.0
  0
LINE
  5
3A2
330
1F
100
AcDbEntity
  8
LC-001-100-D00-0
 62
     7
370
    50
100
AcDbLine
 10
74.875073
 20
275.790994
 30
0.0
 11
67.375073
 21
275.790994
 31
0.0
  0
LINE
  5
3A3
330
1F
100
AcDbEntity
  8
LC-001-100-D00-0
 62
     7
370
    50
100
AcDbLine
 10
67.375073
 20
270.790994
 30
0.0
 11
74.875073
 21
270.790994
 31
0.0
  0
LINE
  5
3A4
330
1F
100
AcDbEntity
  8
LC-001-100-D00-0
 62
     7
370
    50
100
AcDbLine
 10
146.375073
 20
275.790994
 30
0.0
 11
138.875072
 21
275.790994
 31
0.0
  0
LINE
  5
3A5
330
1F
100
AcDbEntity
  8
LC-001-100-D00-0
 62
     7
370
    50
100
AcDbLine
 10
138.875072
 20
270.790994
 30
0.0
 11
146.375073
 21
270.790994
 31
0.0
  0
LINE
  5
3A6
330
1F
100
AcDbEntity
  8
LC-001-100-D00-0
 62
     7
370
    50
100
AcDbLine
 10
58.375073
 20
275.790994
 30
0.0
 11
50.875073
 21
275.790994
 31
0.0
  0
LINE
  5
3A7
330
1F
100
AcDbEntity
  8
LC-001-100-D00-0
 62
     7
370
    50
100
AcDbLine
 10
50.875073
 20
270.790994
 30
0.0
 11
58.375073
 21
270.790994
 31
0.0
  0
LINE
  5
3A8
330
1F
100
AcDbEntity
  8
LC-001-100-D00-0
 62
     7
370
    50
100
AcDbLine
 10
162.875073
 20
275.790994
 30
0.0
 11
155.375072
 21
275.790994
 31
0.0
  0
LINE
  5
3A9
330
1F
100
AcDbEntity
  8
LC-001-100-D00-0
 62
     7
370
    50
100
AcDbLine
 10
159.375073
 20
267.790994
 30
0.0
 11
40.756961
 21
267.790994
 31
0.0
  0
LINE
  5
3AA
330
1F
100
AcDbEntity
  8
LC-001-100-D00-0
 62
     7
370
    50
100
AcDbLine
 10
159.375073
 20
265.090994
 30
0.0
 11
159.375073
 21
267.790994
 31
0.0
  0
LINE
  5
3AB
330
1F
100
AcDbEntity
  8
LC-001-100-D00-0
 62
     7
370
    50
100
AcDbLine
 10
159.375073
 20
262.790994
 30
0.0
 11
159.375073
 21
264.012689
 31
0.0
  0
LINE
  5
3AC
330
1F
100
AcDbEntity
  8
LC-001-100-D00-0
 62
     7
370
    50
100
AcDbLine
 10
38.37507
 20
264.012689
 30
0.0
 11
38.37507
 21
262.790994
 31
0.0
  0
LINE
  5
3AD
330
1F
100
AcDbEntity
  8
LC-001-100-D00-0
 62
     7
370
    50
100
AcDbLine
 10
38.37507
 20
268.841504
 30
0.0
 11
38.37507
 21
265.090994
 31
0.0
  0
INSERT
  5
3BD
330
1F
100
AcDbEntity
  8
LC-001-100-D00-0
 62
     7
370
    50
100
AcDbBlockReference
  2
POLY18
 10
0.0
 20
0.0
 30
0.0
  0
LINE
  5
3BE
330
1F
100
AcDbEntity
  8
LC-001-100-D00-0
 62
     7
370
    50
100
AcDbLine
 10
159.375073
 20
262.790994
 30
0.0
 11
38.37507
 21
262.790994
 31
0.0
  0
ARC
  5
3BF
330
1F
100
AcDbEntity
  8
LC-001-100-D00-0
 62
     7
370
    50
100
AcDbCircle
 10
38.075074
 20
265.090994
 30
0.0
 40
0.2999999999999545
100
AcDbArc
 50
270.0
 51
0.0
  0
LINE
  5
3C0
330
1F
100
AcDbEntity
  8
LC-001-100-D00-0
 62
     7
370
    50
100
AcDbLine
 10
38.012145
 20
264.790994
 30
0.0
 11
38.075072
 21
264.790994
 31
0.0
  0
LINE
  5
3C1
330
1F
100
AcDbEntity
  8
LC-001-100-D00-0
 62
     7
370
    50
100
AcDbLine
 10
38.37507
 20
264.012689
 30
0.0
 11
38.012145
 21
264.790994
 31
0.0
  0
LINE
  5
3C2
330
1F
100
AcDbEntity
  8
LC-001-100-D00-0
 62
     7
370
    50
100
AcDbLine
 10
37.375075
 20
263.790994
 30
0.0
 11
37.375075
 21
262.790994
 31
0.0
  0
LINE
  5
3C3
330
1F
100
AcDbEntity
  8
LC-001-100-D00-0
 62
     7
370
    50
100
AcDbLine
 10
36.774149
 20
265.079685
 30
0.0
 11
37.375075
 21
263.790994
 31
0.0
  0
ARC
  5
3C4
330
1F
100
AcDbEntity
  8
LC-001-100-D00-0
 62
     7
370
    50
100
AcDbCircle
 10
37.227301
 20
265.290994
 30
0.0
 40
0.5
100
AcDbArc
 50
90.0
 51
205.0
  0
LINE
  5
3C5
330
1F
100
AcDbEntity
  8
LC-001-100-D00-0
 62
     7
370
    50
100
AcDbLine
 10
37.375075
 20
265.790994
 30
0.0
 11
37.2273
 21
265.790994
 31
0.0
  0
LINE
  5
3C6
330
1F
100
AcDbEntity
  8
LC-001-100-D00-0
 62
     7
370
    50
100
AcDbLine
 10
37.375075
 20
268.841504
 30
0.0
 11
37.375075
 21
265.790994
 31
0.0
  0
ARC
  5
3C7
330
1F
100
AcDbEntity
  8
LC-001-100-D00-0
 62
     7
370
    50
100
AcDbCircle
 10
35.375074
 20
268.841504
 30
0.0
 40
2.0
100
AcDbArc
 50
0.0
 51
44.415309
  0
ARC
  5
3C8
330
1F
100
AcDbEntity
  8
LC-001-100-D00-0
 62
     7
370
    50
100
AcDbCircle
 10
37.875074
 20
271.290994
 30
0.0
 40
1.5
100
AcDbArc
 50
180.0
 51
224.415309
  0
LINE
  5
3C9
330
1F
100
AcDbEntity
  8
LC-001-100-D00-0
 62
     7
370
    50
100
AcDbLine
 10
36.375073
 20
271.290994
 30
0.0
 11
36.375073
 21
274.040994
 31
0.0
  0
ARC
  5
3CA
330
1F
100
AcDbEntity
  8
LC-001-100-D00-0
 62
     7
370
    50
100
AcDbCircle
 10
35.125074
 20
274.040994
 30
0.0
 40
1.25
100
AcDbArc
 50
0.0
 51
180.0
  0
ARC
  5
3CB
330
1F
100
AcDbEntity
  8
LC-001-100-D00-0
 62
     7
370
    50
100
AcDbCircle
 10
35.125074
 20
274.040994
 30
0.0
 40
2.25
100
AcDbArc
 50
0.0
 51
180.0
  0
LINE
  5
3CC
330
1F
100
AcDbEntity
  8
LC-001-100-D00-0
 62
     7
370
    50
100
AcDbLine
 10
37.375075
 20
274.040994
 30
0.0
 11
37.375075
 21
271.290994
 31
0.0
  0
ARC
  5
3CD
330
1F
100
AcDbEntity
  8
LC-001-100-D00-0
 62
     7
370
    50
100
AcDbCircle
 10
37.875074
 20
271.290994
 30
0.0
 40
0.5
100
AcDbArc
 50
180.0
 51
224.415309
  0
ARC
  5
3CE
330
1F
100
AcDbEntity
  8
LC-001-100-D00-0
 62
     7
370
    50
100
AcDbCircle
 10
35.375074
 20
268.841504
 30
0.0
 40
3.0
100
AcDbArc
 50
0.0
 51
44.415309
  0
LINE
  5
3CF
330
1F
100
AcDbEntity
  8
LC-001-100-D00-0
 62
     7
370
    50
100
AcDbLine
 10
37.375075
 20
262.790994
 30
0.0
 11
38.37507
 21
262.790994
 31
0.0
  0
LINE
  5
3D0
330
1F
100
AcDbEntity
  8
LC-001-100-D00-0
 62
     7
370
    50
100
AcDbLine
 10
33.875076
 20
274.040994
 30
0.0
 11
33.875076
 21
271.890994
 31
0.0
  0
LINE
  5
3D1
330
1F
100
AcDbEntity
  8
LC-001-100-D00-0
 62
     7
370
    50
100
AcDbLine
 10
32.875074
 20
271.890994
 30
0.0
 11
32.875074
 21
274.040994
 31
0.0
  0
ARC
  5
3D2
330
1F
100
AcDbEntity
  8
LC-001-100-D00-0
 62
     7
370
    50
100
AcDbCircle
 10
175.875074
 20
271.290994
 30
0.0
 40
0.4999999999998863
100
AcDbArc
 50
270.0
 51
0.0
  0
LINE
  5
3D3
330
1F
100
AcDbEntity
  8
LC-001-100-D00-0
 62
     7
370
    50
100
AcDbLine
 10
176.375074
 20
274.040994
 30
0.0
 11
176.375074
 21
271.290994
 31
0.0
  0
ARC
  5
3D4
330
1F
100
AcDbEntity
  8
LC-001-100-D00-0
 62
     7
370
    50
100
AcDbCircle
 10
178.625074
 20
274.040994
 30
0.0
 40
2.250000000000114
100
AcDbArc
 50
0.0
 51
180.0
  0
LINE
  5
3D5
330
1F
100
AcDbEntity
  8
LC-001-100-D00-0
 62
     7
370
    50
100
AcDbLine
 10
180.875076
 20
271.890994
 30
0.0
 11
180.875076
 21
274.040994
 31
0.0
  0
LINE
  5
3D6
330
1F
100
AcDbEntity
  8
LC-001-100-D00-0
 62
     7
370
    50
100
AcDbLine
 10
179.875074
 20
274.040994
 30
0.0
 11
179.875074
 21
271.890994
 31
0.0
  0
ARC
  5
3D7
330
1F
100
AcDbEntity
  8
LC-001-100-D00-0
 62
     7
370
    50
100
AcDbCircle
 10
178.625074
 20
274.040994
 30
0.0
 40
1.25
100
AcDbArc
 50
0.0
 51
180.0
  0
LINE
  5
3D8
330
1F
100
AcDbEntity
  8
LC-001-100-D00-0
 62
     7
370
    50
100
AcDbLine
 10
177.375076
 20
271.290994
 30
0.0
 11
177.375076
 21
274.040994
 31
0.0
  0
ARC
  5
3D9
330
1F
100
AcDbEntity
  8
LC-001-100-D00-0
 62
     7
370
    50
100
AcDbCircle
 10
175.875074
 20
271.290994
 30
0.0
 40
1.5
100
AcDbArc
 50
270.0
 51
0.0
  0
LINE
  5
3DA
330
1F
100
AcDbEntity
  8
LC-001-100-D00-0
 62
     7
370
    50
100
AcDbLine
 10
162.375075
 20
269.790994
 30
0.0
 11
175.875073
 21
269.790994
 31
0.0
  0
ARC
  5
3DB
330
1F
100
AcDbEntity
  8
LC-001-100-D00-0
 62
     7
370
    50
100
AcDbCircle
 10
162.375074
 20
267.790994
 30
0.0
 40
1.999999999999886
100
AcDbArc
 50
90.0
 51
180.0
  0
LINE
  5
3DC
330
1F
100
AcDbEntity
  8
LC-001-100-D00-0
 62
     7
370
    50
100
AcDbLine
 10
160.375075
 20
265.790994
 30
0.0
 11
160.375075
 21
267.790994
 31
0.0
  0
LINE
  5
3DD
330
1F
100
AcDbEntity
  8
LC-001-100-D00-0
 62
     7
370
    50
100
AcDbLine
 10
160.522846
 20
265.790994
 30
0.0
 11
160.375075
 21
265.790994
 31
0.0
  0
ARC
  5
3DE
330
1F
100
AcDbEntity
  8
LC-001-100-D00-0
 62
     7
370
    50
100
AcDbCircle
 10
160.522846
 20
265.290994
 30
0.0
 40
0.4999999999999827
100
AcDbArc
 50
335.0
 51
90.0
  0
LINE
  5
3DF
330
1F
100
AcDbEntity
  8
LC-001-100-D00-0
 62
     7
370
    50
100
AcDbLine
 10
160.375075
 20
263.790994
 30
0.0
 11
160.976002
 21
265.079685
 31
0.0
  0
LINE
  5
3E0
330
1F
100
AcDbEntity
  8
LC-001-100-D00-0
 62
     7
370
    50
100
AcDbLine
 10
160.375075
 20
262.790994
 30
0.0
 11
160.375075
 21
263.790994
 31
0.0
  0
LINE
  5
3E1
330
1F
100
AcDbEntity
  8
LC-001-100-D00-0
 62
     7
370
    50
100
AcDbLine
 10
159.738002
 20
264.790994
 30
0.0
 11
159.375073
 21
264.012689
 31
0.0
  0
LINE
  5
3E2
330
1F
100
AcDbEntity
  8
LC-001-100-D00-0
 62
     7
370
    50
100
AcDbLine
 10
159.675074
 20
264.790994
 30
0.0
 11
159.738002
 21
264.790994
 31
0.0
  0
ARC
  5
3E3
330
1F
100
AcDbEntity
  8
LC-001-100-D00-0
 62
     7
370
    50
100
AcDbCircle
 10
159.675074
 20
265.090994
 30
0.0
 40
0.3000000000000682
100
AcDbArc
 50
180.0
 51
270.0
  0
ARC
  5
3E4
330
1F
100
AcDbEntity
  8
LC-001-100-D00-0
 62
     7
370
    50
100
AcDbCircle
 10
162.375074
 20
267.790994
 30
0.0
 40
3.0
100
AcDbArc
 50
90.0
 51
180.0
  0
LINE
  5
3E5
330
1F
100
AcDbEntity
  8
LC-001-100-D00-0
 62
     7
370
    50
100
AcDbLine
 10
162.375075
 20
270.790994
 30
0.0
 11
175.875073
 21
270.790994
 31
0.0
  0
LINE
  5
3E6
330
1F
100
AcDbEntity
  8
LC-001-100-D00-0
 62
     7
370
    50
100
AcDbLine
 10
159.375073
 20
262.790994
 30
0.0
 11
160.375075
 21
262.790994
 31
0.0
  0
INSERT
  5
3F2
330
1F
100
AcDbEntity
  8
LC-001-100-D00-0
 62
     7
370
    50
100
AcDbBlockReference
  2
POLY19
 10
0.0
 20
0.0
 30
0.0
  0
ARC
  5
3F3
330
1F
100
AcDbEntity
  8
LC-001-100-D00-0
 62
     7
370
    50
100
AcDbCircle
 10
37.814812
 20
267.848893
 30
0.0
 40
2.942718265652854
100
AcDbArc
 50
358.872615
 51
88.826555
  0
LINE
  5
3F4
330
1F
100
AcDbEntity
  8
LC-001-100-D00-0
 62
     7
370
    50
100
AcDbLine
 10
155.375072
 20
270.790994
 30
0.0
 11
162.375075
 21
270.790994
 31
0.0
  0
ARC
  5
3F5
330
1F
100
AcDbEntity
  8
LC-001-100-D00-0
 62
     7
370
    50
100
AcDbCircle
 10
32.375074
 20
271.890994
 30
0.0
 40
1.500000000000087
100
AcDbArc
 50
289.471221
 51
0.0
  0
LINE
  5
3F6
330
1F
100
AcDbEntity
  8
LC-001-100-D00-0
 62
     7
370
    50
100
AcDbLine
 10
32.375073
 20
270.390994
 30
0.0
 11
31.875072
 21
270.390994
 31
0.0
  0
LINE
  5
3F7
330
1F
100
AcDbEntity
  8
LC-001-100-D00-0
 62
     7
370
    50
100
AcDbLine
 10
31.875072
 20
270.390994
 30
0.0
 11
31.875072
 21
271.390994
 31
0.0
  0
LINE
  5
3F8
330
1F
100
AcDbEntity
  8
LC-001-100-D00-0
 62
     7
370
    50
100
AcDbLine
 10
31.875072
 20
271.390994
 30
0.0
 11
32.375073
 21
271.390994
 31
0.0
  0
INSERT
  5
40A
330
1F
100
AcDbEntity
  8
LC-001-100-D00-0
 62
     7
370
    50
100
AcDbBlockReference
  2
POLY20
 10
0.0
 20
0.0
 30
0.0
  0
INSERT
  5
416
330
1F
100
AcDbEntity
  8
LC-001-100-D00-0
 62
     7
370
    50
100
AcDbBlockReference
  2
POLY21
 10
0.0
 20
0.0
 30
0.0
  0
LINE
  5
417
330
1F
100
AcDbEntity
  8
LC-001-100-D00-0
 62
     7
370
    50
100
AcDbLine
 10
181.375077
 20
271.390994
 30
0.0
 11
181.87507
 21
271.390994
 31
0.0
  0
LINE
  5
418
330
1F
100
AcDbEntity
  8
LC-001-100-D00-0
 62
     7
370
    50
100
AcDbLine
 10
181.87507
 20
271.390994
 30
0.0
 11
181.87507
 21
270.390994
 31
0.0
  0
LINE
  5
419
330
1F
100
AcDbEntity
  8
LC-001-100-D00-0
 62
     7
370
    50
100
AcDbLine
 10
181.87507
 20
270.390994
 30
0.0
 11
181.375077
 21
270.390994
 31
0.0
  0
INSERT
  5
425
330
1F
100
AcDbEntity
  8
LC-001-100-D00-0
 62
     7
370
    50
100
AcDbBlockReference
  2
POLY22
 10
0.0
 20
0.0
 30
0.0
  0
INSERT
  5
437
330
1F
100
AcDbEntity
  8
LC-001-100-D00-0
 62
     7
370
    50
100
AcDbBlockReference
  2
POLY23
 10
0.0
 20
0.0
 30
0.0
  0
ARC
  5
438
330
1F
100
AcDbEntity
  8
LC-001-100-D00-0
 62
     7
370
    50
100
AcDbCircle
 10
181.375074
 20
271.890994
 30
0.0
 40
1.5
100
AcDbArc
 50
180.0
 51
250.528779
  0
LINE
  5
439
330
1F
100
AcDbEntity
  8
LC-001-100-D00-0
 62
     7
370
    50
100
AcDbLine
 10
173.475077
 20
269.390994
 30
0.0
 11
163.375074
 21
269.390994
 31
0.0
  0
LINE
  5
43A
330
1F
100
AcDbEntity
  8
LC-001-100-D00-0
 62
     7
370
    50
100
AcDbLine
 10
45.64174
 20
254.290994
 30
0.0
 11
45.64174
 21
262.790994
 31
0.0
  0
LINE
  5
43B
330
1F
100
AcDbEntity
  8
LC-001-100-D00-0
 62
     7
370
    50
100
AcDbLine
 10
175.375072
 20
126.790989
 30
0.0
 11
175.375072
 21
262.290994
 31
0.0
  0
LINE
  5
43C
330
1F
100
AcDbEntity
  8
LC-001-100-D00-0
 62
     7
370
    50
100
AcDbLine
 10
175.375072
 20
126.790989
 30
0.0
 11
37.375075
 21
126.790989
 31
0.0
  0
LINE
  5
43D
330
1F
100
AcDbEntity
  8
LC-001-100-D00-0
 62
     7
370
    50
100
AcDbLine
 10
37.375075
 20
266.290994
 30
0.0
 11
37.375075
 21
126.790989
 31
0.0
  0
LINE
  5
43E
330
1F
100
AcDbEntity
  8
LC-001-100-D00-0
 62
     7
370
    50
100
AcDbLine
 10
33.875076
 20
130.790997
 30
0.0
 11
34.946871
 21
126.790989
 31
0.0
  0
LINE
  5
43F
330
1F
100
AcDbEntity
  8
LC-001-100-D00-0
 62
     7
370
    50
100
AcDbLine
 10
33.875076
 20
130.790997
 30
0.0
 11
33.875076
 21
265.290994
 31
0.0
  0
LINE
  5
440
330
1F
100
AcDbEntity
  8
LC-001-100-D00-0
 62
     7
370
    50
100
AcDbLine
 10
33.875076
 20
265.290994
 30
0.0
 11
34.375077
 21
265.290994
 31
0.0
  0
LINE
  5
441
330
1F
100
AcDbEntity
  8
LC-001-100-D00-0
 62
     7
370
    50
100
AcDbLine
 10
34.375077
 20
265.290994
 30
0.0
 11
34.375077
 21
269.790994
 31
0.0
  0
LINE
  5
442
330
1F
100
AcDbEntity
  8
LC-001-100-D00-0
 62
     7
370
    50
100
AcDbLine
 10
35.375071
 20
269.790994
 30
0.0
 11
34.375077
 21
269.790994
 31
0.0
  0
LINE
  5
443
330
1F
100
AcDbEntity
  8
LC-001-100-D00-0
 62
     7
370
    50
100
AcDbLine
 10
36.375073
 20
268.790994
 30
0.0
 11
35.375071
 21
269.790994
 31
0.0
  0
LINE
  5
444
330
1F
100
AcDbEntity
  8
LC-001-100-D00-0
 62
     7
370
    50
100
AcDbLine
 10
36.375073
 20
268.790994
 30
0.0
 11
36.375073
 21
268.523045
 31
0.0
  0
LINE
  5
445
330
1F
100
AcDbEntity
  8
LC-001-100-D00-0
 62
     7
370
    50
100
AcDbLine
 10
36.375073
 20
268.523045
 30
0.0
 11
37.375075
 21
266.790994
 31
0.0
  0
LINE
  5
446
330
1F
100
AcDbEntity
  8
LC-001-100-D00-0
 62
     7
370
    50
100
AcDbLine
 10
37.375075
 20
266.790994
 30
0.0
 11
37.375075
 21
266.290994
 31
0.0
  0
LINE
  5
447
330
1F
100
AcDbEntity
  8
LC-001-100-D00-0
 62
     7
370
    50
100
AcDbLine
 10
37.375075
 20
126.790989
 30
0.0
 11
34.946871
 21
126.790989
 31
0.0
  0
LINE
  5
448
330
1F
100
AcDbEntity
  8
LC-001-100-D00-0
 62
     7
370
    50
100
AcDbLine
 10
163.375074
 20
262.290994
 30
0.0
 11
163.375074
 21
254.290994
 31
0.0
  0
LINE
  5
449
330
1F
100
AcDbEntity
  8
LC-001-100-D00-0
 62
     7
370
    50
100
AcDbLine
 10
163.375074
 20
254.290994
 30
0.0
 11
161.375073
 21
254.290994
 31
0.0
  0
LINE
  5
44A
330
1F
100
AcDbEntity
  8
LC-001-100-D00-0
 62
     7
370
    50
100
AcDbLine
 10
161.375073
 20
254.290994
 30
0.0
 11
161.375073
 21
266.290994
 31
0.0
  0
LINE
  5
44B
330
1F
100
AcDbEntity
  8
LC-001-100-D00-0
 62
     7
370
    50
100
AcDbLine
 10
161.375073
 20
266.290994
 30
0.0
 11
160.375075
 21
266.290994
 31
0.0
  0
LINE
  5
44C
330
1F
100
AcDbEntity
  8
LC-001-100-D00-0
 62
     7
370
    50
100
AcDbLine
 10
160.375075
 20
266.290994
 30
0.0
 11
160.375075
 21
266.790994
 31
0.0
  0
LINE
  5
44D
330
1F
100
AcDbEntity
  8
LC-001-100-D00-0
 62
     7
370
    50
100
AcDbLine
 10
160.375075
 20
266.790994
 30
0.0
 11
161.375073
 21
268.523045
 31
0.0
  0
LINE
  5
44E
330
1F
100
AcDbEntity
  8
LC-001-100-D00-0
 62
     7
370
    50
100
AcDbLine
 10
161.375073
 20
268.523045
 30
0.0
 11
161.375073
 21
268.790994
 31
0.0
  0
LINE
  5
44F
330
1F
100
AcDbEntity
  8
LC-001-100-D00-0
 62
     7
370
    50
100
AcDbLine
 10
162.375075
 20
269.790994
 30
0.0
 11
161.375073
 21
268.790994
 31
0.0
  0
LINE
  5
450
330
1F
100
AcDbEntity
  8
LC-001-100-D00-0
 62
     7
370
    50
100
AcDbLine
 10
163.375074
 20
269.790994
 30
0.0
 11
162.375075
 21
269.790994
 31
0.0
  0
LINE
  5
451
330
1F
100
AcDbEntity
  8
LC-001-100-D00-0
 62
     7
370
    50
100
AcDbLine
 10
163.375074
 20
269.790994
 30
0.0
 11
163.375074
 21
265.290994
 31
0.0
  0
LINE
  5
452
330
1F
100
AcDbEntity
  8
LC-001-100-D00-0
 62
     7
370
    50
100
AcDbLine
 10
163.375074
 20
265.290994
 30
0.0
 11
178.875071
 21
265.290994
 31
0.0
  0
LINE
  5
453
330
1F
100
AcDbEntity
  8
LC-001-100-D00-0
 62
     7
370
    50
100
AcDbLine
 10
178.875071
 20
265.290994
 30
0.0
 11
178.875071
 21
130.790997
 31
0.0
  0
LINE
  5
454
330
1F
100
AcDbEntity
  8
LC-001-100-D00-0
 62
     7
370
    50
100
AcDbLine
 10
177.803276
 20
126.790989
 30
0.0
 11
178.875071
 21
130.790997
 31
0.0
  0
LINE
  5
455
330
1F
100
AcDbEntity
  8
LC-001-100-D00-0
 62
     7
370
    50
100
AcDbLine
 10
175.375072
 20
262.290994
 30
0.0
 11
163.375074
 21
262.290994
 31
0.0
  0
LINE
  5
456
330
1F
100
AcDbEntity
  8
LC-001-100-D00-0
 62
     7
370
    50
100
AcDbLine
 10
177.803276
 20
126.790989
 30
0.0
 11
175.375072
 21
126.790989
 31
0.0
  0
LINE
  5
457
330
1F
100
AcDbEntity
  8
LC-001-100-D00-0
 62
     7
370
    50
100
AcDbLine
 10
161.375073
 20
254.290994
 30
0.0
 11
45.64174
 21
254.290994
 31
0.0
  0
LINE
  5
458
330
1F
100
AcDbEntity
  8
LC-001-100-D00-0
 62
     7
370
    50
100
AcDbLine
 10
35.375071
 20
269.790994
 30
0.0
 11
37.135323
 21
269.790994
 31
0.0
  0
LINE
  5
459
330
1F
100
AcDbEntity
  8
LC-001-100-D00-0
 62
     7
370
    50
100
AcDbLine
 10
165.875075
 20
268.460994
 30
0.0
 11
170.87507
 21
268.460994
 31
0.0
  0
LINE
  5
45A
330
1F
100
AcDbEntity
  8
LC-001-100-D00-0
 62
     7
370
    50
100
AcDbLine
 10
163.375074
 20
268.460994
 30
0.0
 11
165.875075
 21
268.460994
 31
0.0
  0
INSERT
  5
465
330
1F
100
AcDbEntity
  8
LC-001-100-D00-0
 62
     7
370
    25
100
AcDbBlockReference
  2
KLON3
 10
0.0
 20
0.0
 30
0.0
  0
INSERT
  5
471
330
1F
100
AcDbEntity
  8
LC-001-100-D00-0
 62
     7
370
    25
100
AcDbBlockReference
  2
KLON4
 10
0.0
 20
0.0
 30
0.0
  0
INSERT
  5
477
330
1F
100
AcDbEntity
  8
LC-001-100-D00-0
 62
     7
370
    25
100
AcDbBlockReference
  2
KLON5
 10
0.0
 20
0.0
 30
0.0
  0
LINE
  5
478
330
1F
100
AcDbEntity
  8
LC-001-100-D00-0
 62
     7
370
    25
100
AcDbLine
 10
36.773325
 20
265.081457
 30
0.0
 11
38.375074
 21
266.683206
 31
0.0
  0
LINE
  5
479
330
1F
100
AcDbEntity
  8
LC-001-100-D00-0
 62
     7
370
    25
100
AcDbLine
 10
154.736064
 20
270.790994
 30
0.0
 11
155.375074
 21
271.430004
 31
0.0
  0
LINE
  5
47A
330
1F
100
AcDbEntity
  8
LC-001-100-D00-0
 62
     7
370
    25
100
AcDbLine
 10
132.285423
 20
270.790994
 30
0.0
 11
137.285423
 21
275.790994
 31
0.0
  0
LINE
  5
47B
330
1F
100
AcDbEntity
  8
LC-001-100-D00-0
 62
     7
370
    25
100
AcDbLine
 10
42.482862
 20
270.790994
 30
0.0
 11
47.482862
 21
275.790994
 31
0.0
  0
LINE
  5
47C
330
1F
100
AcDbEntity
  8
LC-001-100-D00-0
 62
     7
370
    25
100
AcDbLine
 10
64.933502
 20
270.790994
 30
0.0
 11
67.375074
 21
273.232565
 31
0.0
  0
INSERT
  5
482
330
1F
100
AcDbEntity
  8
LC-001-100-D00-0
 62
     7
370
    25
100
AcDbBlockReference
  2
KLON6
 10
0.0
 20
0.0
 30
0.0
  0
DIMENSION
  5
486
330
1F
100
AcDbEntity
  8
LC-003-003-----0
 62
     7
370
    25
100
AcDbDimension
  2
*D30
 10
12.020471
 20
270.390994
 30
0.0
 11
-18.779529
 21
250.413658
 31
0.0
 70
   160
  1
6
 71
     5
 42
5.9
 53
90.0
  3
LC-DIM-L-0140-02-02
100
AcDbAlignedDimension
 13
40.375074
 23
276.290994
 33
0.0
 14
31.875072
 24
270.390994
 34
0.0
 50
90.0
100
AcDbRotatedDimension
  0
DIMENSION
  5
495
330
1F
100
AcDbEntity
  8
LC-003-003-----0
 62
     7
370
    25
100
AcDbDimension
  2
*D31
 10
179.875074
 20
299.121658
 30
0.0
 11
99.781428
 21
329.921658
 31
0.0
 70
   160
  1
150
 71
     5
 42
147.0
  3
LC-DIM-L-0140-02-02
100
AcDbAlignedDimension
 13
32.875074
 23
274.040994
 33
0.0
 14
179.875074
 24
274.040994
 34
0.0
100
AcDbRotatedDimension
  0
DIMENSION
  5
4A2
330
1F
100
AcDbEntity
  8
LC-003-003-----0
 62
     7
370
    25
100
AcDbDimension
  2
*D32
 10
178.875071
 20
75.777658
 30
0.0
 11
103.327326
 21
106.577658
 31
0.0
 70
   160
  1
%%c<>
 71
     5
 42
144.999996
  3
LC-DIM-L-0140-02-02
100
AcDbAlignedDimension
 13
33.875076
 23
130.790997
 33
0.0
 14
178.875071
 24
130.790997
 34
0.0
100
AcDbRotatedDimension
  0
INSERT
  5
4EB
330
1F
100
AcDbEntity
  8
LC-004-005-----0
 62
     7
370
    25
100
AcDbBlockReference
  2
*X133
 10
0.0
 20
0.0
 30
0.0
  0
DIMENSION
  5
4EC
330
1F
100
AcDbEntity
  8
LC-003-003-----0
 62
     7
370
    25
100
AcDbDimension
  2
*D34
 10
199.066552
 20
149.790989
 30
0.0
 11
168.266552
 21
27.069658
 31
0.0
 70
   160
 71
     5
 42
23.0
 53
90.0
  3
LC-DIM-L-0140-02-02
100
AcDbAlignedDimension
 13
175.375072
 23
126.790989
 33
0.0
 14
175.375072
 24
149.790989
 34
0.0
 50
90.0
100
AcDbRotatedDimension
  0
DIMENSION
  5
4FA
330
1F
100
AcDbEntity
  8
LC-003-003-----0
 62
     7
370
    25
100
AcDbDimension
  2
*D35
 10
254.027959
 20
276.290994
 30
0.0
 11
223.227959
 21
207.051658
 31
0.0
 70
   160
  1
6-127
 71
     5
 42
126.500005
 53
90.0
  3
LC-DIM-L-0140-02-02
100
AcDbAlignedDimension
 13
175.375072
 23
149.790989
 33
0.0
 14
176.000075
 24
276.290994
 34
0.0
 50
90.0
100
AcDbRotatedDimension
  0
ENDSEC
  0
SECTION
  2
OBJECTS
  0
DICTIONARY
  5
C
330
0
100
AcDbDictionary
281
     1
  3
ACAD_GROUP
350
D
  3
ACAD_LAYOUT
350
1A
  3
ACAD_MLINESTYLE
350
17
  3
ACAD_PLOTSETTINGS
350
19
  3
ACAD_PLOTSTYLENAME
350
E
  0
DICTIONARY
  5
D
102
{ACAD_REACTORS
330
C
102
}
330
C
100
AcDbDictionary
281
     1
  0
DICTIONARY
  5
1A
102
{ACAD_REACTORS
330
C
102
}
330
C
100
AcDbDictionary
281
     1
  3
Layout1
350
1E
  3
Layout2
350
26
  3
Model
350
22
  0
DICTIONARY
  5
17
102
{ACAD_REACTORS
330
C
102
}
330
C
100
AcDbDictionary
281
     1
  3
Standard
350
18
  0
DICTIONARY
  5
19
102
{ACAD_REACTORS
330
C
102
}
330
C
100
AcDbDictionary
281
     1
  0
ACDBDICTIONARYWDFLT
  5
E
102
{ACAD_REACTORS
330
C
102
}
330
C
100
AcDbDictionary
281
     1
  3
Normal
350
F
100
AcDbDictionaryWithDefault
340
F
  0
LAYOUT
  5
1E
102
{ACAD_REACTORS
330
1A
102
}
330
1A
100
AcDbPlotSettings
  1

  2

  4

  6

 40
0.0
 41
0.0
 42
0.0
 43
0.0
 44
0.0
 45
0.0
 46
0.0
 47
0.0
 48
0.0
 49
0.0
140
0.0
141
0.0
142
1.0
143
1.0
 70
   688
 72
     0
 73
     0
 74
     5
  7

 75
    16
147
1.0
148
0.0
149
0.0
100
AcDbLayout
  1
Layout1
 70
     1
 71
     1
 10
-306.921457
 20
-201.620342
 11
533.078543
 21
392.379658
 12
0.0
 22
0.0
 32
0.0
 14
-306.921457
 24
-201.620342
 34
0.0
 15
533.078543
 25
392.379658
 35
0.0
146
0.0
 13
0.0
 23
0.0
 33
0.0
 16
1.0
 26
0.0
 36
0.0
 17
0.0
 27
1.0
 37
0.0
 76
     0
330
1B
  0
LAYOUT
  5
26
102
{ACAD_REACTORS
330
1A
102
}
330
1A
100
AcDbPlotSettings
  1

  2

  4

  6

 40
0.0
 41
0.0
 42
0.0
 43
0.0
 44
0.0
 45
0.0
 46
0.0
 47
0.0
 48
0.0
 49
0.0
140
0.0
141
0.0
142
1.0
143
1.0
 70
   688
 72
     0
 73
     0
 74
     5
  7

 75
    16
147
1.0
148
0.0
149
0.0
100
AcDbLayout
  1
Layout2
 70
     1
 71
     2
 10
0.0
 20
0.0
 11
0.0
 21
0.0
 12
0.0
 22
0.0
 32
0.0
 14
0.0
 24
0.0
 34
0.0
 15
0.0
 25
0.0
 35
0.0
146
0.0
 13
0.0
 23
0.0
 33
0.0
 16
1.0
 26
0.0
 36
0.0
 17
0.0
 27
1.0
 37
0.0
 76
     0
330
23
  0
LAYOUT
  5
22
102
{ACAD_REACTORS
330
1A
102
}
330
1A
100
AcDbPlotSettings
  1

  2

  4

  6

 40
0.0
 41
0.0
 42
0.0
 43
0.0
 44
0.0
 45
0.0
 46
0.0
 47
0.0
 48
0.0
 49
0.0
140
0.0
141
0.0
142
1.0
143
1.0
 70
  1776
 72
     0
 73
     0
 74
     0
  7

 75
     0
147
1.0
148
0.0
149
0.0
100
AcDbLayout
  1
Model
 70
     1
 71
     0
 10
-306.921457
 20
-201.620342
 11
533.078543
 21
392.379658
 12
0.0
 22
0.0
 32
0.0
 14
-306.921457
 24
-201.620342
 34
0.0
 15
533.078543
 25
392.379658
 35
0.0
146
0.0
 13
0.0
 23
0.0
 33
0.0
 16
1.0
 26
0.0
 36
0.0
 17
0.0
 27
1.0
 37
0.0
 76
     0
330
1F
  0
MLINESTYLE
  5
18
102
{ACAD_REACTORS
330
17
102
}
330
17
100
AcDbMlineStyle
  2
Standard
 70
     0
  3

 62
   256
 51
90.0
 52
90.0
 71
     2
 49
0.5
 62
   256
  6
BYLAYER
 49
-0.5
 62
   256
  6
BYLAYER
  0
ACDBPLACEHOLDER
  5
F
102
{ACAD_REACTORS
330
E
102
}
330
E
  0
ENDSEC
  0
EOF
