  0
SECTION
  2
HEADER
  9
$ACADVER
  1
AC1009
  9
$DWGCODEPAGE
  3
dos850
  9
$INSBASE
 10
0.0
 20
0.0
 30
0.0
  9
$EXTMIN
 10
-271.5
 20
-87.0
 30
0.0
  9
$EXTMAX
 10
568.5
 20
507.0
 30
0.0
  9
$LIMMIN
 10
-271.5
 20
-87.0
  9
$LIMMAX
 10
568.5
 20
507.0
  9
$ORTHOMODE
 70
     0
  9
$REGENMODE
 70
     1
  9
$FILLMODE
 70
     1
  9
$QTEXTMODE
 70
     0
  9
$MIRRTEXT
 70
     1
  9
$DRAGMODE
 70
     2
  9
$LTSCALE
 40
2.0
  9
$OSMODE
 70
     0
  9
$ATTMODE
 70
     1
  9
$TEXTSIZE
 40
0.2
  9
$TRACEWID
 40
0.05
  9
$TEXTSTYLE
  7
STANDARD
  9
$CLAYER
  8
0
  9
$CELTYPE
  6
BYBLOCK
  9
$CECOLOR
 62
     7
  9
$DIMSCALE
 40
2.0
  9
$DIMASZ
 40
3.5
  9
$DIMEXO
 40
0.0625
  9
$DIMDLI
 40
0.38
  9
$DIMRND
 40
0.0
  9
$DIMDLE
 40
0.0
  9
$DIMEXE
 40
0.18
  9
$DIMTP
 40
0.0
  9
$DIMTM
 40
0.0
  9
$DIMTXT
 40
3.5
  9
$DIMCEN
 40
0.09
  9
$DIMTSZ
 40
0.0
  9
$DIMTOL
 70
     0
  9
$DIMLIM
 70
     0
  9
$DIMTIH
 70
     1
  9
$DIMTOH
 70
     1
  9
$DIMSE1
 70
     0
  9
$DIMSE2
 70
     0
  9
$DIMTAD
 70
     1
  9
$DIMZIN
 70
     0
  9
$DIMBLK
  1

  9
$DIMASO
 70
     1
  9
$DIMSHO
 70
     1
  9
$DIMPOST
  1

  9
$DIMAPOST
  1

  9
$DIMALT
 70
     0
  9
$DIMALTD
 70
     2
  9
$DIMALTF
 40
25.4
  9
$DIMLFAC
 40
1.0
  9
$DIMTOFL
 70
     0
  9
$DIMTVP
 40
0.0
  9
$DIMTIX
 70
     0
  9
$DIMSOXD
 70
     0
  9
$DIMSAH
 70
     0
  9
$DIMBLK1
  1

  9
$DIMBLK2
  1

  9
$DIMSTYLE
  2
STANDARD
  9
$DIMCLRD
 70
     0
  9
$DIMCLRE
 70
     0
  9
$DIMCLRT
 70
     0
  9
$DIMTFAC
 40
1.0
  9
$DIMGAP
 40
0.09
  9
$LUNITS
 70
     2
  9
$LUPREC
 70
     6
  9
$AXISMODE
 70
     0
  9
$AXISUNIT
 10
0.0
 20
0.0
  9
$SKETCHINC
 40
0.1
  9
$FILLETRAD
 40
0.0
  9
$AUNITS
 70
     0
  9
$AUPREC
 70
     0
  9
$MENU
  1
acad
  9
$ELEVATION
 40
0.0
  9
$PELEVATION
 40
0.0
  9
$THICKNESS
 40
0.0
  9
$LIMCHECK
 70
     0
  9
$BLIPMODE
 70
     1
  9
$CHAMFERA
 40
0.0
  9
$CHAMFERB
 40
0.0
  9
$SKPOLY
 70
     0
  9
$TDCREATE
 40
0.000000000
  9
$TDUPDATE
 40
0.000000000
  9
$TDINDWG
 40
0.0000000000
  9
$TDUSRTIMER
 40
0.0000000000
  9
$USRTIMER
 70
     1
  9
$ANGBASE
 50
0.0
  9
$ANGDIR
 70
     0
  9
$PDMODE
 70
     0
  9
$PDSIZE
 40
0.0
  9
$PLINEWID
 40
0.0
  9
$COORDS
 70
     0
  9
$SPLFRAME
 70
     0
  9
$SPLINETYPE
 70
     6
  9
$SPLINESEGS
 70
     8
  9
$ATTDIA
 70
     0
  9
$ATTREQ
 70
     1
  9
$HANDLING
 70
     1
  9
$HANDSEED
  5
13A
  9
$SURFTAB1
 70
     6
  9
$SURFTAB2
 70
     6
  9
$SURFTYPE
 70
     6
  9
$SURFU
 70
     6
  9
$SURFV
 70
     6
  9
$UCSNAME
  2

  9
$UCSORG
 10
0.0
 20
0.0
 30
0.0
  9
$UCSXDIR
 10
1.0
 20
0.0
 30
0.0
  9
$UCSYDIR
 10
0.0
 20
1.0
 30
0.0
  9
$PUCSNAME
  2

  9
$PUCSORG
 10
0.0
 20
0.0
 30
0.0
  9
$PUCSXDIR
 10
1.0
 20
0.0
 30
0.0
  9
$PUCSYDIR
 10
0.0
 20
1.0
 30
0.0
  9
$USERI1
 70
     0
  9
$USERI2
 70
     0
  9
$USERI3
 70
     0
  9
$USERI4
 70
     0
  9
$USERI5
 70
     0
  9
$USERR1
 40
0.0
  9
$USERR2
 40
0.0
  9
$USERR3
 40
0.0
  9
$USERR4
 40
0.0
  9
$USERR5
 40
0.0
  9
$WORLDVIEW
 70
     1
  9
$SHADEDGE
 70
     3
  9
$SHADEDIF
 70
    70
  9
$TILEMODE
 70
     1
  9
$MAXACTVP
 70
    16
  9
$PINSBASE
 10
0.0
 20
0.0
 30
0.0
  9
$PLIMCHECK
 70
     0
  9
$PEXTMIN
 10
-271.5
 20
-87.0
 30
0.0
  9
$PEXTMAX
 10
568.5
 20
507.0
 30
0.0
  9
$PLIMMIN
 10
-271.5
 20
-87.0
  9
$PLIMMAX
 10
568.5
 20
507.0
  9
$UNITMODE
 70
     0
  9
$VISRETAIN
 70
     0
  9
$PLINEGEN
 70
     1
  9
$PSLTSCALE
 70
     0
  9
$TREEDEPTH
 70
  3020
  0
ENDSEC
  0
SECTION
  2
TABLES
  0
TABLE
  2
VPORT
 70
     1
  0
VPORT
  2
*ACTIVE
 70
     0
 10
0.0
 20
0.0
 11
1.0
 21
1.0
 12
420.0
 22
297.0
 13
0.0
 23
0.0
 14
1.0
 24
1.0
 15
0.0
 25
0.0
 16
0.0
 26
0.0
 36
1.0
 17
-271.5
 27
-87.0
 37
0.0
 40
594.0
 41
1.604229
 42
50.0
 43
0.0
 44
0.0
 50
0.0
 51
0.0
 71
     0
 72
   100
 73
     1
 74
     1
 75
     0
 76
     0
 77
     0
 78
     0
  0
ENDTAB
  0
TABLE
  2
LTYPE
 70
     2
  0
LTYPE
  2
CONTINUOUS
 70
    64
  3
Solid line
 72
    65
 73
     0
 40
0.0
  0
LTYPE
  2
DASHDOT
 70
    64
  3
LC-Solid line
 72
    65
 73
     4
 40
4.0
 49
2.0
 49
-0.9
 49
0.2
 49
-0.9
  0
ENDTAB
  0
TABLE
  2
LAYER
 70
    11
  0
LAYER
  2
0
 70
     0
 62
     7
  6
CONTINUOUS
  0
LAYER
  2
LC-INFO-1-2-MM-A3-0
 70
     1
 62
   255
  6
BYBLOCK
  0
LAYER
  2
LC-3D-HIDDEN
 70
     0
 62
     9
  6
BYBLOCK
  0
LAYER
  2
LC-CUT-HIDDEN
 70
     0
 62
     9
  6
BYBLOCK
  0
LAYER
  2
LC-VIEWPORT
 70
     0
 62
     7
  6
BYBLOCK
  0
LAYER
  2
LC-001-003-----0
 70
     0
 62
     2
  6
BYBLOCK
  0
LAYER
  2
LC-002-002-----0
 70
     0
 62
     1
  6
BYBLOCK
  0
LAYER
  2
LC-003-002-RND-0
 70
     0
 62
     1
  6
BYBLOCK
  0
LAYER
  2
LC-004-005-----0
 70
     0
 62
     2
  6
BYBLOCK
  0
LAYER
  2
LC-005-003-MTH-0
 70
     0
 62
     2
  6
BYBLOCK
  0
LAYER
  2
LC-006-003-MTG-0
 70
     0
 62
     2
  6
BYBLOCK
  0
ENDTAB
  0
TABLE
  2
STYLE
 70
     3
  0
STYLE
  2
STANDARD
 70
     0
 40
0.0
 41
1.0
 50
0.0
 71
     0
 42
0.0
  3
txt
  4

  0
STYLE
  2
LCTX15-400-0-0-ARIAL
 70
    64
 40
3.5
 41
1.0
 50
0.0
 71
     0
 42
0.0
  3
Arial
  4

  0
STYLE
  2
LCTX15-400-0-0-DIN-SCHRIF2
 70
    64
 40
0.0
 41
1.0
 50
1.5
 71
     0
 42
3.5
  3
STANDARD
  4

  0
ENDTAB
  0
TABLE
  2
VIEW
 70
     0
  0
ENDTAB
  0
TABLE
  2
UCS
 70
     0
  0
ENDTAB
  0
TABLE
  2
APPID
 70
     1
  0
APPID
  2
ACAD
 70
     0
  0
ENDTAB
  0
TABLE
  2
DIMSTYLE
 70
     2
  0
DIMSTYLE
  2
STANDARD
 70
     0
  3

  4

  5

  6

  7

 40
1.0
 41
0.18
 42
0.0625
 43
0.38
 44
0.18
 45
0.0
 46
0.0
 47
0.0
 48
0.0
 71
     0
 72
     0
 73
     1
 74
     1
 75
     0
 76
     0
 77
     0
 78
     0
140
0.18
141
0.09
142
0.0
143
25.4
144
1.0
145
0.0
146
1.0
147
0.09
170
     0
171
     2
172
     0
173
     0
174
     0
175
     0
176
     0
177
     0
178
     0
  0
DIMSTYLE
  2
LC-DIM-L-0140-02-02
 70
     0
  3

  4

  5

  6

  7

 40
2.0
 41
3.5
 42
0.0
 43
7.5
 44
1.8
 45
0.0
 46
0.0
 47
0.0
 48
0.0
 71
     0
 72
     0
 73
     0
 74
     0
 75
     0
 76
     0
 77
     1
 78
     8
140
14.0
141
0.0
142
0.0
143
25.4
144
1.0
145
0.0
146
0.71
147
1.5
170
     0
171
     2
172
     0
173
     0
174
     0
175
     0
176
     2
177
     2
178
     2
  0
ENDTAB
  0
ENDSEC
  0
SECTION
  2
BLOCKS
  0
BLOCK
  8
0
  5
7A
  2
*X0
 70
    65
 10
94.159633
 20
332.238549
 30
0.0
  3
*X0
  0
LINE
  8
LC-004-005-----0
  6
BYBLOCK
 62
     2
  5
7C
 10
153.909633
 20
349.550395
 30
0.0
 11
151.358209
 21
352.101819
 31
0.0
  0
LINE
  8
LC-004-005-----0
 62
     2
  5
7D
 10
153.909633
 20
346.721968
 30
0.0
 11
150.909633
 21
349.721968
 31
0.0
  0
LINE
  8
LC-004-005-----0
 62
     2
  5
7E
 10
155.714769
 20
342.088405
 30
0.0
 11
154.709509
 21
343.093665
 31
0.0
  0
LINE
  8
LC-004-005-----0
 62
     2
  5
7F
 10
153.909633
 20
343.893541
 30
0.0
 11
150.909633
 21
346.893541
 31
0.0
  0
LINE
  8
LC-004-005-----0
 62
     2
  5
80
 10
145.909633
 20
351.893541
 30
0.0
 11
145.701355
 21
352.101819
 31
0.0
  0
LINE
  8
LC-004-005-----0
 62
     2
  5
81
 10
155.89026
 20
339.084487
 30
0.0
 11
153.887662
 21
341.087085
 31
0.0
  0
LINE
  8
LC-004-005-----0
 62
     2
  5
82
 10
153.687885
 20
341.286862
 30
0.0
 11
150.872928
 21
344.101819
 31
0.0
  0
LINE
  8
LC-004-005-----0
 62
     2
  5
83
 10
145.909633
 20
349.065114
 30
0.0
 11
143.038204
 21
351.936543
 31
0.0
  0
LINE
  8
LC-004-005-----0
 62
     2
  5
84
 10
155.89026
 20
336.25606
 30
0.0
 11
153.463692
 21
338.682628
 31
0.0
  0
LINE
  8
LC-004-005-----0
 62
     2
  5
85
 10
150.588277
 20
341.558043
 30
0.0
 11
148.044501
 21
344.101819
 31
0.0
  0
LINE
  8
LC-004-005-----0
 62
     2
  5
86
 10
145.909633
 20
346.236686
 30
0.0
 11
142.909633
 21
349.236686
 31
0.0
  0
LINE
  8
LC-004-005-----0
 62
     2
  5
87
 10
155.89026
 20
333.427632
 30
0.0
 11
153.039721
 21
336.278172
 31
0.0
  0
LINE
  8
LC-004-005-----0
 62
     2
  5
88
 10
147.488669
 20
341.829223
 30
0.0
 11
142.909633
 21
346.408259
 31
0.0
  0
LINE
  8
LC-004-005-----0
 62
     2
  5
89
 10
154.250916
 20
332.238549
 30
0.0
 11
152.61575
 21
333.873715
 31
0.0
  0
LINE
  8
LC-004-005-----0
 62
     2
  5
8A
 10
144.389062
 20
342.100404
 30
0.0
 11
142.188936
 21
344.30053
 31
0.0
  0
LINE
  8
LC-004-005-----0
 62
     2
  5
8B
 10
141.289454
 20
342.371584
 30
0.0
 11
139.089328
 21
344.57171
 31
0.0
  0
LINE
  8
LC-004-005-----0
 62
     2
  5
8C
 10
138.189846
 20
342.642765
 30
0.0
 11
135.989721
 21
344.842891
 31
0.0
  0
LINE
  8
LC-004-005-----0
 62
     2
  5
8D
 10
135.090239
 20
342.913945
 30
0.0
 11
132.890113
 21
345.114071
 31
0.0
  0
LINE
  8
LC-004-005-----0
 62
     2
  5
8E
 10
131.990631
 20
343.185126
 30
0.0
 11
129.790505
 21
345.385252
 31
0.0
  0
LINE
  8
LC-004-005-----0
 62
     2
  5
8F
 10
128.891023
 20
343.456306
 30
0.0
 11
126.690898
 21
345.656432
 31
0.0
  0
LINE
  8
LC-004-005-----0
 62
     2
  5
90
 10
125.791416
 20
343.727487
 30
0.0
 11
123.59129
 21
345.927613
 31
0.0
  0
LINE
  8
LC-004-005-----0
 62
     2
  5
91
 10
105.909633
 20
363.609269
 30
0.0
 11
104.417632
 21
365.101271
 31
0.0
  0
LINE
  8
LC-004-005-----0
 62
     2
  5
92
 10
102.909633
 20
366.609269
 30
0.0
 11
101.917084
 21
367.601819
 31
0.0
  0
LINE
  8
LC-004-005-----0
 62
     2
  5
93
 10
122.691808
 20
343.998668
 30
0.0
 11
120.491682
 21
346.198793
 31
0.0
  0
LINE
  8
LC-004-005-----0
 62
     2
  5
94
 10
105.909633
 20
360.780842
 30
0.0
 11
99.088657
 21
367.601819
 31
0.0
  0
LINE
  8
LC-004-005-----0
 62
     2
  5
95
 10
119.5922
 20
344.269848
 30
0.0
 11
117.392075
 21
346.469974
 31
0.0
  0
LINE
  8
LC-004-005-----0
 62
     2
  5
96
 10
105.909633
 20
357.952415
 30
0.0
 11
102.159633
 21
361.702415
 31
0.0
  0
LINE
  8
LC-004-005-----0
 62
     2
  5
97
 10
99.760229
 20
364.101819
 30
0.0
 11
99.159633
 21
364.702415
 31
0.0
  0
LINE
  8
LC-004-005-----0
 62
     2
  5
98
 10
98.510229
 20
365.351819
 30
0.0
 11
96.260229
 21
367.601819
 31
0.0
  0
LINE
  8
LC-004-005-----0
 62
     2
  5
99
 10
116.492593
 20
344.541029
 30
0.0
 11
114.292467
 21
346.741154
 31
0.0
  0
LINE
  8
LC-004-005-----0
 62
     2
  5
9A
 10
113.659633
 20
347.373988
 30
0.0
 11
109.431802
 21
351.601819
 31
0.0
  0
LINE
  8
LC-004-005-----0
 62
     2
  5
9B
 10
105.909633
 20
355.123988
 30
0.0
 11
101.931802
 21
359.101819
 31
0.0
  0
LINE
  8
LC-004-005-----0
 62
     2
  5
9C
 10
95.681802
 20
365.351819
 30
0.0
 11
94.159633
 21
366.873988
 31
0.0
  0
LINE
  8
LC-004-005-----0
 62
     2
  5
9D
 10
113.392985
 20
344.812209
 30
0.0
 11
111.659633
 21
346.545561
 31
0.0
  0
LINE
  8
LC-004-005-----0
 62
     2
  5
9E
 10
109.103375
 20
349.101819
 30
0.0
 11
106.603375
 21
351.601819
 31
0.0
  0
LINE
  8
LC-004-005-----0
 62
     2
  5
9F
 10
105.909633
 20
352.295561
 30
0.0
 11
103.409633
 21
354.795561
 31
0.0
  0
LINE
  8
LC-004-005-----0
 62
     2
  5
A0
 10
100.603375
 20
357.601819
 30
0.0
 11
99.159633
 21
359.045561
 31
0.0
  0
LINE
  8
LC-004-005-----0
 62
     2
  5
A1
 10
106.271779
 20
349.104988
 30
0.0
 11
103.412802
 21
351.963965
 31
0.0
  0
ENDBLK
  8
0
  5
A2
  0
BLOCK
  8
0
  5
A5
  2
*X1
 70
    65
 10
148.159633
 20
308.601819
 30
0.0
  3
*X1
  0
LINE
  8
LC-004-005-----0
 62
     2
  5
A6
 10
202.571816
 20
365.942036
 30
0.0
 11
200.912033
 21
367.601819
 31
0.0
  0
LINE
  8
LC-004-005-----0
 62
     2
  5
A7
 10
200.333606
 20
365.351819
 30
0.0
 11
198.083606
 21
367.601819
 31
0.0
  0
LINE
  8
LC-004-005-----0
 62
     2
  5
A8
 10
197.659633
 20
365.197365
 30
0.0
 11
195.255179
 21
367.601819
 31
0.0
  0
LINE
  8
LC-004-005-----0
 62
     2
  5
A9
 10
195.926752
 20
364.101819
 30
0.0
 11
193.909633
 21
366.118937
 31
0.0
  0
LINE
  8
LC-004-005-----0
 62
     2
  5
AA
 10
194.659633
 20
362.54051
 30
0.0
 11
192.098873
 21
365.101271
 31
0.0
  0
LINE
  8
LC-004-005-----0
 62
     2
  5
AB
 10
196.769897
 20
357.601819
 30
0.0
 11
195.269897
 21
359.101819
 31
0.0
  0
LINE
  8
LC-004-005-----0
 62
     2
  5
AC
 10
194.659633
 20
359.712083
 30
0.0
 11
190.909633
 21
363.462083
 31
0.0
  0
LINE
  8
LC-004-005-----0
 62
     2
  5
AD
 10
193.94147
 20
357.601819
 30
0.0
 11
190.909633
 21
360.633656
 31
0.0
  0
LINE
  8
LC-004-005-----0
 62
     2
  5
AE
 10
193.409633
 20
355.305229
 30
0.0
 11
190.909633
 21
357.805229
 31
0.0
  0
LINE
  8
LC-004-005-----0
 62
     2
  5
AF
 10
193.409633
 20
352.476802
 30
0.0
 11
190.909633
 21
354.976802
 31
0.0
  0
LINE
  8
LC-004-005-----0
 62
     2
  5
B0
 10
192.786555
 20
350.271453
 30
0.0
 11
190.909633
 21
352.148375
 31
0.0
  0
LINE
  8
LC-004-005-----0
 62
     2
  5
B1
 10
191.057067
 20
349.172514
 30
0.0
 11
188.627762
 21
351.601819
 31
0.0
  0
LINE
  8
LC-004-005-----0
 62
     2
  5
B2
 10
188.299335
 20
349.101819
 30
0.0
 11
185.818763
 21
351.582391
 31
0.0
  0
LINE
  8
LC-004-005-----0
 62
     2
  5
B3
 10
185.470908
 20
349.101819
 30
0.0
 11
183.94605
 21
350.626677
 31
0.0
  0
LINE
  8
LC-004-005-----0
 62
     2
  5
B4
 10
185.159633
 20
346.584666
 30
0.0
 11
183.159633
 21
348.584666
 31
0.0
  0
LINE
  8
LC-004-005-----0
 62
     2
  5
B5
 10
185.159633
 20
343.756239
 30
0.0
 11
183.159633
 21
345.756239
 31
0.0
  0
LINE
  8
LC-004-005-----0
 62
     2
  5
B6
 10
185.159633
 20
340.927812
 30
0.0
 11
183.159633
 21
342.927812
 31
0.0
  0
LINE
  8
LC-004-005-----0
 62
     2
  5
B7
 10
185.159633
 20
338.099385
 30
0.0
 11
183.159633
 21
340.099385
 31
0.0
  0
LINE
  8
LC-004-005-----0
 62
     2
  5
B8
 10
185.159633
 20
335.270958
 30
0.0
 11
183.159633
 21
337.270958
 31
0.0
  0
LINE
  8
LC-004-005-----0
 62
     2
  5
B9
 10
185.159633
 20
332.442531
 30
0.0
 11
183.159633
 21
334.442531
 31
0.0
  0
LINE
  8
LC-004-005-----0
 62
     2
  5
BA
 10
185.159633
 20
329.614103
 30
0.0
 11
183.159633
 21
331.614103
 31
0.0
  0
LINE
  8
LC-004-005-----0
 62
     2
  5
BB
 10
185.159633
 20
326.785676
 30
0.0
 11
183.159633
 21
328.785676
 31
0.0
  0
LINE
  8
LC-004-005-----0
 62
     2
  5
BC
 10
185.159633
 20
323.957249
 30
0.0
 11
183.159633
 21
325.957249
 31
0.0
  0
LINE
  8
LC-004-005-----0
 62
     2
  5
BD
 10
185.159633
 20
321.128822
 30
0.0
 11
183.159633
 21
323.128822
 31
0.0
  0
LINE
  8
LC-004-005-----0
 62
     2
  5
BE
 10
184.344841
 20
319.115187
 30
0.0
 11
182.8897
 21
320.570328
 31
0.0
  0
LINE
  8
LC-004-005-----0
 62
     2
  5
BF
 10
182.56065
 20
318.070951
 30
0.0
 11
181.096549
 21
319.535052
 31
0.0
  0
LINE
  8
LC-004-005-----0
 62
     2
  5
C0
 10
180.767499
 20
317.035674
 30
0.0
 11
179.303398
 21
318.499776
 31
0.0
  0
LINE
  8
LC-004-005-----0
 62
     2
  5
C1
 10
178.974349
 20
316.000398
 30
0.0
 11
177.510247
 21
317.4645
 31
0.0
  0
LINE
  8
LC-004-005-----0
 62
     2
  5
C2
 10
177.181198
 20
314.965122
 30
0.0
 11
175.717096
 21
316.429224
 31
0.0
  0
LINE
  8
LC-004-005-----0
 62
     2
  5
C3
 10
175.388047
 20
313.929846
 30
0.0
 11
173.923945
 21
315.393948
 31
0.0
  0
LINE
  8
LC-004-005-----0
 62
     2
  5
C4
 10
173.594896
 20
312.89457
 30
0.0
 11
172.130794
 21
314.358671
 31
0.0
  0
LINE
  8
LC-004-005-----0
 62
     2
  5
C5
 10
171.801745
 20
311.859294
 30
0.0
 11
170.337643
 21
313.323395
 31
0.0
  0
LINE
  8
LC-004-005-----0
 62
     2
  5
C6
 10
170.008594
 20
310.824017
 30
0.0
 11
168.544492
 21
312.288119
 31
0.0
  0
LINE
  8
LC-004-005-----0
 62
     2
  5
C7
 10
168.215443
 20
309.788741
 30
0.0
 11
166.751341
 21
311.252843
 31
0.0
  0
LINE
  8
LC-004-005-----0
 62
     2
  5
C8
 10
166.412032
 20
308.763725
 30
0.0
 11
164.573938
 21
310.601819
 31
0.0
  0
LINE
  8
LC-004-005-----0
 62
     2
  5
C9
 10
163.745511
 20
308.601819
 30
0.0
 11
161.745511
 21
310.601819
 31
0.0
  0
LINE
  8
LC-004-005-----0
 62
     2
  5
CA
 10
160.917084
 20
308.601819
 30
0.0
 11
158.917084
 21
310.601819
 31
0.0
  0
LINE
  8
LC-004-005-----0
 62
     2
  5
CB
 10
158.088657
 20
308.601819
 30
0.0
 11
156.088657
 21
310.601819
 31
0.0
  0
LINE
  8
LC-004-005-----0
 62
     2
  5
CC
 10
155.260229
 20
308.601819
 30
0.0
 11
153.260229
 21
310.601819
 31
0.0
  0
LINE
  8
LC-004-005-----0
 62
     2
  5
CD
 10
152.431802
 20
308.601819
 30
0.0
 11
150.431802
 21
310.601819
 31
0.0
  0
LINE
  8
LC-004-005-----0
 62
     2
  5
CE
 10
149.603375
 20
308.601819
 30
0.0
 11
148.376045
 21
309.829149
 31
0.0
  0
ENDBLK
  8
0
  5
CF
  0
BLOCK
  8
0
  5
D3
  2
*X2
 70
    65
 10
97.159633
 20
359.101819
 30
0.0
  3
*X2
  0
LINE
  8
LC-004-005-----0
 62
     2
  5
D4
 10
101.918095
 20
360.52974
 30
0.0
 11
98.587555
 21
363.86028
 31
0.0
  0
LINE
  8
LC-004-005-----0
 62
     2
  5
D5
 10
101.309811
 20
359.723811
 30
0.0
 11
97.781625
 21
363.251996
 31
0.0
  0
LINE
  8
LC-004-005-----0
 62
     2
  5
D6
 10
99.020223
 20
359.184971
 30
0.0
 11
97.242785
 21
360.962409
 31
0.0
  0
ENDBLK
  8
0
  5
D7
  0
BLOCK
  8
0
  5
DB
  2
*X3
 70
    65
 10
194.659633
 20
359.101819
 30
0.0
  3
*X3
  0
LINE
  8
LC-004-005-----0
 62
     2
  5
DC
 10
199.652521
 20
361.790263
 30
0.0
 11
197.348078
 21
364.094707
 31
0.0
  0
LINE
  8
LC-004-005-----0
 62
     2
  5
DD
 10
198.852322
 20
359.762035
 30
0.0
 11
195.319849
 21
363.294508
 31
0.0
  0
LINE
  8
LC-004-005-----0
 62
     2
  5
DE
 10
197.965037
 20
359.235107
 30
0.0
 11
194.792921
 21
362.407222
 31
0.0
  0
ENDBLK
  8
0
  5
DF
  0
BLOCK
  8
0
  5
E7
  2
*X4
 70
    65
 10
145.179976
 20
308.533671
 30
0.0
  3
*X4
  0
LINE
  8
LC-004-005-----0
 62
     2
  5
E8
 10
147.362591
 20
308.582937
 30
0.0
 11
147.712355
 21
308.932701
 31
0.0
  0
LINE
  8
LC-004-005-----0
 62
     2
  5
E9
 10
145.23584
 20
309.284613
 30
0.0
 11
148.317848
 21
312.366621
 31
0.0
  0
LINE
  8
LC-004-005-----0
 62
     2
  5
EA
 10
145.841333
 20
312.718533
 30
0.0
 11
148.92334
 21
315.800541
 31
0.0
  0
LINE
  8
LC-004-005-----0
 62
     2
  5
EB
 10
146.446826
 20
316.152453
 30
0.0
 11
149.528833
 21
319.234461
 31
0.0
  0
LINE
  8
LC-004-005-----0
 62
     2
  5
EC
 10
147.052318
 20
319.586373
 30
0.0
 11
150.134326
 21
322.668381
 31
0.0
  0
LINE
  8
LC-004-005-----0
 62
     2
  5
ED
 10
147.657811
 20
323.020293
 30
0.0
 11
150.739819
 21
326.1023
 31
0.0
  0
LINE
  8
LC-004-005-----0
 62
     2
  5
EE
 10
148.263304
 20
326.454213
 30
0.0
 11
151.345311
 21
329.53622
 31
0.0
  0
LINE
  8
LC-004-005-----0
 62
     2
  5
EF
 10
148.868796
 20
329.888132
 30
0.0
 11
151.950804
 21
332.97014
 31
0.0
  0
LINE
  8
LC-004-005-----0
 62
     2
  5
F0
 10
149.474289
 20
333.322052
 30
0.0
 11
151.917699
 21
335.765462
 31
0.0
  0
ENDBLK
  8
0
  5
F1
  0
BLOCK
  8
0
  5
FF
  2
*D5
 70
    65
 10
0.0
 20
0.0
 30
0.0
  3
*D5
  0
LINE
  8
LC-005-003-MTH-0
  6
BYBLOCK
 62
     2
  5
101
 10
94.159633
 20
367.601819
 30
0.0
 11
94.159633
 21
408.8
 31
0.0
  0
LINE
  8
LC-005-003-MTH-0
 62
     2
  5
102
 10
202.659633
 20
367.601819
 30
0.0
 11
202.659633
 21
408.8
 31
0.0
  0
LINE
  8
LC-001-003-----0
 62
     2
  5
103
 10
66.399177
 20
388.345267
 30
0.0
 11
94.159633
 21
392.0
 31
0.0
  0
LINE
  8
LC-001-003-----0
 62
     2
  5
104
 10
94.159633
 20
392.0
 30
0.0
 11
66.399177
 21
395.654733
 31
0.0
  0
LINE
  8
LC-001-003-----0
 62
     2
  5
105
 10
66.399177
 20
395.654733
 30
0.0
 11
66.399177
 21
388.345267
 31
0.0
  0
LINE
  8
LC-001-003-----0
 62
     2
  5
106
 10
66.336896
 20
389.295497
 30
0.0
 11
86.879633
 21
392.0
 31
0.0
  0
LINE
  8
LC-001-003-----0
 62
     2
  5
107
 10
86.879633
 20
392.0
 30
0.0
 11
66.336896
 21
394.704503
 31
0.0
  0
LINE
  8
LC-001-003-----0
 62
     2
  5
108
 10
66.274614
 20
390.245728
 30
0.0
 11
79.599633
 21
392.0
 31
0.0
  0
LINE
  8
LC-001-003-----0
 62
     2
  5
109
 10
79.599633
 20
392.0
 30
0.0
 11
66.274614
 21
393.754272
 31
0.0
  0
LINE
  8
LC-001-003-----0
 62
     2
  5
10A
 10
66.212333
 20
391.195959
 30
0.0
 11
72.319633
 21
392.0
 31
0.0
  0
LINE
  8
LC-001-003-----0
 62
     2
  5
10B
 10
72.319633
 20
392.0
 30
0.0
 11
66.212333
 21
392.804041
 31
0.0
  0
LINE
  8
LC-001-003-----0
 62
     2
  5
10C
 10
230.420089
 20
395.654733
 30
0.0
 11
202.659633
 21
392.0
 31
0.0
  0
LINE
  8
LC-001-003-----0
 62
     2
  5
10D
 10
202.659633
 20
392.0
 30
0.0
 11
230.420089
 21
388.345267
 31
0.0
  0
LINE
  8
LC-001-003-----0
 62
     2
  5
10E
 10
230.420089
 20
388.345267
 30
0.0
 11
230.420089
 21
395.654733
 31
0.0
  0
LINE
  8
LC-001-003-----0
 62
     2
  5
10F
 10
230.482371
 20
394.704503
 30
0.0
 11
209.939633
 21
392.0
 31
0.0
  0
LINE
  8
LC-001-003-----0
 62
     2
  5
110
 10
209.939633
 20
392.0
 30
0.0
 11
230.482371
 21
389.295497
 31
0.0
  0
LINE
  8
LC-001-003-----0
 62
     2
  5
111
 10
230.544652
 20
393.754272
 30
0.0
 11
217.219633
 21
392.0
 31
0.0
  0
LINE
  8
LC-001-003-----0
 62
     2
  5
112
 10
217.219633
 20
392.0
 30
0.0
 11
230.544652
 21
390.245728
 31
0.0
  0
LINE
  8
LC-001-003-----0
 62
     2
  5
113
 10
230.606934
 20
392.804041
 30
0.0
 11
224.499633
 21
392.0
 31
0.0
  0
LINE
  8
LC-001-003-----0
 62
     2
  5
114
 10
224.499633
 20
392.0
 30
0.0
 11
230.606934
 21
391.195959
 31
0.0
  0
LINE
  8
LC-006-003-MTG-0
  6
BYBLOCK
 62
     2
  5
116
 10
54.959633
 20
392.0
 30
0.0
 11
340.307633
 21
392.0
 31
0.0
  0
TEXT
  8
LC-001-003-----0
 62
     7
  5
117
 10
246.207793
 20
399.827554
 30
0.0
 40
28.0
  1
%%c108,5
 41
0.75
 51
15.0
  7
LCTX15-400-0-0-ARIAL
  0
ENDBLK
  8
0
  5
118
  0
BLOCK
  8
0
  5
11D
  2
*D6
 70
    65
 10
0.0
 20
0.0
 30
0.0
  3
*D6
  0
LINE
  8
LC-005-003-MTH-0
 62
     2
  5
11E
 10
147.641995
 20
308.533671
 30
0.0
 11
61.6
 21
308.533671
 31
0.0
  0
LINE
  8
LC-005-003-MTH-0
 62
     2
  5
11F
 10
94.159633
 20
367.601819
 30
0.0
 11
61.6
 21
367.601819
 31
0.0
  0
LINE
  8
LC-001-003-----0
 62
     2
  5
120
 10
82.054733
 20
280.773215
 30
0.0
 11
78.4
 21
308.533671
 31
0.0
  0
LINE
  8
LC-001-003-----0
 62
     2
  5
121
 10
78.4
 20
308.533671
 30
0.0
 11
74.745267
 21
280.773215
 31
0.0
  0
LINE
  8
LC-001-003-----0
 62
     2
  5
122
 10
74.745267
 20
280.773215
 30
0.0
 11
82.054733
 21
280.773215
 31
0.0
  0
LINE
  8
LC-001-003-----0
 62
     2
  5
123
 10
81.104503
 20
280.710933
 30
0.0
 11
78.4
 21
301.253671
 31
0.0
  0
LINE
  8
LC-001-003-----0
 62
     2
  5
124
 10
78.4
 20
301.253671
 30
0.0
 11
75.695497
 21
280.710933
 31
0.0
  0
LINE
  8
LC-001-003-----0
 62
     2
  5
125
 10
80.154272
 20
280.648652
 30
0.0
 11
78.4
 21
293.973671
 31
0.0
  0
LINE
  8
LC-001-003-----0
 62
     2
  5
126
 10
78.4
 20
293.973671
 30
0.0
 11
76.645728
 21
280.648652
 31
0.0
  0
LINE
  8
LC-001-003-----0
 62
     2
  5
127
 10
79.204041
 20
280.58637
 30
0.0
 11
78.4
 21
286.693671
 31
0.0
  0
LINE
  8
LC-001-003-----0
 62
     2
  5
128
 10
78.4
 20
286.693671
 30
0.0
 11
77.595959
 21
280.58637
 31
0.0
  0
LINE
  8
LC-001-003-----0
 62
     2
  5
129
 10
74.745267
 20
395.362275
 30
0.0
 11
78.4
 21
367.601819
 31
0.0
  0
LINE
  8
LC-001-003-----0
 62
     2
  5
12A
 10
78.4
 20
367.601819
 30
0.0
 11
82.054733
 21
395.362275
 31
0.0
  0
LINE
  8
LC-001-003-----0
 62
     2
  5
12B
 10
82.054733
 20
395.362275
 30
0.0
 11
74.745267
 21
395.362275
 31
0.0
  0
LINE
  8
LC-001-003-----0
 62
     2
  5
12C
 10
75.695497
 20
395.424557
 30
0.0
 11
78.4
 21
374.881819
 31
0.0
  0
LINE
  8
LC-001-003-----0
 62
     2
  5
12D
 10
78.4
 20
374.881819
 30
0.0
 11
81.104503
 21
395.424557
 31
0.0
  0
LINE
  8
LC-001-003-----0
 62
     2
  5
12E
 10
76.645728
 20
395.486838
 30
0.0
 11
78.4
 21
382.161819
 31
0.0
  0
LINE
  8
LC-001-003-----0
 62
     2
  5
12F
 10
78.4
 20
382.161819
 30
0.0
 11
80.154272
 21
395.486838
 31
0.0
  0
LINE
  8
LC-001-003-----0
 62
     2
  5
130
 10
77.595959
 20
395.549119
 30
0.0
 11
78.4
 21
389.441819
 31
0.0
  0
LINE
  8
LC-001-003-----0
 62
     2
  5
131
 10
78.4
 20
389.441819
 30
0.0
 11
79.204041
 21
395.549119
 31
0.0
  0
LINE
  8
LC-006-003-MTG-0
 62
     2
  5
132
 10
78.4
 20
269.333671
 30
0.0
 11
78.4
 21
406.801819
 31
0.0
  0
TEXT
  8
LC-001-003-----0
 62
     7
  5
133
 10
70.572446
 20
324.663905
 30
0.0
 40
28.0
  1
59
 50
90.0
 41
0.9
 51
15.0
  7
LCTX15-400-0-0-ARIAL
 72
     1
 11
70.572446
 21
342.415905
 31
0.0
  0
ENDBLK
  8
0
  5
134
  0
ENDSEC
  0
SECTION
  2
ENTITIES
  0
VIEWPORT
  8
LC-VIEWPORT
  5
136
 67
     1
 68
     1
 10
420.0
 20
297.0
 30
0.0
 40
840.0
 41
594.0
 69
     1
1001
ACAD
1000
MVIEW
1002
{
1070
    16
1010
0.0
1020
0.0
1030
0.0
1010
0.0
1020
0.0
1030
1.0
1040
0.0
1040
594.0
1040
420.0
1040
297.0
1040
50.0
1040
0.0
1040
0.0
1070
     0
1070
   100
1070
     1
1070
     1
1070
     0
1070
     0
1070
     0
1070
     0
1040
0.0
1040
0.0
1040
0.0
1040
1.0
1040
1.0
1040
0.0
1040
0.0
1070
     0
1002
{
1002
}
1002
}
  0
LINE
  8
LC-001-003-----0
  6
BYBLOCK
 62
     2
  5
24
 10
148.409633
 20
367.586221
 30
0.0
 11
148.404633
 21
367.586221
 31
0.0
  0
LINE
  8
LC-002-002-----0
  6
BYBLOCK
 62
     1
  5
26
 10
106.409633
 20
349.101819
 30
0.0
 11
111.659633
 21
349.101819
 31
0.0
  0
LINE
  8
LC-002-002-----0
 62
     1
  5
27
 10
189.409633
 20
349.101819
 30
0.0
 11
189.409633
 21
349.101819
 31
0.0
  0
LINE
  8
LC-002-002-----0
 62
     1
  5
28
 10
106.909633
 20
349.101819
 30
0.0
 11
106.909633
 21
349.101819
 31
0.0
  0
LINE
  8
LC-001-003-----0
 62
     2
  5
29
 10
111.659633
 20
344.963858
 30
0.0
 11
113.0289
 21
344.844062
 31
0.0
  0
LINE
  8
LC-002-002-----0
 62
     1
  5
2A
 10
111.659633
 20
349.101819
 30
0.0
 11
111.659633
 21
344.963858
 31
0.0
  0
LINE
  8
LC-002-002-----0
 62
     1
  5
2B
 10
148.159633
 20
308.601819
 30
0.0
 11
165.623735
 21
308.601819
 31
0.0
  0
LINE
  8
LC-002-002-----0
 62
     1
  5
2C
 10
185.159633
 20
349.101819
 30
0.0
 11
185.159633
 21
320.726175
 31
0.0
  0
LINE
  8
LC-002-002-----0
 62
     1
  5
2D
 10
153.909633
 20
351.601819
 30
0.0
 11
190.409633
 21
351.601819
 31
0.0
  0
LINE
  8
LC-002-002-----0
 62
     1
  5
2E
 10
166.623735
 20
308.869768
 30
0.0
 11
184.159633
 21
318.994124
 31
0.0
  0
ARC
  8
LC-003-002-RND-0
  6
BYBLOCK
 62
     1
  5
30
 10
165.623735
 20
310.601819
 30
0.0
 40
2.0
 50
270.0
 51
300.0
  0
LINE
  8
LC-002-002-----0
 62
     1
  5
31
 10
153.919318
 20
341.266614
 30
0.0
 11
153.022019
 21
336.17778
 31
0.0
  0
ARC
  8
LC-003-002-RND-0
 62
     1
  5
32
 10
183.159633
 20
320.726175
 30
0.0
 40
2.0
 50
300.0
 51
0.0
  0
LINE
  8
LC-002-002-----0
 62
     1
  5
33
 10
152.327427
 20
332.238549
 30
0.0
 11
147.403388
 21
333.10679
 31
0.0
  0
LINE
  8
LC-002-002-----0
 62
     1
  5
34
 10
152.327427
 20
332.238549
 30
0.0
 11
155.89026
 21
332.238549
 31
0.0
  0
LINE
  8
LC-002-002-----0
 62
     1
  5
35
 10
153.022019
 20
336.17778
 30
0.0
 11
149.575192
 21
336.785549
 31
0.0
  0
LINE
  8
LC-002-002-----0
 62
     1
  5
36
 10
147.199997
 20
337.712073
 30
0.0
 11
146.592228
 21
334.265246
 31
0.0
  0
LINE
  8
LC-002-002-----0
 62
     1
  5
37
 10
148.850857
 20
338.436409
 30
0.0
 11
148.358453
 21
338.523233
 31
0.0
  0
LINE
  8
LC-002-002-----0
 62
     1
  5
38
 10
148.850857
 20
338.436409
 30
0.0
 11
148.764033
 21
337.944005
 31
0.0
  0
ARC
  8
LC-003-002-RND-0
 62
     1
  5
39
 10
148.184805
 20
337.538425
 30
0.0
 40
1.0
 50
80.0
 51
170.0
  0
ARC
  8
LC-003-002-RND-0
 62
     1
  5
3A
 10
149.74884
 20
337.770357
 30
0.0
 40
1.0
 50
170.0
 51
260.0
  0
ARC
  8
LC-003-002-RND-0
 62
     1
  5
3B
 10
147.577036
 20
334.091598
 30
0.0
 40
1.0
 50
170.0
 51
260.0
  0
LINE
  8
LC-002-002-----0
 62
     1
  5
3C
 10
148.512287
 20
310.601819
 30
0.0
 11
165.623735
 21
310.601819
 31
0.0
  0
LINE
  8
LC-002-002-----0
 62
     1
  5
3D
 10
165.623735
 20
310.601819
 30
0.0
 11
183.159633
 21
320.726175
 31
0.0
  0
LINE
  8
LC-002-002-----0
 62
     1
  5
3E
 10
183.159633
 20
348.601819
 30
0.0
 11
183.159633
 21
320.726175
 31
0.0
  0
LINE
  8
LC-002-002-----0
 62
     1
  5
3F
 10
185.159633
 20
349.101819
 30
0.0
 11
190.409633
 21
349.101819
 31
0.0
  0
LINE
  8
LC-002-002-----0
 62
     1
  5
40
 10
113.659633
 20
346.79652
 30
0.0
 11
142.366055
 21
344.285034
 31
0.0
  0
LINE
  8
LC-002-002-----0
 62
     1
  5
41
 10
113.659633
 20
348.601819
 30
0.0
 11
113.659633
 21
346.79652
 31
0.0
  0
LINE
  8
LC-002-002-----0
 62
     1
  5
42
 10
185.159633
 20
341.101819
 30
0.0
 11
185.159633
 21
341.101819
 31
0.0
  0
LINE
  8
LC-002-002-----0
 62
     1
  5
43
 10
155.89026
 20
341.269157
 30
0.0
 11
155.89026
 21
332.238549
 31
0.0
  0
LINE
  8
LC-002-002-----0
 62
     1
  5
44
 10
153.022019
 20
336.17778
 30
0.0
 11
148.159633
 21
308.601819
 31
0.0
  0
LINE
  8
LC-002-002-----0
 62
     1
  5
45
 10
94.159633
 20
367.601819
 30
0.0
 11
148.409633
 21
367.601819
 31
0.0
  0
LINE
  8
LC-002-002-----0
 62
     1
  5
46
 10
103.409633
 20
357.601819
 30
0.0
 11
103.409633
 21
352.101819
 31
0.0
  0
LINE
  8
LC-002-002-----0
 62
     1
  5
47
 10
99.159633
 20
357.601819
 30
0.0
 11
103.409633
 21
357.601819
 31
0.0
  0
LINE
  8
LC-002-002-----0
 62
     1
  5
48
 10
99.159633
 20
357.601819
 30
0.0
 11
99.159633
 21
359.101819
 31
0.0
  0
LINE
  8
LC-002-002-----0
 62
     1
  5
49
 10
99.159633
 20
359.101819
 30
0.0
 11
102.159633
 21
359.101819
 31
0.0
  0
LINE
  8
LC-002-002-----0
 62
     1
  5
4A
 10
102.159633
 20
359.101819
 30
0.0
 11
102.159633
 21
364.101819
 31
0.0
  0
LINE
  8
LC-002-002-----0
 62
     1
  5
4B
 10
99.159633
 20
364.101819
 30
0.0
 11
102.159633
 21
364.101819
 31
0.0
  0
LINE
  8
LC-002-002-----0
 62
     1
  5
4C
 10
95.159633
 20
365.351819
 30
0.0
 11
99.159633
 21
365.351819
 31
0.0
  0
LINE
  8
LC-002-002-----0
 62
     1
  5
4D
 10
99.159633
 20
364.101819
 30
0.0
 11
99.159633
 21
365.351819
 31
0.0
  0
LINE
  8
LC-002-002-----0
 62
     1
  5
4E
 10
94.159633
 20
366.351819
 30
0.0
 11
94.159633
 21
367.601819
 31
0.0
  0
LINE
  8
LC-002-002-----0
 62
     1
  5
4F
 10
142.909633
 20
351.601819
 30
0.0
 11
106.409633
 21
351.601819
 31
0.0
  0
LINE
  8
LC-002-002-----0
 62
     1
  5
50
 10
105.909633
 20
352.101819
 30
0.0
 11
105.909633
 21
365.101271
 31
0.0
  0
LINE
  8
LC-002-002-----0
 62
     1
  5
51
 10
102.909633
 20
365.101271
 30
0.0
 11
102.909633
 21
367.601819
 31
0.0
  0
LINE
  8
LC-002-002-----0
 62
     1
  5
52
 10
102.909633
 20
367.011271
 30
0.0
 11
102.909633
 21
365.101271
 31
0.0
  0
LINE
  8
LC-002-002-----0
 62
     1
  5
53
 10
202.659633
 20
367.601819
 30
0.0
 11
148.409633
 21
367.601819
 31
0.0
  0
LINE
  8
LC-002-002-----0
 62
     1
  5
54
 10
193.409633
 20
357.601819
 30
0.0
 11
193.409633
 21
352.101819
 31
0.0
  0
LINE
  8
LC-002-002-----0
 62
     1
  5
55
 10
197.659633
 20
357.601819
 30
0.0
 11
193.409633
 21
357.601819
 31
0.0
  0
LINE
  8
LC-002-002-----0
 62
     1
  5
56
 10
197.659633
 20
357.601819
 30
0.0
 11
197.659633
 21
359.101819
 31
0.0
  0
LINE
  8
LC-002-002-----0
 62
     1
  5
57
 10
197.659633
 20
359.101819
 30
0.0
 11
194.659633
 21
359.101819
 31
0.0
  0
LINE
  8
LC-002-002-----0
 62
     1
  5
58
 10
194.659633
 20
359.101819
 30
0.0
 11
194.659633
 21
364.101819
 31
0.0
  0
LINE
  8
LC-002-002-----0
 62
     1
  5
59
 10
197.659633
 20
364.101819
 30
0.0
 11
194.659633
 21
364.101819
 31
0.0
  0
LINE
  8
LC-002-002-----0
 62
     1
  5
5A
 10
201.659633
 20
365.351819
 30
0.0
 11
197.659633
 21
365.351819
 31
0.0
  0
LINE
  8
LC-002-002-----0
 62
     1
  5
5B
 10
197.659633
 20
364.101819
 30
0.0
 11
197.659633
 21
365.351819
 31
0.0
  0
LINE
  8
LC-002-002-----0
 62
     1
  5
5C
 10
202.659633
 20
366.351819
 30
0.0
 11
202.659633
 21
367.601819
 31
0.0
  0
LINE
  8
LC-002-002-----0
 62
     1
  5
5D
 10
190.909633
 20
352.101819
 30
0.0
 11
190.909633
 21
365.101271
 31
0.0
  0
LINE
  8
LC-002-002-----0
 62
     1
  5
5E
 10
193.909633
 20
365.101271
 30
0.0
 11
193.909633
 21
367.601819
 31
0.0
  0
LINE
  8
LC-002-002-----0
 62
     1
  5
5F
 10
193.909633
 20
367.011271
 30
0.0
 11
193.909633
 21
365.101271
 31
0.0
  0
ARC
  8
LC-003-002-RND-0
 62
     1
  5
60
 10
95.159633
 20
366.351819
 30
0.0
 40
1.0
 50
180.0
 51
270.0
  0
ARC
  8
LC-003-002-RND-0
 62
     1
  5
61
 10
201.659633
 20
366.351819
 30
0.0
 40
1.0
 50
270.0
 51
0.0
  0
LINE
  8
LC-002-002-----0
 62
     1
  5
62
 10
153.909633
 20
343.714612
 30
0.0
 11
153.909633
 21
351.601819
 31
0.0
  0
LINE
  8
LC-002-002-----0
 62
     1
  5
63
 10
142.909633
 20
344.783131
 30
0.0
 11
142.909633
 21
351.601819
 31
0.0
  0
LINE
  8
LC-002-002-----0
 62
     1
  5
64
 10
153.409633
 20
352.101819
 30
0.0
 11
143.409633
 21
352.101819
 31
0.0
  0
ARC
  8
LC-003-002-RND-0
 62
     1
  5
65
 10
143.409633
 20
351.601819
 30
0.0
 40
0.5
 50
90.0
 51
180.0
  0
ARC
  8
LC-003-002-RND-0
 62
     1
  5
66
 10
153.409633
 20
351.601819
 30
0.0
 40
0.5
 50
0.0
 51
90.0
  0
ARC
  8
LC-003-002-RND-0
 62
     1
  5
67
 10
110.659633
 20
348.601819
 30
0.0
 40
3.0
 50
0.0
 51
90.0
  0
ARC
  8
LC-003-002-RND-0
 62
     1
  5
68
 10
186.159633
 20
348.601819
 30
0.0
 40
3.0
 50
90.0
 51
180.0
  0
ARC
  8
LC-003-002-RND-0
 62
     1
  5
69
 10
106.409633
 20
352.101819
 30
0.0
 40
3.0
 50
180.0
 51
270.0
  0
ARC
  8
LC-003-002-RND-0
 62
     1
  5
6A
 10
190.409633
 20
352.101819
 30
0.0
 40
3.0
 50
270.0
 51
0.0
  0
ARC
  8
LC-003-002-RND-0
 62
     1
  5
6B
 10
106.409633
 20
352.101819
 30
0.0
 40
0.5
 50
180.0
 51
270.0
  0
ARC
  8
LC-003-002-RND-0
 62
     1
  5
6C
 10
190.409633
 20
352.101819
 30
0.0
 40
0.5
 50
270.0
 51
0.0
  0
ARC
  8
LC-003-002-RND-0
 62
     1
  5
6D
 10
153.89026
 20
341.269157
 30
0.0
 40
2.0
 50
0.0
 51
78.009515
  0
ARC
  8
LC-003-002-RND-0
 62
     1
  5
6E
 10
142.409633
 20
344.783131
 30
0.0
 40
0.5
 50
265.0
 51
0.0
  0
ARC
  8
LC-003-002-RND-0
 62
     1
  5
6F
 10
154.409633
 20
343.714612
 30
0.0
 40
0.5
 50
180.0
 51
258.009515
  0
LINE
  8
LC-001-003-----0
 62
     2
  5
70
 10
111.659633
 20
346.338355
 30
0.0
 11
111.659633
 21
344.963858
 31
0.0
  0
LINE
  8
LC-002-002-----0
 62
     1
  5
71
 10
111.659633
 20
344.963858
 30
0.0
 11
153.919318
 21
341.266614
 31
0.0
  0
LINE
  8
LC-002-002-----0
 62
     1
  5
72
 10
113.659633
 20
346.79652
 30
0.0
 11
142.909633
 21
346.79652
 31
0.0
  0
LINE
  8
LC-002-002-----0
 62
     1
  5
73
 10
150.909633
 20
344.101819
 30
0.0
 11
145.909633
 21
344.101819
 31
0.0
  0
LINE
  8
LC-002-002-----0
 62
     1
  5
74
 10
150.909633
 20
352.101819
 30
0.0
 11
150.909633
 21
344.101819
 31
0.0
  0
LINE
  8
LC-002-002-----0
 62
     1
  5
75
 10
145.909633
 20
352.101819
 30
0.0
 11
145.909633
 21
344.101819
 31
0.0
  0
LINE
  8
LC-002-002-----0
 62
     1
  5
76
 10
102.909633
 20
365.101271
 30
0.0
 11
102.909633
 21
367.101271
 31
0.0
  0
LINE
  8
LC-002-002-----0
 62
     1
  5
77
 10
193.909633
 20
365.101271
 30
0.0
 11
193.909633
 21
367.101271
 31
0.0
  0
LINE
  8
LC-002-002-----0
 62
     1
  5
78
 10
102.909633
 20
365.101271
 30
0.0
 11
193.909633
 21
365.101271
 31
0.0
  0
INSERT
  8
LC-004-005-----0
 62
     2
  5
A3
  2
*X0
 10
94.159633
 20
332.238549
 30
0.0
  0
INSERT
  8
LC-004-005-----0
 62
     2
  5
D0
  2
*X1
 10
148.159633
 20
308.601819
 30
0.0
  0
CIRCLE
  8
LC-002-002-----0
 62
     1
  5
D1
 10
99.659633
 20
361.601819
 30
0.0
 40
2.5
  0
INSERT
  8
LC-004-005-----0
 62
     2
  5
D8
  2
*X2
 10
97.159633
 20
359.101819
 30
0.0
  0
CIRCLE
  8
LC-002-002-----0
 62
     1
  5
D9
 10
197.159633
 20
361.601819
 30
0.0
 40
2.5
  0
INSERT
  8
LC-004-005-----0
 62
     2
  5
E0
  2
*X3
 10
194.659633
 20
359.101819
 30
0.0
  0
LINE
  8
LC-002-002-----0
 62
     1
  5
E1
 10
152.900521
 20
338.356252
 30
0.0
 11
147.641995
 21
308.533671
 31
0.0
  0
LINE
  8
LC-002-002-----0
 62
     1
  5
E2
 10
151.087041
 20
336.709653
 30
0.0
 11
150.950622
 21
335.935984
 31
0.0
  0
LINE
  8
LC-002-002-----0
 62
     1
  5
E3
 10
149.965815
 20
336.109632
 30
0.0
 11
145.179976
 21
308.967791
 31
0.0
  0
ARC
  8
LC-002-002-----0
 62
     1
  5
E4
 10
150.930906
 20
338.703549
 30
0.0
 40
2.0
 50
350.0
 51
274.477512
  0
LINE
  8
LC-002-002-----0
 62
     1
  5
E5
 10
147.641995
 20
308.533671
 30
0.0
 11
145.179976
 21
308.967791
 31
0.0
  0
INSERT
  8
LC-004-005-----0
 62
     2
  5
F2
  2
*X4
 10
145.179976
 20
308.533671
 30
0.0
  0
LINE
  8
LC-002-002-----0
 62
     1
  5
F3
 10
152.427834
 20
335.675511
 30
0.0
 11
149.965815
 21
336.109632
 31
0.0
  0
LINE
  8
LC-002-002-----0
  6
DASHDOT
 62
     2
  5
F5
 10
148.404633
 20
367.601819
 30
0.0
 11
148.404633
 21
341.749087
 31
0.0
  0
CIRCLE
  8
LC-002-002-----0
 62
     1
  5
F6
 10
148.404633
 20
219.12856
 30
0.0
 40
54.25
  0
CIRCLE
  8
LC-002-002-----0
 62
     1
  5
F7
 10
148.404633
 20
219.12856
 30
0.0
 40
45.5
  0
CIRCLE
  8
LC-002-002-----0
 62
     1
  5
F8
 10
148.404633
 20
219.12856
 30
0.0
 40
42.5
  0
CIRCLE
  8
LC-002-002-----0
 62
     1
  5
F9
 10
148.404633
 20
219.12856
 30
0.0
 40
34.75
  0
CIRCLE
  8
LC-002-002-----0
 62
     1
  5
FA
 10
148.404633
 20
219.12856
 30
0.0
 40
5.5
  0
LINE
  8
LC-002-002-----0
 62
     1
  5
FB
 10
114.530001
 20
226.87916
 30
0.0
 11
182.279266
 21
226.87916
 31
0.0
  0
LINE
  8
LC-002-002-----0
  6
DASHDOT
 62
     2
  5
FC
 10
148.404633
 20
164.87856
 30
0.0
 11
148.404633
 21
273.37856
 31
0.0
  0
LINE
  8
LC-002-002-----0
  6
DASHDOT
 62
     2
  5
FD
 10
94.154633
 20
219.12856
 30
0.0
 11
202.654633
 21
219.12856
 31
0.0
  0
DIMENSION
  8
LC-001-003-----0
 62
     2
  5
11B
  2
*D5
 10
148.409633
 20
392.0
 30
0.0
 11
148.409633
 21
392.0
 31
0.0
  1
%%c<>
 13
94.159633
 23
367.601819
 33
0.0
 14
202.659633
 24
367.601819
 34
0.0
  3
LC-DIM-L-0140-02-02
  0
DIMENSION
  8
LC-001-003-----0
 62
     2
  5
135
  2
*D6
 10
78.4
 20
338.067745
 30
0.0
 11
78.4
 21
338.067745
 31
0.0
  1
59
 13
94.159633
 23
367.601819
 33
0.0
 14
147.641995
 24
308.533671
 34
0.0
 50
90.0
  3
LC-DIM-L-0140-02-02
  0
ENDSEC
  0
EOF
