  0
SECTION
  2
HEADER
  9
$ACADVER
  1
AC1009
  9
$INSBASE
 10
0.0
 20
0.0
 30
0.0
  9
$EXTMIN
 10
0.0
 20
0.0
 30
0.0
  9
$EXTMAX
 10
840.0
 20
594.0
 30
0.0
  9
$LIMMIN
 10
0.0
 20
0.0
  9
$LIMMAX
 10
840.0
 20
594.0
  9
$ORTHOMODE
 70
     0
  9
$REGENMODE
 70
     1
  9
$FILLMODE
 70
     1
  9
$QTEXTMODE
 70
     0
  9
$MIRRTEXT
 70
     1
  9
$DRAGMODE
 70
     2
  9
$LTSCALE
 40
2.0
  9
$OSMODE
 70
     0
  9
$ATTMODE
 70
     1
  9
$TEXTSIZE
 40
0.2
  9
$TRACEWID
 40
0.05
  9
$TEXTSTYLE
  7
STANDARD
  9
$CLAYER
  8
0
  9
$CELTYPE
  6
BYLAYER
  9
$CECOLOR
 62
     7
  9
$DIMSCALE
 40
2.0
  9
$DIMASZ
 40
3.5
  9
$DIMEXO
 40
0.0625
  9
$DIMDLI
 40
0.38
  9
$DIMRND
 40
0.0
  9
$DIMDLE
 40
0.0
  9
$DIMEXE
 40
0.18
  9
$DIMTP
 40
0.0
  9
$DIMTM
 40
0.0
  9
$DIMTXT
 40
3.5
  9
$DIMCEN
 40
0.09
  9
$DIMTSZ
 40
0.0
  9
$DIMTOL
 70
     0
  9
$DIMLIM
 70
     0
  9
$DIMTIH
 70
     1
  9
$DIMTOH
 70
     1
  9
$DIMSE1
 70
     0
  9
$DIMSE2
 70
     0
  9
$DIMTAD
 70
     1
  9
$DIMZIN
 70
     0
  9
$DIMBLK
  1

  9
$DIMASO
 70
     1
  9
$DIMSHO
 70
     1
  9
$DIMPOST
  1

  9
$DIMAPOST
  1

  9
$DIMALT
 70
     0
  9
$DIMALTD
 70
     2
  9
$DIMALTF
 40
25.4
  9
$DIMLFAC
 40
1.0
  9
$DIMTOFL
 70
     0
  9
$DIMTVP
 40
0.0
  9
$DIMTIX
 70
     0
  9
$DIMSOXD
 70
     0
  9
$DIMSAH
 70
     0
  9
$DIMBLK1
  1

  9
$DIMBLK2
  1

  9
$DIMSTYLE
  2
STANDARD
  9
$DIMCLRD
 70
     0
  9
$DIMCLRE
 70
     0
  9
$DIMCLRT
 70
     0
  9
$DIMTFAC
 40
1.0
  9
$DIMGAP
 40
0.09
  9
$LUNITS
 70
     2
  9
$LUPREC
 70
     2
  9
$AXISMODE
 70
     0
  9
$AXISUNIT
 10
0.0
 20
0.0
  9
$SKETCHINC
 40
0.1
  9
$FILLETRAD
 40
0.0
  9
$AUNITS
 70
     0
  9
$AUPREC
 70
     0
  9
$MENU
  1
acad
  9
$ELEVATION
 40
0.0
  9
$PELEVATION
 40
0.0
  9
$THICKNESS
 40
0.0
  9
$LIMCHECK
 70
     0
  9
$BLIPMODE
 70
     1
  9
$CHAMFERA
 40
0.0
  9
$CHAMFERB
 40
0.0
  9
$SKPOLY
 70
     0
  9
$TDCREATE
 40
0.000000000
  9
$TDUPDATE
 40
0.000000000
  9
$TDINDWG
 40
0.0000000000
  9
$TDUSRTIMER
 40
0.0000000000
  9
$USRTIMER
 70
     1
  9
$ANGBASE
 50
0.0
  9
$ANGDIR
 70
     0
  9
$PDMODE
 70
     0
  9
$PDSIZE
 40
0.0
  9
$PLINEWID
 40
0.0
  9
$COORDS
 70
     0
  9
$SPLFRAME
 70
     0
  9
$SPLINETYPE
 70
     6
  9
$SPLINESEGS
 70
     8
  9
$ATTDIA
 70
     0
  9
$ATTREQ
 70
     1
  9
$HANDLING
 70
     1
  9
$HANDSEED
  5
32D
  9
$SURFTAB1
 70
     6
  9
$SURFTAB2
 70
     6
  9
$SURFTYPE
 70
     6
  9
$SURFU
 70
     6
  9
$SURFV
 70
     6
  9
$UCSNAME
  2

  9
$UCSORG
 10
0.0
 20
0.0
 30
0.0
  9
$UCSXDIR
 10
1.0
 20
0.0
 30
0.0
  9
$UCSYDIR
 10
0.0
 20
1.0
 30
0.0
  9
$PUCSNAME
  2

  9
$PUCSORG
 10
0.0
 20
0.0
 30
0.0
  9
$PUCSXDIR
 10
1.0
 20
0.0
 30
0.0
  9
$PUCSYDIR
 10
0.0
 20
1.0
 30
0.0
  9
$USERI1
 70
     0
  9
$USERI2
 70
     0
  9
$USERI3
 70
     0
  9
$USERI4
 70
     0
  9
$USERI5
 70
     0
  9
$USERR1
 40
0.0
  9
$USERR2
 40
0.0
  9
$USERR3
 40
0.0
  9
$USERR4
 40
0.0
  9
$USERR5
 40
0.0
  9
$WORLDVIEW
 70
     1
  9
$SHADEDGE
 70
     3
  9
$SHADEDIF
 70
    70
  9
$TILEMODE
 70
     1
  9
$MAXACTVP
 70
    16
  9
$PINSBASE
 10
0.0
 20
0.0
 30
0.0
  9
$PLIMCHECK
 70
     0
  9
$PEXTMIN
 10
1.000000E+20
 20
1.000000E+20
 30
1.000000E+20
  9
$PEXTMAX
 10
-1.000000E+20
 20
-1.000000E+20
 30
-1.000000E+20
  9
$PLIMMIN
 10
0.0
 20
0.0
  9
$PLIMMAX
 10
840.0
 20
594.0
  9
$UNITMODE
 70
     0
  9
$VISRETAIN
 70
     0
  9
$PLINEGEN
 70
     1
  9
$PSLTSCALE
 70
     0
  9
$TREEDEPTH
 70
  3020
  9
$DWGCODEPAGE
  3
dos850
  0
ENDSEC
  0
SECTION
  2
TABLES
  0
TABLE
  2
VPORT
 70
     1
  0
VPORT
  2
*ACTIVE
 70
     0
 10
0.0
 20
0.0
 11
1.0
 21
1.0
 12
420.0
 22
297.0
 13
0.0
 23
0.0
 14
1.0
 24
1.0
 15
0.0
 25
0.0
 16
0.0
 26
0.0
 36
1.0
 17
0.0
 27
0.0
 37
0.0
 40
594.0
 41
1.604229
 42
50.0
 43
0.0
 44
0.0
 50
0.0
 51
0.0
 71
     0
 72
   100
 73
     1
 74
     1
 75
     0
 76
     0
 77
     0
 78
     0
  0
ENDTAB
  0
TABLE
  2
LTYPE
 70
     3
  0
LTYPE
  2
CONTINUOUS
 70
    64
  3
Solid line
 72
    65
 73
     0
 40
0.0
  0
LTYPE
  2
DASHED
 70
    64
  3
__ __ __ __ __
 72
    65
 73
     2
 40
6.25
 49
5.0
 49
-1.25
  0
LTYPE
  2
DASHDOT
 70
    64
  3
__ . __ . __ . __ . __
 72
    65
 73
     4
 40
7.5
 49
5.0
 49
-1.25
 49
0.0
 49
-1.25
  0
ENDTAB
  0
TABLE
  2
LAYER
 70
    12
  0
LAYER
  2
0
 70
     0
 62
     7
  6
CONTINUOUS
  0
LAYER
  2
LC-INFO-1-2-MM-A3-0
 70
     1
 62
    -1
  6
CONTINUOUS
  0
LAYER
  2
LC-003-003-MTH-0
 70
     0
 62
     2
  6
CONTINUOUS
  0
LAYER
  2
LC-002-003-----0
 70
     0
 62
     2
  6
CONTINUOUS
  0
LAYER
  2
LC-004-003-MTG-0
 70
     0
 62
     2
  6
CONTINUOUS
  0
LAYER
  2
LC-005-005-----0
 70
     0
 62
     2
  6
CONTINUOUS
  0
LAYER
  2
LC-006-000-----0
 70
     0
 62
     7
  6
CONTINUOUS
  0
LAYER
  2
LC-009-000-----0
 70
     0
 62
     7
  6
CONTINUOUS
  0
LAYER
  2
LC-001-002-----0
 70
     0
 62
     2
  6
DASHDOT
  0
LAYER
  2
LC-007-002-RND-0
 70
     0
 62
     1
  6
CONTINUOUS
  0
LAYER
  2
LC-008-001-----0
 70
     0
 62
     2
  6
DASHDOT
  0
LAYER
  2
LC-000
 70
     0
 62
     7
  6
CONTINUOUS
  0
ENDTAB
  0
TABLE
  2
STYLE
 70
     4
  0
STYLE
  2
STANDARD
 70
     0
 40
0.0
 41
1.0
 50
0.0
 71
     0
 42
0.0
  3
txt
  4

  0
STYLE
  2
LC-STANDARD
 70
    64
 40
0.0
 41
1.0
 50
0.0
 71
     0
 42
3.5
  3
MONOTXT
  4

  0
STYLE
  2
LC-TXTSTYLE-150-400-0-0-D2
 70
    64
 40
0.0
 41
1.0
 50
15.0
 71
     0
 42
3.5
  3
MONOTXT
  4

  0
STYLE
  2
LC-TXTSTYLE-150-400-0-0-D3
 70
    64
 40
0.0
 41
1.0
 50
15.0
 71
     0
 42
3.5
  3
LC-STANDARD
  4

  0
ENDTAB
  0
TABLE
  2
VIEW
 70
     0
  0
ENDTAB
  0
TABLE
  2
UCS
 70
     0
  0
ENDTAB
  0
TABLE
  2
APPID
 70
     1
  0
APPID
  2
ACAD
 70
     0
  0
ENDTAB
  0
TABLE
  2
DIMSTYLE
 70
     3
  0
DIMSTYLE
  2
STANDARD
 70
     0
  3

  4

  5

  6

  7

 40
1.0
 41
0.18
 42
0.0625
 43
0.38
 44
0.18
 45
0.0
 46
0.0
 47
0.0
 48
0.0
 71
     0
 72
     0
 73
     1
 74
     1
 75
     0
 76
     0
 77
     0
 78
     0
140
0.18
141
0.09
142
0.0
143
25.4
144
1.0
145
0.0
146
1.0
147
0.09
170
     0
171
     2
172
     0
173
     0
174
     0
175
     0
176
     0
177
     0
178
     0
  0
DIMSTYLE
  2
LC-STANDARD
 70
     0
  3

  4

  5

  6

  7

 40
1.0
 41
3.5
 42
0.0
 43
7.5
 44
1.8
 45
0.0
 46
0.0
 47
0.0
 48
0.0
 71
     0
 72
     0
 73
     0
 74
     0
 75
     0
 76
     0
 77
     1
 78
     8
140
3.5
141
0.0
142
0.0
143
25.4
144
1.0
145
0.0
146
0.71
147
1.5
170
     0
171
     2
172
     1
173
     0
174
     0
175
     0
176
     0
177
     0
178
     3
  0
DIMSTYLE
  2
LC-DIM-L-0090-02-02
 70
     0
  3

  4

  5

  6

  7

 40
2.0
 41
3.5
 42
0.0
 43
7.5
 44
1.8
 45
0.0
 46
0.0
 47
0.0
 48
0.0
 71
     0
 72
     0
 73
     0
 74
     0
 75
     0
 76
     0
 77
     1
 78
     8
140
9.0
141
0.0
142
0.0
143
25.4
144
1.0
145
0.0
146
0.71
147
1.5
170
     0
171
     2
172
     0
173
     0
174
     0
175
     0
176
     2
177
     2
178
     6
  0
ENDTAB
  0
ENDSEC
  0
SECTION
  2
BLOCKS
  0
BLOCK
  8
0
  5
23
  2
*D0
 70
    65
 10
0.0
 20
0.0
 30
0.0
  3
*D0
  0
LINE
  8
LC-003-003-MTH-0
  6
CONTINUOUS
  5
25
 10
280.550488
 20
285.717696
 30
0.0
 11
280.550488
 21
241.2
 31
0.0
  0
LINE
  8
LC-003-003-MTH-0
  6
CONTINUOUS
  5
26
 10
297.550747
 20
285.718047
 30
0.0
 11
297.550747
 21
241.2
 31
0.0
  0
LINE
  8
LC-002-003-----0
  6
CONTINUOUS
  5
28
 10
262.70448
 20
249.650529
 30
0.0
 11
280.550488
 21
252.0
 31
0.0
  0
LINE
  8
LC-002-003-----0
  6
CONTINUOUS
  5
29
 10
280.550488
 20
252.0
 30
0.0
 11
262.70448
 21
254.349471
 31
0.0
  0
LINE
  8
LC-002-003-----0
  6
CONTINUOUS
  5
2A
 10
262.70448
 20
254.349471
 30
0.0
 11
262.70448
 21
249.650529
 31
0.0
  0
LINE
  8
LC-002-003-----0
  6
CONTINUOUS
  5
2B
 10
262.664442
 20
250.261391
 30
0.0
 11
275.870488
 21
252.0
 31
0.0
  0
LINE
  8
LC-002-003-----0
  6
CONTINUOUS
  5
2C
 10
275.870488
 20
252.0
 30
0.0
 11
262.664442
 21
253.738609
 31
0.0
  0
LINE
  8
LC-002-003-----0
  6
CONTINUOUS
  5
2D
 10
262.624404
 20
250.872254
 30
0.0
 11
271.190488
 21
252.0
 31
0.0
  0
LINE
  8
LC-002-003-----0
  6
CONTINUOUS
  5
2E
 10
271.190488
 20
252.0
 30
0.0
 11
262.624404
 21
253.127746
 31
0.0
  0
LINE
  8
LC-002-003-----0
  6
CONTINUOUS
  5
2F
 10
262.584366
 20
251.483116
 30
0.0
 11
266.510488
 21
252.0
 31
0.0
  0
LINE
  8
LC-002-003-----0
  6
CONTINUOUS
  5
30
 10
266.510488
 20
252.0
 30
0.0
 11
262.584366
 21
252.516884
 31
0.0
  0
LINE
  8
LC-002-003-----0
  6
CONTINUOUS
  5
31
 10
315.396754
 20
254.349471
 30
0.0
 11
297.550747
 21
252.0
 31
0.0
  0
LINE
  8
LC-002-003-----0
  6
CONTINUOUS
  5
32
 10
297.550747
 20
252.0
 30
0.0
 11
315.396754
 21
249.650529
 31
0.0
  0
LINE
  8
LC-002-003-----0
  6
CONTINUOUS
  5
33
 10
315.396754
 20
249.650529
 30
0.0
 11
315.396754
 21
254.349471
 31
0.0
  0
LINE
  8
LC-002-003-----0
  6
CONTINUOUS
  5
34
 10
315.436792
 20
253.738609
 30
0.0
 11
302.230747
 21
252.0
 31
0.0
  0
LINE
  8
LC-002-003-----0
  6
CONTINUOUS
  5
35
 10
302.230747
 20
252.0
 30
0.0
 11
315.436792
 21
250.261391
 31
0.0
  0
LINE
  8
LC-002-003-----0
  6
CONTINUOUS
  5
36
 10
315.47683
 20
253.127746
 30
0.0
 11
306.910747
 21
252.0
 31
0.0
  0
LINE
  8
LC-002-003-----0
  6
CONTINUOUS
  5
37
 10
306.910747
 20
252.0
 30
0.0
 11
315.47683
 21
250.872254
 31
0.0
  0
LINE
  8
LC-002-003-----0
  6
CONTINUOUS
  5
38
 10
315.516868
 20
252.516884
 30
0.0
 11
311.590747
 21
252.0
 31
0.0
  0
LINE
  8
LC-002-003-----0
  6
CONTINUOUS
  5
39
 10
311.590747
 20
252.0
 30
0.0
 11
315.516868
 21
251.483116
 31
0.0
  0
LINE
  8
LC-004-003-MTG-0
  6
CONTINUOUS
  5
3B
 10
255.350488
 20
252.0
 30
0.0
 11
420.353266
 21
252.0
 31
0.0
  0
TEXT
  8
LC-002-003-----0
  6
CONTINUOUS
 62
     6
  5
3D
 10
324.825992
 20
262.431999
 30
0.0
 40
18.0
  1
Ø17-23
 41
0.9
 51
15.0
  7
LC-TXTSTYLE-150-400-0-0-D0
  0
ENDBLK
  8
0
  5
3E
  0
BLOCK
  8
0
  5
40
  2
*D1
 70
    65
 10
0.0
 20
0.0
 30
0.0
  3
*D1
  0
LINE
  8
LC-003-003-MTH-0
  6
CONTINUOUS
  5
41
 10
289.0505
 20
285.717696
 30
0.0
 11
360.8
 21
285.717696
 31
0.0
  0
LINE
  8
LC-003-003-MTH-0
  6
CONTINUOUS
  5
42
 10
286.300018
 20
337.467671
 30
0.0
 11
360.8
 21
337.467671
 31
0.0
  0
LINE
  8
LC-004-003-MTG-0
  6
CONTINUOUS
  5
43
 10
350.0
 20
285.717696
 30
0.0
 11
350.0
 21
337.467671
 31
0.0
  0
LINE
  8
LC-002-003-----0
  6
CONTINUOUS
  5
44
 10
347.650529
 20
303.563704
 30
0.0
 11
350.0
 21
285.717696
 31
0.0
  0
LINE
  8
LC-002-003-----0
  6
CONTINUOUS
  5
45
 10
350.0
 20
285.717696
 30
0.0
 11
352.349471
 21
303.563704
 31
0.0
  0
LINE
  8
LC-002-003-----0
  6
CONTINUOUS
  5
46
 10
352.349471
 20
303.563704
 30
0.0
 11
347.650529
 21
303.563704
 31
0.0
  0
LINE
  8
LC-002-003-----0
  6
CONTINUOUS
  5
47
 10
348.261391
 20
303.603742
 30
0.0
 11
350.0
 21
290.397696
 31
0.0
  0
LINE
  8
LC-002-003-----0
  6
CONTINUOUS
  5
48
 10
350.0
 20
290.397696
 30
0.0
 11
351.738609
 21
303.603742
 31
0.0
  0
LINE
  8
LC-002-003-----0
  6
CONTINUOUS
  5
49
 10
348.872254
 20
303.64378
 30
0.0
 11
350.0
 21
295.077696
 31
0.0
  0
LINE
  8
LC-002-003-----0
  6
CONTINUOUS
  5
4A
 10
350.0
 20
295.077696
 30
0.0
 11
351.127746
 21
303.64378
 31
0.0
  0
LINE
  8
LC-002-003-----0
  6
CONTINUOUS
  5
4B
 10
349.483116
 20
303.683818
 30
0.0
 11
350.0
 21
299.757696
 31
0.0
  0
LINE
  8
LC-002-003-----0
  6
CONTINUOUS
  5
4C
 10
350.0
 20
299.757696
 30
0.0
 11
350.516884
 21
303.683818
 31
0.0
  0
LINE
  8
LC-002-003-----0
  6
CONTINUOUS
  5
4D
 10
352.349471
 20
319.621663
 30
0.0
 11
350.0
 21
337.467671
 31
0.0
  0
LINE
  8
LC-002-003-----0
  6
CONTINUOUS
  5
4E
 10
350.0
 20
337.467671
 30
0.0
 11
347.650529
 21
319.621663
 31
0.0
  0
LINE
  8
LC-002-003-----0
  6
CONTINUOUS
  5
4F
 10
347.650529
 20
319.621663
 30
0.0
 11
352.349471
 21
319.621663
 31
0.0
  0
LINE
  8
LC-002-003-----0
  6
CONTINUOUS
  5
50
 10
351.738609
 20
319.581625
 30
0.0
 11
350.0
 21
332.787671
 31
0.0
  0
LINE
  8
LC-002-003-----0
  6
CONTINUOUS
  5
51
 10
350.0
 20
332.787671
 30
0.0
 11
348.261391
 21
319.581625
 31
0.0
  0
LINE
  8
LC-002-003-----0
  6
CONTINUOUS
  5
52
 10
351.127746
 20
319.541587
 30
0.0
 11
350.0
 21
328.107671
 31
0.0
  0
LINE
  8
LC-002-003-----0
  6
CONTINUOUS
  5
53
 10
350.0
 20
328.107671
 30
0.0
 11
348.872254
 21
319.541587
 31
0.0
  0
LINE
  8
LC-002-003-----0
  6
CONTINUOUS
  5
54
 10
350.516884
 20
319.501549
 30
0.0
 11
350.0
 21
323.427671
 31
0.0
  0
LINE
  8
LC-002-003-----0
  6
CONTINUOUS
  5
55
 10
350.0
 20
323.427671
 30
0.0
 11
349.483116
 21
319.501549
 31
0.0
  0
TEXT
  8
LC-002-003-----0
  6
CONTINUOUS
 62
     6
  5
56
 10
339.568001
 20
302.524937
 30
0.0
 40
18.0
  1
52
 50
90.0
 51
15.0
  7
LC-TXTSTYLE-150-400-0-0-D0
 72
     1
 11
339.568001
 21
314.387929
 31
0.0
  0
ENDBLK
  8
0
  5
57
  0
BLOCK
  8
0
  5
59
  2
*X2
 70
    65
 10
203.942327
 20
365.966864
 30
0.0
  3
*X2
  0
LINE
  8
LC-005-005-----0
  6
CONTINUOUS
  5
5B
 10
206.442327
 20
374.516604
 30
0.0
 11
205.992067
 21
374.966864
 31
0.0
  0
LINE
  8
LC-005-005-----0
  6
CONTINUOUS
  5
5C
 10
206.442327
 20
373.950919
 30
0.0
 11
205.426382
 21
374.966864
 31
0.0
  0
LINE
  8
LC-005-005-----0
  6
CONTINUOUS
  5
5D
 10
206.442327
 20
373.385233
 30
0.0
 11
204.860696
 21
374.966864
 31
0.0
  0
LINE
  8
LC-005-005-----0
  6
CONTINUOUS
  5
5E
 10
206.442327
 20
372.819548
 30
0.0
 11
204.295011
 21
374.966864
 31
0.0
  0
LINE
  8
LC-005-005-----0
  6
CONTINUOUS
  5
5F
 10
206.442327
 20
372.253862
 30
0.0
 11
204.020291
 21
374.675898
 31
0.0
  0
LINE
  8
LC-005-005-----0
  6
CONTINUOUS
  5
60
 10
206.442327
 20
371.688177
 30
0.0
 11
204.227347
 21
373.903158
 31
0.0
  0
LINE
  8
LC-005-005-----0
  6
CONTINUOUS
  5
61
 10
206.442327
 20
371.122491
 30
0.0
 11
204.434402
 21
373.130417
 31
0.0
  0
LINE
  8
LC-005-005-----0
  6
CONTINUOUS
  5
62
 10
206.442327
 20
370.556806
 30
0.0
 11
204.641457
 21
372.357676
 31
0.0
  0
LINE
  8
LC-005-005-----0
  6
CONTINUOUS
  5
63
 10
206.442327
 20
369.991121
 30
0.0
 11
204.848512
 21
371.584936
 31
0.0
  0
LINE
  8
LC-005-005-----0
  6
CONTINUOUS
  5
64
 10
206.442327
 20
369.425435
 30
0.0
 11
205.055568
 21
370.812195
 31
0.0
  0
LINE
  8
LC-005-005-----0
  6
CONTINUOUS
  5
65
 10
206.442327
 20
368.85975
 30
0.0
 11
205.262623
 21
370.039454
 31
0.0
  0
LINE
  8
LC-005-005-----0
  6
CONTINUOUS
  5
66
 10
206.442327
 20
368.294064
 30
0.0
 11
205.469678
 21
369.266714
 31
0.0
  0
LINE
  8
LC-005-005-----0
  6
CONTINUOUS
  5
67
 10
206.442327
 20
367.728379
 30
0.0
 11
205.676733
 21
368.493973
 31
0.0
  0
LINE
  8
LC-005-005-----0
  6
CONTINUOUS
  5
68
 10
206.442327
 20
367.162694
 30
0.0
 11
205.883789
 21
367.721232
 31
0.0
  0
LINE
  8
LC-005-005-----0
  6
CONTINUOUS
  5
69
 10
206.442327
 20
366.597008
 30
0.0
 11
206.090844
 21
366.948492
 31
0.0
  0
LINE
  8
LC-005-005-----0
  6
CONTINUOUS
  5
6A
 10
206.442327
 20
366.031323
 30
0.0
 11
206.297899
 21
366.175751
 31
0.0
  0
ENDBLK
  8
0
  5
6B
  0
BLOCK
  8
0
  5
6D
  2
BLK1
 70
    64
 10
0.0
 20
0.0
 30
0.0
  3
BLK1
  0
ENDBLK
  8
0
  5
6E
  0
BLOCK
  8
0
  5
70
  2
*X4
 70
    65
 10
245.157709
 20
365.966864
 30
0.0
  3
*X4
  0
LINE
  8
LC-005-005-----0
  6
CONTINUOUS
  5
71
 10
247.579391
 20
374.674577
 30
0.0
 11
247.287103
 21
374.966864
 31
0.0
  0
LINE
  8
LC-005-005-----0
  6
CONTINUOUS
  5
72
 10
247.459847
 20
374.228435
 30
0.0
 11
246.721418
 21
374.966864
 31
0.0
  0
LINE
  8
LC-005-005-----0
  6
CONTINUOUS
  5
73
 10
247.340304
 20
373.782293
 30
0.0
 11
246.155732
 21
374.966864
 31
0.0
  0
LINE
  8
LC-005-005-----0
  6
CONTINUOUS
  5
74
 10
247.220761
 20
373.33615
 30
0.0
 11
245.590047
 21
374.966864
 31
0.0
  0
LINE
  8
LC-005-005-----0
  6
CONTINUOUS
  5
75
 10
247.101217
 20
372.890008
 30
0.0
 11
245.157709
 21
374.833517
 31
0.0
  0
LINE
  8
LC-005-005-----0
  6
CONTINUOUS
  5
76
 10
246.981674
 20
372.443866
 30
0.0
 11
245.157709
 21
374.267831
 31
0.0
  0
LINE
  8
LC-005-005-----0
  6
CONTINUOUS
  5
77
 10
246.862131
 20
371.997724
 30
0.0
 11
245.157709
 21
373.702146
 31
0.0
  0
LINE
  8
LC-005-005-----0
  6
CONTINUOUS
  5
78
 10
246.742587
 20
371.551582
 30
0.0
 11
245.157709
 21
373.13646
 31
0.0
  0
LINE
  8
LC-005-005-----0
  6
CONTINUOUS
  5
79
 10
246.623044
 20
371.10544
 30
0.0
 11
245.157709
 21
372.570775
 31
0.0
  0
LINE
  8
LC-005-005-----0
  6
CONTINUOUS
  5
7A
 10
246.5035
 20
370.659298
 30
0.0
 11
245.157709
 21
372.00509
 31
0.0
  0
LINE
  8
LC-005-005-----0
  6
CONTINUOUS
  5
7B
 10
246.383957
 20
370.213156
 30
0.0
 11
245.157709
 21
371.439404
 31
0.0
  0
LINE
  8
LC-005-005-----0
  6
CONTINUOUS
  5
7C
 10
246.264414
 20
369.767014
 30
0.0
 11
245.157709
 21
370.873719
 31
0.0
  0
LINE
  8
LC-005-005-----0
  6
CONTINUOUS
  5
7D
 10
246.14487
 20
369.320872
 30
0.0
 11
245.157709
 21
370.308033
 31
0.0
  0
LINE
  8
LC-005-005-----0
  6
CONTINUOUS
  5
7E
 10
246.025327
 20
368.87473
 30
0.0
 11
245.157709
 21
369.742348
 31
0.0
  0
LINE
  8
LC-005-005-----0
  6
CONTINUOUS
  5
7F
 10
245.905783
 20
368.428588
 30
0.0
 11
245.157709
 21
369.176662
 31
0.0
  0
LINE
  8
LC-005-005-----0
  6
CONTINUOUS
  5
80
 10
245.78624
 20
367.982446
 30
0.0
 11
245.157709
 21
368.610977
 31
0.0
  0
LINE
  8
LC-005-005-----0
  6
CONTINUOUS
  5
81
 10
245.666697
 20
367.536304
 30
0.0
 11
245.157709
 21
368.045292
 31
0.0
  0
LINE
  8
LC-005-005-----0
  6
CONTINUOUS
  5
82
 10
245.547153
 20
367.090162
 30
0.0
 11
245.157709
 21
367.479606
 31
0.0
  0
LINE
  8
LC-005-005-----0
  6
CONTINUOUS
  5
83
 10
245.42761
 20
366.64402
 30
0.0
 11
245.157709
 21
366.913921
 31
0.0
  0
LINE
  8
LC-005-005-----0
  6
CONTINUOUS
  5
84
 10
245.308066
 20
366.197878
 30
0.0
 11
245.157709
 21
366.348235
 31
0.0
  0
ENDBLK
  8
0
  5
85
  0
BLOCK
  8
0
  5
87
  2
BLK2
 70
    64
 10
0.0
 20
0.0
 30
0.0
  3
BLK2
  0
ENDBLK
  8
0
  5
88
  0
BLOCK
  8
0
  5
8A
  2
*X6
 70
    65
 10
203.943074
 20
299.966864
 30
0.0
  3
*X6
  0
LINE
  8
LC-005-005-----0
  6
CONTINUOUS
  5
8B
 10
206.442897
 20
308.896526
 30
0.0
 11
206.37251
 21
308.966913
 31
0.0
  0
LINE
  8
LC-005-005-----0
  6
CONTINUOUS
  5
8C
 10
206.442908
 20
308.330829
 30
0.0
 11
206.238721
 21
308.535016
 31
0.0
  0
LINE
  8
LC-005-005-----0
  6
CONTINUOUS
  5
8D
 10
206.442919
 20
307.765132
 30
0.0
 11
206.119185
 21
308.088866
 31
0.0
  0
LINE
  8
LC-005-005-----0
  6
CONTINUOUS
  5
8E
 10
206.44293
 20
307.199435
 30
0.0
 11
205.999649
 21
307.642717
 31
0.0
  0
LINE
  8
LC-005-005-----0
  6
CONTINUOUS
  5
8F
 10
206.442942
 20
306.633739
 30
0.0
 11
205.880113
 21
307.196567
 31
0.0
  0
LINE
  8
LC-005-005-----0
  6
CONTINUOUS
  5
90
 10
206.442953
 20
306.068042
 30
0.0
 11
205.760577
 21
306.750418
 31
0.0
  0
LINE
  8
LC-005-005-----0
  6
CONTINUOUS
  5
91
 10
206.442964
 20
305.502345
 30
0.0
 11
205.641041
 21
306.304268
 31
0.0
  0
LINE
  8
LC-005-005-----0
  6
CONTINUOUS
  5
92
 10
206.442975
 20
304.936649
 30
0.0
 11
205.521506
 21
305.858119
 31
0.0
  0
LINE
  8
LC-005-005-----0
  6
CONTINUOUS
  5
93
 10
206.442987
 20
304.370952
 30
0.0
 11
205.40197
 21
305.411969
 31
0.0
  0
LINE
  8
LC-005-005-----0
  6
CONTINUOUS
  5
94
 10
206.442998
 20
303.805255
 30
0.0
 11
205.282434
 21
304.96582
 31
0.0
  0
LINE
  8
LC-005-005-----0
  6
CONTINUOUS
  5
95
 10
206.443009
 20
303.239559
 30
0.0
 11
205.162898
 21
304.51967
 31
0.0
  0
LINE
  8
LC-005-005-----0
  6
CONTINUOUS
  5
96
 10
206.443021
 20
302.673862
 30
0.0
 11
205.043362
 21
304.07352
 31
0.0
  0
LINE
  8
LC-005-005-----0
  6
CONTINUOUS
  5
97
 10
206.443032
 20
302.108165
 30
0.0
 11
204.923826
 21
303.627371
 31
0.0
  0
LINE
  8
LC-005-005-----0
  6
CONTINUOUS
  5
98
 10
206.443043
 20
301.542469
 30
0.0
 11
204.80429
 21
303.181221
 31
0.0
  0
LINE
  8
LC-005-005-----0
  6
CONTINUOUS
  5
99
 10
206.443054
 20
300.976772
 30
0.0
 11
204.684754
 21
302.735072
 31
0.0
  0
LINE
  8
LC-005-005-----0
  6
CONTINUOUS
  5
9A
 10
206.443066
 20
300.411075
 30
0.0
 11
204.565218
 21
302.288922
 31
0.0
  0
LINE
  8
LC-005-005-----0
  6
CONTINUOUS
  5
9B
 10
206.321544
 20
299.966912
 30
0.0
 11
204.445683
 21
301.842773
 31
0.0
  0
LINE
  8
LC-005-005-----0
  6
CONTINUOUS
  5
9C
 10
205.75587
 20
299.9669
 30
0.0
 11
204.326147
 21
301.396623
 31
0.0
  0
LINE
  8
LC-005-005-----0
  6
CONTINUOUS
  5
9D
 10
205.190195
 20
299.966889
 30
0.0
 11
204.206611
 21
300.950474
 31
0.0
  0
LINE
  8
LC-005-005-----0
  6
CONTINUOUS
  5
9E
 10
204.624521
 20
299.966878
 30
0.0
 11
204.087075
 21
300.504324
 31
0.0
  0
LINE
  8
LC-005-005-----0
  6
CONTINUOUS
  5
9F
 10
204.058847
 20
299.966867
 30
0.0
 11
203.967539
 21
300.058175
 31
0.0
  0
ENDBLK
  8
0
  5
A0
  0
BLOCK
  8
0
  5
A2
  2
*X7
 70
    65
 10
202.300018
 20
299.96686
 30
0.0
  3
*X7
  0
LINE
  8
LC-005-005-----0
  6
CONTINUOUS
  5
A3
 10
203.800341
 20
299.966863
 30
0.0
 11
203.995312
 21
300.161835
 31
0.0
  0
LINE
  8
LC-005-005-----0
  6
CONTINUOUS
  5
A4
 10
202.300739
 20
301.295688
 30
0.0
 11
205.030476
 21
304.025425
 31
0.0
  0
LINE
  8
LC-005-005-----0
  6
CONTINUOUS
  5
A5
 10
202.300682
 20
304.124059
 30
0.0
 11
205.550018
 21
307.373395
 31
0.0
  0
LINE
  8
LC-005-005-----0
  6
CONTINUOUS
  5
A6
 10
202.300626
 20
306.95243
 30
0.0
 11
205.550018
 21
310.201822
 31
0.0
  0
LINE
  8
LC-005-005-----0
  6
CONTINUOUS
  5
A7
 10
202.30057
 20
309.780801
 30
0.0
 11
205.550018
 21
313.030249
 31
0.0
  0
LINE
  8
LC-005-005-----0
  6
CONTINUOUS
  5
A8
 10
203.550018
 20
313.858676
 30
0.0
 11
205.550018
 21
315.858676
 31
0.0
  0
LINE
  8
LC-005-005-----0
  6
CONTINUOUS
  5
A9
 10
203.550018
 20
316.687103
 30
0.0
 11
205.550018
 21
318.687103
 31
0.0
  0
LINE
  8
LC-005-005-----0
  6
CONTINUOUS
  5
AA
 10
203.550018
 20
319.51553
 30
0.0
 11
205.550018
 21
321.51553
 31
0.0
  0
LINE
  8
LC-005-005-----0
  6
CONTINUOUS
  5
AB
 10
203.550018
 20
322.343957
 30
0.0
 11
205.550018
 21
324.343957
 31
0.0
  0
LINE
  8
LC-005-005-----0
  6
CONTINUOUS
  5
AC
 10
203.550018
 20
325.172385
 30
0.0
 11
205.550018
 21
327.172385
 31
0.0
  0
LINE
  8
LC-005-005-----0
  6
CONTINUOUS
  5
AD
 10
203.550018
 20
328.000812
 30
0.0
 11
205.550018
 21
330.000812
 31
0.0
  0
LINE
  8
LC-005-005-----0
  6
CONTINUOUS
  5
AE
 10
203.550018
 20
330.829239
 30
0.0
 11
205.550018
 21
332.829239
 31
0.0
  0
LINE
  8
LC-005-005-----0
  6
CONTINUOUS
  5
AF
 10
203.550018
 20
333.657666
 30
0.0
 11
205.550018
 21
335.657666
 31
0.0
  0
LINE
  8
LC-005-005-----0
  6
CONTINUOUS
  5
B0
 10
203.550018
 20
336.486093
 30
0.0
 11
205.550018
 21
338.486093
 31
0.0
  0
LINE
  8
LC-005-005-----0
  6
CONTINUOUS
  5
B1
 10
203.550018
 20
339.31452
 30
0.0
 11
205.550018
 21
341.31452
 31
0.0
  0
LINE
  8
LC-005-005-----0
  6
CONTINUOUS
  5
B2
 10
203.550018
 20
342.142947
 30
0.0
 11
205.550018
 21
344.142947
 31
0.0
  0
LINE
  8
LC-005-005-----0
  6
CONTINUOUS
  5
B3
 10
203.550018
 20
344.971374
 30
0.0
 11
205.550018
 21
346.971374
 31
0.0
  0
LINE
  8
LC-005-005-----0
  6
CONTINUOUS
  5
B4
 10
203.550018
 20
347.799802
 30
0.0
 11
205.550018
 21
349.799802
 31
0.0
  0
LINE
  8
LC-005-005-----0
  6
CONTINUOUS
  5
B5
 10
203.550018
 20
350.628229
 30
0.0
 11
205.550018
 21
352.628229
 31
0.0
  0
LINE
  8
LC-005-005-----0
  6
CONTINUOUS
  5
B6
 10
203.550018
 20
353.456656
 30
0.0
 11
205.550018
 21
355.456656
 31
0.0
  0
LINE
  8
LC-005-005-----0
  6
CONTINUOUS
  5
B7
 10
203.550018
 20
356.285083
 30
0.0
 11
205.550018
 21
358.285083
 31
0.0
  0
LINE
  8
LC-005-005-----0
  6
CONTINUOUS
  5
B8
 10
203.550018
 20
359.11351
 30
0.0
 11
205.550018
 21
361.11351
 31
0.0
  0
LINE
  8
LC-005-005-----0
  6
CONTINUOUS
  5
B9
 10
203.31248
 20
361.704399
 30
0.0
 11
205.550018
 21
363.941937
 31
0.0
  0
LINE
  8
LC-005-005-----0
  6
CONTINUOUS
  5
BA
 10
202.300018
 20
363.520364
 30
0.0
 11
205.550018
 21
366.770364
 31
0.0
  0
LINE
  8
LC-005-005-----0
  6
CONTINUOUS
  5
BB
 10
202.300018
 20
366.348791
 30
0.0
 11
205.41648
 21
369.465253
 31
0.0
  0
LINE
  8
LC-005-005-----0
  6
CONTINUOUS
  5
BC
 10
202.300018
 20
369.177219
 30
0.0
 11
204.818763
 21
371.695963
 31
0.0
  0
LINE
  8
LC-005-005-----0
  6
CONTINUOUS
  5
BD
 10
202.300018
 20
372.005646
 30
0.0
 11
204.221046
 21
373.926673
 31
0.0
  0
ENDBLK
  8
0
  5
BE
  0
BLOCK
  8
0
  5
C0
  2
BLK3
 70
    64
 10
0.0
 20
0.0
 30
0.0
  3
BLK3
  0
ENDBLK
  8
0
  5
C1
  0
BLOCK
  8
0
  5
C3
  2
*X9
 70
    65
 10
245.158277
 20
299.967685
 30
0.0
  3
*X9
  0
LINE
  8
LC-005-005-----0
  6
CONTINUOUS
  5
C4
 10
245.396232
 20
308.409799
 30
0.0
 11
245.158283
 21
308.647748
 31
0.0
  0
LINE
  8
LC-005-005-----0
  6
CONTINUOUS
  5
C5
 10
245.603309
 20
307.637036
 30
0.0
 11
245.158295
 21
308.082051
 31
0.0
  0
LINE
  8
LC-005-005-----0
  6
CONTINUOUS
  5
C6
 10
245.810387
 20
306.864273
 30
0.0
 11
245.158306
 21
307.516354
 31
0.0
  0
LINE
  8
LC-005-005-----0
  6
CONTINUOUS
  5
C7
 10
246.017465
 20
306.09151
 30
0.0
 11
245.158317
 21
306.950658
 31
0.0
  0
LINE
  8
LC-005-005-----0
  6
CONTINUOUS
  5
C8
 10
246.224543
 20
305.318747
 30
0.0
 11
245.158328
 21
306.384961
 31
0.0
  0
LINE
  8
LC-005-005-----0
  6
CONTINUOUS
  5
C9
 10
246.43162
 20
304.545983
 30
0.0
 11
245.15834
 21
305.819264
 31
0.0
  0
LINE
  8
LC-005-005-----0
  6
CONTINUOUS
  5
CA
 10
246.638698
 20
303.77322
 30
0.0
 11
245.158351
 21
305.253568
 31
0.0
  0
LINE
  8
LC-005-005-----0
  6
CONTINUOUS
  5
CB
 10
246.845776
 20
303.000457
 30
0.0
 11
245.158362
 21
304.687871
 31
0.0
  0
LINE
  8
LC-005-005-----0
  6
CONTINUOUS
  5
CC
 10
247.052854
 20
302.227694
 30
0.0
 11
245.158373
 21
304.122174
 31
0.0
  0
LINE
  8
LC-005-005-----0
  6
CONTINUOUS
  5
CD
 10
247.259932
 20
301.454931
 30
0.0
 11
245.158385
 21
303.556478
 31
0.0
  0
LINE
  8
LC-005-005-----0
  6
CONTINUOUS
  5
CE
 10
247.467009
 20
300.682167
 30
0.0
 11
245.158396
 21
302.990781
 31
0.0
  0
LINE
  8
LC-005-005-----0
  6
CONTINUOUS
  5
CF
 10
247.615757
 20
299.967734
 30
0.0
 11
245.158407
 21
302.425084
 31
0.0
  0
LINE
  8
LC-005-005-----0
  6
CONTINUOUS
  5
D0
 10
247.050083
 20
299.967723
 30
0.0
 11
245.158418
 21
301.859387
 31
0.0
  0
LINE
  8
LC-005-005-----0
  6
CONTINUOUS
  5
D1
 10
246.484409
 20
299.967712
 30
0.0
 11
245.15843
 21
301.293691
 31
0.0
  0
LINE
  8
LC-005-005-----0
  6
CONTINUOUS
  5
D2
 10
245.918735
 20
299.9677
 30
0.0
 11
245.158441
 21
300.727994
 31
0.0
  0
LINE
  8
LC-005-005-----0
  6
CONTINUOUS
  5
D3
 10
245.35306
 20
299.967689
 30
0.0
 11
245.158452
 21
300.162297
 31
0.0
  0
ENDBLK
  8
0
  5
D4
  0
BLOCK
  8
0
  5
D6
  2
BLK4
 70
    64
 10
0.0
 20
0.0
 30
0.0
  3
BLK4
  0
ENDBLK
  8
0
  5
D7
  0
BLOCK
  8
0
  5
D9
  2
*X11
 70
    65
 10
246.050018
 20
349.967284
 30
0.0
  3
*X11
  0
LINE
  8
LC-005-005-----0
  6
CONTINUOUS
  5
DA
 10
262.286204
 20
349.967445
 30
0.0
 11
264.668125
 21
352.349366
 31
0.0
  0
LINE
  8
LC-005-005-----0
  6
CONTINUOUS
  5
DB
 10
259.457749
 20
349.967417
 30
0.0
 11
263.207787
 21
353.717455
 31
0.0
  0
LINE
  8
LC-005-005-----0
  6
CONTINUOUS
  5
DC
 10
256.629294
 20
349.967389
 30
0.0
 11
260.379331
 21
353.717426
 31
0.0
  0
LINE
  8
LC-005-005-----0
  6
CONTINUOUS
  5
DD
 10
253.800839
 20
349.967361
 30
0.0
 11
257.550876
 21
353.717398
 31
0.0
  0
LINE
  8
LC-005-005-----0
  6
CONTINUOUS
  5
DE
 10
250.972383
 20
349.967333
 30
0.0
 11
254.722421
 21
353.71737
 31
0.0
  0
LINE
  8
LC-005-005-----0
  6
CONTINUOUS
  5
DF
 10
248.143928
 20
349.967304
 30
0.0
 11
250.143948
 21
351.967324
 31
0.0
  0
LINE
  8
LC-005-005-----0
  6
CONTINUOUS
  5
E0
 10
246.050018
 20
350.701822
 30
0.0
 11
248.050018
 21
352.701822
 31
0.0
  0
LINE
  8
LC-005-005-----0
  6
CONTINUOUS
  5
E1
 10
246.050018
 20
353.530249
 30
0.0
 11
248.050018
 21
355.530249
 31
0.0
  0
LINE
  8
LC-005-005-----0
  6
CONTINUOUS
  5
E2
 10
246.050018
 20
356.358676
 30
0.0
 11
248.050018
 21
358.358676
 31
0.0
  0
LINE
  8
LC-005-005-----0
  6
CONTINUOUS
  5
E3
 10
246.050018
 20
359.187103
 30
0.0
 11
248.050018
 21
361.187103
 31
0.0
  0
LINE
  8
LC-005-005-----0
  6
CONTINUOUS
  5
E4
 10
246.050018
 20
362.01553
 30
0.0
 11
249.300018
 21
365.26553
 31
0.0
  0
LINE
  8
LC-005-005-----0
  6
CONTINUOUS
  5
E5
 10
246.050018
 20
364.843957
 30
0.0
 11
249.300018
 21
368.093957
 31
0.0
  0
LINE
  8
LC-005-005-----0
  6
CONTINUOUS
  5
E6
 10
246.050018
 20
367.672385
 30
0.0
 11
249.300018
 21
370.922385
 31
0.0
  0
LINE
  8
LC-005-005-----0
  6
CONTINUOUS
  5
E7
 10
246.611476
 20
371.06227
 30
0.0
 11
249.283264
 21
373.734058
 31
0.0
  0
LINE
  8
LC-005-005-----0
  6
CONTINUOUS
  5
E8
 10
247.646752
 20
374.925973
 30
0.0
 11
247.688079
 21
374.9673
 31
0.0
  0
ENDBLK
  8
0
  5
E9
  0
BLOCK
  8
0
  5
EB
  2
*X12
 70
    65
 10
246.050267
 20
299.9673
 30
0.0
  3
*X12
  0
LINE
  8
LC-005-005-----0
  6
CONTINUOUS
  5
EC
 10
247.356066
 20
301.096181
 30
0.0
 11
249.300704
 21
303.040819
 31
0.0
  0
LINE
  8
LC-005-005-----0
  6
CONTINUOUS
  5
ED
 10
246.758311
 20
303.326854
 30
0.0
 11
249.300648
 21
305.86919
 31
0.0
  0
LINE
  8
LC-005-005-----0
  6
CONTINUOUS
  5
EE
 10
246.160557
 20
305.557526
 30
0.0
 11
249.300591
 21
308.697561
 31
0.0
  0
LINE
  8
LC-005-005-----0
  6
CONTINUOUS
  5
EF
 10
261.820471
 20
321.217441
 30
0.0
 11
265.050278
 21
324.447247
 31
0.0
  0
LINE
  8
LC-005-005-----0
  6
CONTINUOUS
  5
F0
 10
246.0506
 20
308.275997
 30
0.0
 11
249.300535
 21
311.525932
 31
0.0
  0
LINE
  8
LC-005-005-----0
  6
CONTINUOUS
  5
F1
 10
258.992016
 20
321.217413
 30
0.0
 11
262.742053
 21
324.96745
 31
0.0
  0
LINE
  8
LC-005-005-----0
  6
CONTINUOUS
  5
F2
 10
246.050543
 20
311.104367
 30
0.0
 11
248.231992
 21
313.285816
 31
0.0
  0
LINE
  8
LC-005-005-----0
  6
CONTINUOUS
  5
F3
 10
256.16356
 20
321.217384
 30
0.0
 11
259.913598
 21
324.967422
 31
0.0
  0
LINE
  8
LC-005-005-----0
  6
CONTINUOUS
  5
F4
 10
246.050487
 20
313.932738
 30
0.0
 11
248.050447
 21
315.932698
 31
0.0
  0
LINE
  8
LC-005-005-----0
  6
CONTINUOUS
  5
F5
 10
253.817727
 20
321.699978
 30
0.0
 11
257.085143
 21
324.967394
 31
0.0
  0
LINE
  8
LC-005-005-----0
  6
CONTINUOUS
  5
F6
 10
246.050431
 20
316.761109
 30
0.0
 11
248.050391
 21
318.761069
 31
0.0
  0
LINE
  8
LC-005-005-----0
  6
CONTINUOUS
  5
F7
 10
252.256667
 20
322.967345
 30
0.0
 11
254.256687
 21
324.967365
 31
0.0
  0
LINE
  8
LC-005-005-----0
  6
CONTINUOUS
  5
F8
 10
246.050374
 20
319.58948
 30
0.0
 11
248.050335
 21
321.58944
 31
0.0
  0
LINE
  8
LC-005-005-----0
  6
CONTINUOUS
  5
F9
 10
249.428212
 20
322.967317
 30
0.0
 11
251.428232
 21
324.967337
 31
0.0
  0
LINE
  8
LC-005-005-----0
  6
CONTINUOUS
  5
FA
 10
246.050318
 20
322.41785
 30
0.0
 11
248.599777
 21
324.967309
 31
0.0
  0
ENDBLK
  8
0
  5
FB
  0
BLOCK
  8
0
  5
FD
  2
*X13
 70
    65
 10
197.300018
 20
361.466864
 30
0.0
  3
*X13
  0
LINE
  8
LC-005-005-----0
  6
CONTINUOUS
  5
FE
 10
204.799483
 20
375.028078
 30
0.0
 11
201.361232
 21
378.466329
 31
0.0
  0
LINE
  8
LC-005-005-----0
  6
CONTINUOUS
  5
FF
 10
202.032269
 20
374.966864
 30
0.0
 11
199.800018
 21
377.199115
 31
0.0
  0
LINE
  8
LC-005-005-----0
  6
CONTINUOUS
  5
100
 10
201.800018
 20
372.370688
 30
0.0
 11
199.800018
 21
374.370688
 31
0.0
  0
LINE
  8
LC-005-005-----0
  6
CONTINUOUS
  5
101
 10
201.800018
 20
369.542261
 30
0.0
 11
199.800018
 21
371.542261
 31
0.0
  0
LINE
  8
LC-005-005-----0
  6
CONTINUOUS
  5
102
 10
201.800018
 20
366.713834
 30
0.0
 11
199.800018
 21
368.713834
 31
0.0
  0
LINE
  8
LC-005-005-----0
  6
CONTINUOUS
  5
103
 10
201.800018
 20
363.885407
 30
0.0
 11
199.800018
 21
365.885407
 31
0.0
  0
LINE
  8
LC-005-005-----0
  6
CONTINUOUS
  5
104
 10
201.390134
 20
361.466864
 30
0.0
 11
198.890134
 21
363.966864
 31
0.0
  0
LINE
  8
LC-005-005-----0
  6
CONTINUOUS
  5
105
 10
198.561706
 20
361.466864
 30
0.0
 11
197.300018
 21
362.728552
 31
0.0
  0
ENDBLK
  8
0
  5
106
  0
BLOCK
  8
0
  5
108
  2
*X14
 70
    65
 10
246.800018
 20
361.466864
 30
0.0
  3
*X14
  0
LINE
  8
LC-005-005-----0
  6
CONTINUOUS
  5
109
 10
251.800018
 20
376.110803
 30
0.0
 11
249.529765
 21
378.381057
 31
0.0
  0
LINE
  8
LC-005-005-----0
  6
CONTINUOUS
  5
10A
 10
251.800018
 20
373.282376
 30
0.0
 11
247.73462
 21
377.347774
 31
0.0
  0
LINE
  8
LC-005-005-----0
  6
CONTINUOUS
  5
10B
 10
251.800018
 20
370.453949
 30
0.0
 11
249.800018
 21
372.453949
 31
0.0
  0
LINE
  8
LC-005-005-----0
  6
CONTINUOUS
  5
10C
 10
247.287103
 20
374.966864
 30
0.0
 11
246.829996
 21
375.423971
 31
0.0
  0
LINE
  8
LC-005-005-----0
  6
CONTINUOUS
  5
10D
 10
251.800018
 20
367.625522
 30
0.0
 11
249.800018
 21
369.625522
 31
0.0
  0
LINE
  8
LC-005-005-----0
  6
CONTINUOUS
  5
10E
 10
254.300018
 20
362.297095
 30
0.0
 11
252.630249
 21
363.966864
 31
0.0
  0
LINE
  8
LC-005-005-----0
  6
CONTINUOUS
  5
10F
 10
251.800018
 20
364.797095
 30
0.0
 11
249.800018
 21
366.797095
 31
0.0
  0
LINE
  8
LC-005-005-----0
  6
CONTINUOUS
  5
110
 10
252.301822
 20
361.466864
 30
0.0
 11
249.800018
 21
363.968668
 31
0.0
  0
ENDBLK
  8
0
  5
111
  0
BLOCK
  8
0
  5
113
  2
BLK5
 70
    64
 10
0.0
 20
0.0
 30
0.0
  3
BLK5
  0
ENDBLK
  8
0
  5
114
  0
BLOCK
  8
0
  5
116
  2
*X16
 70
    65
 10
246.800765
 20
296.467788
 30
0.0
  3
*X16
  0
LINE
  8
LC-005-005-----0
  6
CONTINUOUS
  5
117
 10
254.300538
 20
311.384887
 30
0.0
 11
252.217599
 21
313.467826
 31
0.0
  0
LINE
  8
LC-005-005-----0
  6
CONTINUOUS
  5
118
 10
251.889178
 20
310.967819
 30
0.0
 11
249.800505
 21
313.056493
 31
0.0
  0
LINE
  8
LC-005-005-----0
  6
CONTINUOUS
  5
119
 10
251.800601
 20
308.22797
 30
0.0
 11
249.800561
 21
310.22801
 31
0.0
  0
LINE
  8
LC-005-005-----0
  6
CONTINUOUS
  5
11A
 10
251.800657
 20
305.399486
 30
0.0
 11
249.800617
 21
307.399526
 31
0.0
  0
LINE
  8
LC-005-005-----0
  6
CONTINUOUS
  5
11B
 10
251.800713
 20
302.571003
 30
0.0
 11
249.800674
 21
304.571043
 31
0.0
  0
LINE
  8
LC-005-005-----0
  6
CONTINUOUS
  5
11C
 10
251.80077
 20
299.74252
 30
0.0
 11
249.80073
 21
301.742559
 31
0.0
  0
LINE
  8
LC-005-005-----0
  6
CONTINUOUS
  5
11D
 10
251.534681
 20
297.180182
 30
0.0
 11
248.747105
 21
299.967757
 31
0.0
  0
LINE
  8
LC-005-005-----0
  6
CONTINUOUS
  5
11E
 10
249.260472
 20
296.625964
 30
0.0
 11
246.958941
 21
298.927494
 31
0.0
  0
ENDBLK
  8
0
  5
11F
  0
BLOCK
  8
0
  5
121
  2
*X17
 70
    65
 10
197.300496
 20
296.466812
 30
0.0
  3
*X17
  0
LINE
  8
LC-005-005-----0
  6
CONTINUOUS
  5
122
 10
201.800506
 20
312.973231
 30
0.0
 11
201.306925
 21
313.466812
 31
0.0
  0
LINE
  8
LC-005-005-----0
  6
CONTINUOUS
  5
123
 10
201.800563
 20
310.144747
 30
0.0
 11
198.478554
 21
313.466755
 31
0.0
  0
LINE
  8
LC-005-005-----0
  6
CONTINUOUS
  5
124
 10
201.800619
 20
307.316264
 30
0.0
 11
199.800579
 21
309.316303
 31
0.0
  0
LINE
  8
LC-005-005-----0
  6
CONTINUOUS
  5
125
 10
198.150134
 20
310.966749
 30
0.0
 11
197.300529
 21
311.816353
 31
0.0
  0
LINE
  8
LC-005-005-----0
  6
CONTINUOUS
  5
126
 10
201.800675
 20
304.48778
 30
0.0
 11
199.800635
 21
306.48782
 31
0.0
  0
LINE
  8
LC-005-005-----0
  6
CONTINUOUS
  5
127
 10
204.61584
 20
298.844189
 30
0.0
 11
203.493173
 21
299.966855
 31
0.0
  0
LINE
  8
LC-005-005-----0
  6
CONTINUOUS
  5
128
 10
201.800732
 20
301.659297
 30
0.0
 11
199.800692
 21
303.659336
 31
0.0
  0
LINE
  8
LC-005-005-----0
  6
CONTINUOUS
  5
129
 10
203.437138
 20
297.194464
 30
0.0
 11
199.800748
 21
300.830853
 31
0.0
  0
LINE
  8
LC-005-005-----0
  6
CONTINUOUS
  5
12A
 10
201.336183
 20
296.466991
 30
0.0
 11
199.800804
 21
298.00237
 31
0.0
  0
ENDBLK
  8
0
  5
12B
  0
BLOCK
  8
0
  5
12D
  2
BLK6
 70
    64
 10
0.0
 20
0.0
 30
0.0
  3
BLK6
  0
ENDBLK
  8
0
  5
12E
  0
BLOCK
  8
0
  5
130
  2
*D19
 70
    65
 10
0.0
 20
0.0
 30
0.0
  3
*D19
  0
LINE
  8
LC-003-003-MTH-0
  6
CONTINUOUS
  5
131
 10
201.800765
 20
299.966822
 30
0.0
 11
157.2
 21
299.966822
 31
0.0
  0
LINE
  8
LC-003-003-MTH-0
  6
CONTINUOUS
  5
132
 10
201.800018
 20
374.966864
 30
0.0
 11
157.2
 21
374.966864
 31
0.0
  0
LINE
  8
LC-004-003-MTG-0
  6
CONTINUOUS
  5
133
 10
168.0
 20
299.966822
 30
0.0
 11
168.0
 21
374.966864
 31
0.0
  0
LINE
  8
LC-002-003-----0
  6
CONTINUOUS
  5
134
 10
165.650529
 20
317.812829
 30
0.0
 11
168.0
 21
299.966822
 31
0.0
  0
LINE
  8
LC-002-003-----0
  6
CONTINUOUS
  5
135
 10
168.0
 20
299.966822
 30
0.0
 11
170.349471
 21
317.812829
 31
0.0
  0
LINE
  8
LC-002-003-----0
  6
CONTINUOUS
  5
136
 10
170.349471
 20
317.812829
 30
0.0
 11
165.650529
 21
317.812829
 31
0.0
  0
LINE
  8
LC-002-003-----0
  6
CONTINUOUS
  5
137
 10
166.261391
 20
317.852867
 30
0.0
 11
168.0
 21
304.646822
 31
0.0
  0
LINE
  8
LC-002-003-----0
  6
CONTINUOUS
  5
138
 10
168.0
 20
304.646822
 30
0.0
 11
169.738609
 21
317.852867
 31
0.0
  0
LINE
  8
LC-002-003-----0
  6
CONTINUOUS
  5
139
 10
166.872254
 20
317.892905
 30
0.0
 11
168.0
 21
309.326822
 31
0.0
  0
LINE
  8
LC-002-003-----0
  6
CONTINUOUS
  5
13A
 10
168.0
 20
309.326822
 30
0.0
 11
169.127746
 21
317.892905
 31
0.0
  0
LINE
  8
LC-002-003-----0
  6
CONTINUOUS
  5
13B
 10
167.483116
 20
317.932943
 30
0.0
 11
168.0
 21
314.006822
 31
0.0
  0
LINE
  8
LC-002-003-----0
  6
CONTINUOUS
  5
13C
 10
168.0
 20
314.006822
 30
0.0
 11
168.516884
 21
317.932943
 31
0.0
  0
LINE
  8
LC-002-003-----0
  6
CONTINUOUS
  5
13D
 10
170.349471
 20
357.120857
 30
0.0
 11
168.0
 21
374.966864
 31
0.0
  0
LINE
  8
LC-002-003-----0
  6
CONTINUOUS
  5
13E
 10
168.0
 20
374.966864
 30
0.0
 11
165.650529
 21
357.120857
 31
0.0
  0
LINE
  8
LC-002-003-----0
  6
CONTINUOUS
  5
13F
 10
165.650529
 20
357.120857
 30
0.0
 11
170.349471
 21
357.120857
 31
0.0
  0
LINE
  8
LC-002-003-----0
  6
CONTINUOUS
  5
140
 10
169.738609
 20
357.080819
 30
0.0
 11
168.0
 21
370.286864
 31
0.0
  0
LINE
  8
LC-002-003-----0
  6
CONTINUOUS
  5
141
 10
168.0
 20
370.286864
 30
0.0
 11
166.261391
 21
357.080819
 31
0.0
  0
LINE
  8
LC-002-003-----0
  6
CONTINUOUS
  5
142
 10
169.127746
 20
357.040781
 30
0.0
 11
168.0
 21
365.606864
 31
0.0
  0
LINE
  8
LC-002-003-----0
  6
CONTINUOUS
  5
143
 10
168.0
 20
365.606864
 30
0.0
 11
166.872254
 21
357.040781
 31
0.0
  0
LINE
  8
LC-002-003-----0
  6
CONTINUOUS
  5
144
 10
168.516884
 20
357.000743
 30
0.0
 11
168.0
 21
360.926864
 31
0.0
  0
LINE
  8
LC-002-003-----0
  6
CONTINUOUS
  5
145
 10
168.0
 20
360.926864
 30
0.0
 11
167.483116
 21
357.000743
 31
0.0
  0
TEXT
  8
LC-002-003-----0
  6
CONTINUOUS
 62
     6
  5
146
 10
157.568001
 20
328.399096
 30
0.0
 40
18.0
  1
75
 50
90.0
 51
15.0
  7
LC-TXTSTYLE-150-400-0-0-D0
 72
     1
 11
157.568001
 21
340.262089
 31
0.0
  0
ENDBLK
  8
0
  5
147
  0
BLOCK
  8
0
  5
149
  2
*D20
 70
    65
 10
0.0
 20
0.0
 30
0.0
  3
*D20
  0
LINE
  8
LC-003-003-MTH-0
  6
CONTINUOUS
  5
14A
 10
205.550018
 20
368.96688
 30
0.0
 11
205.550018
 21
402.8
 31
0.0
  0
LINE
  8
LC-003-003-MTH-0
  6
CONTINUOUS
  5
14B
 10
246.050018
 20
368.967284
 30
0.0
 11
246.050018
 21
402.8
 31
0.0
  0
LINE
  8
LC-002-003-----0
  6
CONTINUOUS
  5
14C
 10
187.704011
 20
389.650529
 30
0.0
 11
205.550018
 21
392.0
 31
0.0
  0
LINE
  8
LC-002-003-----0
  6
CONTINUOUS
  5
14D
 10
205.550018
 20
392.0
 30
0.0
 11
187.704011
 21
394.349471
 31
0.0
  0
LINE
  8
LC-002-003-----0
  6
CONTINUOUS
  5
14E
 10
187.704011
 20
394.349471
 30
0.0
 11
187.704011
 21
389.650529
 31
0.0
  0
LINE
  8
LC-002-003-----0
  6
CONTINUOUS
  5
14F
 10
187.663973
 20
390.261391
 30
0.0
 11
200.870018
 21
392.0
 31
0.0
  0
LINE
  8
LC-002-003-----0
  6
CONTINUOUS
  5
150
 10
200.870018
 20
392.0
 30
0.0
 11
187.663973
 21
393.738609
 31
0.0
  0
LINE
  8
LC-002-003-----0
  6
CONTINUOUS
  5
151
 10
187.623935
 20
390.872254
 30
0.0
 11
196.190018
 21
392.0
 31
0.0
  0
LINE
  8
LC-002-003-----0
  6
CONTINUOUS
  5
152
 10
196.190018
 20
392.0
 30
0.0
 11
187.623935
 21
393.127746
 31
0.0
  0
LINE
  8
LC-002-003-----0
  6
CONTINUOUS
  5
153
 10
187.583897
 20
391.483116
 30
0.0
 11
191.510018
 21
392.0
 31
0.0
  0
LINE
  8
LC-002-003-----0
  6
CONTINUOUS
  5
154
 10
191.510018
 20
392.0
 30
0.0
 11
187.583897
 21
392.516884
 31
0.0
  0
LINE
  8
LC-002-003-----0
  6
CONTINUOUS
  5
155
 10
263.896026
 20
394.349471
 30
0.0
 11
246.050018
 21
392.0
 31
0.0
  0
LINE
  8
LC-002-003-----0
  6
CONTINUOUS
  5
156
 10
246.050018
 20
392.0
 30
0.0
 11
263.896026
 21
389.650529
 31
0.0
  0
LINE
  8
LC-002-003-----0
  6
CONTINUOUS
  5
157
 10
263.896026
 20
389.650529
 30
0.0
 11
263.896026
 21
394.349471
 31
0.0
  0
LINE
  8
LC-002-003-----0
  6
CONTINUOUS
  5
158
 10
263.936064
 20
393.738609
 30
0.0
 11
250.730018
 21
392.0
 31
0.0
  0
LINE
  8
LC-002-003-----0
  6
CONTINUOUS
  5
159
 10
250.730018
 20
392.0
 30
0.0
 11
263.936064
 21
390.261391
 31
0.0
  0
LINE
  8
LC-002-003-----0
  6
CONTINUOUS
  5
15A
 10
263.976102
 20
393.127746
 30
0.0
 11
255.410018
 21
392.0
 31
0.0
  0
LINE
  8
LC-002-003-----0
  6
CONTINUOUS
  5
15B
 10
255.410018
 20
392.0
 30
0.0
 11
263.976102
 21
390.872254
 31
0.0
  0
LINE
  8
LC-002-003-----0
  6
CONTINUOUS
  5
15C
 10
264.01614
 20
392.516884
 30
0.0
 11
260.090018
 21
392.0
 31
0.0
  0
LINE
  8
LC-002-003-----0
  6
CONTINUOUS
  5
15D
 10
260.090018
 20
392.0
 30
0.0
 11
264.01614
 21
391.483116
 31
0.0
  0
LINE
  8
LC-004-003-MTG-0
  6
CONTINUOUS
  5
15E
 10
180.350018
 20
392.0
 30
0.0
 11
336.452538
 21
392.0
 31
0.0
  0
TEXT
  8
LC-002-003-----0
  6
CONTINUOUS
 62
     6
  5
15F
 10
273.325264
 20
402.431999
 30
0.0
 40
18.0
  1
DN40
 51
15.0
  7
LC-TXTSTYLE-150-400-0-0-D0
  0
ENDBLK
  8
0
  5
160
  0
BLOCK
  8
0
  5
162
  2
*D21
 70
    65
 10
0.0
 20
0.0
 30
0.0
  3
*D21
  0
LINE
  8
LC-003-003-MTH-0
  6
CONTINUOUS
  5
163
 10
225.800018
 20
296.4673
 30
0.0
 11
225.800018
 21
205.2
 31
0.0
  0
LINE
  8
LC-003-003-MTH-0
  6
CONTINUOUS
  5
164
 10
289.0505
 20
285.717696
 30
0.0
 11
289.0505
 21
205.2
 31
0.0
  0
LINE
  8
LC-004-003-MTG-0
  6
CONTINUOUS
  5
165
 10
225.800018
 20
216.0
 30
0.0
 11
289.0505
 21
216.0
 31
0.0
  0
LINE
  8
LC-002-003-----0
  6
CONTINUOUS
  5
166
 10
243.646026
 20
218.349471
 30
0.0
 11
225.800018
 21
216.0
 31
0.0
  0
LINE
  8
LC-002-003-----0
  6
CONTINUOUS
  5
167
 10
225.800018
 20
216.0
 30
0.0
 11
243.646026
 21
213.650529
 31
0.0
  0
LINE
  8
LC-002-003-----0
  6
CONTINUOUS
  5
168
 10
243.646026
 20
213.650529
 30
0.0
 11
243.646026
 21
218.349471
 31
0.0
  0
LINE
  8
LC-002-003-----0
  6
CONTINUOUS
  5
169
 10
243.686064
 20
217.738609
 30
0.0
 11
230.480018
 21
216.0
 31
0.0
  0
LINE
  8
LC-002-003-----0
  6
CONTINUOUS
  5
16A
 10
230.480018
 20
216.0
 30
0.0
 11
243.686064
 21
214.261391
 31
0.0
  0
LINE
  8
LC-002-003-----0
  6
CONTINUOUS
  5
16B
 10
243.726102
 20
217.127746
 30
0.0
 11
235.160018
 21
216.0
 31
0.0
  0
LINE
  8
LC-002-003-----0
  6
CONTINUOUS
  5
16C
 10
235.160018
 20
216.0
 30
0.0
 11
243.726102
 21
214.872254
 31
0.0
  0
LINE
  8
LC-002-003-----0
  6
CONTINUOUS
  5
16D
 10
243.76614
 20
216.516884
 30
0.0
 11
239.840018
 21
216.0
 31
0.0
  0
LINE
  8
LC-002-003-----0
  6
CONTINUOUS
  5
16E
 10
239.840018
 20
216.0
 30
0.0
 11
243.76614
 21
215.483116
 31
0.0
  0
LINE
  8
LC-002-003-----0
  6
CONTINUOUS
  5
16F
 10
271.204492
 20
213.650529
 30
0.0
 11
289.0505
 21
216.0
 31
0.0
  0
LINE
  8
LC-002-003-----0
  6
CONTINUOUS
  5
170
 10
289.0505
 20
216.0
 30
0.0
 11
271.204492
 21
218.349471
 31
0.0
  0
LINE
  8
LC-002-003-----0
  6
CONTINUOUS
  5
171
 10
271.204492
 20
218.349471
 30
0.0
 11
271.204492
 21
213.650529
 31
0.0
  0
LINE
  8
LC-002-003-----0
  6
CONTINUOUS
  5
172
 10
271.164454
 20
214.261391
 30
0.0
 11
284.3705
 21
216.0
 31
0.0
  0
LINE
  8
LC-002-003-----0
  6
CONTINUOUS
  5
173
 10
284.3705
 20
216.0
 30
0.0
 11
271.164454
 21
217.738609
 31
0.0
  0
LINE
  8
LC-002-003-----0
  6
CONTINUOUS
  5
174
 10
271.124416
 20
214.872254
 30
0.0
 11
279.6905
 21
216.0
 31
0.0
  0
LINE
  8
LC-002-003-----0
  6
CONTINUOUS
  5
175
 10
279.6905
 20
216.0
 30
0.0
 11
271.124416
 21
217.127746
 31
0.0
  0
LINE
  8
LC-002-003-----0
  6
CONTINUOUS
  5
176
 10
271.084378
 20
215.483116
 30
0.0
 11
275.0105
 21
216.0
 31
0.0
  0
LINE
  8
LC-002-003-----0
  6
CONTINUOUS
  5
177
 10
275.0105
 20
216.0
 30
0.0
 11
271.084378
 21
216.516884
 31
0.0
  0
TEXT
  8
LC-002-003-----0
  6
CONTINUOUS
 62
     6
  5
178
 10
247.934161
 20
226.431999
 30
0.0
 40
18.0
  1
64
 51
15.0
  7
LC-TXTSTYLE-150-400-0-0-D0
 72
     1
 11
259.797153
 21
226.431999
 31
0.0
  0
ENDBLK
  8
0
  5
179
  0
BLOCK
  8
0
  5
17B
  2
*X22
 70
    65
 10
253.050102
 20
285.717612
 30
0.0
  3
*X22
  0
LINE
  8
LC-005-005-----0
  6
CONTINUOUS
  5
17C
 10
280.489278
 20
286.146133
 30
0.0
 11
281.550485
 21
287.207339
 31
0.0
  0
LINE
  8
LC-005-005-----0
  6
CONTINUOUS
  5
17D
 10
280.135703
 20
288.620984
 30
0.0
 11
281.550457
 21
290.035738
 31
0.0
  0
LINE
  8
LC-005-005-----0
  6
CONTINUOUS
  5
17E
 10
279.782127
 20
291.095836
 30
0.0
 11
281.550429
 21
292.864137
 31
0.0
  0
LINE
  8
LC-005-005-----0
  6
CONTINUOUS
  5
17F
 10
279.79637
 20
293.938506
 30
0.0
 11
281.550401
 21
295.692536
 31
0.0
  0
LINE
  8
LC-005-005-----0
  6
CONTINUOUS
  5
180
 10
279.472998
 20
296.443561
 30
0.0
 11
281.550372
 21
298.520935
 31
0.0
  0
LINE
  8
LC-005-005-----0
  6
CONTINUOUS
  5
181
 10
279.149626
 20
298.948616
 30
0.0
 11
279.918615
 21
299.717605
 31
0.0
  0
LINE
  8
LC-005-005-----0
  6
CONTINUOUS
  5
182
 10
279.920321
 20
299.719311
 30
0.0
 11
281.550344
 21
301.349334
 31
0.0
  0
LINE
  8
LC-005-005-----0
  6
CONTINUOUS
  5
183
 10
279.457261
 20
302.084678
 30
0.0
 11
281.550316
 21
304.177733
 31
0.0
  0
LINE
  8
LC-005-005-----0
  6
CONTINUOUS
  5
184
 10
278.994201
 20
304.450045
 30
0.0
 11
281.550288
 21
307.006132
 31
0.0
  0
LINE
  8
LC-005-005-----0
  6
CONTINUOUS
  5
185
 10
279.084076
 20
307.368347
 30
0.0
 11
281.55026
 21
309.834531
 31
0.0
  0
LINE
  8
LC-005-005-----0
  6
CONTINUOUS
  5
186
 10
278.688011
 20
309.800709
 30
0.0
 11
281.550232
 21
312.66293
 31
0.0
  0
LINE
  8
LC-005-005-----0
  6
CONTINUOUS
  5
187
 10
278.291946
 20
312.233072
 30
0.0
 11
281.550203
 21
315.491329
 31
0.0
  0
LINE
  8
LC-005-005-----0
  6
CONTINUOUS
  5
188
 10
278.679234
 20
315.448786
 30
0.0
 11
281.550175
 21
318.319728
 31
0.0
  0
LINE
  8
LC-005-005-----0
  6
CONTINUOUS
  5
189
 10
278.18008
 20
317.778059
 30
0.0
 11
281.550147
 21
321.148127
 31
0.0
  0
LINE
  8
LC-005-005-----0
  6
CONTINUOUS
  5
18A
 10
277.680925
 20
320.107332
 30
0.0
 11
278.291182
 21
320.717589
 31
0.0
  0
LINE
  8
LC-005-005-----0
  6
CONTINUOUS
  5
18B
 10
280.050158
 20
322.476565
 30
0.0
 11
281.550119
 21
323.976526
 31
0.0
  0
LINE
  8
LC-005-005-----0
  6
CONTINUOUS
  5
18C
 10
280.050131
 20
325.304965
 30
0.0
 11
281.550091
 21
326.804925
 31
0.0
  0
LINE
  8
LC-005-005-----0
  6
CONTINUOUS
  5
18D
 10
277.634329
 20
325.71759
 30
0.0
 11
280.384354
 21
328.467616
 31
0.0
  0
LINE
  8
LC-005-005-----0
  6
CONTINUOUS
  5
18E
 10
274.805875
 20
325.717564
 30
0.0
 11
277.555901
 21
328.467589
 31
0.0
  0
LINE
  8
LC-005-005-----0
  6
CONTINUOUS
  5
18F
 10
272.477427
 20
326.217542
 30
0.0
 11
274.727448
 21
328.467563
 31
0.0
  0
LINE
  8
LC-005-005-----0
  6
CONTINUOUS
  5
190
 10
266.481491
 20
323.050034
 30
0.0
 11
267.050147
 21
323.61869
 31
0.0
  0
LINE
  8
LC-005-005-----0
  6
CONTINUOUS
  5
191
 10
269.648973
 20
326.217516
 30
0.0
 11
271.898994
 21
328.467537
 31
0.0
  0
LINE
  8
LC-005-005-----0
  6
CONTINUOUS
  5
192
 10
265.105054
 20
324.502023
 30
0.0
 11
269.070541
 21
328.46751
 31
0.0
  0
LINE
  8
LC-005-005-----0
  6
CONTINUOUS
  5
193
 10
262.742055
 20
324.967451
 30
0.0
 11
266.242087
 21
328.467484
 31
0.0
  0
LINE
  8
LC-005-005-----0
  6
CONTINUOUS
  5
194
 10
259.913601
 20
324.967425
 30
0.0
 11
263.413634
 21
328.467458
 31
0.0
  0
LINE
  8
LC-005-005-----0
  6
CONTINUOUS
  5
195
 10
259.050116
 20
326.932367
 30
0.0
 11
260.58518
 21
328.467431
 31
0.0
  0
LINE
  8
LC-005-005-----0
  6
CONTINUOUS
  5
196
 10
254.256694
 20
324.967372
 30
0.0
 11
256.050118
 21
326.760796
 31
0.0
  0
LINE
  8
LC-005-005-----0
  6
CONTINUOUS
  5
197
 10
256.256713
 20
326.967391
 30
0.0
 11
257.756727
 21
328.467405
 31
0.0
  0
LINE
  8
LC-005-005-----0
  6
CONTINUOUS
  5
198
 10
253.050119
 20
326.589225
 30
0.0
 11
254.928273
 21
328.467379
 31
0.0
  0
ENDBLK
  8
0
  5
199
  0
BLOCK
  8
0
  5
19B
  2
*X23
 70
    65
 10
253.049911
 20
285.717771
 30
0.0
  3
*X23
  0
LINE
  8
LC-005-005-----0
  6
CONTINUOUS
  5
19C
 10
297.031484
 20
285.717776
 30
0.0
 11
297.637239
 21
286.32353
 31
0.0
  0
LINE
  8
LC-005-005-----0
  6
CONTINUOUS
  5
19D
 10
296.550477
 20
288.065195
 30
0.0
 11
298.108607
 21
289.623325
 31
0.0
  0
LINE
  8
LC-005-005-----0
  6
CONTINUOUS
  5
19E
 10
296.550448
 20
290.893594
 30
0.0
 11
298.374643
 21
292.717789
 31
0.0
  0
LINE
  8
LC-005-005-----0
  6
CONTINUOUS
  5
19F
 10
296.55042
 20
293.721993
 30
0.0
 11
298.532544
 21
295.704117
 31
0.0
  0
LINE
  8
LC-005-005-----0
  6
CONTINUOUS
  5
1A0
 10
296.550392
 20
296.550392
 30
0.0
 11
298.951704
 21
298.951704
 31
0.0
  0
LINE
  8
LC-005-005-----0
  6
CONTINUOUS
  5
1A1
 10
296.550364
 20
299.378791
 30
0.0
 11
298.494464
 21
301.322891
 31
0.0
  0
LINE
  8
LC-005-005-----0
  6
CONTINUOUS
  5
1A2
 10
296.550336
 20
302.20719
 30
0.0
 11
299.182873
 21
304.839727
 31
0.0
  0
LINE
  8
LC-005-005-----0
  6
CONTINUOUS
  5
1A3
 10
296.550307
 20
305.035589
 30
0.0
 11
299.042662
 21
307.527944
 31
0.0
  0
LINE
  8
LC-005-005-----0
  6
CONTINUOUS
  5
1A4
 10
296.550279
 20
307.863988
 30
0.0
 11
299.592718
 21
310.906427
 31
0.0
  0
LINE
  8
LC-005-005-----0
  6
CONTINUOUS
  5
1A5
 10
296.550251
 20
310.692387
 30
0.0
 11
299.575665
 21
313.717801
 31
0.0
  0
LINE
  8
LC-005-005-----0
  6
CONTINUOUS
  5
1A6
 10
296.550223
 20
313.520786
 30
0.0
 11
299.678537
 21
316.6491
 31
0.0
  0
LINE
  8
LC-005-005-----0
  6
CONTINUOUS
  5
1A7
 10
296.550195
 20
316.349185
 30
0.0
 11
300.449882
 21
320.248872
 31
0.0
  0
LINE
  8
LC-005-005-----0
  6
CONTINUOUS
  5
1A8
 10
296.550167
 20
319.177584
 30
0.0
 11
298.090369
 21
320.717786
 31
0.0
  0
LINE
  8
LC-005-005-----0
  6
CONTINUOUS
  5
1A9
 10
296.550138
 20
322.005983
 30
0.0
 11
298.050148
 21
323.505992
 31
0.0
  0
LINE
  8
LC-005-005-----0
  6
CONTINUOUS
  5
1AA
 10
296.55011
 20
324.834382
 30
0.0
 11
298.050122
 21
326.334393
 31
0.0
  0
LINE
  8
LC-005-005-----0
  6
CONTINUOUS
  5
1AB
 10
296.550082
 20
327.66278
 30
0.0
 11
298.050096
 21
329.162794
 31
0.0
  0
LINE
  8
LC-005-005-----0
  6
CONTINUOUS
  5
1AC
 10
296.550054
 20
330.491179
 30
0.0
 11
298.050069
 21
331.991195
 31
0.0
  0
LINE
  8
LC-005-005-----0
  6
CONTINUOUS
  5
1AD
 10
296.550026
 20
333.319578
 30
0.0
 11
298.050043
 21
334.819596
 31
0.0
  0
LINE
  8
LC-005-005-----0
  6
CONTINUOUS
  5
1AE
 10
296.549998
 20
336.147977
 30
0.0
 11
298.048655
 21
337.646635
 31
0.0
  0
LINE
  8
LC-005-005-----0
  6
CONTINUOUS
  5
1AF
 10
296.440544
 20
338.866951
 30
0.0
 11
297.73668
 21
340.163087
 31
0.0
  0
LINE
  8
LC-005-005-----0
  6
CONTINUOUS
  5
1B0
 10
295.802939
 20
341.057773
 30
0.0
 11
297.021149
 21
342.275983
 31
0.0
  0
LINE
  8
LC-005-005-----0
  6
CONTINUOUS
  5
1B1
 10
294.764719
 20
342.84798
 30
0.0
 11
296.006336
 21
344.089597
 31
0.0
  0
LINE
  8
LC-005-005-----0
  6
CONTINUOUS
  5
1B2
 10
293.397514
 20
344.309202
 30
0.0
 11
294.735519
 21
345.647207
 31
0.0
  0
LINE
  8
LC-005-005-----0
  6
CONTINUOUS
  5
1B3
 10
291.708972
 20
345.449087
 30
0.0
 11
293.222128
 21
346.962243
 31
0.0
  0
LINE
  8
LC-005-005-----0
  6
CONTINUOUS
  5
1B4
 10
289.65057
 20
346.219113
 30
0.0
 11
291.45698
 21
348.025523
 31
0.0
  0
LINE
  8
LC-005-005-----0
  6
CONTINUOUS
  5
1B5
 10
287.070708
 20
346.467678
 30
0.0
 11
289.40345
 21
348.80042
 31
0.0
  0
LINE
  8
LC-005-005-----0
  6
CONTINUOUS
  5
1B6
 10
284.242255
 20
346.467652
 30
0.0
 11
286.972986
 21
349.198383
 31
0.0
  0
LINE
  8
LC-005-005-----0
  6
CONTINUOUS
  5
1B7
 10
281.413801
 20
346.467625
 30
0.0
 11
284.163827
 21
349.217651
 31
0.0
  0
LINE
  8
LC-005-005-----0
  6
CONTINUOUS
  5
1B8
 10
278.585348
 20
346.467599
 30
0.0
 11
281.335373
 21
349.217624
 31
0.0
  0
LINE
  8
LC-005-005-----0
  6
CONTINUOUS
  5
1B9
 10
275.756894
 20
346.467573
 30
0.0
 11
278.50692
 21
349.217598
 31
0.0
  0
LINE
  8
LC-005-005-----0
  6
CONTINUOUS
  5
1BA
 10
272.928441
 20
346.467546
 30
0.0
 11
275.678467
 21
349.217572
 31
0.0
  0
LINE
  8
LC-005-005-----0
  6
CONTINUOUS
  5
1BB
 10
270.099988
 20
346.46752
 30
0.0
 11
272.350008
 21
348.717541
 31
0.0
  0
LINE
  8
LC-005-005-----0
  6
CONTINUOUS
  5
1BC
 10
267.271534
 20
346.467494
 30
0.0
 11
269.521555
 21
348.717514
 31
0.0
  0
LINE
  8
LC-005-005-----0
  6
CONTINUOUS
  5
1BD
 10
264.443081
 20
346.467467
 30
0.0
 11
267.04991
 21
349.074297
 31
0.0
  0
LINE
  8
LC-005-005-----0
  6
CONTINUOUS
  5
1BE
 10
261.614627
 20
346.467441
 30
0.0
 11
267.049884
 21
351.902698
 31
0.0
  0
LINE
  8
LC-005-005-----0
  6
CONTINUOUS
  5
1BF
 10
258.786174
 20
346.467415
 30
0.0
 11
262.286206
 21
349.967447
 31
0.0
  0
LINE
  8
LC-005-005-----0
  6
CONTINUOUS
  5
1C0
 10
255.95772
 20
346.467388
 30
0.0
 11
257.457734
 21
347.967402
 31
0.0
  0
LINE
  8
LC-005-005-----0
  6
CONTINUOUS
  5
1C1
 10
259.049906
 20
349.559574
 30
0.0
 11
259.457753
 21
349.967421
 31
0.0
  0
LINE
  8
LC-005-005-----0
  6
CONTINUOUS
  5
1C2
 10
253.129267
 20
346.467362
 30
0.0
 11
256.049907
 21
349.388002
 31
0.0
  0
ENDBLK
  8
0
  5
1C3
  0
BLOCK
  8
0
  5
1C5
  2
*X24
 70
    65
 10
276.5505
 20
284.217696
 30
0.0
  3
*X24
  0
LINE
  8
LC-005-005-----0
  6
CONTINUOUS
  5
1C6
 10
282.8005
 20
297.027061
 30
0.0
 11
282.450313
 21
297.377248
 31
0.0
  0
LINE
  8
LC-005-005-----0
  6
CONTINUOUS
  5
1C7
 10
282.8005
 20
295.612847
 30
0.0
 11
282.034368
 21
296.378979
 31
0.0
  0
LINE
  8
LC-005-005-----0
  6
CONTINUOUS
  5
1C8
 10
282.8005
 20
294.198634
 30
0.0
 11
281.618423
 21
295.380711
 31
0.0
  0
LINE
  8
LC-005-005-----0
  6
CONTINUOUS
  5
1C9
 10
282.8005
 20
292.78442
 30
0.0
 11
281.5505
 21
294.03442
 31
0.0
  0
LINE
  8
LC-005-005-----0
  6
CONTINUOUS
  5
1CA
 10
289.0505
 20
285.120206
 30
0.0
 11
288.45301
 21
285.717696
 31
0.0
  0
LINE
  8
LC-005-005-----0
  6
CONTINUOUS
  5
1CB
 10
282.8005
 20
291.370206
 30
0.0
 11
281.5505
 21
292.620206
 31
0.0
  0
LINE
  8
LC-005-005-----0
  6
CONTINUOUS
  5
1CC
 10
288.538797
 20
284.217696
 30
0.0
 11
287.038797
 21
285.717696
 31
0.0
  0
LINE
  8
LC-005-005-----0
  6
CONTINUOUS
  5
1CD
 10
282.8005
 20
289.955993
 30
0.0
 11
281.5505
 21
291.205993
 31
0.0
  0
LINE
  8
LC-005-005-----0
  6
CONTINUOUS
  5
1CE
 10
287.124583
 20
284.217696
 30
0.0
 11
285.624583
 21
285.717696
 31
0.0
  0
LINE
  8
LC-005-005-----0
  6
CONTINUOUS
  5
1CF
 10
282.8005
 20
288.541779
 30
0.0
 11
281.5505
 21
289.791779
 31
0.0
  0
LINE
  8
LC-005-005-----0
  6
CONTINUOUS
  5
1D0
 10
285.710369
 20
284.217696
 30
0.0
 11
284.210369
 21
285.717696
 31
0.0
  0
LINE
  8
LC-005-005-----0
  6
CONTINUOUS
  5
1D1
 10
282.8005
 20
287.127566
 30
0.0
 11
281.5505
 21
288.377566
 31
0.0
  0
LINE
  8
LC-005-005-----0
  6
CONTINUOUS
  5
1D2
 10
284.296156
 20
284.217696
 30
0.0
 11
281.5505
 21
286.963352
 31
0.0
  0
LINE
  8
LC-005-005-----0
  6
CONTINUOUS
  5
1D3
 10
282.881942
 20
284.217696
 30
0.0
 11
281.381942
 21
285.717696
 31
0.0
  0
LINE
  8
LC-005-005-----0
  6
CONTINUOUS
  5
1D4
 10
281.467729
 20
284.217696
 30
0.0
 11
279.967729
 21
285.717696
 31
0.0
  0
LINE
  8
LC-005-005-----0
  6
CONTINUOUS
  5
1D5
 10
280.053515
 20
284.217696
 30
0.0
 11
278.553515
 21
285.717696
 31
0.0
  0
LINE
  8
LC-005-005-----0
  6
CONTINUOUS
  5
1D6
 10
278.639302
 20
284.217696
 30
0.0
 11
277.315054
 21
285.541943
 31
0.0
  0
LINE
  8
LC-005-005-----0
  6
CONTINUOUS
  5
1D7
 10
277.225088
 20
284.217696
 30
0.0
 11
276.797416
 21
284.645368
 31
0.0
  0
ENDBLK
  8
0
  5
1D8
  0
BLOCK
  8
0
  5
1DA
  2
*X25
 70
    65
 10
289.0505
 20
284.217696
 30
0.0
  3
*X25
  0
LINE
  8
LC-005-005-----0
  6
CONTINUOUS
  5
1DB
 10
295.988152
 20
296.56733
 30
0.0
 11
295.3005
 21
297.254983
 31
0.0
  0
LINE
  8
LC-005-005-----0
  6
CONTINUOUS
  5
1DC
 10
296.5505
 20
294.590769
 30
0.0
 11
295.3005
 21
295.840769
 31
0.0
  0
LINE
  8
LC-005-005-----0
  6
CONTINUOUS
  5
1DD
 10
296.5505
 20
293.176556
 30
0.0
 11
295.3005
 21
294.426556
 31
0.0
  0
LINE
  8
LC-005-005-----0
  6
CONTINUOUS
  5
1DE
 10
296.5505
 20
291.762342
 30
0.0
 11
295.3005
 21
293.012342
 31
0.0
  0
LINE
  8
LC-005-005-----0
  6
CONTINUOUS
  5
1DF
 10
296.5505
 20
290.348128
 30
0.0
 11
295.3005
 21
291.598128
 31
0.0
  0
LINE
  8
LC-005-005-----0
  6
CONTINUOUS
  5
1E0
 10
296.5505
 20
288.933915
 30
0.0
 11
295.3005
 21
290.183915
 31
0.0
  0
LINE
  8
LC-005-005-----0
  6
CONTINUOUS
  5
1E1
 10
298.5505
 20
285.519701
 30
0.0
 11
298.352505
 21
285.717696
 31
0.0
  0
LINE
  8
LC-005-005-----0
  6
CONTINUOUS
  5
1E2
 10
296.5505
 20
287.519701
 30
0.0
 11
295.3005
 21
288.769701
 31
0.0
  0
LINE
  8
LC-005-005-----0
  6
CONTINUOUS
  5
1E3
 10
298.438291
 20
284.217696
 30
0.0
 11
296.938291
 21
285.717696
 31
0.0
  0
LINE
  8
LC-005-005-----0
  6
CONTINUOUS
  5
1E4
 10
296.5505
 20
286.105488
 30
0.0
 11
295.3005
 21
287.355488
 31
0.0
  0
LINE
  8
LC-005-005-----0
  6
CONTINUOUS
  5
1E5
 10
297.024078
 20
284.217696
 30
0.0
 11
295.3005
 21
285.941274
 31
0.0
  0
LINE
  8
LC-005-005-----0
  6
CONTINUOUS
  5
1E6
 10
295.609864
 20
284.217696
 30
0.0
 11
294.109864
 21
285.717696
 31
0.0
  0
LINE
  8
LC-005-005-----0
  6
CONTINUOUS
  5
1E7
 10
294.195651
 20
284.217696
 30
0.0
 11
292.695651
 21
285.717696
 31
0.0
  0
LINE
  8
LC-005-005-----0
  6
CONTINUOUS
  5
1E8
 10
292.781437
 20
284.217696
 30
0.0
 11
291.281437
 21
285.717696
 31
0.0
  0
LINE
  8
LC-005-005-----0
  6
CONTINUOUS
  5
1E9
 10
291.367224
 20
284.217696
 30
0.0
 11
289.867224
 21
285.717696
 31
0.0
  0
LINE
  8
LC-005-005-----0
  6
CONTINUOUS
  5
1EA
 10
289.95301
 20
284.217696
 30
0.0
 11
289.0505
 21
285.120206
 31
0.0
  0
ENDBLK
  8
0
  5
1EB
  0
BLOCK
  8
0
  5
1ED
  2
BLK7
 70
    64
 10
0.0
 20
0.0
 30
0.0
  3
BLK7
  0
ENDBLK
  8
0
  5
1EE
  0
BLOCK
  8
0
  5
1F0
  2
*X27
 70
    65
 10
256.549911
 20
347.967403
 30
0.0
  3
*X27
  0
LINE
  8
LC-005-005-----0
  6
CONTINUOUS
  5
1F1
 10
258.549483
 20
348.996663
 30
0.0
 11
257.579171
 21
349.966975
 31
0.0
  0
LINE
  8
LC-005-005-----0
  6
DASHED
  5
1F3
 10
258.203888
 20
348.210888
 30
0.0
 11
256.793396
 21
349.621379
 31
0.0
  0
LINE
  8
LC-005-005-----0
  6
DASHED
  5
1F4
 10
257.838992
 20
348.010098
 30
0.0
 11
256.592606
 21
349.256484
 31
0.0
  0
ENDBLK
  8
0
  5
1F5
  0
BLOCK
  8
0
  5
1F7
  2
*X28
 70
    65
 10
256.550125
 20
324.967403
 30
0.0
  3
*X28
  0
LINE
  8
LC-005-005-----0
  6
CONTINUOUS
  5
1F8
 10
258.346428
 20
326.572301
 30
0.0
 11
258.155024
 21
326.763706
 31
0.0
  0
LINE
  8
LC-005-005-----0
  6
DASHED
  5
1F9
 10
258.379157
 20
325.408202
 30
0.0
 11
256.990924
 21
326.796435
 31
0.0
  0
LINE
  8
LC-005-005-----0
  6
DASHED
  5
1FA
 10
258.093658
 20
325.128015
 30
0.0
 11
256.710737
 21
326.510936
 31
0.0
  0
ENDBLK
  8
0
  5
1FB
  0
BLOCK
  8
0
  5
1FD
  2
*X29
 70
    65
 10
250.549822
 20
350.217477
 30
0.0
  3
*X29
  0
LINE
  8
LC-005-005-----0
  6
CONTINUOUS
  5
1FE
 10
250.549832
 20
356.147716
 30
0.0
 11
252.480204
 21
354.217346
 31
0.0
  0
LINE
  8
LC-005-005-----0
  6
CONTINUOUS
  5
1FF
 10
254.722823
 20
356.217369
 30
0.0
 11
256.722806
 21
354.217389
 31
0.0
  0
LINE
  8
LC-005-005-----0
  6
CONTINUOUS
  5
200
 10
258.965424
 20
356.217411
 30
0.0
 11
260.965407
 21
354.217431
 31
0.0
  0
LINE
  8
LC-005-005-----0
  6
CONTINUOUS
  5
201
 10
263.208025
 20
356.217453
 30
0.0
 11
265.208008
 21
354.217473
 31
0.0
  0
LINE
  8
LC-005-005-----0
  6
CONTINUOUS
  5
202
 10
267.04987
 20
352.375614
 30
0.0
 11
268.549885
 21
350.875601
 31
0.0
  0
ENDBLK
  8
0
  5
203
  0
BLOCK
  8
0
  5
205
  2
*X30
 70
    65
 10
250.547831
 20
317.715305
 30
0.0
  3
*X30
  0
LINE
  8
LC-005-005-----0
  6
CONTINUOUS
  5
206
 10
250.547843
 20
317.965964
 30
0.0
 11
250.798502
 21
317.715306
 31
0.0
  0
LINE
  8
LC-005-005-----0
  6
CONTINUOUS
  5
207
 10
252.041135
 20
320.715312
 30
0.0
 11
254.041129
 21
318.715321
 31
0.0
  0
LINE
  8
LC-005-005-----0
  6
CONTINUOUS
  5
208
 10
256.283759
 20
320.715332
 30
0.0
 11
258.283752
 21
318.715341
 31
0.0
  0
LINE
  8
LC-005-005-----0
  6
CONTINUOUS
  5
209
 10
260.526383
 20
320.715351
 30
0.0
 11
262.526376
 21
318.715361
 31
0.0
  0
LINE
  8
LC-005-005-----0
  6
CONTINUOUS
  5
20A
 10
264.769007
 20
320.715371
 30
0.0
 11
266.584279
 21
318.900101
 31
0.0
  0
LINE
  8
LC-005-005-----0
  6
CONTINUOUS
  5
20B
 10
267.047821
 20
322.679197
 30
0.0
 11
268.506698
 21
321.220323
 31
0.0
  0
ENDBLK
  8
0
  5
20C
  0
BLOCK
  8
0
  5
20E
  2
BLK8
 70
    64
 10
0.0
 20
0.0
 30
0.0
  3
BLK8
  0
ENDBLK
  8
0
  5
20F
  0
ENDSEC
  0
SECTION
  2
ENTITIES
  0
VIEWPORT
  8
LC-000
  5
321
 67
     1
 68
     1
 10
420.0
 20
297.0
 30
0.0
 40
840.0
 41
594.0
 69
     1
1001
ACAD
1000
MVIEW
1002
{
1070
    16
1010
0.0
1020
0.0
1030
0.0
1010
0.0
1020
0.0
1030
1.0
1040
0.0
1040
594.0
1040
420.0
1040
297.0
1040
50.0
1040
0.0
1040
0.0
1070
     0
1070
   100
1070
     1
1070
     1
1070
     0
1070
     0
1070
     0
1070
     0
1040
0.0
1040
0.0
1040
0.0
1040
1.0
1040
1.0
1040
0.0
1040
0.0
1070
     0
1002
{
1002
}
1002
}
  0
VIEWPORT
  8
0
  5
322
 67
     1
 68
     1
 10
0.0
 20
0.0
 30
0.0
 40
0.0
 41
0.0
 69
     1
1001
ACAD
1000
MVIEW
1002
{
1070
    16
1010
0.0
1020
0.0
1030
0.0
1010
0.0
1020
0.0
1030
1.0
1040
0.0
1040
594.0
1040
0.0
1040
0.0
1040
50.0
1040
0.0
1040
0.0
1070
     0
1070
   100
1070
     0
1070
     1
1070
     0
1070
     0
1070
     0
1070
     0
1040
0.0
1040
0.0
1040
0.0
1040
0.5
1040
0.5
1040
0.5
1040
0.5
1070
     0
1002
{
1002
}
1002
}
  0
DIMENSION
  8
0
  5
210
  2
*D0
 10
289.050617
 20
252.0
 30
0.0
 11
289.050617
 21
252.0
 31
0.0
  1
%%c17-23
 13
280.550488
 23
285.717696
 33
0.0
 14
297.550747
 24
285.718047
 34
0.0
  3
LC-DIM-L-0090-02-02
  0
DIMENSION
  8
0
  5
211
  2
*D1
 10
350.0
 20
311.592683
 30
0.0
 11
350.0
 21
311.592683
 31
0.0
  1
52
 13
286.300018
 23
337.467671
 33
0.0
 14
289.0505
 24
285.717696
 34
0.0
 50
90.0
  3
LC-DIM-L-0090-02-02
  0
INSERT
  8
0
  5
212
  2
*X2
 10
203.942327
 20
365.966864
 30
0.0
  0
INSERT
  8
0
  5
214
  2
BLK1
 10
0.0
 20
0.0
 30
0.0
  0
INSERT
  8
0
  5
215
  2
*X4
 10
245.157709
 20
365.966864
 30
0.0
  0
INSERT
  8
0
  5
216
  2
BLK2
 10
0.0
 20
0.0
 30
0.0
  0
INSERT
  8
0
  5
217
  2
*X6
 10
203.943074
 20
299.966864
 30
0.0
  0
INSERT
  8
0
  5
218
  2
*X7
 10
202.300018
 20
299.96686
 30
0.0
  0
INSERT
  8
0
  5
219
  2
BLK3
 10
0.0
 20
0.0
 30
0.0
  0
INSERT
  8
0
  5
21A
  2
*X9
 10
245.158277
 20
299.967685
 30
0.0
  0
INSERT
  8
0
  5
21B
  2
BLK4
 10
0.0
 20
0.0
 30
0.0
  0
INSERT
  8
0
  5
21C
  2
*X11
 10
246.050018
 20
349.967284
 30
0.0
  0
INSERT
  8
0
  5
21D
  2
*X12
 10
246.050267
 20
299.9673
 30
0.0
  0
INSERT
  8
0
  5
21E
  2
*X13
 10
197.300018
 20
361.466864
 30
0.0
  0
INSERT
  8
0
  5
21F
  2
*X14
 10
246.800018
 20
361.466864
 30
0.0
  0
INSERT
  8
0
  5
220
  2
BLK5
 10
0.0
 20
0.0
 30
0.0
  0
INSERT
  8
0
  5
221
  2
*X16
 10
246.800765
 20
296.467788
 30
0.0
  0
INSERT
  8
0
  5
222
  2
*X17
 10
197.300496
 20
296.466812
 30
0.0
  0
INSERT
  8
0
  5
223
  2
BLK6
 10
0.0
 20
0.0
 30
0.0
  0
DIMENSION
  8
0
  5
224
  2
*D19
 10
168.0
 20
337.466843
 30
0.0
 11
168.0
 21
337.466843
 31
0.0
 13
201.800018
 23
374.966864
 33
0.0
 14
201.800765
 24
299.966822
 34
0.0
 50
90.0
  3
LC-DIM-L-0090-02-02
  0
DIMENSION
  8
0
  5
225
  2
*D20
 10
225.800018
 20
392.0
 30
0.0
 11
225.800018
 21
392.0
 31
0.0
  1
DN40
 13
205.550018
 23
368.96688
 33
0.0
 14
246.050018
 24
368.967284
 34
0.0
  3
LC-DIM-L-0090-02-02
  0
DIMENSION
  8
0
  5
226
  2
*D21
 10
257.001907
 20
216.0
 30
0.0
 11
257.001907
 21
216.0
 31
0.0
  1
64
 13
225.800018
 23
296.4673
 33
0.0
 14
289.0505
 24
285.717696
 34
0.0
  3
LC-DIM-L-0090-02-02
  0
INSERT
  8
0
  5
227
  2
*X22
 10
253.050102
 20
285.717612
 30
0.0
  0
INSERT
  8
0
  5
228
  2
*X23
 10
253.049911
 20
285.717771
 30
0.0
  0
INSERT
  8
0
  5
229
  2
*X24
 10
276.5505
 20
284.217696
 30
0.0
  0
INSERT
  8
0
  5
22A
  2
*X25
 10
289.0505
 20
284.217696
 30
0.0
  0
INSERT
  8
0
  5
22C
  2
BLK7
 10
0.0
 20
0.0
 30
0.0
  0
INSERT
  8
0
  5
22D
  2
*X27
 10
256.549911
 20
347.967403
 30
0.0
  0
INSERT
  8
0
  5
22E
  2
*X28
 10
256.550125
 20
324.967403
 30
0.0
  0
INSERT
  8
0
  5
22F
  2
*X29
 10
250.549822
 20
350.217477
 30
0.0
  0
INSERT
  8
0
  5
230
  2
*X30
 10
250.547831
 20
317.715305
 30
0.0
  0
INSERT
  8
0
  5
231
  2
BLK8
 10
0.0
 20
0.0
 30
0.0
  0
LINE
  8
LC-001-002-----0
  5
234
 10
225.800018
 20
378.466864
 30
0.0
 11
225.800018
 21
296.4673
 31
0.0
  0
LINE
  8
LC-001-002-----0
  6
CONTINUOUS
 62
     1
  5
235
 10
203.550018
 20
299.96686
 30
0.0
 11
248.050765
 21
299.967304
 31
0.0
  0
LINE
  8
LC-001-002-----0
  6
CONTINUOUS
 62
     1
  5
236
 10
247.657826
 20
374.9673
 30
0.0
 11
248.050018
 21
374.967304
 31
0.0
  0
LINE
  8
LC-001-002-----0
  6
CONTINUOUS
 62
     1
  5
237
 10
248.050018
 20
361.467304
 30
0.0
 11
248.050018
 21
351.967304
 31
0.0
  0
LINE
  8
LC-001-002-----0
  6
CONTINUOUS
 62
     1
  5
238
 10
203.550018
 20
361.46686
 30
0.0
 11
203.550018
 21
313.46686
 31
0.0
  0
LINE
  8
LC-001-002-----0
  6
CONTINUOUS
 62
     1
  5
239
 10
205.550018
 20
368.96688
 30
0.0
 11
205.550018
 21
305.964538
 31
0.0
  0
LINE
  8
LC-001-002-----0
  6
CONTINUOUS
 62
     1
  5
23A
 10
247.657709
 20
374.966864
 30
0.0
 11
245.157709
 21
374.966864
 31
0.0
  0
LINE
  8
LC-001-002-----0
  6
CONTINUOUS
 62
     1
  5
23B
 10
246.050018
 20
368.967284
 30
0.0
 11
246.050018
 21
349.967284
 31
0.0
  0
LINE
  8
LC-001-002-----0
  6
CONTINUOUS
 62
     1
  5
23C
 10
206.360363
 20
308.989027
 30
0.0
 11
203.943074
 21
299.966864
 31
0.0
  0
LINE
  8
LC-001-002-----0
  6
CONTINUOUS
 62
     1
  5
23D
 10
249.300018
 20
373.717304
 30
0.0
 11
249.300018
 21
362.717304
 31
0.0
  0
LINE
  8
LC-001-002-----0
  6
CONTINUOUS
 62
     1
  5
23E
 10
202.300018
 20
373.71686
 30
0.0
 11
202.300018
 21
362.71686
 31
0.0
  0
LINE
  8
LC-001-002-----0
  6
CONTINUOUS
 62
     1
  5
23F
 10
203.550018
 20
361.46686
 30
0.0
 11
202.300018
 21
362.71686
 31
0.0
  0
LINE
  8
LC-001-002-----0
  6
CONTINUOUS
 62
     1
  5
240
 10
203.550018
 20
374.96686
 30
0.0
 11
202.300018
 21
373.71686
 31
0.0
  0
LINE
  8
LC-001-002-----0
  6
CONTINUOUS
 62
     1
  5
241
 10
248.050018
 20
374.967304
 30
0.0
 11
249.300018
 21
373.717304
 31
0.0
  0
LINE
  8
LC-001-002-----0
  6
CONTINUOUS
 62
     1
  5
242
 10
248.050018
 20
361.467304
 30
0.0
 11
249.300018
 21
362.717304
 31
0.0
  0
LINE
  8
LC-001-002-----0
  6
CONTINUOUS
 62
     1
  5
243
 10
203.942327
 20
374.966864
 30
0.0
 11
206.442327
 21
374.966864
 31
0.0
  0
LINE
  8
LC-001-002-----0
  6
CONTINUOUS
 62
     1
  5
244
 10
246.050018
 20
368.96688
 30
0.0
 11
247.657709
 21
374.966864
 31
0.0
  0
LINE
  8
LC-001-002-----0
  6
CONTINUOUS
 62
     1
  5
245
 10
254.049902
 20
349.967371
 30
0.0
 11
256.049902
 21
349.967389
 31
0.0
  0
LINE
  8
LC-001-002-----0
  6
CONTINUOUS
 62
     1
  5
246
 10
254.050135
 20
324.967371
 30
0.0
 11
256.050135
 21
324.967389
 31
0.0
  0
LINE
  8
LC-001-002-----0
  6
CONTINUOUS
 62
     1
  5
247
 10
265.049902
 20
349.967473
 30
0.0
 11
265.049902
 21
349.967473
 31
0.0
  0
LINE
  8
LC-001-002-----0
  6
CONTINUOUS
  5
248
 10
203.550018
 20
361.46686
 30
0.0
 11
203.550018
 21
374.966864
 31
0.0
  0
LINE
  8
LC-001-002-----0
  6
CONTINUOUS
 62
     1
  5
249
 10
205.550018
 20
368.96688
 30
0.0
 11
203.942327
 21
374.966864
 31
0.0
  0
LINE
  8
LC-001-002-----0
  6
CONTINUOUS
  5
24A
 10
248.050018
 20
361.467304
 30
0.0
 11
248.050018
 21
374.967304
 31
0.0
  0
LINE
  8
LC-001-002-----0
  6
CONTINUOUS
 62
     1
  5
24B
 10
206.442327
 20
374.966864
 30
0.0
 11
206.442327
 21
365.966864
 31
0.0
  0
LINE
  8
LC-001-002-----0
  6
CONTINUOUS
 62
     1
  5
24C
 10
206.35387
 20
365.966864
 30
0.0
 11
245.157709
 21
365.966864
 31
0.0
  0
LINE
  8
LC-001-002-----0
  6
CONTINUOUS
 62
     1
  5
24D
 10
203.942327
 20
374.966864
 30
0.0
 11
206.35387
 21
365.966864
 31
0.0
  0
LINE
  8
LC-001-002-----0
  6
CONTINUOUS
 62
     1
  5
24E
 10
245.157709
 20
374.966864
 30
0.0
 11
245.157709
 21
365.966864
 31
0.0
  0
LINE
  8
LC-001-002-----0
  6
CONTINUOUS
 62
     1
  5
24F
 10
245.246166
 20
365.966864
 30
0.0
 11
245.157709
 21
365.966864
 31
0.0
  0
LINE
  8
LC-001-002-----0
  6
CONTINUOUS
 62
     1
  5
250
 10
247.657709
 20
374.966864
 30
0.0
 11
245.246166
 21
365.966864
 31
0.0
  0
LINE
  8
LC-001-002-----0
  6
CONTINUOUS
 62
     1
  5
251
 10
203.943074
 20
299.966864
 30
0.0
 11
206.443074
 21
299.966914
 31
0.0
  0
LINE
  8
LC-001-002-----0
  6
CONTINUOUS
 62
     1
  5
252
 10
206.443074
 20
299.966914
 30
0.0
 11
206.442895
 21
308.966914
 31
0.0
  0
LINE
  8
LC-001-002-----0
  6
CONTINUOUS
 62
     1
  5
253
 10
206.354438
 20
308.966912
 30
0.0
 11
245.158277
 21
308.967685
 31
0.0
  0
LINE
  8
LC-001-002-----0
  6
CONTINUOUS
 62
     1
  5
254
 10
247.658456
 20
299.967735
 30
0.0
 11
245.158456
 21
299.967685
 31
0.0
  0
LINE
  8
LC-001-002-----0
  6
CONTINUOUS
 62
     1
  5
255
 10
245.158456
 20
299.967685
 30
0.0
 11
245.158277
 21
308.967685
 31
0.0
  0
LINE
  8
LC-001-002-----0
  6
CONTINUOUS
 62
     1
  5
256
 10
245.246734
 20
308.967687
 30
0.0
 11
245.158277
 21
308.967685
 31
0.0
  0
LINE
  8
LC-001-002-----0
  6
CONTINUOUS
 62
     1
  5
257
 10
247.658456
 20
299.967735
 30
0.0
 11
245.246734
 21
308.967687
 31
0.0
  0
LINE
  8
LC-001-002-----0
  6
CONTINUOUS
 62
     1
  5
258
 10
203.550765
 20
299.96686
 30
0.0
 11
202.30074
 21
301.216835
 31
0.0
  0
LINE
  8
LC-001-002-----0
  6
CONTINUOUS
 62
     1
  5
259
 10
202.30074
 20
301.216835
 30
0.0
 11
202.300521
 21
312.216835
 31
0.0
  0
LINE
  8
LC-001-002-----0
  6
CONTINUOUS
 62
     1
  5
25A
 10
203.550496
 20
313.46686
 30
0.0
 11
202.300521
 21
312.216835
 31
0.0
  0
LINE
  8
LC-001-002-----0
  6
CONTINUOUS
  5
25B
 10
203.550496
 20
313.46686
 30
0.0
 11
203.550765
 21
299.966856
 31
0.0
  0
LINE
  8
LC-001-002-----0
  6
CONTINUOUS
 62
     1
  5
25C
 10
248.050765
 20
299.967304
 30
0.0
 11
249.30074
 21
301.217328
 31
0.0
  0
LINE
  8
LC-001-002-----0
  6
CONTINUOUS
 62
     1
  5
25D
 10
249.30074
 20
301.217328
 30
0.0
 11
249.300521
 21
312.217328
 31
0.0
  0
LINE
  8
LC-001-002-----0
  6
CONTINUOUS
 62
     1
  5
25E
 10
248.050496
 20
313.467304
 30
0.0
 11
249.300521
 21
312.217328
 31
0.0
  0
LINE
  8
LC-001-002-----0
  6
CONTINUOUS
  5
25F
 10
248.050496
 20
313.467304
 30
0.0
 11
248.050765
 21
299.967304
 31
0.0
  0
LINE
  8
LC-001-002-----0
  6
CONTINUOUS
 62
     1
  5
260
 10
246.050646
 20
305.967687
 30
0.0
 11
247.658456
 21
299.967735
 31
0.0
  0
LINE
  8
LC-001-002-----0
  6
CONTINUOUS
 62
     1
  5
261
 10
265.050018
 20
351.967473
 30
0.0
 11
265.050018
 21
349.967473
 31
0.0
  0
LINE
  8
LC-001-002-----0
  6
CONTINUOUS
 62
     1
  5
262
 10
248.050018
 20
322.967304
 30
0.0
 11
252.550018
 21
322.967348
 31
0.0
  0
LINE
  8
LC-001-002-----0
  6
CONTINUOUS
 62
     1
  5
263
 10
248.050018
 20
351.967304
 30
0.0
 11
252.550018
 21
351.967348
 31
0.0
  0
LINE
  8
LC-001-002-----0
  6
CONTINUOUS
 62
     1
  5
264
 10
246.050018
 20
324.967284
 30
0.0
 11
265.050018
 21
324.967473
 31
0.0
  0
LINE
  8
LC-001-002-----0
  6
CONTINUOUS
 62
     1
  5
265
 10
246.050018
 20
349.967284
 30
0.0
 11
265.050018
 21
349.967473
 31
0.0
  0
LINE
  8
LC-001-002-----0
  6
CONTINUOUS
 62
     1
  5
266
 10
248.050018
 20
322.967304
 30
0.0
 11
248.050018
 21
313.467304
 31
0.0
  0
ARC
  8
LC-001-002-----0
  6
CONTINUOUS
 62
     1
  5
267
 10
252.737478
 20
337.467284
 30
0.0
 40
14.176463
 50
118.146637
 51
241.853363
  0
LINE
  8
LC-001-002-----0
  6
CONTINUOUS
 62
     1
  5
268
 10
246.050018
 20
324.967284
 30
0.0
 11
246.050018
 21
305.970029
 31
0.0
  0
LINE
  8
LC-001-002-----0
  6
CONTINUOUS
 62
     1
  5
269
 10
254.300002
 20
321.217364
 30
0.0
 11
263.3
 21
321.217454
 31
0.0
  0
LINE
  8
LC-001-002-----0
  6
CONTINUOUS
 62
     1
  5
26A
 10
252.550018
 20
351.967348
 30
0.0
 11
254.300036
 21
353.717366
 31
0.0
  0
LINE
  8
LC-001-002-----0
  6
CONTINUOUS
 62
     1
  5
26B
 10
265.050018
 20
351.967473
 30
0.0
 11
263.300036
 21
353.717455
 31
0.0
  0
LINE
  8
LC-001-002-----0
  6
CONTINUOUS
 62
     1
  5
26C
 10
265.050018
 20
322.967473
 30
0.0
 11
263.300001
 21
321.217455
 31
0.0
  0
LINE
  8
LC-001-002-----0
  6
CONTINUOUS
 62
     1
  5
26D
 10
252.550018
 20
322.967348
 30
0.0
 11
254.300001
 21
321.217366
 31
0.0
  0
LINE
  8
LC-001-002-----0
  6
CONTINUOUS
 62
     1
  5
26E
 10
254.300036
 20
353.717366
 30
0.0
 11
263.300036
 21
353.717455
 31
0.0
  0
LINE
  8
LC-001-002-----0
  6
CONTINUOUS
  5
26F
 10
252.550018
 20
351.967348
 30
0.0
 11
265.050018
 21
351.967348
 31
0.0
  0
LINE
  8
LC-001-002-----0
  6
CONTINUOUS
  5
270
 10
252.550018
 20
322.967473
 30
0.0
 11
265.050018
 21
322.967473
 31
0.0
  0
LINE
  8
LC-001-002-----0
  6
CONTINUOUS
 62
     1
  5
271
 10
265.050018
 20
324.967473
 30
0.0
 11
265.050018
 21
322.967473
 31
0.0
  0
LINE
  8
LC-001-002-----0
  6
CONTINUOUS
 62
     1
  5
272
 10
203.550018
 20
374.966864
 30
0.0
 11
247.657826
 21
374.966864
 31
0.0
  0
LINE
  8
LC-001-002-----0
  6
CONTINUOUS
 62
     1
  5
273
 10
254.300018
 20
363.966864
 30
0.0
 11
254.300018
 21
361.466864
 31
0.0
  0
LINE
  8
LC-001-002-----0
  6
CONTINUOUS
 62
     1
  5
274
 10
197.300018
 20
363.966864
 30
0.0
 11
197.300018
 21
361.466864
 31
0.0
  0
LINE
  8
LC-001-002-----0
  6
CONTINUOUS
 62
     1
  5
275
 10
197.300018
 20
361.466864
 30
0.0
 11
201.800018
 21
361.466864
 31
0.0
  0
LINE
  8
LC-001-002-----0
  6
CONTINUOUS
 62
     1
  5
276
 10
201.300018
 20
378.466864
 30
0.0
 11
197.300018
 21
376.157463
 31
0.0
  0
LINE
  8
LC-001-002-----0
  6
CONTINUOUS
 62
     1
  5
277
 10
197.300018
 20
363.966864
 30
0.0
 11
199.800018
 21
363.966864
 31
0.0
  0
LINE
  8
LC-001-002-----0
  6
CONTINUOUS
 62
     1
  5
278
 10
265.050135
 20
324.967473
 30
0.0
 11
265.050135
 21
324.967473
 31
0.0
  0
LINE
  8
LC-001-002-----0
  6
CONTINUOUS
 62
     1
  5
279
 10
251.800018
 20
377.600839
 30
0.0
 11
251.800018
 21
363.966864
 31
0.0
  0
LINE
  8
LC-001-002-----0
  6
CONTINUOUS
 62
     1
  5
27A
 10
199.800018
 20
377.600839
 30
0.0
 11
199.800018
 21
363.966864
 31
0.0
  0
LINE
  8
LC-001-002-----0
  6
CONTINUOUS
 62
     1
  5
27B
 10
249.800018
 20
374.966864
 30
0.0
 11
249.800018
 21
361.466864
 31
0.0
  0
LINE
  8
LC-001-002-----0
  6
CONTINUOUS
 62
     1
  5
27C
 10
259.049902
 20
349.967417
 30
0.0
 11
265.049902
 21
349.967473
 31
0.0
  0
LINE
  8
LC-001-002-----0
  6
CONTINUOUS
 62
     1
  5
27D
 10
259.050135
 20
324.967417
 30
0.0
 11
265.050135
 21
324.967473
 31
0.0
  0
LINE
  8
LC-001-002-----0
  6
CONTINUOUS
 62
     1
  5
27E
 10
201.800018
 20
374.966864
 30
0.0
 11
201.800018
 21
361.466864
 31
0.0
  0
LINE
  8
LC-001-002-----0
  6
CONTINUOUS
 62
     1
  5
27F
 10
201.800018
 20
374.966864
 30
0.0
 11
249.800018
 21
374.966864
 31
0.0
  0
LINE
  8
LC-001-002-----0
  6
CONTINUOUS
 62
     1
  5
280
 10
204.800018
 20
374.966864
 30
0.0
 11
204.800018
 21
374.966864
 31
0.0
  0
LINE
  8
LC-001-002-----0
  6
CONTINUOUS
 62
     1
  5
281
 10
251.800018
 20
363.966864
 30
0.0
 11
254.300018
 21
363.966864
 31
0.0
  0
LINE
  8
LC-001-002-----0
  6
CONTINUOUS
 62
     1
  5
282
 10
254.300546
 20
310.967867
 30
0.0
 11
254.300496
 21
313.467867
 31
0.0
  0
LINE
  8
LC-001-002-----0
  6
CONTINUOUS
 62
     1
  5
283
 10
197.300546
 20
310.966732
 30
0.0
 11
197.300496
 21
313.466732
 31
0.0
  0
LINE
  8
LC-001-002-----0
  6
CONTINUOUS
 62
     1
  5
284
 10
201.800018
 20
361.466864
 30
0.0
 11
202.675016
 21
362.341862
 31
0.0
  0
LINE
  8
LC-001-002-----0
  6
CONTINUOUS
 62
     1
  5
285
 10
201.800018
 20
374.966864
 30
0.0
 11
202.67502
 21
374.091862
 31
0.0
  0
LINE
  8
LC-001-002-----0
  6
CONTINUOUS
 62
     1
  5
286
 10
249.800018
 20
361.466864
 30
0.0
 11
248.924799
 21
362.342084
 31
0.0
  0
LINE
  8
LC-001-002-----0
  6
CONTINUOUS
 62
     1
  5
287
 10
249.800018
 20
374.966864
 30
0.0
 11
248.925238
 21
374.092084
 31
0.0
  0
ARC
  8
LC-007-002-RND-0
  6
CONTINUOUS
  5
289
 10
201.300018
 20
374.966864
 30
0.0
 40
3.5
 50
0.0
 51
90.0
  0
LINE
  8
LC-008-001-----0
  5
28B
 10
238.561014
 20
337.467209
 30
0.0
 11
253.050018
 21
337.467353
 31
0.0
  0
LINE
  8
LC-001-002-----0
  6
CONTINUOUS
 62
     1
  5
28C
 10
197.800018
 20
376.446138
 30
0.0
 11
197.800018
 21
363.966864
 31
0.0
  0
LINE
  8
LC-001-002-----0
  6
CONTINUOUS
 62
     1
  5
28D
 10
197.300018
 20
376.157463
 30
0.0
 11
197.300018
 21
363.966864
 31
0.0
  0
LINE
  8
LC-001-002-----0
  6
CONTINUOUS
 62
     1
  5
28E
 10
201.300018
 20
378.466864
 30
0.0
 11
225.800018
 21
378.466864
 31
0.0
  0
ARC
  8
LC-007-002-RND-0
  6
CONTINUOUS
  5
28F
 10
250.300018
 20
374.966864
 30
0.0
 40
3.5
 50
90.0
 51
180.0
  0
LINE
  8
LC-001-002-----0
  6
CONTINUOUS
 62
     1
  5
290
 10
250.300018
 20
378.466864
 30
0.0
 11
254.300018
 21
376.157463
 31
0.0
  0
LINE
  8
LC-001-002-----0
  6
CONTINUOUS
 62
     1
  5
291
 10
253.800018
 20
376.446138
 30
0.0
 11
253.800018
 21
363.966864
 31
0.0
  0
LINE
  8
LC-001-002-----0
  6
CONTINUOUS
 62
     1
  5
292
 10
254.300018
 20
376.157463
 30
0.0
 11
254.300018
 21
363.966864
 31
0.0
  0
LINE
  8
LC-001-002-----0
  6
CONTINUOUS
 62
     1
  5
293
 10
250.300018
 20
378.466864
 30
0.0
 11
225.800018
 21
378.466864
 31
0.0
  0
LINE
  8
LC-001-002-----0
  6
CONTINUOUS
 62
     1
  5
294
 10
249.800018
 20
361.466864
 30
0.0
 11
254.300018
 21
361.466864
 31
0.0
  0
LINE
  8
LC-001-002-----0
  6
CONTINUOUS
 62
     1
  5
295
 10
201.300835
 20
296.466812
 30
0.0
 11
197.300789
 21
298.776133
 31
0.0
  0
LINE
  8
LC-001-002-----0
  6
CONTINUOUS
 62
     1
  5
296
 10
197.300546
 20
310.966732
 30
0.0
 11
199.800546
 21
310.966782
 31
0.0
  0
LINE
  8
LC-001-002-----0
  6
CONTINUOUS
 62
     1
  5
297
 10
251.800818
 20
297.333843
 30
0.0
 11
251.800546
 21
310.967818
 31
0.0
  0
LINE
  8
LC-001-002-----0
  6
CONTINUOUS
 62
     1
  5
298
 10
199.800818
 20
297.332807
 30
0.0
 11
199.800546
 21
310.966782
 31
0.0
  0
LINE
  8
LC-001-002-----0
  6
CONTINUOUS
 62
     1
  5
299
 10
249.800765
 20
299.967778
 30
0.0
 11
249.800496
 21
313.467778
 31
0.0
  0
LINE
  8
LC-001-002-----0
  6
CONTINUOUS
 62
     1
  5
29A
 10
201.800765
 20
299.966822
 30
0.0
 11
201.800496
 21
313.466822
 31
0.0
  0
LINE
  8
LC-001-002-----0
  6
CONTINUOUS
 62
     1
  5
29B
 10
201.800765
 20
299.966822
 30
0.0
 11
249.800765
 21
299.967778
 31
0.0
  0
LINE
  8
LC-001-002-----0
  6
CONTINUOUS
 62
     1
  5
29C
 10
204.800765
 20
299.966881
 30
0.0
 11
204.800765
 21
299.966881
 31
0.0
  0
LINE
  8
LC-001-002-----0
  6
CONTINUOUS
 62
     1
  5
29D
 10
251.800546
 20
310.967818
 30
0.0
 11
254.300546
 21
310.967867
 31
0.0
  0
LINE
  8
LC-001-002-----0
  6
CONTINUOUS
 62
     1
  5
29E
 10
249.800496
 20
313.467778
 30
0.0
 11
254.300496
 21
313.467867
 31
0.0
  0
LINE
  8
LC-001-002-----0
  6
CONTINUOUS
 62
     1
  5
29F
 10
197.300496
 20
313.466732
 30
0.0
 11
201.800496
 21
313.466822
 31
0.0
  0
LINE
  8
LC-001-002-----0
  6
CONTINUOUS
 62
     1
  5
2A0
 10
250.300835
 20
296.467788
 30
0.0
 11
225.800835
 21
296.4673
 31
0.0
  0
LINE
  8
LC-001-002-----0
  6
CONTINUOUS
 62
     1
  5
2A1
 10
201.800496
 20
313.466822
 30
0.0
 11
202.675512
 21
312.591841
 31
0.0
  0
LINE
  8
LC-001-002-----0
  6
CONTINUOUS
 62
     1
  5
2A2
 10
249.800765
 20
299.967778
 30
0.0
 11
248.925968
 21
300.842541
 31
0.0
  0
LINE
  8
LC-001-002-----0
  6
CONTINUOUS
 62
     1
  5
2A3
 10
201.800765
 20
299.966822
 30
0.0
 11
202.67575
 21
300.841841
 31
0.0
  0
ARC
  8
LC-007-002-RND-0
  6
CONTINUOUS
  5
2A4
 10
201.300765
 20
299.966812
 30
0.0
 40
3.5
 50
270.001141
 51
0.001141
  0
LINE
  8
LC-001-002-----0
  6
CONTINUOUS
 62
     1
  5
2A5
 10
197.800795
 20
298.487468
 30
0.0
 11
197.800546
 21
310.966742
 31
0.0
  0
LINE
  8
LC-001-002-----0
  6
CONTINUOUS
 62
     1
  5
2A6
 10
197.300789
 20
298.776133
 30
0.0
 11
197.300546
 21
310.966732
 31
0.0
  0
LINE
  8
LC-001-002-----0
  6
CONTINUOUS
 62
     1
  5
2A7
 10
201.300835
 20
296.466812
 30
0.0
 11
225.800835
 21
296.4673
 31
0.0
  0
ARC
  8
LC-007-002-RND-0
  6
CONTINUOUS
  5
2A8
 10
250.300765
 20
299.967788
 30
0.0
 40
3.5
 50
180.001141
 51
270.001141
  0
LINE
  8
LC-001-002-----0
  6
CONTINUOUS
 62
     1
  5
2A9
 10
250.300835
 20
296.467788
 30
0.0
 11
254.300789
 21
298.777268
 31
0.0
  0
LINE
  8
LC-001-002-----0
  6
CONTINUOUS
 62
     1
  5
2AA
 10
253.800795
 20
298.488583
 30
0.0
 11
253.800546
 21
310.967857
 31
0.0
  0
LINE
  8
LC-001-002-----0
  6
CONTINUOUS
 62
     1
  5
2AB
 10
254.300789
 20
298.777268
 30
0.0
 11
254.300546
 21
310.967867
 31
0.0
  0
LINE
  8
LC-001-002-----0
  6
CONTINUOUS
 62
     1
  5
2AC
 10
249.800496
 20
313.467778
 30
0.0
 11
248.925294
 21
312.592541
 31
0.0
  0
LINE
  8
LC-001-002-----0
  6
CONTINUOUS
 62
     1
  5
2AD
 10
205.550018
 20
350.966864
 30
0.0
 11
207.050018
 21
350.966864
 31
0.0
  0
LINE
  8
LC-001-002-----0
  6
CONTINUOUS
 62
     1
  5
2AE
 10
205.550018
 20
323.966896
 30
0.0
 11
207.050018
 21
323.966926
 31
0.0
  0
LINE
  8
LC-001-002-----0
  6
CONTINUOUS
 62
     1
  5
2AF
 10
207.050018
 20
350.966864
 30
0.0
 11
207.050018
 21
323.966926
 31
0.0
  0
LINE
  8
LC-001-002-----0
  6
CONTINUOUS
 62
     1
  5
2B0
 10
280.050128
 20
325.717612
 30
0.0
 11
280.050174
 21
320.717618
 31
0.0
  0
ARC
  8
LC-007-002-RND-0
  6
CONTINUOUS
  5
2B1
 10
287.549984
 20
337.467682
 30
0.0
 40
9.0
 50
0.000571
 51
90.000533
  0
LINE
  8
LC-001-002-----0
  5
2B2
 10
289.0505
 20
298.217696
 30
0.0
 11
289.0505
 21
284.217696
 31
0.0
  0
LINE
  8
LC-001-002-----0
  6
CONTINUOUS
 62
     1
  5
2B3
 10
295.3005
 20
298.217696
 30
0.0
 11
295.3005
 21
285.717696
 31
0.0
  0
LINE
  8
LC-001-002-----0
  6
CONTINUOUS
 62
     1
  5
2B4
 10
282.8005
 20
298.217696
 30
0.0
 11
282.8005
 21
285.717696
 31
0.0
  0
LINE
  8
LC-001-002-----0
  6
CONTINUOUS
 62
     1
  5
2B5
 10
296.5505
 20
295.217696
 30
0.0
 11
296.5505
 21
285.717696
 31
0.0
  0
LINE
  8
LC-001-002-----0
  6
CONTINUOUS
 62
     1
  5
2B6
 10
281.5505
 20
295.217696
 30
0.0
 11
281.5505
 21
285.717696
 31
0.0
  0
LINE
  8
LC-001-002-----0
  6
CONTINUOUS
 62
     1
  5
2B7
 10
282.8005
 20
298.217696
 30
0.0
 11
295.3005
 21
298.217696
 31
0.0
  0
LINE
  8
LC-001-002-----0
  6
CONTINUOUS
 62
     1
  5
2B8
 10
277.416525
 20
285.717696
 30
0.0
 11
281.5505
 21
285.717696
 31
0.0
  0
LINE
  8
LC-001-002-----0
  6
CONTINUOUS
 62
     1
  5
2B9
 10
281.5505
 20
295.217696
 30
0.0
 11
282.8005
 21
298.217696
 31
0.0
  0
LINE
  8
LC-001-002-----0
  6
CONTINUOUS
 62
     1
  5
2BA
 10
295.3005
 20
298.217696
 30
0.0
 11
296.5505
 21
295.217696
 31
0.0
  0
LINE
  8
LC-001-002-----0
  6
CONTINUOUS
 62
     1
  5
2BB
 10
276.5505
 20
284.217696
 30
0.0
 11
298.5505
 21
284.217696
 31
0.0
  0
LINE
  8
LC-001-002-----0
  6
CONTINUOUS
 62
     1
  5
2BC
 10
282.8005
 20
285.717696
 30
0.0
 11
295.3005
 21
285.717696
 31
0.0
  0
LINE
  8
LC-001-002-----0
  6
CONTINUOUS
 62
     1
  5
2BD
 10
296.5505
 20
285.717696
 30
0.0
 11
298.5505
 21
285.717696
 31
0.0
  0
LINE
  8
LC-001-002-----0
  6
CONTINUOUS
 62
     1
  5
2BE
 10
276.5505
 20
284.217696
 30
0.0
 11
277.416525
 21
285.717696
 31
0.0
  0
LINE
  8
LC-001-002-----0
  6
CONTINUOUS
 62
     1
  5
2BF
 10
298.5505
 20
285.717696
 30
0.0
 11
298.5505
 21
284.217696
 31
0.0
  0
LINE
  8
LC-008-001-----0
  6
CONTINUOUS
 62
     1
  5
2C0
 10
281.550074
 20
328.467626
 30
0.0
 11
281.5505
 21
285.717622
 31
0.0
  0
LINE
  8
LC-008-001-----0
  6
CONTINUOUS
 62
     1
  5
2C1
 10
296.549984
 20
337.467772
 30
0.0
 11
296.5505
 21
285.717771
 31
0.0
  0
LINE
  8
LC-001-002-----0
  6
CONTINUOUS
 62
     1
  5
2C2
 10
280.050174
 20
320.717607
 30
0.0
 11
277.550151
 21
320.717582
 31
0.0
  0
LINE
  8
LC-001-002-----0
  6
CONTINUOUS
 62
     1
  5
2C3
 10
298.050174
 20
320.717786
 30
0.0
 11
300.550151
 21
320.717811
 31
0.0
  0
LINE
  8
LC-001-002-----0
  6
CONTINUOUS
 62
     1
  5
2C4
 10
300.050221
 20
313.717806
 30
0.0
 11
299.050486
 21
313.717796
 31
0.0
  0
LINE
  8
LC-001-002-----0
  6
CONTINUOUS
 62
     1
  5
2C5
 10
299.550291
 20
306.717801
 30
0.0
 11
298.910804
 21
306.717794
 31
0.0
  0
LINE
  8
LC-001-002-----0
  6
CONTINUOUS
 62
     1
  5
2C6
 10
299.05036
 20
299.717796
 30
0.0
 11
298.180322
 21
299.717787
 31
0.0
  0
LINE
  8
LC-001-002-----0
  6
CONTINUOUS
 62
     1
  5
2C7
 10
298.55043
 20
292.717791
 30
0.0
 11
298.147104
 21
292.717787
 31
0.0
  0
LINE
  8
LC-001-002-----0
  6
CONTINUOUS
 62
     1
  5
2C8
 10
297.5505
 20
285.717781
 30
0.0
 11
280.5505
 21
285.717612
 31
0.0
  0
LINE
  8
LC-001-002-----0
  6
CONTINUOUS
 62
     1
  5
2C9
 10
277.550151
 20
320.717582
 30
0.0
 11
279.050221
 21
313.717597
 31
0.0
  0
LINE
  8
LC-001-002-----0
  6
CONTINUOUS
 62
     1
  5
2CA
 10
278.050221
 20
313.717587
 30
0.0
 11
279.190038
 21
306.717598
 31
0.0
  0
LINE
  8
LC-001-002-----0
  6
CONTINUOUS
 62
     1
  5
2CB
 10
278.550291
 20
306.717592
 30
0.0
 11
279.920655
 21
299.717605
 31
0.0
  0
LINE
  8
LC-001-002-----0
  6
CONTINUOUS
 62
     1
  5
2CC
 10
279.05036
 20
299.717597
 30
0.0
 11
279.953973
 21
292.717606
 31
0.0
  0
LINE
  8
LC-001-002-----0
  6
CONTINUOUS
 62
     1
  5
2CD
 10
279.55043
 20
292.717602
 30
0.0
 11
280.5505
 21
285.717612
 31
0.0
  0
LINE
  8
LC-001-002-----0
  6
CONTINUOUS
 62
     1
  5
2CE
 10
300.550421
 20
320.718075
 30
0.0
 11
299.050486
 21
313.718061
 31
0.0
  0
LINE
  8
LC-001-002-----0
  6
CONTINUOUS
 62
     1
  5
2CF
 10
300.050486
 20
313.71807
 30
0.0
 11
298.910804
 21
306.71806
 31
0.0
  0
LINE
  8
LC-001-002-----0
  6
CONTINUOUS
 62
     1
  5
2D0
 10
299.550551
 20
306.718066
 30
0.0
 11
298.180322
 21
299.718053
 31
0.0
  0
LINE
  8
LC-001-002-----0
  6
CONTINUOUS
 62
     1
  5
2D1
 10
299.050616
 20
299.718061
 30
0.0
 11
298.147139
 21
292.718052
 31
0.0
  0
LINE
  8
LC-001-002-----0
  6
CONTINUOUS
 62
     1
  5
2D2
 10
298.550682
 20
292.718056
 30
0.0
 11
297.550747
 21
285.718047
 31
0.0
  0
LINE
  8
LC-001-002-----0
  6
CONTINUOUS
 62
     1
  5
2D3
 10
279.050221
 20
313.717597
 30
0.0
 11
278.050221
 21
313.717587
 31
0.0
  0
LINE
  8
LC-001-002-----0
  6
CONTINUOUS
 62
     1
  5
2D4
 10
279.190038
 20
306.717598
 30
0.0
 11
278.550291
 21
306.717592
 31
0.0
  0
LINE
  8
LC-001-002-----0
  6
CONTINUOUS
 62
     1
  5
2D5
 10
279.920655
 20
299.717605
 30
0.0
 11
279.05036
 21
299.717597
 31
0.0
  0
LINE
  8
LC-001-002-----0
  6
CONTINUOUS
 62
     1
  5
2D6
 10
279.953973
 20
292.717606
 30
0.0
 11
279.55043
 21
292.717602
 31
0.0
  0
LINE
  8
LC-001-002-----0
  5
2D7
 10
289.050044
 20
334.717696
 30
0.0
 11
289.050384
 21
298.217696
 31
0.0
  0
LINE
  8
LC-001-002-----0
  5
2D8
 10
265.050018
 20
337.467473
 30
0.0
 11
286.300018
 21
337.467671
 31
0.0
  0
LINE
  8
LC-001-002-----0
  6
CONTINUOUS
 62
     1
  5
2D9
 10
273.049909
 20
349.217547
 30
0.0
 11
286.299909
 21
349.217671
 31
0.0
  0
LINE
  8
LC-001-002-----0
  6
CONTINUOUS
 62
     1
  5
2DA
 10
273.050128
 20
325.717547
 30
0.0
 11
280.050128
 21
325.717612
 31
0.0
  0
LINE
  8
LC-001-002-----0
  6
CONTINUOUS
 62
     1
  5
2DB
 10
298.050018
 20
337.46778
 30
0.0
 11
298.050174
 21
320.717786
 31
0.0
  0
ARC
  8
LC-007-002-RND-0
  6
CONTINUOUS
  5
2DC
 10
286.300018
 20
337.467671
 30
0.0
 40
11.75
 50
0.000533
 51
90.000533
  0
LINE
  8
LC-001-002-----0
  6
CONTINUOUS
 62
     1
  5
2DD
 10
253.049934
 20
346.467361
 30
0.0
 11
287.549901
 21
346.467682
 31
0.0
  0
LINE
  8
LC-001-002-----0
  6
CONTINUOUS
 62
     1
  5
2DE
 10
253.050102
 20
328.467361
 30
0.0
 11
281.550074
 21
328.467626
 31
0.0
  0
ARC
  8
LC-007-002-RND-0
  6
DASHDOT
 62
     2
  5
2DF
 10
286.300044
 20
334.717671
 30
0.0
 40
2.75
 50
0.000533
 51
90.000533
  0
LINE
  8
LC-001-002-----0
  6
CONTINUOUS
 62
     1
  5
2E0
 10
253.049911
 20
348.967361
 30
0.0
 11
253.050125
 21
325.967361
 31
0.0
  0
LINE
  8
LC-001-002-----0
  6
CONTINUOUS
 62
     1
  5
2E1
 10
267.049883
 20
351.967491
 30
0.0
 11
267.049883
 21
351.967491
 31
0.0
  0
LINE
  8
LC-001-002-----0
  6
CONTINUOUS
 62
     1
  5
2E2
 10
273.049909
 20
349.217547
 30
0.0
 11
272.549914
 21
348.717543
 31
0.0
  0
LINE
  8
LC-001-002-----0
  6
CONTINUOUS
 62
     1
  5
2E3
 10
273.050128
 20
325.717547
 30
0.0
 11
272.550123
 21
326.217543
 31
0.0
  0
LINE
  8
LC-001-002-----0
  6
CONTINUOUS
 62
     1
  5
2E4
 10
267.049914
 20
348.717491
 30
0.0
 11
272.549914
 21
348.717543
 31
0.0
  0
LINE
  8
LC-001-002-----0
  6
CONTINUOUS
 62
     1
  5
2E5
 10
267.050123
 20
326.217491
 30
0.0
 11
272.550123
 21
326.217543
 31
0.0
  0
LINE
  8
LC-001-002-----0
  6
CONTINUOUS
 62
     1
  5
2E6
 10
267.050153
 20
322.967491
 30
0.0
 11
267.050153
 21
322.967491
 31
0.0
  0
LINE
  8
LC-001-002-----0
  6
CONTINUOUS
 62
     1
  5
2E7
 10
254.049902
 20
349.967371
 30
0.0
 11
256.049902
 21
349.967389
 31
0.0
  0
LINE
  8
LC-001-002-----0
  6
CONTINUOUS
 62
     1
  5
2E8
 10
254.050135
 20
324.967371
 30
0.0
 11
256.050135
 21
324.967389
 31
0.0
  0
LINE
  8
LC-001-002-----0
  6
CONTINUOUS
 62
     1
  5
2E9
 10
265.049902
 20
349.967473
 30
0.0
 11
265.049902
 21
349.967473
 31
0.0
  0
LINE
  8
LC-001-002-----0
  6
CONTINUOUS
 62
     1
  5
2EA
 10
253.300024
 20
352.717355
 30
0.0
 11
252.049864
 21
352.717342
 31
0.0
  0
LINE
  8
LC-001-002-----0
  6
CONTINUOUS
 62
     1
  5
2EB
 10
253.300012
 20
322.217355
 30
0.0
 11
252.050168
 21
322.217342
 31
0.0
  0
LINE
  8
LC-001-002-----0
  6
CONTINUOUS
 62
     1
  5
2EC
 10
267.049883
 20
351.967491
 30
0.0
 11
267.049914
 21
348.717491
 31
0.0
  0
LINE
  8
LC-001-002-----0
  6
CONTINUOUS
 62
     1
  5
2ED
 10
267.050123
 20
326.217491
 30
0.0
 11
267.050153
 21
322.967491
 31
0.0
  0
LINE
  8
LC-001-002-----0
  6
CONTINUOUS
 62
     1
  5
2EE
 10
265.050135
 20
324.967473
 30
0.0
 11
265.050135
 21
324.967473
 31
0.0
  0
ARC
  8
LC-007-002-RND-0
  6
CONTINUOUS
  5
2EF
 10
267.049902
 20
349.967491
 30
0.0
 40
2.0
 50
90.000533
 51
180.000533
  0
ARC
  8
LC-007-002-RND-0
  6
CONTINUOUS
  5
2F0
 10
267.050135
 20
324.967491
 30
0.0
 40
2.0
 50
180.000533
 51
270.000533
  0
LINE
  8
LC-001-002-----0
  6
CONTINUOUS
 62
     1
  5
2F1
 10
256.049902
 20
349.967389
 30
0.0
 11
256.049921
 21
347.967389
 31
0.0
  0
LINE
  8
LC-001-002-----0
  6
CONTINUOUS
 62
     1
  5
2F2
 10
259.049902
 20
349.967417
 30
0.0
 11
259.049921
 21
347.967417
 31
0.0
  0
LINE
  8
LC-001-002-----0
  6
CONTINUOUS
 62
     1
  5
2F3
 10
256.049921
 20
347.967389
 30
0.0
 11
259.049921
 21
347.967417
 31
0.0
  0
LINE
  8
LC-001-002-----0
  6
CONTINUOUS
 62
     1
  5
2F4
 10
256.050116
 20
326.967389
 30
0.0
 11
259.050116
 21
326.967417
 31
0.0
  0
LINE
  8
LC-001-002-----0
  6
CONTINUOUS
 62
     1
  5
2F5
 10
259.049902
 20
349.967417
 30
0.0
 11
265.049902
 21
349.967473
 31
0.0
  0
LINE
  8
LC-001-002-----0
  6
CONTINUOUS
 62
     1
  5
2F6
 10
259.050135
 20
324.967417
 30
0.0
 11
265.050135
 21
324.967473
 31
0.0
  0
LINE
  8
LC-001-002-----0
  6
CONTINUOUS
 62
     1
  5
2F7
 10
259.050116
 20
326.967417
 30
0.0
 11
259.050135
 21
324.967417
 31
0.0
  0
LINE
  8
LC-001-002-----0
  6
CONTINUOUS
 62
     1
  5
2F8
 10
256.050116
 20
326.967389
 30
0.0
 11
256.050135
 21
324.967389
 31
0.0
  0
LINE
  8
LC-001-002-----0
  6
CONTINUOUS
 62
     1
  5
2F9
 10
254.049902
 20
349.967371
 30
0.0
 11
253.049911
 21
348.967361
 31
0.0
  0
LINE
  8
LC-001-002-----0
  6
CONTINUOUS
 62
     1
  5
2FA
 10
254.050135
 20
324.967371
 30
0.0
 11
253.050125
 21
325.967361
 31
0.0
  0
CIRCLE
  8
LC-001-002-----0
  6
CONTINUOUS
 62
     1
  5
2FB
 10
257.550125
 20
325.967403
 30
0.0
 40
1.0
  0
CIRCLE
  8
LC-001-002-----0
  6
CONTINUOUS
 62
     1
  5
2FC
 10
257.549911
 20
348.967403
 30
0.0
 40
1.0
  0
LINE
  8
LC-001-002-----0
  6
CONTINUOUS
 62
     1
  5
2FD
 10
250.549851
 20
354.217327
 30
0.0
 11
252.049864
 21
352.717342
 31
0.0
  0
LINE
  8
LC-001-002-----0
  6
CONTINUOUS
 62
     1
  5
2FE
 10
266.049851
 20
354.217482
 30
0.0
 11
264.549864
 21
352.717467
 31
0.0
  0
LINE
  8
LC-001-002-----0
  6
CONTINUOUS
 62
     1
  5
2FF
 10
264.549864
 20
352.717467
 30
0.0
 11
264.300027
 21
352.717464
 31
0.0
  0
LINE
  8
LC-001-002-----0
  6
CONTINUOUS
 62
     1
  5
300
 10
264.550168
 20
322.217467
 30
0.0
 11
264.300009
 21
322.217464
 31
0.0
  0
LINE
  8
LC-001-002-----0
  6
CONTINUOUS
 62
     1
  5
301
 10
250.550185
 20
320.717327
 30
0.0
 11
252.050168
 21
322.217342
 31
0.0
  0
LINE
  8
LC-001-002-----0
  6
CONTINUOUS
 62
     1
  5
302
 10
266.050185
 20
320.717482
 30
0.0
 11
264.550168
 21
322.217467
 31
0.0
  0
LINE
  8
LC-001-002-----0
  6
CONTINUOUS
 62
     1
  5
303
 10
263.047586
 20
356.217452
 30
0.0
 11
263.047582
 21
356.717452
 31
0.0
  0
LINE
  8
LC-001-002-----0
  6
CONTINUOUS
 62
     1
  5
304
 10
263.047582
 20
356.717452
 30
0.0
 11
251.549827
 21
356.717337
 31
0.0
  0
LINE
  8
LC-001-002-----0
  6
CONTINUOUS
 62
     1
  5
305
 10
263.04796
 20
318.717452
 30
0.0
 11
263.047965
 21
318.217452
 31
0.0
  0
LINE
  8
LC-001-002-----0
  6
CONTINUOUS
 62
     1
  5
306
 10
263.047965
 20
318.217452
 30
0.0
 11
251.55021
 21
318.217337
 31
0.0
  0
LINE
  8
LC-001-002-----0
  6
CONTINUOUS
 62
     1
  5
307
 10
251.549831
 20
356.217337
 30
0.0
 11
251.549822
 21
357.217337
 31
0.0
  0
LINE
  8
LC-001-002-----0
  6
CONTINUOUS
 62
     1
  5
308
 10
251.549822
 20
357.217337
 30
0.0
 11
250.549822
 21
357.217327
 31
0.0
  0
LINE
  8
LC-001-002-----0
  6
CONTINUOUS
 62
     1
  5
309
 10
250.549822
 20
357.217327
 30
0.0
 11
250.549851
 21
354.217327
 31
0.0
  0
LINE
  8
LC-001-002-----0
  6
CONTINUOUS
 62
     1
  5
30A
 10
250.549851
 20
354.217327
 30
0.0
 11
251.549851
 21
354.217337
 31
0.0
  0
ARC
  8
LC-001-002-----0
  6
CONTINUOUS
 62
     1
  5
30B
 10
265.549861
 20
353.217477
 30
0.0
 40
3.0
 50
0.000571
 51
90.000571
  0
LINE
  8
LC-001-002-----0
  6
CONTINUOUS
 62
     1
  5
30C
 10
265.549831
 20
356.217477
 30
0.0
 11
251.549831
 21
356.217337
 31
0.0
  0
LINE
  8
LC-001-002-----0
  6
CONTINUOUS
 62
     1
  5
30D
 10
267.049886
 20
350.717491
 30
0.0
 11
267.049861
 21
353.217491
 31
0.0
  0
ARC
  8
LC-001-002-----0
  6
CONTINUOUS
 62
     1
  5
30E
 10
266.049861
 20
353.217482
 30
0.0
 40
1.0
 50
0.000571
 51
90.000571
  0
LINE
  8
LC-001-002-----0
  6
CONTINUOUS
 62
     1
  5
30F
 10
266.049851
 20
354.217482
 30
0.0
 11
251.549851
 21
354.217337
 31
0.0
  0
LINE
  8
LC-001-002-----0
  6
CONTINUOUS
 62
     1
  5
310
 10
265.54784
 20
318.715375
 30
0.0
 11
251.54784
 21
318.71531
 31
0.0
  0
LINE
  8
LC-001-002-----0
  6
CONTINUOUS
 62
     1
  5
311
 10
251.54784
 20
318.71531
 30
0.0
 11
251.547845
 21
317.71531
 31
0.0
  0
LINE
  8
LC-001-002-----0
  6
CONTINUOUS
 62
     1
  5
312
 10
251.547845
 20
317.71531
 30
0.0
 11
250.547845
 21
317.715305
 31
0.0
  0
LINE
  8
LC-001-002-----0
  6
CONTINUOUS
 62
     1
  5
313
 10
250.547845
 20
317.715305
 30
0.0
 11
250.547831
 21
320.715305
 31
0.0
  0
LINE
  8
LC-001-002-----0
  6
CONTINUOUS
 62
     1
  5
314
 10
266.047831
 20
320.715377
 30
0.0
 11
251.547831
 21
320.71531
 31
0.0
  0
LINE
  8
LC-001-002-----0
  6
CONTINUOUS
 62
     1
  5
315
 10
250.547831
 20
320.715305
 30
0.0
 11
251.547831
 21
320.71531
 31
0.0
  0
ARC
  8
LC-001-002-----0
  6
CONTINUOUS
 62
     1
  5
316
 10
265.547826
 20
321.715375
 30
0.0
 40
3.0
 50
270.000304
 51
0.000267
  0
LINE
  8
LC-001-002-----0
  6
CONTINUOUS
 62
     1
  5
317
 10
267.047814
 20
324.215382
 30
0.0
 11
267.047826
 21
321.715382
 31
0.0
  0
ARC
  8
LC-001-002-----0
  6
CONTINUOUS
 62
     1
  5
318
 10
266.047826
 20
321.715377
 30
0.0
 40
1.0
 50
270.000304
 51
0.000267
  0
LINE
  8
LC-001-002-----0
  6
CONTINUOUS
 62
     1
  5
319
 10
268.549871
 20
352.217506
 30
0.0
 11
268.549861
 21
353.217506
 31
0.0
  0
ARC
  8
LC-001-002-----0
  6
CONTINUOUS
 62
     1
  5
31A
 10
267.049871
 20
352.217491
 30
0.0
 40
1.5
 50
270.000723
 51
0.000571
  0
LINE
  8
LC-001-002-----0
  6
CONTINUOUS
 62
     1
  5
31B
 10
267.049886
 20
350.717491
 30
0.0
 11
267.049886
 21
350.717491
 31
0.0
  0
LINE
  8
LC-001-002-----0
  6
CONTINUOUS
 62
     1
  5
31C
 10
268.547821
 20
322.715389
 30
0.0
 11
268.547826
 21
321.715389
 31
0.0
  0
ARC
  8
LC-001-002-----0
  6
CONTINUOUS
 62
     1
  5
31D
 10
267.047821
 20
322.715382
 30
0.0
 40
1.5
 50
0.000267
 51
90.000267
  0
LINE
  8
LC-001-002-----0
  6
CONTINUOUS
 62
     1
  5
31E
 10
267.047814
 20
324.215382
 30
0.0
 11
267.047814
 21
324.215382
 31
0.0
  0
LINE
  8
LC-008-001-----0
  5
31F
 10
253.050018
 20
337.467353
 30
0.0
 11
265.050018
 21
337.467473
 31
0.0
  0
ENDSEC
  0
EOF
