  0
SECTION
  2
HEADER
  9
$ACADVER
  1
AC1015
  9
$ACADMAINTVER
 70
     6
  9
$DWGCODEPAGE
  3
ANSI_1252
  9
$INSBASE
 10
0.0
 20
0.0
 30
0.0
  9
$EXTMIN
 10
0.0
 20
0.0
 30
0.0
  9
$EXTMAX
 10
840.0
 20
594.0
 30
0.0
  9
$LIMMIN
 10
0.0
 20
0.0
  9
$LIMMAX
 10
840.0
 20
594.0
  9
$ORTHOMODE
 70
     0
  9
$REGENMODE
 70
     1
  9
$FILLMODE
 70
     1
  9
$QTEXTMODE
 70
     0
  9
$MIRRTEXT
 70
     1
  9
$LTSCALE
 40
2.0
  9
$ATTMODE
 70
     1
  9
$TEXTSIZE
 40
2.5
  9
$TRACEWID
 40
1.0
  9
$TEXTSTYLE
  7
Standard
  9
$CLAYER
  8
0
  9
$CELTYPE
  6
ByLayer
  9
$CECOLOR
 62
     7
  9
$CELTSCALE
 40
1.0
  9
$DISPSILH
 70
     0
  9
$DIMSCALE
 40
2.0
  9
$DIMASZ
 40
3.5
  9
$DIMEXO
 40
0.625
  9
$DIMDLI
 40
3.75
  9
$DIMRND
 40
0.0
  9
$DIMDLE
 40
0.0
  9
$DIMEXE
 40
1.25
  9
$DIMTP
 40
0.0
  9
$DIMTM
 40
0.0
  9
$DIMTXT
 40
3.5
  9
$DIMCEN
 40
2.5
  9
$DIMTSZ
 40
0.0
  9
$DIMTOL
 70
     0
  9
$DIMLIM
 70
     0
  9
$DIMTIH
 70
     0
  9
$DIMTOH
 70
     0
  9
$DIMSE1
 70
     0
  9
$DIMSE2
 70
     0
  9
$DIMTAD
 70
     1
  9
$DIMZIN
 70
     8
  9
$DIMBLK
  1

  9
$DIMASO
 70
     1
  9
$DIMSHO
 70
     1
  9
$DIMPOST
  1

  9
$DIMAPOST
  1

  9
$DIMALT
 70
     0
  9
$DIMALTD
 70
     3
  9
$DIMALTF
 40
0.03937
  9
$DIMLFAC
 40
1.0
  9
$DIMTOFL
 70
     1
  9
$DIMTVP
 40
0.0
  9
$DIMTIX
 70
     0
  9
$DIMSOXD
 70
     0
  9
$DIMSAH
 70
     0
  9
$DIMBLK1
  1

  9
$DIMBLK2
  1

  9
$DIMSTYLE
  2
ISO-25
  9
$DIMCLRD
 70
     0
  9
$DIMCLRE
 70
     0
  9
$DIMCLRT
 70
     0
  9
$DIMTFAC
 40
1.0
  9
$DIMGAP
 40
0.625
  9
$DIMJUST
 70
     0
  9
$DIMSD1
 70
     0
  9
$DIMSD2
 70
     0
  9
$DIMTOLJ
 70
     0
  9
$DIMTZIN
 70
     8
  9
$DIMALTZ
 70
     0
  9
$DIMALTTZ
 70
     0
  9
$DIMUPT
 70
     0
  9
$DIMDEC
 70
     2
  9
$DIMTDEC
 70
     2
  9
$DIMALTU
 70
     2
  9
$DIMALTTD
 70
     3
  9
$DIMTXSTY
  7
Standard
  9
$DIMAUNIT
 70
     0
  9
$DIMADEC
 70
     0
  9
$DIMALTRND
 40
0.0
  9
$DIMAZIN
 70
     0
  9
$DIMDSEP
 70
    44
  9
$DIMATFIT
 70
     3
  9
$DIMFRAC
 70
     0
  9
$DIMLDRBLK
  1

  9
$DIMLUNIT
 70
     2
  9
$DIMLWD
 70
    -2
  9
$DIMLWE
 70
    -2
  9
$DIMTMOVE
 70
     0
  9
$LUNITS
 70
     2
  9
$LUPREC
 70
     4
  9
$SKETCHINC
 40
1.0
  9
$FILLETRAD
 40
10.0
  9
$AUNITS
 70
     0
  9
$AUPREC
 70
     0
  9
$MENU
  1
.
  9
$ELEVATION
 40
0.0
  9
$PELEVATION
 40
0.0
  9
$THICKNESS
 40
0.0
  9
$LIMCHECK
 70
     0
  9
$CHAMFERA
 40
10.0
  9
$CHAMFERB
 40
10.0
  9
$CHAMFERC
 40
20.0
  9
$CHAMFERD
 40
0.0
  9
$SKPOLY
 70
     0
  9
$TDCREATE
 40
2456147.352625162
  9
$TDUCREATE
 40
2456147.269291829
  9
$TDUPDATE
 40
2456147.352625174
  9
$TDUUPDATE
 40
2456147.269291841
  9
$TDINDWG
 40
0.0000000116
  9
$TDUSRTIMER
 40
0.0000000116
  9
$USRTIMER
 70
     1
  9
$ANGBASE
 50
0.0
  9
$ANGDIR
 70
     0
  9
$PDMODE
 70
     0
  9
$PDSIZE
 40
0.0
  9
$PLINEWID
 40
0.0
  9
$SPLFRAME
 70
     0
  9
$SPLINETYPE
 70
     6
  9
$SPLINESEGS
 70
     8
  9
$HANDSEED
  5
11A
  9
$SURFTAB1
 70
     6
  9
$SURFTAB2
 70
     6
  9
$SURFTYPE
 70
     6
  9
$SURFU
 70
     6
  9
$SURFV
 70
     6
  9
$UCSBASE
  2

  9
$UCSNAME
  2

  9
$UCSORG
 10
0.0
 20
0.0
 30
0.0
  9
$UCSXDIR
 10
1.0
 20
0.0
 30
0.0
  9
$UCSYDIR
 10
0.0
 20
1.0
 30
0.0
  9
$UCSORTHOREF
  2

  9
$UCSORTHOVIEW
 70
     0
  9
$UCSORGTOP
 10
0.0
 20
0.0
 30
0.0
  9
$UCSORGBOTTOM
 10
0.0
 20
0.0
 30
0.0
  9
$UCSORGLEFT
 10
0.0
 20
0.0
 30
0.0
  9
$UCSORGRIGHT
 10
0.0
 20
0.0
 30
0.0
  9
$UCSORGFRONT
 10
0.0
 20
0.0
 30
0.0
  9
$UCSORGBACK
 10
0.0
 20
0.0
 30
0.0
  9
$PUCSBASE
  2

  9
$PUCSNAME
  2

  9
$PUCSORG
 10
0.0
 20
0.0
 30
0.0
  9
$PUCSXDIR
 10
1.0
 20
0.0
 30
0.0
  9
$PUCSYDIR
 10
0.0
 20
1.0
 30
0.0
  9
$PUCSORTHOREF
  2

  9
$PUCSORTHOVIEW
 70
     0
  9
$PUCSORGTOP
 10
0.0
 20
0.0
 30
0.0
  9
$PUCSORGBOTTOM
 10
0.0
 20
0.0
 30
0.0
  9
$PUCSORGLEFT
 10
0.0
 20
0.0
 30
0.0
  9
$PUCSORGRIGHT
 10
0.0
 20
0.0
 30
0.0
  9
$PUCSORGFRONT
 10
0.0
 20
0.0
 30
0.0
  9
$PUCSORGBACK
 10
0.0
 20
0.0
 30
0.0
  9
$USERI1
 70
     0
  9
$USERI2
 70
     0
  9
$USERI3
 70
     0
  9
$USERI4
 70
     0
  9
$USERI5
 70
     0
  9
$USERR1
 40
0.0
  9
$USERR2
 40
0.0
  9
$USERR3
 40
0.0
  9
$USERR4
 40
0.0
  9
$USERR5
 40
0.0
  9
$WORLDVIEW
 70
     1
  9
$SHADEDGE
 70
     3
  9
$SHADEDIF
 70
    70
  9
$TILEMODE
 70
     1
  9
$MAXACTVP
 70
    64
  9
$PINSBASE
 10
0.0
 20
0.0
 30
0.0
  9
$PLIMCHECK
 70
     0
  9
$PEXTMIN
 10
0.0
 20
0.0
 30
0.0
  9
$PEXTMAX
 10
840.0
 20
594.0
 30
0.0
  9
$PLIMMIN
 10
0.0
 20
0.0
  9
$PLIMMAX
 10
840.0
 20
594.0
  9
$UNITMODE
 70
     0
  9
$VISRETAIN
 70
     1
  9
$PLINEGEN
 70
     0
  9
$PSLTSCALE
 70
     1
  9
$TREEDEPTH
 70
  3020
  9
$CMLSTYLE
  2
Standard
  9
$CMLJUST
 70
     0
  9
$CMLSCALE
 40
20.0
  9
$PROXYGRAPHICS
 70
     1
  9
$MEASUREMENT
 70
     1
  9
$CELWEIGHT
370
    -1
  9
$ENDCAPS
280
     0
  9
$JOINSTYLE
280
     0
  9
$LWDISPLAY
290
     0
  9
$INSUNITS
 70
     4
  9
$HYPERLINKBASE
  1

  9
$STYLESHEET
  1

  9
$XEDIT
290
     1
  9
$CEPSNTYPE
380
     0
  9
$PSTYLEMODE
290
     1
  9
$FINGERPRINTGUID
  2
{FAEB1C30-E019-11D5-929B-00C0DF256EC4}
  9
$VERSIONGUID
  2
{FAEB1C32-E019-11D5-929B-00C0DF256EC4}
  9
$EXTNAMES
290
     1
  9
$PSVPSCALE
 40
0.0
  9
$OLESTARTUP
290
     0
  0
ENDSEC
  0
SECTION
  2
CLASSES
  0
CLASS
  1
ACDBDICTIONARYWDFLT
  2
AcDbDictionaryWithDefault
  3
ObjectDBX Classes
 90
        0
280
     0
281
     0
  0
CLASS
  1
ACDBPLACEHOLDER
  2
AcDbPlaceHolder
  3
ObjectDBX Classes
 90
        0
280
     0
281
     0
  0
CLASS
  1
LAYOUT
  2
AcDbLayout
  3
ObjectDBX Classes
 90
        0
280
     0
281
     0
  0
ENDSEC
  0
SECTION
  2
TABLES
  0
TABLE
  2
VPORT
  5
8
330
0
100
AcDbSymbolTable
 70
     2
  0
VPORT
  5
29
330
8
100
AcDbSymbolTableRecord
100
AcDbViewportTableRecord
  2
*ACTIVE
 70
     0
 10
0.0
 20
0.0
 11
1.0
 21
1.0
 12
420.0
 22
297.0
 13
0.0
 23
0.0
 14
1.0
 24
1.0
 15
0.0
 25
0.0
 16
0.0
 26
0.0
 36
1.0
 17
0.0
 27
0.0
 37
0.0
 40
594.0
 41
1.414141
 42
50.0
 43
0.0
 44
0.0
 50
0.0
 51
0.0
 71
    16
 72
   100
 73
     1
 74
     0
 75
     0
 76
     0
 77
     0
 78
     0
281
     0
 65
     0
110
0.0
120
0.0
130
0.0
111
1.0
121
0.0
131
0.0
112
0.0
122
1.0
132
0.0
 79
     0
146
0.0
  0
ENDTAB
  0
TABLE
  2
LTYPE
  5
5
330
0
100
AcDbSymbolTable
 70
     3
  0
LTYPE
  5
14
330
5
100
AcDbSymbolTableRecord
100
AcDbLinetypeTableRecord
  2
ByBlock
 70
     0
  3

 72
    65
 73
     0
 40
0.0
  0
LTYPE
  5
15
330
5
100
AcDbSymbolTableRecord
100
AcDbLinetypeTableRecord
  2
ByLayer
 70
     0
  3

 72
    65
 73
     0
 40
0.0
  0
LTYPE
  5
16
330
5
100
AcDbSymbolTableRecord
100
AcDbLinetypeTableRecord
  2
Continuous
 70
     0
  3
Solid line
 72
    65
 73
     0
 40
0.0
  0
LTYPE
  5
2A
330
5
100
AcDbSymbolTableRecord
100
AcDbLinetypeTableRecord
  2
DASHED
 70
     0
  3
__ __ __ __ __
 72
    65
 73
     2
 40
6.25
 49
5.0
 74
     4
 75
     0
340
0
 46
1.0
 50
0.0
 44
0.0
 45
0.0
 49
-1.25
 74
     4
 75
     0
340
0
 46
1.0
 50
0.0
 44
0.0
 45
0.0
  0
LTYPE
  5
30
330
5
100
AcDbSymbolTableRecord
100
AcDbLinetypeTableRecord
  2
DASHDOT
 70
     0
  3
__ . __ . __ . __ . __
 72
    65
 73
     4
 40
7.5
 49
5.0
 74
     4
 75
     0
340
0
 46
1.0
 50
0.0
 44
0.0
 45
0.0
 49
-1.25
 74
     4
 75
     0
340
0
 46
1.0
 50
0.0
 44
0.0
 45
0.0
 49
0.0
 74
     4
 75
     0
340
0
 46
1.0
 50
0.0
 44
0.0
 45
0.0
 49
-1.25
 74
     4
 75
     0
340
0
 46
1.0
 50
0.0
 44
0.0
 45
0.0
  0
ENDTAB
  0
TABLE
  2
LAYER
  5
2
330
0
100
AcDbSymbolTable
 70
     9
  0
LAYER
  5
10
330
2
100
AcDbSymbolTableRecord
100
AcDbLayerTableRecord
  2
0
 70
     0
 62
     7
  6
Continuous
370
    -3
390
F
  0
LAYER
  5
2B
330
2
100
AcDbSymbolTableRecord
100
AcDbLayerTableRecord
  2
LC-INFO-1-2-mm-A3-0
 70
     1
 62
     7
  6
ByBlock
370
    -3
390
F
  0
LAYER
  5
2C
330
2
100
AcDbSymbolTableRecord
100
AcDbLayerTableRecord
  2
LC-CUT-HIDDEN
 70
     0
 62
     7
  6
DASHED
370
    -3
390
F
  0
LAYER
  5
2D
330
2
100
AcDbSymbolTableRecord
100
AcDbLayerTableRecord
  2
LC-VIEWPORT
 70
     0
 62
     7
  6
ByBlock
370
    -3
390
F
  0
LAYER
  5
2E
330
2
100
AcDbSymbolTableRecord
100
AcDbLayerTableRecord
  2
LC-3D-HIDDEN
 70
     0
 62
     9
  6
DASHED
370
    -3
390
F
  0
LAYER
  5
31
330
2
100
AcDbSymbolTableRecord
100
AcDbLayerTableRecord
  2
LC-001-002-----0
 70
     0
 62
     2
  6
DASHDOT
370
    -3
390
F
  0
LAYER
  5
3D
330
2
100
AcDbSymbolTableRecord
100
AcDbLayerTableRecord
  2
LC-002-005-----0
 70
     0
 62
     2
  6
ByBlock
370
    -3
390
F
  0
LAYER
  5
EA
330
2
100
AcDbSymbolTableRecord
100
AcDbLayerTableRecord
  2
LC-003-003-----0
 70
     0
 62
     2
  6
ByBlock
370
    -3
390
F
  0
LAYER
  5
EC
330
2
100
AcDbSymbolTableRecord
100
AcDbLayerTableRecord
  2
Defpoints
 70
     0
 62
     7
  6
Continuous
290
     0
370
    -3
390
F
  0
ENDTAB
  0
TABLE
  2
STYLE
  5
3
330
0
100
AcDbSymbolTable
 70
     3
  0
STYLE
  5
11
330
3
100
AcDbSymbolTableRecord
100
AcDbTextStyleTableRecord
  2
Standard
 70
     0
 40
0.0
 41
1.0
 50
0.0
 71
     0
 42
2.5
  3
txt
  4

  0
STYLE
  5
2F
330
3
100
AcDbSymbolTableRecord
100
AcDbTextStyleTableRecord
  2
LCTX15-400-0-0-Arial
 70
     0
 40
0.0
 41
0.9
 50
0.0
 71
     0
 42
3.5
  3

  4

1001
ACAD
1000
Arial
1071
 16777218
  0
STYLE
  5
E8
330
3
100
AcDbSymbolTableRecord
100
AcDbTextStyleTableRecord
  2
LCTX15-400-0-0pDIN-Schrift
 70
     0
 40
2.5
 41
0.8
 50
15.0
 71
     0
 42
3.5
  3
STANDARD
  4

  0
ENDTAB
  0
TABLE
  2
VIEW
  5
6
330
0
100
AcDbSymbolTable
 70
     0
  0
ENDTAB
  0
TABLE
  2
UCS
  5
7
330
0
100
AcDbSymbolTable
 70
     0
  0
ENDTAB
  0
TABLE
  2
APPID
  5
9
330
0
100
AcDbSymbolTable
 70
     1
  0
APPID
  5
12
330
9
100
AcDbSymbolTableRecord
100
AcDbRegAppTableRecord
  2
ACAD
 70
     0
  0
ENDTAB
  0
TABLE
  2
DIMSTYLE
  5
A
330
0
100
AcDbSymbolTable
 70
     2
100
AcDbDimStyleTable
  0
DIMSTYLE
105
27
330
A
100
AcDbSymbolTableRecord
100
AcDbDimStyleTableRecord
  2
ISO-25
 70
     0
 41
2.5
 42
0.625
 43
3.75
 44
1.25
 73
     0
 74
     0
 77
     1
 78
     8
140
2.5
141
2.5
143
0.03937
147
0.625
171
     3
172
     1
271
     2
272
     2
274
     3
278
    44
283
     0
284
     8
340
11
  0
DIMSTYLE
105
E9
102
{ACAD_REACTORS
330
EB
330
F9
330
108
102
}
330
A
100
AcDbSymbolTableRecord
100
AcDbDimStyleTableRecord
  2
LC-DIM-L-0140-02-02
 70
     0
 40
2.0
 41
14.0
 42
0.0
 43
7.5
 44
1.8
 73
     0
 74
     0
 77
     1
 78
     8
 79
     2
140
14.0
141
0.0
146
0.71
147
1.5
176
     2
177
     2
178
     2
179
     2
271
     2
278
    44
289
     1
340
E8
  0
ENDTAB
  0
TABLE
  2
BLOCK_RECORD
  5
1
330
0
100
AcDbSymbolTable
 70
    10
  0
BLOCK_RECORD
  5
1F
330
1
100
AcDbSymbolTableRecord
100
AcDbBlockTableRecord
  2
*Model_Space
340
22
  0
BLOCK_RECORD
  5
1B
330
1
100
AcDbSymbolTableRecord
100
AcDbBlockTableRecord
  2
*Paper_Space
340
1E
  0
BLOCK_RECORD
  5
23
330
1
100
AcDbSymbolTableRecord
100
AcDbBlockTableRecord
  2
*Paper_Space0
340
26
  0
BLOCK_RECORD
  5
3A
330
1
100
AcDbSymbolTableRecord
100
AcDbBlockTableRecord
  2
*X11
340
0
102
{BLKREFS
331
43
102
}
  0
BLOCK_RECORD
  5
4A
330
1
100
AcDbSymbolTableRecord
100
AcDbBlockTableRecord
  2
*X22
340
0
102
{BLKREFS
331
51
102
}
  0
BLOCK_RECORD
  5
93
330
1
100
AcDbSymbolTableRecord
100
AcDbBlockTableRecord
  2
*X33
340
0
102
{BLKREFS
331
9E
102
}
  0
BLOCK_RECORD
  5
A2
330
1
100
AcDbSymbolTableRecord
100
AcDbBlockTableRecord
  2
*X44
340
0
102
{BLKREFS
331
AC
102
}
  0
BLOCK_RECORD
  5
AD
330
1
100
AcDbSymbolTableRecord
100
AcDbBlockTableRecord
  2
*X55
340
0
102
{BLKREFS
331
C6
102
}
  0
BLOCK_RECORD
  5
C7
330
1
100
AcDbSymbolTableRecord
100
AcDbBlockTableRecord
  2
*X66
340
0
102
{BLKREFS
331
DD
102
}
  0
BLOCK_RECORD
  5
ED
330
1
100
AcDbSymbolTableRecord
100
AcDbBlockTableRecord
  2
*D7
340
0
  0
BLOCK_RECORD
  5
FA
330
1
100
AcDbSymbolTableRecord
100
AcDbBlockTableRecord
  2
*D8
340
0
  0
BLOCK_RECORD
  5
109
330
1
100
AcDbSymbolTableRecord
100
AcDbBlockTableRecord
  2
*D9
340
0
  0
ENDTAB
  0
ENDSEC
  0
SECTION
  2
BLOCKS
  0
BLOCK
  5
20
330
1F
100
AcDbEntity
  8
0
100
AcDbBlockBegin
  2
*Model_Space
 70
     0
 71
     0
 10
0.0
 20
0.0
 30
0.0
  3
*Model_Space
  1

  0
ENDBLK
  5
21
330
1F
100
AcDbEntity
  8
0
100
AcDbBlockEnd
  0
BLOCK
  5
1C
330
1B
100
AcDbEntity
 67
     1
  8
0
100
AcDbBlockBegin
  2
*Paper_Space
 70
     0
 71
     0
 10
0.0
 20
0.0
 30
0.0
  3
*Paper_Space
  1

  0
ENDBLK
  5
1D
330
1B
100
AcDbEntity
 67
     1
  8
0
100
AcDbBlockEnd
  0
BLOCK
  5
24
330
23
100
AcDbEntity
  8
0
100
AcDbBlockBegin
  2
*Paper_Space0
 70
     0
 71
     0
 10
0.0
 20
0.0
 30
0.0
  3
*Paper_Space0
  1

  0
ENDBLK
  5
25
330
23
100
AcDbEntity
  8
0
100
AcDbBlockEnd
  0
BLOCK
  5
3B
330
3A
100
AcDbEntity
  8
0
100
AcDbBlockBegin
  2
*X11
 70
     1
 71
     0
 10
0.0
 20
0.0
 30
0.0
  3
*X11
  1

  4
*X1
  0
LINE
  5
3E
330
3A
100
AcDbEntity
  8
LC-002-005-----0
 62
     7
370
    25
100
AcDbLine
 10
324.841808
 20
286.098476
 30
0.0
 11
326.841806
 21
284.098482
 31
0.0
  0
LINE
  5
3F
330
3A
100
AcDbEntity
  8
LC-002-005-----0
 62
     7
370
    25
100
AcDbLine
 10
324.841814
 20
290.341109
 30
0.0
 11
326.841811
 21
288.341114
 31
0.0
  0
LINE
  5
40
330
3A
100
AcDbEntity
  8
LC-002-005-----0
 62
     7
370
    25
100
AcDbLine
 10
324.841819
 20
294.583741
 30
0.0
 11
326.841817
 21
292.583746
 31
0.0
  0
LINE
  5
41
330
3A
100
AcDbEntity
  8
LC-002-005-----0
 62
     7
370
    25
100
AcDbLine
 10
325.132642
 20
298.535557
 30
0.0
 11
326.841822
 21
296.826379
 31
0.0
  0
LINE
  5
42
330
3A
100
AcDbEntity
  8
LC-002-005-----0
 62
     7
370
    25
100
AcDbLine
 10
327.668817
 20
300.242023
 30
0.0
 11
329.663829
 21
298.247013
 31
0.0
  0
ENDBLK
  5
3C
330
3A
100
AcDbEntity
  8
0
100
AcDbBlockEnd
  0
BLOCK
  5
4B
330
4A
100
AcDbEntity
  8
0
100
AcDbBlockBegin
  2
*X22
 70
     1
 71
     0
 10
0.0
 20
0.0
 30
0.0
  3
*X22
  1

  4
*X2
  0
LINE
  5
4D
330
4A
100
AcDbEntity
  8
LC-002-005-----0
 62
     7
370
    25
100
AcDbLine
 10
384.841807
 20
285.495421
 30
0.0
 11
387.090277
 21
283.246951
 31
0.0
  0
LINE
  5
4E
330
4A
100
AcDbEntity
  8
LC-002-005-----0
 62
     7
370
    25
100
AcDbLine
 10
384.841813
 20
289.738056
 30
0.0
 11
386.84181
 21
287.738059
 31
0.0
  0
LINE
  5
4F
330
4A
100
AcDbEntity
  8
LC-002-005-----0
 62
     7
370
    25
100
AcDbLine
 10
384.841818
 20
293.980691
 30
0.0
 11
386.841816
 21
291.980694
 31
0.0
  0
LINE
  5
50
330
4A
100
AcDbEntity
  8
LC-002-005-----0
 62
     7
370
    25
100
AcDbLine
 10
382.818194
 20
300.246957
 30
0.0
 11
386.841821
 21
296.223329
 31
0.0
  0
ENDBLK
  5
4C
330
4A
100
AcDbEntity
  8
0
100
AcDbBlockEnd
  0
BLOCK
  5
94
330
93
100
AcDbEntity
  8
0
100
AcDbBlockBegin
  2
*X33
 70
     1
 71
     0
 10
0.0
 20
0.0
 30
0.0
  3
*X33
  1

  4
*X3
  0
LINE
  5
96
330
93
100
AcDbEntity
  8
LC-002-005-----0
 62
     7
370
    25
100
AcDbLine
 10
330.133105
 20
286.292076
 30
0.0
 11
330.342123
 21
286.501093
 31
0.0
  0
LINE
  5
97
330
93
100
AcDbEntity
  8
LC-002-005-----0
 62
     7
370
    25
100
AcDbLine
 10
329.897403
 20
287.470587
 30
0.0
 11
330.342123
 21
287.915306
 31
0.0
  0
LINE
  5
98
330
93
100
AcDbEntity
  8
LC-002-005-----0
 62
     7
370
    25
100
AcDbLine
 10
329.661701
 20
288.649097
 30
0.0
 11
330.342123
 21
289.329518
 31
0.0
  0
LINE
  5
99
330
93
100
AcDbEntity
  8
LC-002-005-----0
 62
     7
370
    25
100
AcDbLine
 10
329.425999
 20
289.827608
 30
0.0
 11
330.342123
 21
290.743731
 31
0.0
  0
LINE
  5
9A
330
93
100
AcDbEntity
  8
LC-002-005-----0
 62
     7
370
    25
100
AcDbLine
 10
329.190297
 20
291.006119
 30
0.0
 11
330.342123
 21
292.157944
 31
0.0
  0
LINE
  5
9B
330
93
100
AcDbEntity
  8
LC-002-005-----0
 62
     7
370
    25
100
AcDbLine
 10
328.954595
 20
292.18463
 30
0.0
 11
330.342123
 21
293.572156
 31
0.0
  0
LINE
  5
9C
330
93
100
AcDbEntity
  8
LC-002-005-----0
 62
     7
370
    25
100
AcDbLine
 10
328.718893
 20
293.363141
 30
0.0
 11
330.342123
 21
294.986369
 31
0.0
  0
LINE
  5
9D
330
93
100
AcDbEntity
  8
LC-002-005-----0
 62
     7
370
    25
100
AcDbLine
 10
328.483191
 20
294.541652
 30
0.0
 11
329.188526
 21
295.246986
 31
0.0
  0
ENDBLK
  5
95
330
93
100
AcDbEntity
  8
0
100
AcDbBlockEnd
  0
BLOCK
  5
A3
330
A2
100
AcDbEntity
  8
0
100
AcDbBlockBegin
  2
*X44
 70
     1
 71
     0
 10
0.0
 20
0.0
 30
0.0
  3
*X44
  1

  4
*X4
  0
LINE
  5
A5
330
A2
100
AcDbEntity
  8
LC-002-005-----0
 62
     7
370
    25
100
AcDbLine
 10
381.342111
 20
286.589359
 30
0.0
 11
381.677711
 21
286.924959
 31
0.0
  0
LINE
  5
A6
330
A2
100
AcDbEntity
  8
LC-002-005-----0
 62
     7
370
    25
100
AcDbLine
 10
381.342113
 20
288.003573
 30
0.0
 11
382.031267
 21
288.692727
 31
0.0
  0
LINE
  5
A7
330
A2
100
AcDbEntity
  8
LC-002-005-----0
 62
     7
370
    25
100
AcDbLine
 10
381.342114
 20
289.417788
 30
0.0
 11
382.384822
 21
290.460494
 31
0.0
  0
LINE
  5
A8
330
A2
100
AcDbEntity
  8
LC-002-005-----0
 62
     7
370
    25
100
AcDbLine
 10
381.342116
 20
290.832002
 30
0.0
 11
382.738378
 21
292.228262
 31
0.0
  0
LINE
  5
A9
330
A2
100
AcDbEntity
  8
LC-002-005-----0
 62
     7
370
    25
100
AcDbLine
 10
381.342118
 20
292.246217
 30
0.0
 11
383.091934
 21
293.99603
 31
0.0
  0
LINE
  5
AA
330
A2
100
AcDbEntity
  8
LC-002-005-----0
 62
     7
370
    25
100
AcDbLine
 10
381.34212
 20
293.660431
 30
0.0
 11
382.928648
 21
295.246957
 31
0.0
  0
LINE
  5
AB
330
A2
100
AcDbEntity
  8
LC-002-005-----0
 62
     7
370
    25
100
AcDbLine
 10
381.342122
 20
295.074646
 30
0.0
 11
381.514435
 21
295.246959
 31
0.0
  0
ENDBLK
  5
A4
330
A2
100
AcDbEntity
  8
0
100
AcDbBlockEnd
  0
BLOCK
  5
AE
330
AD
100
AcDbEntity
  8
0
100
AcDbBlockBegin
  2
*X55
 70
     1
 71
     0
 10
0.0
 20
0.0
 30
0.0
  3
*X55
  1

  4
*X5
  0
LINE
  5
B0
330
AD
100
AcDbEntity
  8
LC-002-005-----0
 62
     7
370
    25
100
AcDbLine
 10
378.842123
 20
289.746225
 30
0.0
 11
380.842123
 21
291.746222
 31
0.0
  0
LINE
  5
B1
330
AD
100
AcDbEntity
  8
LC-002-005-----0
 62
     7
370
    25
100
AcDbLine
 10
378.842123
 20
293.988863
 30
0.0
 11
382.600251
 21
297.746986
 31
0.0
  0
LINE
  5
B2
330
AD
100
AcDbEntity
  8
LC-002-005-----0
 62
     7
370
    25
100
AcDbLine
 10
376.357605
 20
295.746986
 30
0.0
 11
378.357607
 21
297.746986
 31
0.0
  0
LINE
  5
B3
330
AD
100
AcDbEntity
  8
LC-002-005-----0
 62
     7
370
    25
100
AcDbLine
 10
372.114961
 20
295.746986
 30
0.0
 11
374.114964
 21
297.746986
 31
0.0
  0
LINE
  5
B4
330
AD
100
AcDbEntity
  8
LC-002-005-----0
 62
     7
370
    25
100
AcDbLine
 10
368.57145
 20
296.446117
 30
0.0
 11
370.123675
 21
297.99834
 31
0.0
  0
LINE
  5
B5
330
AD
100
AcDbEntity
  8
LC-002-005-----0
 62
     7
370
    25
100
AcDbLine
 10
366.080044
 20
298.197352
 30
0.0
 11
367.494591
 21
299.611897
 31
0.0
  0
LINE
  5
B6
330
AD
100
AcDbEntity
  8
LC-002-005-----0
 62
     7
370
    25
100
AcDbLine
 10
364.414768
 20
300.774717
 30
0.0
 11
366.003757
 21
302.363703
 31
0.0
  0
LINE
  5
B7
330
AD
100
AcDbEntity
  8
LC-002-005-----0
 62
     7
370
    25
100
AcDbLine
 10
363.842124
 20
304.444711
 30
0.0
 11
365.842124
 21
306.444708
 31
0.0
  0
LINE
  5
B8
330
AD
100
AcDbEntity
  8
LC-002-005-----0
 62
     7
370
    25
100
AcDbLine
 10
363.842124
 20
308.687349
 30
0.0
 11
365.842124
 21
310.687346
 31
0.0
  0
LINE
  5
B9
330
AD
100
AcDbEntity
  8
LC-002-005-----0
 62
     7
370
    25
100
AcDbLine
 10
366.901765
 20
311.746986
 30
0.0
 11
367.254082
 21
312.099302
 31
0.0
  0
LINE
  5
BA
330
AD
100
AcDbEntity
  8
LC-002-005-----0
 62
     7
370
    25
100
AcDbLine
 10
363.842124
 20
312.929987
 30
0.0
 11
366.405536
 21
315.493396
 31
0.0
  0
LINE
  5
BB
330
AD
100
AcDbEntity
  8
LC-002-005-----0
 62
     7
370
    25
100
AcDbLine
 10
363.842124
 20
317.172625
 30
0.0
 11
366.865887
 21
320.196383
 31
0.0
  0
LINE
  5
BC
330
AD
100
AcDbEntity
  8
LC-002-005-----0
 62
     7
370
    25
100
AcDbLine
 10
363.842124
 20
321.415263
 30
0.0
 11
366.175218
 21
323.748354
 31
0.0
  0
LINE
  5
BD
330
AD
100
AcDbEntity
  8
LC-002-005-----0
 62
     7
370
    25
100
AcDbLine
 10
363.842124
 20
325.6579
 30
0.0
 11
365.397753
 21
327.213527
 31
0.0
  0
LINE
  5
BE
330
AD
100
AcDbEntity
  8
LC-002-005-----0
 62
     7
370
    25
100
AcDbLine
 10
362.680297
 20
328.738713
 30
0.0
 11
364.730517
 21
330.78893
 31
0.0
  0
LINE
  5
BF
330
AD
100
AcDbEntity
  8
LC-002-005-----0
 62
     7
370
    25
100
AcDbLine
 10
362.092145
 20
332.393199
 30
0.0
 11
364.319936
 21
334.620988
 31
0.0
  0
LINE
  5
C0
330
AD
100
AcDbEntity
  8
LC-002-005-----0
 62
     7
370
    25
100
AcDbLine
 10
362.092145
 20
336.635837
 30
0.0
 11
364.376473
 21
338.920163
 31
0.0
  0
LINE
  5
C1
330
AD
100
AcDbEntity
  8
LC-002-005-----0
 62
     7
370
    25
100
AcDbLine
 10
362.092145
 20
340.878475
 30
0.0
 11
363.627772
 21
342.414101
 31
0.0
  0
LINE
  5
C2
330
AD
100
AcDbEntity
  8
LC-002-005-----0
 62
     7
370
    25
100
AcDbLine
 10
362.092145
 20
345.121113
 30
0.0
 11
363.889144
 21
346.918109
 31
0.0
  0
LINE
  5
C3
330
AD
100
AcDbEntity
  8
LC-002-005-----0
 62
     7
370
    25
100
AcDbLine
 10
362.092145
 20
349.363751
 30
0.0
 11
363.358812
 21
350.630416
 31
0.0
  0
LINE
  5
C4
330
AD
100
AcDbEntity
  8
LC-002-005-----0
 62
     7
370
    25
100
AcDbLine
 10
363.475382
 20
350.746986
 30
0.0
 11
364.189198
 21
351.460801
 31
0.0
  0
LINE
  5
C5
330
AD
100
AcDbEntity
  8
LC-002-005-----0
 62
     7
370
    25
100
AcDbLine
 10
362.092145
 20
353.606389
 30
0.0
 11
363.440478
 21
354.95472
 31
0.0
  0
ENDBLK
  5
AF
330
AD
100
AcDbEntity
  8
0
100
AcDbBlockEnd
  0
BLOCK
  5
C8
330
C7
100
AcDbEntity
  8
0
100
AcDbBlockBegin
  2
*X66
 70
     1
 71
     0
 10
0.0
 20
0.0
 30
0.0
  3
*X66
  1

  4
*X6
  0
LINE
  5
CA
330
C7
100
AcDbEntity
  8
LC-002-005-----0
 62
     7
370
    25
100
AcDbLine
 10
343.117857
 20
296.448385
 30
0.0
 11
347.140721
 21
300.471243
 31
0.0
  0
LINE
  5
CB
330
C7
100
AcDbEntity
  8
LC-002-005-----0
 62
     7
370
    25
100
AcDbLine
 10
330.842123
 20
288.415305
 30
0.0
 11
332.842123
 21
290.415302
 31
0.0
  0
LINE
  5
CC
330
C7
100
AcDbEntity
  8
LC-002-005-----0
 62
     7
370
    25
100
AcDbLine
 10
338.173813
 20
295.746986
 30
0.0
 11
340.183537
 21
297.756707
 31
0.0
  0
LINE
  5
CD
330
C7
100
AcDbEntity
  8
LC-002-005-----0
 62
     7
370
    25
100
AcDbLine
 10
345.832402
 20
303.405565
 30
0.0
 11
347.842124
 21
305.415284
 31
0.0
  0
LINE
  5
CE
330
C7
100
AcDbEntity
  8
LC-002-005-----0
 62
     7
370
    25
100
AcDbLine
 10
330.842123
 20
292.657943
 30
0.0
 11
332.842123
 21
294.65794
 31
0.0
  0
LINE
  5
CF
330
C7
100
AcDbEntity
  8
LC-002-005-----0
 62
     7
370
    25
100
AcDbLine
 10
333.93117
 20
295.746986
 30
0.0
 11
335.931172
 21
297.746986
 31
0.0
  0
LINE
  5
D0
330
C7
100
AcDbEntity
  8
LC-002-005-----0
 62
     7
370
    25
100
AcDbLine
 10
345.842124
 20
307.657924
 30
0.0
 11
347.842124
 21
309.657922
 31
0.0
  0
LINE
  5
D1
330
C7
100
AcDbEntity
  8
LC-002-005-----0
 62
     7
370
    25
100
AcDbLine
 10
329.688526
 20
295.746986
 30
0.0
 11
331.688529
 21
297.746986
 31
0.0
  0
LINE
  5
D2
330
C7
100
AcDbEntity
  8
LC-002-005-----0
 62
     7
370
    25
100
AcDbLine
 10
345.688547
 20
311.746986
 30
0.0
 11
347.842124
 21
313.90056
 31
0.0
  0
LINE
  5
D3
330
C7
100
AcDbEntity
  8
LC-002-005-----0
 62
     7
370
    25
100
AcDbLine
 10
345.307548
 20
315.608624
 30
0.0
 11
347.842124
 21
318.143197
 31
0.0
  0
LINE
  5
D4
330
C7
100
AcDbEntity
  8
LC-002-005-----0
 62
     7
370
    25
100
AcDbLine
 10
344.617065
 20
319.16078
 30
0.0
 11
347.842124
 21
322.385835
 31
0.0
  0
LINE
  5
D5
330
C7
100
AcDbEntity
  8
LC-002-005-----0
 62
     7
370
    25
100
AcDbLine
 10
345.641136
 20
324.427488
 30
0.0
 11
347.842124
 21
326.628473
 31
0.0
  0
LINE
  5
D6
330
C7
100
AcDbEntity
  8
LC-002-005-----0
 62
     7
370
    25
100
AcDbLine
 10
346.857053
 20
329.886041
 30
0.0
 11
349.592145
 21
332.62113
 31
0.0
  0
LINE
  5
D7
330
C7
100
AcDbEntity
  8
LC-002-005-----0
 62
     7
370
    25
100
AcDbLine
 10
347.366166
 20
334.637791
 30
0.0
 11
349.592145
 21
336.863768
 31
0.0
  0
LINE
  5
D8
330
C7
100
AcDbEntity
  8
LC-002-005-----0
 62
     7
370
    25
100
AcDbLine
 10
347.28109
 20
338.795354
 30
0.0
 11
349.592145
 21
341.106405
 31
0.0
  0
LINE
  5
D9
330
C7
100
AcDbEntity
  8
LC-002-005-----0
 62
     7
370
    25
100
AcDbLine
 10
347.990085
 20
343.746986
 30
0.0
 11
349.592145
 21
345.349043
 31
0.0
  0
LINE
  5
DA
330
C7
100
AcDbEntity
  8
LC-002-005-----0
 62
     7
370
    25
100
AcDbLine
 10
347.941279
 20
347.940818
 30
0.0
 11
349.592145
 21
349.591681
 31
0.0
  0
LINE
  5
DB
330
C7
100
AcDbEntity
  8
LC-002-005-----0
 62
     7
370
    25
100
AcDbLine
 10
347.570524
 20
351.8127
 30
0.0
 11
349.592145
 21
353.834319
 31
0.0
  0
LINE
  5
DC
330
C7
100
AcDbEntity
  8
LC-002-005-----0
 62
     7
370
    25
100
AcDbLine
 10
348.727561
 20
357.212375
 30
0.0
 11
349.262173
 21
357.746986
 31
0.0
  0
ENDBLK
  5
C9
330
C7
100
AcDbEntity
  8
0
100
AcDbBlockEnd
  0
BLOCK
  5
F7
330
ED
100
AcDbEntity
  8
0
100
AcDbBlockBegin
  2
*D7
 70
     1
 71
     0
 10
0.0
 20
0.0
 30
0.0
  3
*D7
  1

  0
LINE
  5
EE
330
ED
100
AcDbEntity
  8
LC-003-003-----0
 62
     2
370
    -2
100
AcDbLine
 10
387.841804
 20
283.24695
 30
0.0
 11
437.6
 21
283.24695
 31
0.0
  0
LINE
  5
EF
330
ED
100
AcDbEntity
  8
LC-003-003-----0
 62
     2
370
    -2
100
AcDbLine
 10
362.842118
 20
357.746986
 30
0.0
 11
437.6
 21
357.746986
 31
0.0
  0
LINE
  5
F0
330
ED
100
AcDbEntity
  8
LC-003-003-----0
 62
     2
370
    -2
100
AcDbLine
 10
434.0
 20
311.24695
 30
0.0
 11
434.0
 21
329.746986
 31
0.0
  0
SOLID
  5
F1
330
ED
100
AcDbEntity
  8
LC-003-003-----0
 62
     2
100
AcDbTrace
 10
429.333333
 20
311.24695
 30
0.0
 11
438.666667
 21
311.24695
 31
0.0
 12
434.0
 22
283.24695
 32
0.0
 13
434.0
 23
283.24695
 33
0.0
  0
SOLID
  5
F2
330
ED
100
AcDbEntity
  8
LC-003-003-----0
 62
     2
100
AcDbTrace
 10
438.666667
 20
329.746986
 30
0.0
 11
429.333333
 21
329.746986
 31
0.0
 12
434.0
 22
357.746986
 32
0.0
 13
434.0
 23
357.746986
 33
0.0
  0
MTEXT
  5
F3
330
ED
100
AcDbEntity
  8
LC-003-003-----0
 62
     2
100
AcDbMText
 10
403.2
 20
320.496968
 30
0.0
 40
28.0
 41
0.0
 71
     5
 72
     1
  1
\A1;75
  7
LCTX15-400-0-0pDIN-Schrift
 11
6.123031769111886E-17
 21
1.0
 31
0.0
 73
     1
 44
1.0
  0
POINT
  5
F4
330
ED
100
AcDbEntity
  8
Defpoints
 62
     0
100
AcDbPoint
 10
387.841804
 20
283.24695
 30
0.0
  0
POINT
  5
F5
330
ED
100
AcDbEntity
  8
Defpoints
 62
     0
100
AcDbPoint
 10
362.842118
 20
357.746986
 30
0.0
  0
POINT
  5
F6
330
ED
100
AcDbEntity
  8
Defpoints
 62
     0
100
AcDbPoint
 10
434.0
 20
357.746986
 30
0.0
  0
ENDBLK
  5
F8
330
ED
100
AcDbEntity
  8
0
100
AcDbBlockEnd
  0
BLOCK
  5
106
330
FA
100
AcDbEntity
  8
0
100
AcDbBlockBegin
  2
*D8
 70
     1
 71
     0
 10
0.0
 20
0.0
 30
0.0
  3
*D8
  1

  0
LINE
  5
FB
330
FA
100
AcDbEntity
  8
LC-003-003-----0
 62
     2
370
    -2
100
AcDbLine
 10
326.841804
 20
283.247017
 30
0.0
 11
326.841804
 21
222.714
 31
0.0
  0
LINE
  5
FC
330
FA
100
AcDbEntity
  8
LC-003-003-----0
 62
     2
370
    -2
100
AcDbLine
 10
384.841804
 20
283.246954
 30
0.0
 11
384.841804
 21
222.714
 31
0.0
  0
LINE
  5
FD
330
FA
100
AcDbEntity
  8
LC-003-003-----0
 62
     2
370
    -2
100
AcDbLine
 10
298.841804
 20
226.314
 30
0.0
 11
270.841804
 21
226.314
 31
0.0
  0
LINE
  5
FE
330
FA
100
AcDbEntity
  8
LC-003-003-----0
 62
     2
370
    -2
100
AcDbLine
 10
412.841804
 20
226.314
 30
0.0
 11
440.841804
 21
226.314
 31
0.0
  0
LINE
  5
FF
330
FA
100
AcDbEntity
  8
LC-003-003-----0
 62
     2
370
    -2
100
AcDbLine
 10
326.841804
 20
226.314
 30
0.0
 11
384.841804
 21
226.314
 31
0.0
  0
SOLID
  5
100
330
FA
100
AcDbEntity
  8
LC-003-003-----0
 62
     2
100
AcDbTrace
 10
298.841804
 20
221.647333
 30
0.0
 11
298.841804
 21
230.980667
 31
0.0
 12
326.841804
 22
226.314
 32
0.0
 13
326.841804
 23
226.314
 33
0.0
  0
SOLID
  5
101
330
FA
100
AcDbEntity
  8
LC-003-003-----0
 62
     2
100
AcDbTrace
 10
412.841804
 20
230.980667
 30
0.0
 11
412.841804
 21
221.647333
 31
0.0
 12
384.841804
 22
226.314
 32
0.0
 13
384.841804
 23
226.314
 33
0.0
  0
MTEXT
  5
102
330
FA
100
AcDbEntity
  8
LC-003-003-----0
 62
     2
100
AcDbMText
 10
355.042378
 20
257.114
 30
0.0
 40
28.0
 41
0.0
 71
     5
 72
     1
  1
\A1;2"
  7
LCTX15-400-0-0pDIN-Schrift
 73
     1
 44
1.0
  0
POINT
  5
103
330
FA
100
AcDbEntity
  8
Defpoints
 62
     0
100
AcDbPoint
 10
326.841804
 20
283.247017
 30
0.0
  0
POINT
  5
104
330
FA
100
AcDbEntity
  8
Defpoints
 62
     0
100
AcDbPoint
 10
384.841804
 20
283.246954
 30
0.0
  0
POINT
  5
105
330
FA
100
AcDbEntity
  8
Defpoints
 62
     0
100
AcDbPoint
 10
384.841804
 20
226.314
 30
0.0
  0
ENDBLK
  5
107
330
FA
100
AcDbEntity
  8
0
100
AcDbBlockEnd
  0
BLOCK
  5
114
330
109
100
AcDbEntity
  8
0
100
AcDbBlockBegin
  2
*D9
 70
     1
 71
     0
 10
0.0
 20
0.0
 30
0.0
  3
*D9
  1

  0
LINE
  5
10A
330
109
100
AcDbEntity
  8
LC-003-003-----0
 62
     2
370
    -2
100
AcDbLine
 10
348.842118
 20
357.746986
 30
0.0
 11
348.842118
 21
382.572
 31
0.0
  0
LINE
  5
10B
330
109
100
AcDbEntity
  8
LC-003-003-----0
 62
     2
370
    -2
100
AcDbLine
 10
362.842118
 20
357.746986
 30
0.0
 11
362.842118
 21
382.572
 31
0.0
  0
LINE
  5
10C
330
109
100
AcDbEntity
  8
LC-003-003-----0
 62
     2
370
    -2
100
AcDbLine
 10
320.842118
 20
378.972
 30
0.0
 11
292.842118
 21
378.972
 31
0.0
  0
LINE
  5
10D
330
109
100
AcDbEntity
  8
LC-003-003-----0
 62
     2
370
    -2
100
AcDbLine
 10
390.842118
 20
378.972
 30
0.0
 11
498.711961
 21
378.972
 31
0.0
  0
SOLID
  5
10E
330
109
100
AcDbEntity
  8
LC-003-003-----0
 62
     2
100
AcDbTrace
 10
320.842118
 20
374.305333
 30
0.0
 11
320.842118
 21
383.638667
 31
0.0
 12
348.842118
 22
378.972
 32
0.0
 13
348.842118
 23
378.972
 33
0.0
  0
SOLID
  5
10F
330
109
100
AcDbEntity
  8
LC-003-003-----0
 62
     2
100
AcDbTrace
 10
390.842118
 20
383.638667
 30
0.0
 11
390.842118
 21
374.305333
 31
0.0
 12
362.842118
 22
378.972
 32
0.0
 13
362.842118
 23
378.972
 33
0.0
  0
MTEXT
  5
110
330
109
100
AcDbEntity
  8
LC-003-003-----0
 62
     2
100
AcDbMText
 10
443.427339
 20
409.772
 30
0.0
 40
28.0
 41
0.0
 71
     5
 72
     1
  1
\A1;%%c14-23
  7
LCTX15-400-0-0pDIN-Schrift
 73
     1
 44
1.0
  0
POINT
  5
111
330
109
100
AcDbEntity
  8
Defpoints
 62
     0
100
AcDbPoint
 10
348.842118
 20
357.746986
 30
0.0
  0
POINT
  5
112
330
109
100
AcDbEntity
  8
Defpoints
 62
     0
100
AcDbPoint
 10
362.842118
 20
357.746986
 30
0.0
  0
POINT
  5
113
330
109
100
AcDbEntity
  8
Defpoints
 62
     0
100
AcDbPoint
 10
362.842118
 20
378.972
 30
0.0
  0
ENDBLK
  5
115
330
109
100
AcDbEntity
  8
0
100
AcDbBlockEnd
  0
ENDSEC
  0
SECTION
  2
ENTITIES
  0
LINE
  5
32
102
{ACAD_REACTORS
330
116
102
}
330
1F
100
AcDbEntity
  8
LC-001-002-----0
 62
     7
370
    25
100
AcDbLine
 10
355.842163
 20
357.746986
 30
0.0
 11
355.842115
 21
283.247202
 31
0.0
  0
LINE
  5
33
102
{ACAD_REACTORS
330
116
102
}
330
1F
100
AcDbEntity
  8
LC-001-002-----0
  6
ByBlock
 62
     7
370
    50
100
AcDbLine
 10
323.842115
 20
283.247223
 30
0.0
 11
384.841804
 21
283.247183
 31
0.0
  0
LINE
  5
34
102
{ACAD_REACTORS
330
119
102
}
330
1F
100
AcDbEntity
  8
LC-001-002-----0
  6
ByBlock
 62
     7
370
    50
100
AcDbLine
 10
324.841806
 20
284.24702
 30
0.0
 11
323.841806
 21
284.247021
 31
0.0
  0
LINE
  5
35
102
{ACAD_REACTORS
330
119
102
}
330
1F
100
AcDbEntity
  8
LC-001-002-----0
  6
ByBlock
 62
     7
370
    50
100
AcDbLine
 10
323.841806
 20
284.247021
 30
0.0
 11
323.841804
 21
283.247021
 31
0.0
  0
ARC
  5
36
102
{ACAD_REACTORS
330
119
102
}
330
1F
100
AcDbEntity
  8
LC-001-002-----0
  6
ByBlock
 62
     7
370
    50
100
AcDbCircle
 10
327.841823
 20
297.247016
 30
0.0
 40
3.000000000000289
100
AcDbArc
 50
89.999925
 51
179.999867
  0
LINE
  5
37
102
{ACAD_REACTORS
330
119
102
}
330
1F
100
AcDbEntity
  8
LC-001-002-----0
  6
ByBlock
 62
     7
370
    50
100
AcDbLine
 10
324.841823
 20
297.24702
 30
0.0
 11
324.841806
 21
284.24702
 31
0.0
  0
LINE
  5
38
102
{ACAD_REACTORS
330
119
102
}
330
1F
100
AcDbEntity
  8
LC-001-002-----0
  6
ByBlock
 62
     7
370
    50
100
AcDbLine
 10
326.841823
 20
297.247017
 30
0.0
 11
326.841804
 21
283.247017
 31
0.0
  0
ARC
  5
39
102
{ACAD_REACTORS
330
119
102
}
330
1F
100
AcDbEntity
  8
LC-001-002-----0
  6
ByBlock
 62
     7
370
    50
100
AcDbCircle
 10
327.841823
 20
297.247016
 30
0.0
 40
1.000000000000189
100
AcDbArc
 50
89.999965
 51
179.999925
  0
INSERT
  5
43
330
1F
100
AcDbEntity
  8
LC-002-005-----0
 62
     7
370
    25
100
AcDbBlockReference
  2
*X11
 10
0.0
 20
0.0
 30
0.0
  0
LINE
  5
44
102
{ACAD_REACTORS
330
118
102
}
330
1F
100
AcDbEntity
  8
LC-001-002-----0
  6
ByBlock
 62
     7
370
    50
100
AcDbLine
 10
387.841804
 20
283.24695
 30
0.0
 11
387.841806
 21
284.24695
 31
0.0
  0
LINE
  5
45
102
{ACAD_REACTORS
330
118
102
}
330
1F
100
AcDbEntity
  8
LC-001-002-----0
  6
ByBlock
 62
     7
370
    50
100
AcDbLine
 10
387.841806
 20
284.24695
 30
0.0
 11
386.841806
 21
284.246952
 31
0.0
  0
LINE
  5
46
102
{ACAD_REACTORS
330
118
102
}
330
1F
100
AcDbEntity
  8
LC-001-002-----0
  6
ByBlock
 62
     7
370
    50
100
AcDbLine
 10
386.841806
 20
284.246952
 30
0.0
 11
386.841823
 21
297.246952
 31
0.0
  0
ARC
  5
47
102
{ACAD_REACTORS
330
118
102
}
330
1F
100
AcDbEntity
  8
LC-001-002-----0
  6
ByBlock
 62
     7
370
    50
100
AcDbCircle
 10
383.841823
 20
297.246956
 30
0.0
 40
3.000000000000175
100
AcDbArc
 50
359.999925
 51
90.000194
  0
ARC
  5
48
102
{ACAD_REACTORS
330
118
102
}
330
1F
100
AcDbEntity
  8
LC-001-002-----0
  6
ByBlock
 62
     7
370
    50
100
AcDbCircle
 10
383.841823
 20
297.246956
 30
0.0
 40
1.000000000000181
100
AcDbArc
 50
359.999715
 51
89.999925
  0
LINE
  5
49
102
{ACAD_REACTORS
330
118
102
}
330
1F
100
AcDbEntity
  8
LC-001-002-----0
  6
ByBlock
 62
     7
370
    50
100
AcDbLine
 10
384.841823
 20
297.246954
 30
0.0
 11
384.841804
 21
283.246954
 31
0.0
  0
INSERT
  5
51
330
1F
100
AcDbEntity
  8
LC-002-005-----0
 62
     7
370
    25
100
AcDbBlockReference
  2
*X22
 10
0.0
 20
0.0
 30
0.0
  0
LINE
  5
52
102
{ACAD_REACTORS
330
118
102
}
330
1F
100
AcDbEntity
  8
LC-001-002-----0
  6
ByBlock
 62
     7
370
    50
100
AcDbLine
 10
386.341824
 20
298.246952
 30
0.0
 11
386.341824
 21
298.246952
 31
0.0
  0
LINE
  5
53
330
1F
100
AcDbEntity
  8
LC-001-002-----0
  6
ByBlock
 62
     7
370
    50
100
AcDbLine
 10
383.841824
 20
298.246956
 30
0.0
 11
381.341824
 21
298.246959
 31
0.0
  0
ARC
  5
54
330
1F
100
AcDbEntity
  8
LC-001-002-----0
  6
ByBlock
 62
     7
370
    50
100
AcDbCircle
 10
383.341824
 20
298.246956
 30
0.0
 40
2.000000000000082
100
AcDbArc
 50
90.00004
 51
179.999925
  0
LINE
  5
55
330
1F
100
AcDbEntity
  8
LC-001-002-----0
  6
ByBlock
 62
     7
370
    50
100
AcDbLine
 10
383.341827
 20
300.246956
 30
0.0
 11
383.841827
 21
300.246956
 31
0.0
  0
LINE
  5
56
330
1F
100
AcDbEntity
  8
LC-001-002-----0
  6
ByBlock
 62
     7
370
    50
100
AcDbLine
 10
330.341824
 20
298.247013
 30
0.0
 11
327.841824
 21
298.247016
 31
0.0
  0
ARC
  5
57
330
1F
100
AcDbEntity
  8
LC-001-002-----0
  6
ByBlock
 62
     7
370
    50
100
AcDbCircle
 10
328.341824
 20
298.247015
 30
0.0
 40
2.00000000000006
100
AcDbArc
 50
359.999925
 51
90.000194
  0
LINE
  5
58
330
1F
100
AcDbEntity
  8
LC-001-002-----0
  6
ByBlock
 62
     7
370
    50
100
AcDbLine
 10
327.841827
 20
300.247016
 30
0.0
 11
328.341827
 21
300.247015
 31
0.0
  0
LINE
  5
59
102
{ACAD_REACTORS
330
116
102
}
330
1F
100
AcDbEntity
  8
LC-001-002-----0
  6
ByBlock
 62
     7
370
    50
100
AcDbLine
 10
384.841804
 20
283.24719
 30
0.0
 11
387.842115
 21
283.247188
 31
0.0
  0
LINE
  5
5A
330
1F
100
AcDbEntity
  8
LC-001-002-----0
  6
ByBlock
 62
     7
370
    50
100
AcDbLine
 10
328.342124
 20
297.746986
 30
0.0
 11
328.342124
 21
295.746986
 31
0.0
  0
LINE
  5
5B
330
1F
100
AcDbEntity
  8
LC-001-002-----0
  6
ByBlock
 62
     7
370
    50
100
AcDbLine
 10
328.342124
 20
295.746986
 30
0.0
 11
330.842123
 21
295.746986
 31
0.0
  0
LINE
  5
5C
330
1F
100
AcDbEntity
  8
LC-001-002-----0
  6
ByBlock
 62
     7
370
    50
100
AcDbLine
 10
383.342124
 20
295.746986
 30
0.0
 11
383.342124
 21
297.746986
 31
0.0
  0
LINE
  5
5D
330
1F
100
AcDbEntity
  8
LC-001-002-----0
  6
ByBlock
 62
     7
370
    50
100
AcDbLine
 10
380.842123
 20
295.746986
 30
0.0
 11
380.842123
 21
287.746986
 31
0.0
  0
LINE
  5
5E
330
1F
100
AcDbEntity
  8
LC-001-002-----0
  6
ByBlock
 62
     7
370
    50
100
AcDbLine
 10
380.842123
 20
287.746986
 30
0.0
 11
330.842123
 21
287.746986
 31
0.0
  0
LINE
  5
5F
330
1F
100
AcDbEntity
  8
LC-001-002-----0
  6
ByBlock
 62
     7
370
    50
100
AcDbLine
 10
330.842123
 20
287.746986
 30
0.0
 11
330.842123
 21
295.746986
 31
0.0
  0
LINE
  5
60
330
1F
100
AcDbEntity
  8
LC-001-002-----0
  6
ByBlock
 62
     7
370
    50
100
AcDbLine
 10
332.842123
 20
287.746986
 30
0.0
 11
332.842123
 21
295.746986
 31
0.0
  0
LINE
  5
61
330
1F
100
AcDbEntity
  8
LC-001-002-----0
  6
ByBlock
 62
     7
370
    50
100
AcDbLine
 10
378.842123
 20
295.746986
 30
0.0
 11
378.842123
 21
287.746986
 31
0.0
  0
LINE
  5
62
330
1F
100
AcDbEntity
  8
LC-001-002-----0
  6
ByBlock
 62
     7
370
    50
100
AcDbLine
 10
380.842123
 20
295.746986
 30
0.0
 11
383.342124
 21
295.746986
 31
0.0
  0
LINE
  5
63
330
1F
100
AcDbEntity
  8
LC-001-002-----0
  6
ByBlock
 62
     7
370
    50
100
AcDbLine
 10
362.842118
 20
357.746986
 30
0.0
 11
348.842118
 21
357.746986
 31
0.0
  0
LINE
  5
64
330
1F
100
AcDbEntity
  8
LC-001-002-----0
  6
ByBlock
 62
     7
370
    50
100
AcDbLine
 10
364.342163
 20
350.746986
 30
0.0
 11
363.342159
 21
350.746986
 31
0.0
  0
LINE
  5
65
330
1F
100
AcDbEntity
  8
LC-001-002-----0
  6
ByBlock
 62
     7
370
    50
100
AcDbLine
 10
347.342163
 20
343.746986
 30
0.0
 11
348.342154
 21
343.746986
 31
0.0
  0
LINE
  5
66
330
1F
100
AcDbEntity
  8
LC-001-002-----0
  6
ByBlock
 62
     7
370
    50
100
AcDbLine
 10
364.842154
 20
336.746986
 30
0.0
 11
364.09215
 21
336.746986
 31
0.0
  0
LINE
  5
67
330
1F
100
AcDbEntity
  8
LC-001-002-----0
  6
ByBlock
 62
     7
370
    50
100
AcDbLine
 10
346.842154
 20
329.746986
 30
0.0
 11
347.342145
 21
329.746986
 31
0.0
  0
LINE
  5
68
330
1F
100
AcDbEntity
  8
LC-001-002-----0
  6
ByBlock
 62
     7
370
    50
100
AcDbLine
 10
367.342163
 20
317.746986
 30
0.0
 11
365.842124
 21
317.746986
 31
0.0
  0
LINE
  5
69
330
1F
100
AcDbEntity
  8
LC-001-002-----0
  6
ByBlock
 62
     7
370
    50
100
AcDbLine
 10
367.342163
 20
311.746986
 30
0.0
 11
365.842124
 21
311.746986
 31
0.0
  0
ARC
  5
6A
330
1F
100
AcDbEntity
  8
LC-001-002-----0
  6
ByBlock
 62
     7
370
    50
100
AcDbCircle
 10
339.842124
 20
303.746986
 30
0.0
 40
6.0
100
AcDbArc
 50
270.0
 51
0.0
  0
LINE
  5
6B
330
1F
100
AcDbEntity
  8
LC-001-002-----0
  6
ByBlock
 62
     7
370
    50
100
AcDbLine
 10
345.842124
 20
303.746986
 30
0.0
 11
345.842124
 21
311.746986
 31
0.0
  0
LINE
  5
6C
330
1F
100
AcDbEntity
  8
LC-001-002-----0
  6
ByBlock
 62
     7
370
    50
100
AcDbLine
 10
365.842124
 20
303.746986
 30
0.0
 11
365.842124
 21
311.746986
 31
0.0
  0
ARC
  5
6D
330
1F
100
AcDbEntity
  8
LC-001-002-----0
  6
ByBlock
 62
     7
370
    50
100
AcDbCircle
 10
371.842124
 20
303.746986
 30
0.0
 40
6.0
100
AcDbArc
 50
180.0
 51
270.000058
  0
LINE
  5
6E
330
1F
100
AcDbEntity
  8
LC-001-002-----0
  6
ByBlock
 62
     7
370
    50
100
AcDbLine
 10
383.342124
 20
297.746986
 30
0.0
 11
371.84213
 21
297.746986
 31
0.0
  0
LINE
  5
6F
330
1F
100
AcDbEntity
  8
LC-001-002-----0
  6
ByBlock
 62
     7
370
    50
100
AcDbLine
 10
328.342124
 20
297.746986
 30
0.0
 11
339.842124
 21
297.746986
 31
0.0
  0
LINE
  5
70
330
1F
100
AcDbEntity
  8
LC-001-002-----0
  6
ByBlock
 62
     7
370
    50
100
AcDbLine
 10
332.842123
 20
295.746986
 30
0.0
 11
339.842124
 21
295.746986
 31
0.0
  0
ARC
  5
71
330
1F
100
AcDbEntity
  8
LC-001-002-----0
  6
ByBlock
 62
     7
370
    50
100
AcDbCircle
 10
339.842124
 20
303.746986
 30
0.0
 40
8.0
100
AcDbArc
 50
270.0
 51
0.0
  0
LINE
  5
72
330
1F
100
AcDbEntity
  8
LC-001-002-----0
  6
ByBlock
 62
     7
370
    50
100
AcDbLine
 10
347.842124
 20
303.746986
 30
0.0
 11
347.842124
 21
326.746986
 31
0.0
  0
LINE
  5
73
330
1F
100
AcDbEntity
  8
LC-001-002-----0
  6
ByBlock
 62
     7
370
    50
100
AcDbLine
 10
363.842124
 20
303.746986
 30
0.0
 11
363.842124
 21
326.746986
 31
0.0
  0
ARC
  5
74
330
1F
100
AcDbEntity
  8
LC-001-002-----0
  6
ByBlock
 62
     7
370
    50
100
AcDbCircle
 10
371.842124
 20
303.746986
 30
0.0
 40
8.0
100
AcDbArc
 50
180.0
 51
270.000058
  0
LINE
  5
75
330
1F
100
AcDbEntity
  8
LC-001-002-----0
  6
ByBlock
 62
     7
370
    50
100
AcDbLine
 10
371.842132
 20
295.746986
 30
0.0
 11
378.842123
 21
295.746986
 31
0.0
  0
LINE
  5
76
330
1F
100
AcDbEntity
  8
LC-001-002-----0
  6
ByBlock
 62
     7
370
    50
100
AcDbLine
 10
339.842124
 20
295.746986
 30
0.0
 11
371.842124
 21
295.746986
 31
0.0
  0
LINE
  5
77
330
1F
100
AcDbEntity
  8
LC-001-002-----0
  6
ByBlock
 62
     7
370
    50
100
AcDbLine
 10
344.342163
 20
311.746986
 30
0.0
 11
345.842124
 21
317.746986
 31
0.0
  0
LINE
  5
78
330
1F
100
AcDbEntity
  8
LC-001-002-----0
  6
ByBlock
 62
     7
370
    50
100
AcDbLine
 10
367.342163
 20
311.746986
 30
0.0
 11
365.842124
 21
317.746986
 31
0.0
  0
LINE
  5
79
330
1F
100
AcDbEntity
  8
LC-001-002-----0
  6
ByBlock
 62
     7
370
    50
100
AcDbLine
 10
345.842124
 20
311.746986
 30
0.0
 11
344.342163
 21
311.746986
 31
0.0
  0
LINE
  5
7A
330
1F
100
AcDbEntity
  8
LC-001-002-----0
  6
ByBlock
 62
     7
370
    50
100
AcDbLine
 10
363.842124
 20
326.746986
 30
0.0
 11
347.842124
 21
326.746986
 31
0.0
  0
LINE
  5
7B
330
1F
100
AcDbEntity
  8
LC-001-002-----0
  6
ByBlock
 62
     7
370
    50
100
AcDbLine
 10
344.342163
 20
317.746986
 30
0.0
 11
346.092145
 21
326.746986
 31
0.0
  0
LINE
  5
7C
330
1F
100
AcDbEntity
  8
LC-001-002-----0
  6
ByBlock
 62
     7
370
    50
100
AcDbLine
 10
346.092145
 20
326.746986
 30
0.0
 11
347.342145
 21
329.746986
 31
0.0
  0
LINE
  5
7D
330
1F
100
AcDbEntity
  8
LC-001-002-----0
  6
ByBlock
 62
     7
370
    50
100
AcDbLine
 10
367.342163
 20
317.746986
 30
0.0
 11
365.592145
 21
326.746986
 31
0.0
  0
LINE
  5
7E
330
1F
100
AcDbEntity
  8
LC-001-002-----0
  6
ByBlock
 62
     7
370
    50
100
AcDbLine
 10
365.592145
 20
326.746986
 30
0.0
 11
364.342145
 21
329.746986
 31
0.0
  0
LINE
  5
7F
330
1F
100
AcDbEntity
  8
LC-001-002-----0
  6
ByBlock
 62
     7
370
    50
100
AcDbLine
 10
345.842124
 20
317.746986
 30
0.0
 11
344.342163
 21
317.746986
 31
0.0
  0
LINE
  5
80
330
1F
100
AcDbEntity
  8
LC-001-002-----0
  6
ByBlock
 62
     7
370
    50
100
AcDbLine
 10
362.092145
 20
329.746986
 30
0.0
 11
362.092145
 21
357.746986
 31
0.0
  0
LINE
  5
81
330
1F
100
AcDbEntity
  8
LC-001-002-----0
  6
ByBlock
 62
     7
370
    50
100
AcDbLine
 10
349.592145
 20
329.746986
 30
0.0
 11
349.592145
 21
357.746986
 31
0.0
  0
LINE
  5
82
330
1F
100
AcDbEntity
  8
LC-001-002-----0
  6
ByBlock
 62
     7
370
    50
100
AcDbLine
 10
347.842124
 20
326.746986
 30
0.0
 11
349.592145
 21
329.746986
 31
0.0
  0
LINE
  5
83
330
1F
100
AcDbEntity
  8
LC-001-002-----0
  6
ByBlock
 62
     7
370
    50
100
AcDbLine
 10
363.842124
 20
326.746986
 30
0.0
 11
362.092145
 21
329.746986
 31
0.0
  0
LINE
  5
84
330
1F
100
AcDbEntity
  8
LC-001-002-----0
  6
ByBlock
 62
     7
370
    50
100
AcDbLine
 10
364.342145
 20
329.746986
 30
0.0
 11
364.842154
 21
329.746986
 31
0.0
  0
LINE
  5
85
330
1F
100
AcDbEntity
  8
LC-001-002-----0
  6
ByBlock
 62
     7
370
    50
100
AcDbLine
 10
346.842154
 20
329.746986
 30
0.0
 11
347.59215
 21
336.746986
 31
0.0
  0
LINE
  5
86
330
1F
100
AcDbEntity
  8
LC-001-002-----0
  6
ByBlock
 62
     7
370
    50
100
AcDbLine
 10
364.842154
 20
329.746986
 30
0.0
 11
364.09215
 21
336.746986
 31
0.0
  0
LINE
  5
87
330
1F
100
AcDbEntity
  8
LC-001-002-----0
  6
ByBlock
 62
     7
370
    50
100
AcDbLine
 10
364.842154
 20
336.746986
 30
0.0
 11
363.342154
 21
343.746986
 31
0.0
  0
LINE
  5
88
330
1F
100
AcDbEntity
  8
LC-001-002-----0
  6
ByBlock
 62
     7
370
    50
100
AcDbLine
 10
347.342163
 20
343.746986
 30
0.0
 11
348.342159
 21
350.746986
 31
0.0
  0
LINE
  5
89
330
1F
100
AcDbEntity
  8
LC-001-002-----0
  6
ByBlock
 62
     7
370
    50
100
AcDbLine
 10
364.342163
 20
343.746986
 30
0.0
 11
363.342159
 21
350.746986
 31
0.0
  0
LINE
  5
8A
330
1F
100
AcDbEntity
  8
LC-001-002-----0
  6
ByBlock
 62
     7
370
    50
100
AcDbLine
 10
347.342163
 20
350.746986
 30
0.0
 11
348.842118
 21
357.746986
 31
0.0
  0
LINE
  5
8B
330
1F
100
AcDbEntity
  8
LC-001-002-----0
  6
ByBlock
 62
     7
370
    50
100
AcDbLine
 10
364.342163
 20
350.746986
 30
0.0
 11
362.842118
 21
357.746986
 31
0.0
  0
LINE
  5
8C
330
1F
100
AcDbEntity
  8
LC-001-002-----0
  6
ByBlock
 62
     7
370
    50
100
AcDbLine
 10
347.59215
 20
336.746986
 30
0.0
 11
346.842154
 21
336.746986
 31
0.0
  0
LINE
  5
8D
330
1F
100
AcDbEntity
  8
LC-001-002-----0
  6
ByBlock
 62
     7
370
    50
100
AcDbLine
 10
363.342154
 20
343.746986
 30
0.0
 11
364.342163
 21
343.746986
 31
0.0
  0
LINE
  5
8E
330
1F
100
AcDbEntity
  8
LC-001-002-----0
  6
ByBlock
 62
     7
370
    50
100
AcDbLine
 10
348.342159
 20
350.746986
 30
0.0
 11
347.342163
 21
350.746986
 31
0.0
  0
LINE
  5
8F
330
1F
100
AcDbEntity
  8
LC-001-002-----0
  6
ByBlock
 62
     7
370
    50
100
AcDbLine
 10
349.592145
 20
329.746986
 30
0.0
 11
362.092145
 21
329.746986
 31
0.0
  0
LINE
  5
90
330
1F
100
AcDbEntity
  8
LC-001-002-----0
  6
ByBlock
 62
     7
370
    50
100
AcDbLine
 10
330.342123
 20
295.246986
 30
0.0
 11
328.342123
 21
295.246986
 31
0.0
  0
LINE
  5
91
330
1F
100
AcDbEntity
  8
LC-001-002-----0
  6
ByBlock
 62
     7
370
    50
100
AcDbLine
 10
330.342123
 20
295.246986
 30
0.0
 11
330.342123
 21
285.246986
 31
0.0
  0
LINE
  5
92
330
1F
100
AcDbEntity
  8
LC-001-002-----0
  6
ByBlock
 62
     7
370
    50
100
AcDbLine
 10
328.342124
 20
295.246986
 30
0.0
 11
330.342123
 21
285.246986
 31
0.0
  0
INSERT
  5
9E
330
1F
100
AcDbEntity
  8
LC-002-005-----0
 62
     7
370
    25
100
AcDbBlockReference
  2
*X33
 10
0.0
 20
0.0
 30
0.0
  0
LINE
  5
9F
102
{ACAD_REACTORS
330
117
102
}
330
1F
100
AcDbEntity
  8
LC-001-002-----0
  6
ByBlock
 62
     7
370
    50
100
AcDbLine
 10
381.342122
 20
295.246959
 30
0.0
 11
383.342122
 21
295.246956
 31
0.0
  0
LINE
  5
A0
102
{ACAD_REACTORS
330
117
102
}
330
1F
100
AcDbEntity
  8
LC-001-002-----0
  6
ByBlock
 62
     7
370
    50
100
AcDbLine
 10
381.342122
 20
295.246959
 30
0.0
 11
381.342109
 21
285.246959
 31
0.0
  0
LINE
  5
A1
102
{ACAD_REACTORS
330
117
102
}
330
1F
100
AcDbEntity
  8
LC-001-002-----0
  6
ByBlock
 62
     7
370
    50
100
AcDbLine
 10
383.34212
 20
295.246956
 30
0.0
 11
381.342109
 21
285.246959
 31
0.0
  0
INSERT
  5
AC
330
1F
100
AcDbEntity
  8
LC-002-005-----0
 62
     7
370
    25
100
AcDbBlockReference
  2
*X44
 10
0.0
 20
0.0
 30
0.0
  0
INSERT
  5
C6
330
1F
100
AcDbEntity
  8
LC-002-005-----0
 62
     7
370
    25
100
AcDbBlockReference
  2
*X55
 10
0.0
 20
0.0
 30
0.0
  0
INSERT
  5
DD
330
1F
100
AcDbEntity
  8
LC-002-005-----0
 62
     7
370
    25
100
AcDbBlockReference
  2
*X66
 10
0.0
 20
0.0
 30
0.0
  0
LINE
  5
DE
330
1F
100
AcDbEntity
  8
LC-001-002-----0
  6
ByBlock
 62
     7
370
    50
100
AcDbLine
 10
346.842145
 20
336.746998
 30
0.0
 11
348.342154
 21
343.746996
 31
0.0
  0
LINE
  5
DF
330
1F
100
AcDbEntity
  8
LC-001-002-----0
  6
ByBlock
 62
     7
370
    50
100
AcDbLine
 10
330.342123
 20
285.246986
 30
0.0
 11
381.342109
 21
285.246986
 31
0.0
  0
LINE
  5
E0
330
1F
100
AcDbEntity
  8
LC-001-002-----0
  6
ByBlock
 62
     7
370
    50
100
AcDbLine
 10
326.841804
 20
283.247017
 30
0.0
 11
328.341806
 21
284.747019
 31
0.0
  0
LINE
  5
E1
330
1F
100
AcDbEntity
  8
LC-001-002-----0
  6
ByBlock
 62
     7
370
    50
100
AcDbLine
 10
328.341823
 20
297.247017
 30
0.0
 11
328.341806
 21
284.747019
 31
0.0
  0
LINE
  5
E2
330
1F
100
AcDbEntity
  8
LC-001-002-----0
  6
ByBlock
 62
     7
370
    50
100
AcDbLine
 10
326.841822
 20
296.747286
 30
0.0
 11
328.342123
 21
295.246986
 31
0.0
  0
LINE
  5
E3
330
1F
100
AcDbEntity
  8
LC-001-002-----0
  6
ByBlock
 62
     7
370
    50
100
AcDbLine
 10
383.342425
 20
295.247252
 30
0.0
 11
383.342425
 21
284.746983
 31
0.0
  0
LINE
  5
E4
330
1F
100
AcDbEntity
  8
LC-001-002-----0
  6
ByBlock
 62
     7
370
    50
100
AcDbLine
 10
384.842425
 20
296.747249
 30
0.0
 11
383.342122
 21
295.24695
 31
0.0
  0
LINE
  5
E5
330
1F
100
AcDbEntity
  8
LC-001-002-----0
  6
ByBlock
 62
     7
370
    50
100
AcDbLine
 10
384.842425
 20
283.246979
 30
0.0
 11
383.342425
 21
284.746983
 31
0.0
  0
LINE
  5
E6
330
1F
100
AcDbEntity
  8
LC-001-002-----0
  6
ByBlock
 62
     7
370
    50
100
AcDbLine
 10
327.841827
 20
300.247016
 30
0.0
 11
344.715543
 21
300.247016
 31
0.0
  0
LINE
  5
E7
330
1F
100
AcDbEntity
  8
LC-001-002-----0
  6
ByBlock
 62
     7
370
    50
100
AcDbLine
 10
366.968705
 20
300.247016
 30
0.0
 11
383.841827
 21
300.247016
 31
0.0
  0
DIMENSION
  5
EB
330
1F
100
AcDbEntity
  8
LC-003-003-----0
 62
     7
370
    25
100
AcDbDimension
  2
*D7
 10
434.0
 20
357.746986
 30
0.0
 11
403.2
 21
320.496968
 31
0.0
 70
   160
  1
75
 71
     5
 42
74.500035
 53
90.0
  3
LC-DIM-L-0140-02-02
100
AcDbAlignedDimension
 13
387.841804
 23
283.24695
 33
0.0
 14
362.842118
 24
357.746986
 34
0.0
 50
90.0
100
AcDbRotatedDimension
  0
DIMENSION
  5
F9
330
1F
100
AcDbEntity
  8
LC-003-003-----0
 62
     7
370
    25
100
AcDbDimension
  2
*D8
 10
384.841804
 20
226.314
 30
0.0
 11
355.042378
 21
257.114
 31
0.0
 70
   160
  1
2"
 71
     5
 42
58.0
  3
LC-DIM-L-0140-02-02
100
AcDbAlignedDimension
 13
326.841804
 23
283.247017
 33
0.0
 14
384.841804
 24
283.246954
 34
0.0
100
AcDbRotatedDimension
  0
DIMENSION
  5
108
330
1F
100
AcDbEntity
  8
LC-003-003-----0
 62
     7
370
    25
100
AcDbDimension
  2
*D9
 10
362.842118
 20
378.972
 30
0.0
 11
443.427339
 21
409.772
 31
0.0
 70
   160
  1
%%c14-23
 71
     5
 42
14.0
  3
LC-DIM-L-0140-02-02
100
AcDbAlignedDimension
 13
348.842118
 23
357.746986
 33
0.0
 14
362.842118
 24
357.746986
 34
0.0
100
AcDbRotatedDimension
  0
ENDSEC
  0
SECTION
  2
OBJECTS
  0
DICTIONARY
  5
C
330
0
100
AcDbDictionary
281
     1
  3
ACAD_GROUP
350
D
  3
ACAD_LAYOUT
350
1A
  3
ACAD_MLINESTYLE
350
17
  3
ACAD_PLOTSETTINGS
350
19
  3
ACAD_PLOTSTYLENAME
350
E
  0
DICTIONARY
  5
D
102
{ACAD_REACTORS
330
C
102
}
330
C
100
AcDbDictionary
281
     1
  3
LCGROUP11
350
116
  3
LCGROUP242
350
119
  3
LCGROUP250
350
118
  3
LCGROUP325
350
117
  0
DICTIONARY
  5
1A
102
{ACAD_REACTORS
330
C
102
}
330
C
100
AcDbDictionary
281
     1
  3
Layout1
350
1E
  3
Layout2
350
26
  3
Model
350
22
  0
DICTIONARY
  5
17
102
{ACAD_REACTORS
330
C
102
}
330
C
100
AcDbDictionary
281
     1
  3
Standard
350
18
  0
DICTIONARY
  5
19
102
{ACAD_REACTORS
330
C
102
}
330
C
100
AcDbDictionary
281
     1
  0
ACDBDICTIONARYWDFLT
  5
E
102
{ACAD_REACTORS
330
C
102
}
330
C
100
AcDbDictionary
281
     1
  3
Normal
350
F
100
AcDbDictionaryWithDefault
340
F
  0
GROUP
  5
116
102
{ACAD_REACTORS
330
D
102
}
330
D
100
AcDbGroup
300
GRP11
 70
     1
 71
     1
340
32
340
33
340
59
  0
GROUP
  5
119
102
{ACAD_REACTORS
330
D
102
}
330
D
100
AcDbGroup
300
GRP242
 70
     1
 71
     1
340
34
340
35
340
36
340
37
340
38
340
39
  0
GROUP
  5
118
102
{ACAD_REACTORS
330
D
102
}
330
D
100
AcDbGroup
300
GRP250
 70
     1
 71
     1
340
44
340
45
340
46
340
47
340
48
340
49
340
52
  0
GROUP
  5
117
102
{ACAD_REACTORS
330
D
102
}
330
D
100
AcDbGroup
300
GRP325
 70
     1
 71
     1
340
9F
340
A0
340
A1
  0
LAYOUT
  5
1E
102
{ACAD_REACTORS
330
1A
102
}
330
1A
100
AcDbPlotSettings
  1

  2

  4

  6

 40
0.0
 41
0.0
 42
0.0
 43
0.0
 44
0.0
 45
0.0
 46
0.0
 47
0.0
 48
0.0
 49
0.0
140
0.0
141
0.0
142
1.0
143
1.0
 70
   688
 72
     0
 73
     0
 74
     5
  7

 75
    16
147
1.0
148
0.0
149
0.0
100
AcDbLayout
  1
Layout1
 70
     1
 71
     1
 10
0.0
 20
0.0
 11
840.0
 21
594.0
 12
0.0
 22
0.0
 32
0.0
 14
0.0
 24
0.0
 34
0.0
 15
840.0
 25
594.0
 35
0.0
146
0.0
 13
0.0
 23
0.0
 33
0.0
 16
1.0
 26
0.0
 36
0.0
 17
0.0
 27
1.0
 37
0.0
 76
     0
330
1B
  0
LAYOUT
  5
26
102
{ACAD_REACTORS
330
1A
102
}
330
1A
100
AcDbPlotSettings
  1

  2

  4

  6

 40
0.0
 41
0.0
 42
0.0
 43
0.0
 44
0.0
 45
0.0
 46
0.0
 47
0.0
 48
0.0
 49
0.0
140
0.0
141
0.0
142
1.0
143
1.0
 70
   688
 72
     0
 73
     0
 74
     5
  7

 75
    16
147
1.0
148
0.0
149
0.0
100
AcDbLayout
  1
Layout2
 70
     1
 71
     2
 10
0.0
 20
0.0
 11
0.0
 21
0.0
 12
0.0
 22
0.0
 32
0.0
 14
0.0
 24
0.0
 34
0.0
 15
0.0
 25
0.0
 35
0.0
146
0.0
 13
0.0
 23
0.0
 33
0.0
 16
1.0
 26
0.0
 36
0.0
 17
0.0
 27
1.0
 37
0.0
 76
     0
330
23
  0
LAYOUT
  5
22
102
{ACAD_REACTORS
330
1A
102
}
330
1A
100
AcDbPlotSettings
  1

  2

  4

  6

 40
0.0
 41
0.0
 42
0.0
 43
0.0
 44
0.0
 45
0.0
 46
0.0
 47
0.0
 48
0.0
 49
0.0
140
0.0
141
0.0
142
1.0
143
1.0
 70
  1776
 72
     0
 73
     0
 74
     0
  7

 75
     0
147
1.0
148
0.0
149
0.0
100
AcDbLayout
  1
Model
 70
     1
 71
     0
 10
0.0
 20
0.0
 11
840.0
 21
594.0
 12
0.0
 22
0.0
 32
0.0
 14
0.0
 24
0.0
 34
0.0
 15
840.0
 25
594.0
 35
0.0
146
0.0
 13
0.0
 23
0.0
 33
0.0
 16
1.0
 26
0.0
 36
0.0
 17
0.0
 27
1.0
 37
0.0
 76
     0
330
1F
  0
MLINESTYLE
  5
18
102
{ACAD_REACTORS
330
17
102
}
330
17
100
AcDbMlineStyle
  2
Standard
 70
     0
  3

 62
   256
 51
90.0
 52
90.0
 71
     2
 49
0.5
 62
   256
  6
BYLAYER
 49
-0.5
 62
   256
  6
BYLAYER
  0
ACDBPLACEHOLDER
  5
F
102
{ACAD_REACTORS
330
E
102
}
330
E
  0
ENDSEC
  0
EOF
