  0
SECTION
  2
HEADER
  9
$ACADVER
  1
AC1009
  9
$INSBASE
 10
0.0
 20
0.0
 30
0.0
  9
$EXTMIN
 10
0.0
 20
0.0
 30
0.0
  9
$EXTMAX
 10
840.0
 20
594.0
 30
0.0
  9
$LIMMIN
 10
0.0
 20
0.0
  9
$LIMMAX
 10
840.0
 20
594.0
  9
$ORTHOMODE
 70
     0
  9
$REGENMODE
 70
     1
  9
$FILLMODE
 70
     1
  9
$QTEXTMODE
 70
     0
  9
$MIRRTEXT
 70
     1
  9
$DRAGMODE
 70
     2
  9
$LTSCALE
 40
2.0
  9
$OSMODE
 70
     0
  9
$ATTMODE
 70
     1
  9
$TEXTSIZE
 40
0.2
  9
$TRACEWID
 40
0.05
  9
$TEXTSTYLE
  7
STANDARD
  9
$CLAYER
  8
0
  9
$CELTYPE
  6
BYLAYER
  9
$CECOLOR
 62
     7
  9
$DIMSCALE
 40
2.0
  9
$DIMASZ
 40
3.5
  9
$DIMEXO
 40
0.0625
  9
$DIMDLI
 40
0.38
  9
$DIMRND
 40
0.0
  9
$DIMDLE
 40
0.0
  9
$DIMEXE
 40
0.18
  9
$DIMTP
 40
0.0
  9
$DIMTM
 40
0.0
  9
$DIMTXT
 40
3.5
  9
$DIMCEN
 40
0.09
  9
$DIMTSZ
 40
0.0
  9
$DIMTOL
 70
     0
  9
$DIMLIM
 70
     0
  9
$DIMTIH
 70
     1
  9
$DIMTOH
 70
     1
  9
$DIMSE1
 70
     0
  9
$DIMSE2
 70
     0
  9
$DIMTAD
 70
     1
  9
$DIMZIN
 70
     0
  9
$DIMBLK
  1

  9
$DIMASO
 70
     1
  9
$DIMSHO
 70
     1
  9
$DIMPOST
  1

  9
$DIMAPOST
  1

  9
$DIMALT
 70
     0
  9
$DIMALTD
 70
     2
  9
$DIMALTF
 40
25.4
  9
$DIMLFAC
 40
1.0
  9
$DIMTOFL
 70
     0
  9
$DIMTVP
 40
0.0
  9
$DIMTIX
 70
     0
  9
$DIMSOXD
 70
     0
  9
$DIMSAH
 70
     0
  9
$DIMBLK1
  1

  9
$DIMBLK2
  1

  9
$DIMSTYLE
  2
STANDARD
  9
$DIMCLRD
 70
     0
  9
$DIMCLRE
 70
     0
  9
$DIMCLRT
 70
     0
  9
$DIMTFAC
 40
1.0
  9
$DIMGAP
 40
0.09
  9
$LUNITS
 70
     2
  9
$LUPREC
 70
     2
  9
$AXISMODE
 70
     0
  9
$AXISUNIT
 10
0.0
 20
0.0
  9
$SKETCHINC
 40
0.1
  9
$FILLETRAD
 40
0.0
  9
$AUNITS
 70
     0
  9
$AUPREC
 70
     0
  9
$MENU
  1
acad
  9
$ELEVATION
 40
0.0
  9
$PELEVATION
 40
0.0
  9
$THICKNESS
 40
0.0
  9
$LIMCHECK
 70
     0
  9
$BLIPMODE
 70
     1
  9
$CHAMFERA
 40
0.0
  9
$CHAMFERB
 40
0.0
  9
$SKPOLY
 70
     0
  9
$TDCREATE
 40
0.000000000
  9
$TDUPDATE
 40
0.000000000
  9
$TDINDWG
 40
0.0000000000
  9
$TDUSRTIMER
 40
0.0000000000
  9
$USRTIMER
 70
     1
  9
$ANGBASE
 50
0.0
  9
$ANGDIR
 70
     0
  9
$PDMODE
 70
     0
  9
$PDSIZE
 40
0.0
  9
$PLINEWID
 40
0.0
  9
$COORDS
 70
     0
  9
$SPLFRAME
 70
     0
  9
$SPLINETYPE
 70
     6
  9
$SPLINESEGS
 70
     8
  9
$ATTDIA
 70
     0
  9
$ATTREQ
 70
     1
  9
$HANDLING
 70
     1
  9
$HANDSEED
  5
217
  9
$SURFTAB1
 70
     6
  9
$SURFTAB2
 70
     6
  9
$SURFTYPE
 70
     6
  9
$SURFU
 70
     6
  9
$SURFV
 70
     6
  9
$UCSNAME
  2

  9
$UCSORG
 10
0.0
 20
0.0
 30
0.0
  9
$UCSXDIR
 10
1.0
 20
0.0
 30
0.0
  9
$UCSYDIR
 10
0.0
 20
1.0
 30
0.0
  9
$PUCSNAME
  2

  9
$PUCSORG
 10
0.0
 20
0.0
 30
0.0
  9
$PUCSXDIR
 10
1.0
 20
0.0
 30
0.0
  9
$PUCSYDIR
 10
0.0
 20
1.0
 30
0.0
  9
$USERI1
 70
     0
  9
$USERI2
 70
     0
  9
$USERI3
 70
     0
  9
$USERI4
 70
     0
  9
$USERI5
 70
     0
  9
$USERR1
 40
0.0
  9
$USERR2
 40
0.0
  9
$USERR3
 40
0.0
  9
$USERR4
 40
0.0
  9
$USERR5
 40
0.0
  9
$WORLDVIEW
 70
     1
  9
$SHADEDGE
 70
     3
  9
$SHADEDIF
 70
    70
  9
$TILEMODE
 70
     1
  9
$MAXACTVP
 70
    16
  9
$PINSBASE
 10
0.0
 20
0.0
 30
0.0
  9
$PLIMCHECK
 70
     0
  9
$PEXTMIN
 10
1.000000E+20
 20
1.000000E+20
 30
1.000000E+20
  9
$PEXTMAX
 10
-1.000000E+20
 20
-1.000000E+20
 30
-1.000000E+20
  9
$PLIMMIN
 10
0.0
 20
0.0
  9
$PLIMMAX
 10
840.0
 20
594.0
  9
$UNITMODE
 70
     0
  9
$VISRETAIN
 70
     0
  9
$PLINEGEN
 70
     1
  9
$PSLTSCALE
 70
     0
  9
$TREEDEPTH
 70
  3020
  9
$DWGCODEPAGE
  3
dos850
  0
ENDSEC
  0
SECTION
  2
TABLES
  0
TABLE
  2
VPORT
 70
     1
  0
VPORT
  2
*ACTIVE
 70
     0
 10
0.0
 20
0.0
 11
1.0
 21
1.0
 12
420.0
 22
297.0
 13
0.0
 23
0.0
 14
1.0
 24
1.0
 15
0.0
 25
0.0
 16
0.0
 26
0.0
 36
1.0
 17
0.0
 27
0.0
 37
0.0
 40
594.0
 41
1.604229
 42
50.0
 43
0.0
 44
0.0
 50
0.0
 51
0.0
 71
     0
 72
   100
 73
     1
 74
     1
 75
     0
 76
     0
 77
     0
 78
     0
  0
ENDTAB
  0
TABLE
  2
LTYPE
 70
     2
  0
LTYPE
  2
CONTINUOUS
 70
    64
  3
Solid line
 72
    65
 73
     0
 40
0.0
  0
LTYPE
  2
DASHDOT
 70
    64
  3
__ . __ . __ . __ . __
 72
    65
 73
     4
 40
7.5
 49
5.0
 49
-1.25
 49
0.0
 49
-1.25
  0
ENDTAB
  0
TABLE
  2
LAYER
 70
     9
  0
LAYER
  2
0
 70
     0
 62
     7
  6
CONTINUOUS
  0
LAYER
  2
LC-INFO-1-2-MM-A3-0
 70
     1
 62
    -1
  6
CONTINUOUS
  0
LAYER
  2
LC-003-005-----0
 70
     0
 62
     2
  6
CONTINUOUS
  0
LAYER
  2
LC-005-003-MTH-0
 70
     0
 62
     2
  6
CONTINUOUS
  0
LAYER
  2
LC-006-003-MTG-0
 70
     0
 62
     2
  6
CONTINUOUS
  0
LAYER
  2
LC-004-003-----0
 70
     0
 62
     2
  6
CONTINUOUS
  0
LAYER
  2
LC-001-002-----0
 70
     0
 62
     1
  6
CONTINUOUS
  0
LAYER
  2
LC-002-002-RND-0
 70
     0
 62
     1
  6
CONTINUOUS
  0
LAYER
  2
LC-000
 70
     0
 62
     7
  6
CONTINUOUS
  0
ENDTAB
  0
TABLE
  2
STYLE
 70
     4
  0
STYLE
  2
STANDARD
 70
     0
 40
0.0
 41
1.0
 50
0.0
 71
     0
 42
0.0
  3
txt
  4

  0
STYLE
  2
LC-STANDARD
 70
    64
 40
0.0
 41
1.0
 50
0.0
 71
     0
 42
3.5
  3
MONOTXT
  4

  0
STYLE
  2
LC-TXTSTYLE-150-400-0-0-D2
 70
    64
 40
0.0
 41
1.0
 50
15.0
 71
     0
 42
3.5
  3
MONOTXT
  4

  0
STYLE
  2
LC-TXTSTYLE-150-400-0-0-D3
 70
    64
 40
0.0
 41
1.0
 50
15.0
 71
     0
 42
3.5
  3
LC-STANDARD
  4

  0
ENDTAB
  0
TABLE
  2
VIEW
 70
     0
  0
ENDTAB
  0
TABLE
  2
UCS
 70
     0
  0
ENDTAB
  0
TABLE
  2
APPID
 70
     1
  0
APPID
  2
ACAD
 70
     0
  0
ENDTAB
  0
TABLE
  2
DIMSTYLE
 70
     3
  0
DIMSTYLE
  2
STANDARD
 70
     0
  3

  4

  5

  6

  7

 40
1.0
 41
0.18
 42
0.0625
 43
0.38
 44
0.18
 45
0.0
 46
0.0
 47
0.0
 48
0.0
 71
     0
 72
     0
 73
     1
 74
     1
 75
     0
 76
     0
 77
     0
 78
     0
140
0.18
141
0.09
142
0.0
143
25.4
144
1.0
145
0.0
146
1.0
147
0.09
170
     0
171
     2
172
     0
173
     0
174
     0
175
     0
176
     0
177
     0
178
     0
  0
DIMSTYLE
  2
LC-STANDARD
 70
     0
  3

  4

  5

  6

  7

 40
1.0
 41
3.5
 42
0.0
 43
7.5
 44
1.8
 45
0.0
 46
0.0
 47
0.0
 48
0.0
 71
     0
 72
     0
 73
     0
 74
     0
 75
     0
 76
     0
 77
     1
 78
     8
140
3.5
141
0.0
142
0.0
143
25.4
144
1.0
145
0.0
146
0.71
147
1.5
170
     0
171
     2
172
     1
173
     0
174
     0
175
     0
176
     0
177
     0
178
     3
  0
DIMSTYLE
  2
LC-DIM-L-0090-02-02
 70
     0
  3

  4

  5

  6

  7

 40
2.0
 41
3.5
 42
0.0
 43
7.5
 44
1.8
 45
0.0
 46
0.0
 47
0.0
 48
0.0
 71
     0
 72
     0
 73
     0
 74
     0
 75
     0
 76
     0
 77
     1
 78
     8
140
9.0
141
0.0
142
0.0
143
25.4
144
1.0
145
0.0
146
0.71
147
1.5
170
     0
171
     2
172
     0
173
     0
174
     0
175
     0
176
     2
177
     2
178
     6
  0
ENDTAB
  0
ENDSEC
  0
SECTION
  2
BLOCKS
  0
BLOCK
  8
0
  5
23
  2
*X0
 70
    65
 10
313.690696
 20
438.778
 30
0.0
  3
*X0
  0
LINE
  8
LC-003-005-----0
  6
CONTINUOUS
  5
25
 10
317.271066
 20
438.893432
 30
0.0
 11
319.655634
 21
441.278
 31
0.0
  0
LINE
  8
LC-003-005-----0
  6
CONTINUOUS
  5
26
 10
315.972417
 20
440.42321
 30
0.0
 11
318.190696
 21
442.64149
 31
0.0
  0
LINE
  8
LC-003-005-----0
  6
CONTINUOUS
  5
27
 10
315.940696
 20
443.219917
 30
0.0
 11
318.190696
 21
445.469917
 31
0.0
  0
LINE
  8
LC-003-005-----0
  6
CONTINUOUS
  5
28
 10
315.940696
 20
446.048344
 30
0.0
 11
318.190696
 21
448.298344
 31
0.0
  0
LINE
  8
LC-003-005-----0
  6
CONTINUOUS
  5
29
 10
315.940696
 20
448.876771
 30
0.0
 11
318.190696
 21
451.126771
 31
0.0
  0
LINE
  8
LC-003-005-----0
  6
CONTINUOUS
  5
2A
 10
315.940696
 20
451.705198
 30
0.0
 11
318.190696
 21
453.955198
 31
0.0
  0
LINE
  8
LC-003-005-----0
  6
CONTINUOUS
  5
2B
 10
314.685071
 20
453.278
 30
0.0
 11
317.185071
 21
455.778
 31
0.0
  0
LINE
  8
LC-003-005-----0
  6
CONTINUOUS
  5
2C
 10
313.690696
 20
455.112052
 30
0.0
 11
314.356644
 21
455.778
 31
0.0
  0
ENDBLK
  8
0
  5
2D
  0
BLOCK
  8
0
  5
2F
  2
*X1
 70
    65
 10
363.190696
 20
438.778
 30
0.0
  3
*X1
  0
LINE
  8
LC-003-005-----0
  6
CONTINUOUS
  5
30
 10
365.273886
 20
438.812991
 30
0.0
 11
368.440696
 21
441.979801
 31
0.0
  0
LINE
  8
LC-003-005-----0
  6
CONTINUOUS
  5
31
 10
363.576398
 20
439.94393
 30
0.0
 11
364.910468
 21
441.278
 31
0.0
  0
LINE
  8
LC-003-005-----0
  6
CONTINUOUS
  5
32
 10
366.190696
 20
442.558229
 30
0.0
 11
368.440696
 21
444.808229
 31
0.0
  0
LINE
  8
LC-003-005-----0
  6
CONTINUOUS
  5
33
 10
366.190696
 20
445.386656
 30
0.0
 11
368.440696
 21
447.636656
 31
0.0
  0
LINE
  8
LC-003-005-----0
  6
CONTINUOUS
  5
34
 10
366.190696
 20
448.215083
 30
0.0
 11
368.440696
 21
450.465083
 31
0.0
  0
LINE
  8
LC-003-005-----0
  6
CONTINUOUS
  5
35
 10
366.190696
 20
451.04351
 30
0.0
 11
370.690696
 21
455.54351
 31
0.0
  0
LINE
  8
LC-003-005-----0
  6
CONTINUOUS
  5
36
 10
366.190696
 20
453.871937
 30
0.0
 11
368.096759
 21
455.778
 31
0.0
  0
ENDBLK
  8
0
  5
37
  0
BLOCK
  8
0
  5
39
  2
*X2
 70
    65
 10
362.690696
 20
441.540298
 30
0.0
  3
*X2
  0
LINE
  8
LC-003-005-----0
  6
CONTINUOUS
  5
3A
 10
363.758552
 20
441.540298
 30
0.0
 11
364.010616
 21
441.792362
 31
0.0
  0
LINE
  8
LC-003-005-----0
  6
CONTINUOUS
  5
3B
 10
362.690696
 20
441.886656
 30
0.0
 11
363.798631
 21
442.99459
 31
0.0
  0
LINE
  8
LC-003-005-----0
  6
CONTINUOUS
  5
3C
 10
362.690696
 20
443.300869
 30
0.0
 11
363.586646
 21
444.196819
 31
0.0
  0
LINE
  8
LC-003-005-----0
  6
CONTINUOUS
  5
3D
 10
362.690696
 20
444.715083
 30
0.0
 11
363.37466
 21
445.399047
 31
0.0
  0
LINE
  8
LC-003-005-----0
  6
CONTINUOUS
  5
3E
 10
362.690696
 20
446.129296
 30
0.0
 11
363.162675
 21
446.601275
 31
0.0
  0
LINE
  8
LC-003-005-----0
  6
CONTINUOUS
  5
3F
 10
362.690696
 20
447.54351
 30
0.0
 11
362.95069
 21
447.803503
 31
0.0
  0
LINE
  8
LC-003-005-----0
  6
CONTINUOUS
  5
40
 10
362.690696
 20
448.957724
 30
0.0
 11
362.738704
 21
449.005732
 31
0.0
  0
ENDBLK
  8
0
  5
41
  0
BLOCK
  8
0
  5
43
  2
*X3
 70
    65
 10
320.326331
 20
441.540298
 30
0.0
  3
*X3
  0
LINE
  8
LC-003-005-----0
  6
CONTINUOUS
  5
44
 10
321.332145
 20
441.540298
 30
0.0
 11
321.690696
 21
441.898849
 31
0.0
  0
LINE
  8
LC-003-005-----0
  6
CONTINUOUS
  5
45
 10
320.413758
 20
442.036125
 30
0.0
 11
321.690696
 21
443.313063
 31
0.0
  0
LINE
  8
LC-003-005-----0
  6
CONTINUOUS
  5
46
 10
320.716505
 20
443.753084
 30
0.0
 11
321.690696
 21
444.727276
 31
0.0
  0
LINE
  8
LC-003-005-----0
  6
CONTINUOUS
  5
47
 10
321.019251
 20
445.470044
 30
0.0
 11
321.690696
 21
446.14149
 31
0.0
  0
LINE
  8
LC-003-005-----0
  6
CONTINUOUS
  5
48
 10
321.321997
 20
447.187004
 30
0.0
 11
321.690696
 21
447.555703
 31
0.0
  0
LINE
  8
LC-003-005-----0
  6
CONTINUOUS
  5
49
 10
321.624744
 20
448.903964
 30
0.0
 11
321.690696
 21
448.969917
 31
0.0
  0
ENDBLK
  8
0
  5
4A
  0
BLOCK
  8
0
  5
4C
  2
*X4
 70
    65
 10
312.690696
 20
500.798667
 30
0.0
  3
*X4
  0
LINE
  8
LC-003-005-----0
  6
CONTINUOUS
  5
4D
 10
370.69102
 20
500.798667
 30
0.0
 11
371.690696
 21
501.798344
 31
0.0
  0
LINE
  8
LC-003-005-----0
  6
CONTINUOUS
  5
4E
 10
368.940696
 20
501.876771
 30
0.0
 11
371.690696
 21
504.626771
 31
0.0
  0
LINE
  8
LC-003-005-----0
  6
CONTINUOUS
  5
4F
 10
370.140696
 20
505.905198
 30
0.0
 11
371.690696
 21
507.455198
 31
0.0
  0
LINE
  8
LC-003-005-----0
  6
CONTINUOUS
  5
50
 10
369.166452
 20
507.759381
 30
0.0
 11
371.687884
 21
510.280813
 31
0.0
  0
LINE
  8
LC-003-005-----0
  6
CONTINUOUS
  5
51
 10
368.940696
 20
510.362052
 30
0.0
 11
370.440696
 21
511.862052
 31
0.0
  0
LINE
  8
LC-003-005-----0
  6
CONTINUOUS
  5
52
 10
368.940696
 20
513.19048
 30
0.0
 11
370.440696
 21
514.69048
 31
0.0
  0
LINE
  8
LC-003-005-----0
  6
CONTINUOUS
  5
53
 10
368.940696
 20
516.018907
 30
0.0
 11
370.440696
 21
517.518907
 31
0.0
  0
LINE
  8
LC-003-005-----0
  6
CONTINUOUS
  5
54
 10
368.940696
 20
518.847334
 30
0.0
 11
370.440519
 21
520.347157
 31
0.0
  0
LINE
  8
LC-003-005-----0
  6
CONTINUOUS
  5
55
 10
368.867382
 20
521.602447
 30
0.0
 11
370.180527
 21
522.915591
 31
0.0
  0
LINE
  8
LC-003-005-----0
  6
CONTINUOUS
  5
56
 10
368.370278
 20
523.93377
 30
0.0
 11
369.546373
 21
525.109865
 31
0.0
  0
LINE
  8
LC-003-005-----0
  6
CONTINUOUS
  5
57
 10
367.530395
 20
525.922314
 30
0.0
 11
368.633518
 21
527.025437
 31
0.0
  0
LINE
  8
LC-003-005-----0
  6
CONTINUOUS
  5
58
 10
366.418179
 20
527.638525
 30
0.0
 11
367.486252
 21
528.706598
 31
0.0
  0
LINE
  8
LC-003-005-----0
  6
CONTINUOUS
  5
59
 10
365.062783
 20
529.111556
 30
0.0
 11
366.124272
 21
530.173046
 31
0.0
  0
LINE
  8
LC-003-005-----0
  6
CONTINUOUS
  5
5A
 10
363.469379
 20
530.34658
 30
0.0
 11
364.551168
 21
531.428368
 31
0.0
  0
LINE
  8
LC-003-005-----0
  6
CONTINUOUS
  5
5B
 10
361.621718
 20
531.327345
 30
0.0
 11
362.755763
 21
532.46139
 31
0.0
  0
LINE
  8
LC-003-005-----0
  6
CONTINUOUS
  5
5C
 10
359.473586
 20
532.007641
 30
0.0
 11
360.707722
 21
533.241777
 31
0.0
  0
LINE
  8
LC-003-005-----0
  6
CONTINUOUS
  5
5D
 10
356.915518
 20
532.278
 30
0.0
 11
358.342537
 21
533.705019
 31
0.0
  0
LINE
  8
LC-003-005-----0
  6
CONTINUOUS
  5
5E
 10
354.087091
 20
532.278
 30
0.0
 11
355.587091
 21
533.778
 31
0.0
  0
LINE
  8
LC-003-005-----0
  6
CONTINUOUS
  5
5F
 10
336.865801
 20
517.885137
 30
0.0
 11
337.490696
 21
518.510032
 31
0.0
  0
LINE
  8
LC-003-005-----0
  6
CONTINUOUS
  5
60
 10
351.258664
 20
532.278
 30
0.0
 11
352.758664
 21
533.778
 31
0.0
  0
LINE
  8
LC-003-005-----0
  6
CONTINUOUS
  5
61
 10
335.990696
 20
519.838459
 30
0.0
 11
337.490696
 21
521.338459
 31
0.0
  0
LINE
  8
LC-003-005-----0
  6
CONTINUOUS
  5
62
 10
348.430237
 20
532.278
 30
0.0
 11
349.930237
 21
533.778
 31
0.0
  0
LINE
  8
LC-003-005-----0
  6
CONTINUOUS
  5
63
 10
314.122477
 20
500.798667
 30
0.0
 11
315.440696
 21
502.116886
 31
0.0
  0
LINE
  8
LC-003-005-----0
  6
CONTINUOUS
  5
64
 10
335.990696
 20
522.666886
 30
0.0
 11
337.490696
 21
524.166886
 31
0.0
  0
LINE
  8
LC-003-005-----0
  6
CONTINUOUS
  5
65
 10
345.60181
 20
532.278
 30
0.0
 11
347.10181
 21
533.778
 31
0.0
  0
LINE
  8
LC-003-005-----0
  6
CONTINUOUS
  5
66
 10
312.690696
 20
502.195314
 30
0.0
 11
314.760608
 21
504.265225
 31
0.0
  0
LINE
  8
LC-003-005-----0
  6
CONTINUOUS
  5
67
 10
335.990696
 20
525.495314
 30
0.0
 11
337.490696
 21
526.995314
 31
0.0
  0
LINE
  8
LC-003-005-----0
  6
CONTINUOUS
  5
68
 10
342.773383
 20
532.278
 30
0.0
 11
344.273383
 21
533.778
 31
0.0
  0
LINE
  8
LC-003-005-----0
  6
CONTINUOUS
  5
69
 10
312.690696
 20
505.023741
 30
0.0
 11
314.240696
 21
506.573741
 31
0.0
  0
LINE
  8
LC-003-005-----0
  6
CONTINUOUS
  5
6A
 10
335.990696
 20
528.323741
 30
0.0
 11
337.490696
 21
529.823741
 31
0.0
  0
LINE
  8
LC-003-005-----0
  6
CONTINUOUS
  5
6B
 10
339.944956
 20
532.278
 30
0.0
 11
341.444956
 21
533.778
 31
0.0
  0
LINE
  8
LC-003-005-----0
  6
CONTINUOUS
  5
6C
 10
312.690696
 20
507.852168
 30
0.0
 11
315.440696
 21
510.602168
 31
0.0
  0
LINE
  8
LC-003-005-----0
  6
CONTINUOUS
  5
6D
 10
335.990696
 20
531.152168
 30
0.0
 11
338.616528
 21
533.778
 31
0.0
  0
LINE
  8
LC-003-005-----0
  6
CONTINUOUS
  5
6E
 10
313.940696
 20
511.930595
 30
0.0
 11
315.440696
 21
513.430595
 31
0.0
  0
LINE
  8
LC-003-005-----0
  6
CONTINUOUS
  5
6F
 10
334.288101
 20
532.278
 30
0.0
 11
335.788101
 21
533.778
 31
0.0
  0
LINE
  8
LC-003-005-----0
  6
CONTINUOUS
  5
70
 10
313.940696
 20
514.759022
 30
0.0
 11
315.440696
 21
516.259022
 31
0.0
  0
LINE
  8
LC-003-005-----0
  6
CONTINUOUS
  5
71
 10
331.459674
 20
532.278
 30
0.0
 11
332.959674
 21
533.778
 31
0.0
  0
LINE
  8
LC-003-005-----0
  6
CONTINUOUS
  5
72
 10
313.940696
 20
517.587449
 30
0.0
 11
315.440696
 21
519.087449
 31
0.0
  0
LINE
  8
LC-003-005-----0
  6
CONTINUOUS
  5
73
 10
328.631247
 20
532.278
 30
0.0
 11
330.131247
 21
533.778
 31
0.0
  0
LINE
  8
LC-003-005-----0
  6
CONTINUOUS
  5
74
 10
313.941408
 20
520.416588
 30
0.0
 11
315.571799
 21
522.04698
 31
0.0
  0
LINE
  8
LC-003-005-----0
  6
CONTINUOUS
  5
75
 10
325.671717
 20
532.146897
 30
0.0
 11
327.302109
 21
533.777289
 31
0.0
  0
LINE
  8
LC-003-005-----0
  6
CONTINUOUS
  5
76
 10
314.376374
 20
523.679981
 30
0.0
 11
317.154446
 21
526.458053
 31
0.0
  0
LINE
  8
LC-003-005-----0
  6
CONTINUOUS
  5
77
 10
321.260643
 20
530.56425
 30
0.0
 11
324.038715
 21
533.342323
 31
0.0
  0
ENDBLK
  8
0
  5
78
  0
BLOCK
  8
0
  5
7A
  2
*X5
 70
    65
 10
346.890696
 20
517.885137
 30
0.0
  3
*X5
  0
LINE
  8
LC-003-005-----0
  6
CONTINUOUS
  5
7B
 10
348.179509
 20
517.885137
 30
0.0
 11
348.390696
 21
518.096324
 31
0.0
  0
LINE
  8
LC-003-005-----0
  6
CONTINUOUS
  5
7C
 10
346.890696
 20
519.424751
 30
0.0
 11
348.390696
 21
520.924751
 31
0.0
  0
LINE
  8
LC-003-005-----0
  6
CONTINUOUS
  5
7D
 10
346.890696
 20
522.253178
 30
0.0
 11
348.390696
 21
523.753178
 31
0.0
  0
LINE
  8
LC-003-005-----0
  6
CONTINUOUS
  5
7E
 10
346.890696
 20
525.081605
 30
0.0
 11
348.390696
 21
526.581605
 31
0.0
  0
LINE
  8
LC-003-005-----0
  6
CONTINUOUS
  5
7F
 10
346.890696
 20
527.910032
 30
0.0
 11
348.390696
 21
529.410032
 31
0.0
  0
LINE
  8
LC-003-005-----0
  6
CONTINUOUS
  5
80
 10
346.890696
 20
530.738459
 30
0.0
 11
348.390696
 21
532.238459
 31
0.0
  0
ENDBLK
  8
0
  5
81
  0
BLOCK
  8
0
  5
83
  2
*X6
 70
    65
 10
313.190696
 20
442.778
 30
0.0
  3
*X6
  0
LINE
  8
LC-003-005-----0
  6
CONTINUOUS
  5
84
 10
317.190696
 20
508.710024
 30
0.0
 11
315.440696
 21
510.460024
 31
0.0
  0
LINE
  8
LC-003-005-----0
  6
CONTINUOUS
  5
85
 10
317.190696
 20
505.881597
 30
0.0
 11
315.263926
 21
507.808367
 31
0.0
  0
LINE
  8
LC-003-005-----0
  6
CONTINUOUS
  5
86
 10
317.190696
 20
503.05317
 30
0.0
 11
314.240696
 21
506.00317
 31
0.0
  0
LINE
  8
LC-003-005-----0
  6
CONTINUOUS
  5
87
 10
317.190696
 20
500.224743
 30
0.0
 11
315.440696
 21
501.974743
 31
0.0
  0
LINE
  8
LC-003-005-----0
  6
CONTINUOUS
  5
88
 10
317.190696
 20
497.396316
 30
0.0
 11
315.690696
 21
498.896316
 31
0.0
  0
LINE
  8
LC-003-005-----0
  6
CONTINUOUS
  5
89
 10
314.809012
 20
499.778
 30
0.0
 11
313.809012
 21
500.778
 31
0.0
  0
LINE
  8
LC-003-005-----0
  6
CONTINUOUS
  5
8A
 10
317.190696
 20
494.567889
 30
0.0
 11
315.690696
 21
496.067889
 31
0.0
  0
LINE
  8
LC-003-005-----0
  6
CONTINUOUS
  5
8B
 10
317.190696
 20
491.739461
 30
0.0
 11
315.690696
 21
493.239461
 31
0.0
  0
LINE
  8
LC-003-005-----0
  6
CONTINUOUS
  5
8C
 10
317.190696
 20
488.911034
 30
0.0
 11
315.690696
 21
490.411034
 31
0.0
  0
LINE
  8
LC-003-005-----0
  6
CONTINUOUS
  5
8D
 10
317.190696
 20
486.082607
 30
0.0
 11
315.690696
 21
487.582607
 31
0.0
  0
LINE
  8
LC-003-005-----0
  6
CONTINUOUS
  5
8E
 10
317.190696
 20
483.25418
 30
0.0
 11
315.690696
 21
484.75418
 31
0.0
  0
LINE
  8
LC-003-005-----0
  6
CONTINUOUS
  5
8F
 10
317.190696
 20
480.425753
 30
0.0
 11
315.690696
 21
481.925753
 31
0.0
  0
LINE
  8
LC-003-005-----0
  6
CONTINUOUS
  5
90
 10
317.190696
 20
477.597326
 30
0.0
 11
315.690696
 21
479.097326
 31
0.0
  0
LINE
  8
LC-003-005-----0
  6
CONTINUOUS
  5
91
 10
321.690696
 20
470.268899
 30
0.0
 11
321.681586
 21
470.278009
 31
0.0
  0
LINE
  8
LC-003-005-----0
  6
CONTINUOUS
  5
92
 10
317.190705
 20
474.768889
 30
0.0
 11
315.690696
 21
476.268899
 31
0.0
  0
LINE
  8
LC-003-005-----0
  6
CONTINUOUS
  5
93
 10
321.690696
 20
467.440472
 30
0.0
 11
315.82663
 21
473.304538
 31
0.0
  0
LINE
  8
LC-003-005-----0
  6
CONTINUOUS
  5
94
 10
321.690696
 20
464.612044
 30
0.0
 11
320.190696
 21
466.112044
 31
0.0
  0
LINE
  8
LC-003-005-----0
  6
CONTINUOUS
  5
95
 10
321.690696
 20
461.783617
 30
0.0
 11
320.190696
 21
463.283617
 31
0.0
  0
LINE
  8
LC-003-005-----0
  6
CONTINUOUS
  5
96
 10
321.690696
 20
458.95519
 30
0.0
 11
320.190696
 21
460.45519
 31
0.0
  0
LINE
  8
LC-003-005-----0
  6
CONTINUOUS
  5
97
 10
321.690696
 20
456.126763
 30
0.0
 11
320.190696
 21
457.626763
 31
0.0
  0
LINE
  8
LC-003-005-----0
  6
CONTINUOUS
  5
98
 10
321.690696
 20
453.298336
 30
0.0
 11
320.190696
 21
454.798336
 31
0.0
  0
LINE
  8
LC-003-005-----0
  6
CONTINUOUS
  5
99
 10
321.690696
 20
450.469909
 30
0.0
 11
320.190696
 21
451.969909
 31
0.0
  0
LINE
  8
LC-003-005-----0
  6
CONTINUOUS
  5
9A
 10
321.445388
 20
447.88679
 30
0.0
 11
320.190696
 21
449.141482
 31
0.0
  0
LINE
  8
LC-003-005-----0
  6
CONTINUOUS
  5
9B
 10
321.021418
 20
445.482333
 30
0.0
 11
320.190696
 21
446.313055
 31
0.0
  0
LINE
  8
LC-003-005-----0
  6
CONTINUOUS
  5
9C
 10
320.597447
 20
443.077877
 30
0.0
 11
320.190696
 21
443.484627
 31
0.0
  0
ENDBLK
  8
0
  5
9D
  0
BLOCK
  8
0
  5
9F
  2
*X7
 70
    65
 10
355.207357
 20
499.778
 30
0.0
  3
*X7
  0
LINE
  8
LC-003-005-----0
  6
CONTINUOUS
  5
A0
 10
368.940696
 20
510.70014
 30
0.0
 11
368.112836
 21
511.528
 31
0.0
  0
LINE
  8
LC-003-005-----0
  6
CONTINUOUS
  5
A1
 10
370.140696
 20
506.671712
 30
0.0
 11
367.190696
 21
509.621712
 31
0.0
  0
LINE
  8
LC-003-005-----0
  6
CONTINUOUS
  5
A2
 10
369.669771
 20
504.314211
 30
0.0
 11
367.190696
 21
506.793285
 31
0.0
  0
LINE
  8
LC-003-005-----0
  6
CONTINUOUS
  5
A3
 10
371.190696
 20
499.964858
 30
0.0
 11
370.356887
 21
500.798667
 31
0.0
  0
LINE
  8
LC-003-005-----0
  6
CONTINUOUS
  5
A4
 10
368.940696
 20
502.214858
 30
0.0
 11
367.190696
 21
503.964858
 31
0.0
  0
LINE
  8
LC-003-005-----0
  6
CONTINUOUS
  5
A5
 10
368.549127
 20
499.778
 30
0.0
 11
367.190696
 21
501.136431
 31
0.0
  0
LINE
  8
LC-003-005-----0
  6
CONTINUOUS
  5
A6
 10
365.7207
 20
499.778
 30
0.0
 11
364.7207
 21
500.778
 31
0.0
  0
LINE
  8
LC-003-005-----0
  6
CONTINUOUS
  5
A7
 10
362.892273
 20
499.778
 30
0.0
 11
361.892273
 21
500.778
 31
0.0
  0
LINE
  8
LC-003-005-----0
  6
CONTINUOUS
  5
A8
 10
356.707357
 20
505.962916
 30
0.0
 11
355.207357
 21
507.462916
 31
0.0
  0
LINE
  8
LC-003-005-----0
  6
CONTINUOUS
  5
A9
 10
360.063846
 20
499.778
 30
0.0
 11
359.063846
 21
500.778
 31
0.0
  0
LINE
  8
LC-003-005-----0
  6
CONTINUOUS
  5
AA
 10
356.707357
 20
503.134489
 30
0.0
 11
355.207357
 21
504.634489
 31
0.0
  0
LINE
  8
LC-003-005-----0
  6
CONTINUOUS
  5
AB
 10
357.235419
 20
499.778
 30
0.0
 11
355.207357
 21
501.806062
 31
0.0
  0
ENDBLK
  8
0
  5
AC
  0
BLOCK
  8
0
  5
AE
  2
*X8
 70
    65
 10
342.190696
 20
442.778
 30
0.0
  3
*X8
  0
LINE
  8
LC-003-005-----0
  6
CONTINUOUS
  5
AF
 10
364.190696
 20
467.366878
 30
0.0
 11
361.779575
 21
469.778
 31
0.0
  0
LINE
  8
LC-003-005-----0
  6
CONTINUOUS
  5
B0
 10
364.190696
 20
464.538451
 30
0.0
 11
362.690696
 21
466.038451
 31
0.0
  0
LINE
  8
LC-003-005-----0
  6
CONTINUOUS
  5
B1
 10
360.451148
 20
468.278
 30
0.0
 11
358.951148
 21
469.778
 31
0.0
  0
LINE
  8
LC-003-005-----0
  6
CONTINUOUS
  5
B2
 10
364.190696
 20
461.710024
 30
0.0
 11
362.690696
 21
463.210024
 31
0.0
  0
LINE
  8
LC-003-005-----0
  6
CONTINUOUS
  5
B3
 10
357.62272
 20
468.278
 30
0.0
 11
356.12272
 21
469.778
 31
0.0
  0
LINE
  8
LC-003-005-----0
  6
CONTINUOUS
  5
B4
 10
364.190696
 20
458.881597
 30
0.0
 11
362.690696
 21
460.381597
 31
0.0
  0
LINE
  8
LC-003-005-----0
  6
CONTINUOUS
  5
B5
 10
354.794293
 20
468.278
 30
0.0
 11
353.294293
 21
469.778
 31
0.0
  0
LINE
  8
LC-003-005-----0
  6
CONTINUOUS
  5
B6
 10
364.190696
 20
456.05317
 30
0.0
 11
362.690696
 21
457.55317
 31
0.0
  0
LINE
  8
LC-003-005-----0
  6
CONTINUOUS
  5
B7
 10
350.841755
 20
469.402111
 30
0.0
 11
346.743679
 21
473.500187
 31
0.0
  0
LINE
  8
LC-003-005-----0
  6
CONTINUOUS
  5
B8
 10
364.190696
 20
453.224743
 30
0.0
 11
362.690696
 21
454.724743
 31
0.0
  0
LINE
  8
LC-003-005-----0
  6
CONTINUOUS
  5
B9
 10
344.149625
 20
473.265814
 30
0.0
 11
342.190696
 21
475.224743
 31
0.0
  0
LINE
  8
LC-003-005-----0
  6
CONTINUOUS
  5
BA
 10
364.190696
 20
450.396316
 30
0.0
 11
362.690696
 21
451.896316
 31
0.0
  0
LINE
  8
LC-003-005-----0
  6
CONTINUOUS
  5
BB
 10
364.190696
 20
447.567889
 30
0.0
 11
362.735676
 21
449.022909
 31
0.0
  0
LINE
  8
LC-003-005-----0
  6
CONTINUOUS
  5
BC
 10
364.190696
 20
444.739461
 30
0.0
 11
363.341168
 21
445.588989
 31
0.0
  0
ENDBLK
  8
0
  5
BD
  0
BLOCK
  8
0
  5
BF
  2
*X9
 70
    65
 10
327.674036
 20
474.396802
 30
0.0
  3
*X9
  0
LINE
  8
LC-003-005-----0
  6
CONTINUOUS
  5
C0
 10
329.174036
 20
505.211966
 30
0.0
 11
327.674036
 21
506.711966
 31
0.0
  0
LINE
  8
LC-003-005-----0
  6
CONTINUOUS
  5
C1
 10
329.174036
 20
502.383539
 30
0.0
 11
327.674036
 21
503.883539
 31
0.0
  0
LINE
  8
LC-003-005-----0
  6
CONTINUOUS
  5
C2
 10
329.174036
 20
499.555112
 30
0.0
 11
327.674036
 21
501.055112
 31
0.0
  0
LINE
  8
LC-003-005-----0
  6
CONTINUOUS
  5
C3
 10
329.174036
 20
496.726685
 30
0.0
 11
327.674036
 21
498.226685
 31
0.0
  0
LINE
  8
LC-003-005-----0
  6
CONTINUOUS
  5
C4
 10
329.174036
 20
493.898258
 30
0.0
 11
327.674036
 21
495.398258
 31
0.0
  0
LINE
  8
LC-003-005-----0
  6
CONTINUOUS
  5
C5
 10
329.174036
 20
491.06983
 30
0.0
 11
327.674036
 21
492.56983
 31
0.0
  0
LINE
  8
LC-003-005-----0
  6
CONTINUOUS
  5
C6
 10
342.190696
 20
475.224743
 30
0.0
 11
340.051549
 21
477.36389
 31
0.0
  0
LINE
  8
LC-003-005-----0
  6
CONTINUOUS
  5
C7
 10
329.174036
 20
488.241403
 30
0.0
 11
327.674036
 21
489.741403
 31
0.0
  0
LINE
  8
LC-003-005-----0
  6
CONTINUOUS
  5
C8
 10
337.457494
 20
477.129517
 30
0.0
 11
333.359418
 21
481.227594
 31
0.0
  0
LINE
  8
LC-003-005-----0
  6
CONTINUOUS
  5
C9
 10
329.174036
 20
485.412976
 30
0.0
 11
327.674036
 21
486.912976
 31
0.0
  0
LINE
  8
LC-003-005-----0
  6
CONTINUOUS
  5
CA
 10
330.765364
 20
480.993221
 30
0.0
 11
327.674036
 21
484.084549
 31
0.0
  0
ENDBLK
  8
0
  5
CB
  0
BLOCK
  8
0
  5
CD
  2
*X10
 70
    65
 10
318.690696
 20
442.778
 30
0.0
  3
*X10
  0
LINE
  8
LC-003-005-----0
  6
CONTINUOUS
  5
CE
 10
320.190696
 20
454.798336
 30
0.0
 11
319.200864
 21
455.788168
 31
0.0
  0
LINE
  8
LC-003-005-----0
  6
CONTINUOUS
  5
CF
 10
320.190696
 20
451.969909
 30
0.0
 11
318.690696
 21
453.469909
 31
0.0
  0
LINE
  8
LC-003-005-----0
  6
CONTINUOUS
  5
D0
 10
320.190696
 20
449.141482
 30
0.0
 11
318.690696
 21
450.641482
 31
0.0
  0
LINE
  8
LC-003-005-----0
  6
CONTINUOUS
  5
D1
 10
320.190696
 20
446.313055
 30
0.0
 11
318.690696
 21
447.813055
 31
0.0
  0
LINE
  8
LC-003-005-----0
  6
CONTINUOUS
  5
D2
 10
320.190696
 20
443.484627
 30
0.0
 11
318.690696
 21
444.984627
 31
0.0
  0
ENDBLK
  8
0
  5
D3
  0
BLOCK
  8
0
  5
D5
  2
*X11
 70
    65
 10
364.190696
 20
442.778
 30
0.0
  3
*X11
  0
LINE
  8
LC-003-005-----0
  6
CONTINUOUS
  5
D6
 10
365.690696
 20
454.55317
 30
0.0
 11
364.190696
 21
456.05317
 31
0.0
  0
LINE
  8
LC-003-005-----0
  6
CONTINUOUS
  5
D7
 10
365.690696
 20
451.724743
 30
0.0
 11
364.190696
 21
453.224743
 31
0.0
  0
LINE
  8
LC-003-005-----0
  6
CONTINUOUS
  5
D8
 10
365.690696
 20
448.896316
 30
0.0
 11
364.190696
 21
450.396316
 31
0.0
  0
LINE
  8
LC-003-005-----0
  6
CONTINUOUS
  5
D9
 10
365.690696
 20
446.067889
 30
0.0
 11
364.190696
 21
447.567889
 31
0.0
  0
LINE
  8
LC-003-005-----0
  6
CONTINUOUS
  5
DA
 10
365.171427
 20
443.758731
 30
0.0
 11
364.190696
 21
444.739461
 31
0.0
  0
ENDBLK
  8
0
  5
DB
  0
BLOCK
  8
0
  5
DD
  2
*D12
 70
    65
 10
0.0
 20
0.0
 30
0.0
  3
*D12
  0
LINE
  8
LC-005-003-MTH-0
  6
CONTINUOUS
  5
DF
 10
366.440696
 20
438.778
 30
0.0
 11
450.8
 21
438.778
 31
0.0
  0
LINE
  8
LC-005-003-MTH-0
  6
CONTINUOUS
  5
E0
 10
356.940696
 20
533.778
 30
0.0
 11
450.8
 21
533.778
 31
0.0
  0
LINE
  8
LC-006-003-MTG-0
  6
CONTINUOUS
  5
E2
 10
440.0
 20
438.778
 30
0.0
 11
440.0
 21
533.778
 31
0.0
  0
LINE
  8
LC-004-003-----0
  6
CONTINUOUS
  5
E4
 10
437.650529
 20
456.624008
 30
0.0
 11
440.0
 21
438.778
 31
0.0
  0
LINE
  8
LC-004-003-----0
  6
CONTINUOUS
  5
E5
 10
440.0
 20
438.778
 30
0.0
 11
442.349471
 21
456.624008
 31
0.0
  0
LINE
  8
LC-004-003-----0
  6
CONTINUOUS
  5
E6
 10
442.349471
 20
456.624008
 30
0.0
 11
437.650529
 21
456.624008
 31
0.0
  0
LINE
  8
LC-004-003-----0
  6
CONTINUOUS
  5
E7
 10
438.261391
 20
456.664046
 30
0.0
 11
440.0
 21
443.458
 31
0.0
  0
LINE
  8
LC-004-003-----0
  6
CONTINUOUS
  5
E8
 10
440.0
 20
443.458
 30
0.0
 11
441.738609
 21
456.664046
 31
0.0
  0
LINE
  8
LC-004-003-----0
  6
CONTINUOUS
  5
E9
 10
438.872254
 20
456.704084
 30
0.0
 11
440.0
 21
448.138
 31
0.0
  0
LINE
  8
LC-004-003-----0
  6
CONTINUOUS
  5
EA
 10
440.0
 20
448.138
 30
0.0
 11
441.127746
 21
456.704084
 31
0.0
  0
LINE
  8
LC-004-003-----0
  6
CONTINUOUS
  5
EB
 10
439.483116
 20
456.744122
 30
0.0
 11
440.0
 21
452.818
 31
0.0
  0
LINE
  8
LC-004-003-----0
  6
CONTINUOUS
  5
EC
 10
440.0
 20
452.818
 30
0.0
 11
440.516884
 21
456.744122
 31
0.0
  0
LINE
  8
LC-004-003-----0
  6
CONTINUOUS
  5
ED
 10
442.349471
 20
515.931992
 30
0.0
 11
440.0
 21
533.778
 31
0.0
  0
LINE
  8
LC-004-003-----0
  6
CONTINUOUS
  5
EE
 10
440.0
 20
533.778
 30
0.0
 11
437.650529
 21
515.931992
 31
0.0
  0
LINE
  8
LC-004-003-----0
  6
CONTINUOUS
  5
EF
 10
437.650529
 20
515.931992
 30
0.0
 11
442.349471
 21
515.931992
 31
0.0
  0
LINE
  8
LC-004-003-----0
  6
CONTINUOUS
  5
F0
 10
441.738609
 20
515.891954
 30
0.0
 11
440.0
 21
529.098
 31
0.0
  0
LINE
  8
LC-004-003-----0
  6
CONTINUOUS
  5
F1
 10
440.0
 20
529.098
 30
0.0
 11
438.261391
 21
515.891954
 31
0.0
  0
LINE
  8
LC-004-003-----0
  6
CONTINUOUS
  5
F2
 10
441.127746
 20
515.851916
 30
0.0
 11
440.0
 21
524.418
 31
0.0
  0
LINE
  8
LC-004-003-----0
  6
CONTINUOUS
  5
F3
 10
440.0
 20
524.418
 30
0.0
 11
438.872254
 21
515.851916
 31
0.0
  0
LINE
  8
LC-004-003-----0
  6
CONTINUOUS
  5
F4
 10
440.516884
 20
515.811878
 30
0.0
 11
440.0
 21
519.738
 31
0.0
  0
LINE
  8
LC-004-003-----0
  6
CONTINUOUS
  5
F5
 10
440.0
 20
519.738
 30
0.0
 11
439.483116
 21
515.811878
 31
0.0
  0
TEXT
  8
LC-004-003-----0
  6
CONTINUOUS
 62
     6
  5
F7
 10
429.568001
 20
477.210254
 30
0.0
 40
18.0
  1
97
 50
90.0
 41
0.9
 51
15.0
  7
LC-TXTSTYLE-150-400-0-0-D0
 72
     1
 11
429.568001
 21
489.073246
 31
0.0
  0
ENDBLK
  8
0
  5
F8
  0
BLOCK
  8
0
  5
FA
  2
*D13
 70
    65
 10
0.0
 20
0.0
 30
0.0
  3
*D13
  0
LINE
  8
LC-005-003-MTH-0
  6
CONTINUOUS
  5
FB
 10
321.190696
 20
441.278
 30
0.0
 11
321.190696
 21
389.2
 31
0.0
  0
LINE
  8
LC-005-003-MTH-0
  6
CONTINUOUS
  5
FC
 10
362.690696
 20
441.278
 30
0.0
 11
362.690696
 21
389.2
 31
0.0
  0
LINE
  8
LC-004-003-----0
  6
CONTINUOUS
  5
FD
 10
303.344689
 20
397.650529
 30
0.0
 11
321.190696
 21
400.0
 31
0.0
  0
LINE
  8
LC-004-003-----0
  6
CONTINUOUS
  5
FE
 10
321.190696
 20
400.0
 30
0.0
 11
303.344689
 21
402.349471
 31
0.0
  0
LINE
  8
LC-004-003-----0
  6
CONTINUOUS
  5
FF
 10
303.344689
 20
402.349471
 30
0.0
 11
303.344689
 21
397.650529
 31
0.0
  0
LINE
  8
LC-004-003-----0
  6
CONTINUOUS
  5
100
 10
303.304651
 20
398.261391
 30
0.0
 11
316.510696
 21
400.0
 31
0.0
  0
LINE
  8
LC-004-003-----0
  6
CONTINUOUS
  5
101
 10
316.510696
 20
400.0
 30
0.0
 11
303.304651
 21
401.738609
 31
0.0
  0
LINE
  8
LC-004-003-----0
  6
CONTINUOUS
  5
102
 10
303.264613
 20
398.872254
 30
0.0
 11
311.830696
 21
400.0
 31
0.0
  0
LINE
  8
LC-004-003-----0
  6
CONTINUOUS
  5
103
 10
311.830696
 20
400.0
 30
0.0
 11
303.264613
 21
401.127746
 31
0.0
  0
LINE
  8
LC-004-003-----0
  6
CONTINUOUS
  5
104
 10
303.224575
 20
399.483116
 30
0.0
 11
307.150696
 21
400.0
 31
0.0
  0
LINE
  8
LC-004-003-----0
  6
CONTINUOUS
  5
105
 10
307.150696
 20
400.0
 30
0.0
 11
303.224575
 21
400.516884
 31
0.0
  0
LINE
  8
LC-004-003-----0
  6
CONTINUOUS
  5
106
 10
380.536704
 20
402.349471
 30
0.0
 11
362.690696
 21
400.0
 31
0.0
  0
LINE
  8
LC-004-003-----0
  6
CONTINUOUS
  5
107
 10
362.690696
 20
400.0
 30
0.0
 11
380.536704
 21
397.650529
 31
0.0
  0
LINE
  8
LC-004-003-----0
  6
CONTINUOUS
  5
108
 10
380.536704
 20
397.650529
 30
0.0
 11
380.536704
 21
402.349471
 31
0.0
  0
LINE
  8
LC-004-003-----0
  6
CONTINUOUS
  5
109
 10
380.576742
 20
401.738609
 30
0.0
 11
367.370696
 21
400.0
 31
0.0
  0
LINE
  8
LC-004-003-----0
  6
CONTINUOUS
  5
10A
 10
367.370696
 20
400.0
 30
0.0
 11
380.576742
 21
398.261391
 31
0.0
  0
LINE
  8
LC-004-003-----0
  6
CONTINUOUS
  5
10B
 10
380.61678
 20
401.127746
 30
0.0
 11
372.050696
 21
400.0
 31
0.0
  0
LINE
  8
LC-004-003-----0
  6
CONTINUOUS
  5
10C
 10
372.050696
 20
400.0
 30
0.0
 11
380.61678
 21
398.872254
 31
0.0
  0
LINE
  8
LC-004-003-----0
  6
CONTINUOUS
  5
10D
 10
380.656818
 20
400.516884
 30
0.0
 11
376.730696
 21
400.0
 31
0.0
  0
LINE
  8
LC-004-003-----0
  6
CONTINUOUS
  5
10E
 10
376.730696
 20
400.0
 30
0.0
 11
380.656818
 21
399.483116
 31
0.0
  0
LINE
  8
LC-006-003-MTG-0
  6
CONTINUOUS
  5
10F
 10
295.990696
 20
400.0
 30
0.0
 11
453.093216
 21
400.0
 31
0.0
  0
TEXT
  8
LC-004-003-----0
  6
CONTINUOUS
 62
     6
  5
110
 10
389.965942
 20
410.431999
 30
0.0
 40
18.0
  1
DN40
 51
15.0
  7
LC-TXTSTYLE-150-400-0-0-D0
  0
ENDBLK
  8
0
  5
111
  0
BLOCK
  8
0
  5
113
  2
*D14
 70
    65
 10
0.0
 20
0.0
 30
0.0
  3
*D14
  0
LINE
  8
LC-005-003-MTH-0
  6
CONTINUOUS
  5
114
 10
317.190696
 20
369.66
 30
0.0
 11
317.190696
 21
349.2
 31
0.0
  0
LINE
  8
LC-005-003-MTH-0
  6
CONTINUOUS
  5
115
 10
367.190696
 20
369.66
 30
0.0
 11
367.190696
 21
349.2
 31
0.0
  0
LINE
  8
LC-004-003-----0
  6
CONTINUOUS
  5
116
 10
299.344689
 20
357.650529
 30
0.0
 11
317.190696
 21
360.0
 31
0.0
  0
LINE
  8
LC-004-003-----0
  6
CONTINUOUS
  5
117
 10
317.190696
 20
360.0
 30
0.0
 11
299.344689
 21
362.349471
 31
0.0
  0
LINE
  8
LC-004-003-----0
  6
CONTINUOUS
  5
118
 10
299.344689
 20
362.349471
 30
0.0
 11
299.344689
 21
357.650529
 31
0.0
  0
LINE
  8
LC-004-003-----0
  6
CONTINUOUS
  5
119
 10
299.304651
 20
358.261391
 30
0.0
 11
312.510696
 21
360.0
 31
0.0
  0
LINE
  8
LC-004-003-----0
  6
CONTINUOUS
  5
11A
 10
312.510696
 20
360.0
 30
0.0
 11
299.304651
 21
361.738609
 31
0.0
  0
LINE
  8
LC-004-003-----0
  6
CONTINUOUS
  5
11B
 10
299.264613
 20
358.872254
 30
0.0
 11
307.830696
 21
360.0
 31
0.0
  0
LINE
  8
LC-004-003-----0
  6
CONTINUOUS
  5
11C
 10
307.830696
 20
360.0
 30
0.0
 11
299.264613
 21
361.127746
 31
0.0
  0
LINE
  8
LC-004-003-----0
  6
CONTINUOUS
  5
11D
 10
299.224575
 20
359.483116
 30
0.0
 11
303.150696
 21
360.0
 31
0.0
  0
LINE
  8
LC-004-003-----0
  6
CONTINUOUS
  5
11E
 10
303.150696
 20
360.0
 30
0.0
 11
299.224575
 21
360.516884
 31
0.0
  0
LINE
  8
LC-004-003-----0
  6
CONTINUOUS
  5
11F
 10
385.036704
 20
362.349471
 30
0.0
 11
367.190696
 21
360.0
 31
0.0
  0
LINE
  8
LC-004-003-----0
  6
CONTINUOUS
  5
120
 10
367.190696
 20
360.0
 30
0.0
 11
385.036704
 21
357.650529
 31
0.0
  0
LINE
  8
LC-004-003-----0
  6
CONTINUOUS
  5
121
 10
385.036704
 20
357.650529
 30
0.0
 11
385.036704
 21
362.349471
 31
0.0
  0
LINE
  8
LC-004-003-----0
  6
CONTINUOUS
  5
122
 10
385.076742
 20
361.738609
 30
0.0
 11
371.870696
 21
360.0
 31
0.0
  0
LINE
  8
LC-004-003-----0
  6
CONTINUOUS
  5
123
 10
371.870696
 20
360.0
 30
0.0
 11
385.076742
 21
358.261391
 31
0.0
  0
LINE
  8
LC-004-003-----0
  6
CONTINUOUS
  5
124
 10
385.11678
 20
361.127746
 30
0.0
 11
376.550696
 21
360.0
 31
0.0
  0
LINE
  8
LC-004-003-----0
  6
CONTINUOUS
  5
125
 10
376.550696
 20
360.0
 30
0.0
 11
385.11678
 21
358.872254
 31
0.0
  0
LINE
  8
LC-004-003-----0
  6
CONTINUOUS
  5
126
 10
385.156818
 20
360.516884
 30
0.0
 11
381.230696
 21
360.0
 31
0.0
  0
LINE
  8
LC-004-003-----0
  6
CONTINUOUS
  5
127
 10
381.230696
 20
360.0
 30
0.0
 11
385.156818
 21
359.483116
 31
0.0
  0
LINE
  8
LC-006-003-MTG-0
  6
CONTINUOUS
  5
128
 10
291.990696
 20
360.0
 30
0.0
 11
457.593216
 21
360.0
 31
0.0
  0
TEXT
  8
LC-004-003-----0
  6
CONTINUOUS
 62
     6
  5
129
 10
394.465942
 20
370.431999
 30
0.0
 40
18.0
  1
DN50
 51
15.0
  7
LC-TXTSTYLE-150-400-0-0-D0
  0
ENDBLK
  8
0
  5
12A
  0
BLOCK
  8
0
  5
12C
  2
*D15
 70
    65
 10
0.0
 20
0.0
 30
0.0
  3
*D15
  0
LINE
  8
LC-005-003-MTH-0
  6
CONTINUOUS
  5
12D
 10
326.190696
 20
246.118048
 30
0.0
 11
326.190696
 21
205.2
 31
0.0
  0
LINE
  8
LC-005-003-MTH-0
  6
CONTINUOUS
  5
12E
 10
358.190696
 20
246.118048
 30
0.0
 11
358.190696
 21
205.2
 31
0.0
  0
LINE
  8
LC-004-003-----0
  6
CONTINUOUS
  5
12F
 10
308.344689
 20
213.650529
 30
0.0
 11
326.190696
 21
216.0
 31
0.0
  0
LINE
  8
LC-004-003-----0
  6
CONTINUOUS
  5
130
 10
326.190696
 20
216.0
 30
0.0
 11
308.344689
 21
218.349471
 31
0.0
  0
LINE
  8
LC-004-003-----0
  6
CONTINUOUS
  5
131
 10
308.344689
 20
218.349471
 30
0.0
 11
308.344689
 21
213.650529
 31
0.0
  0
LINE
  8
LC-004-003-----0
  6
CONTINUOUS
  5
132
 10
308.304651
 20
214.261391
 30
0.0
 11
321.510696
 21
216.0
 31
0.0
  0
LINE
  8
LC-004-003-----0
  6
CONTINUOUS
  5
133
 10
321.510696
 20
216.0
 30
0.0
 11
308.304651
 21
217.738609
 31
0.0
  0
LINE
  8
LC-004-003-----0
  6
CONTINUOUS
  5
134
 10
308.264613
 20
214.872254
 30
0.0
 11
316.830696
 21
216.0
 31
0.0
  0
LINE
  8
LC-004-003-----0
  6
CONTINUOUS
  5
135
 10
316.830696
 20
216.0
 30
0.0
 11
308.264613
 21
217.127746
 31
0.0
  0
LINE
  8
LC-004-003-----0
  6
CONTINUOUS
  5
136
 10
308.224575
 20
215.483116
 30
0.0
 11
312.150696
 21
216.0
 31
0.0
  0
LINE
  8
LC-004-003-----0
  6
CONTINUOUS
  5
137
 10
312.150696
 20
216.0
 30
0.0
 11
308.224575
 21
216.516884
 31
0.0
  0
LINE
  8
LC-004-003-----0
  6
CONTINUOUS
  5
138
 10
376.036704
 20
218.349471
 30
0.0
 11
358.190696
 21
216.0
 31
0.0
  0
LINE
  8
LC-004-003-----0
  6
CONTINUOUS
  5
139
 10
358.190696
 20
216.0
 30
0.0
 11
376.036704
 21
213.650529
 31
0.0
  0
LINE
  8
LC-004-003-----0
  6
CONTINUOUS
  5
13A
 10
376.036704
 20
213.650529
 30
0.0
 11
376.036704
 21
218.349471
 31
0.0
  0
LINE
  8
LC-004-003-----0
  6
CONTINUOUS
  5
13B
 10
376.076742
 20
217.738609
 30
0.0
 11
362.870696
 21
216.0
 31
0.0
  0
LINE
  8
LC-004-003-----0
  6
CONTINUOUS
  5
13C
 10
362.870696
 20
216.0
 30
0.0
 11
376.076742
 21
214.261391
 31
0.0
  0
LINE
  8
LC-004-003-----0
  6
CONTINUOUS
  5
13D
 10
376.11678
 20
217.127746
 30
0.0
 11
367.550696
 21
216.0
 31
0.0
  0
LINE
  8
LC-004-003-----0
  6
CONTINUOUS
  5
13E
 10
367.550696
 20
216.0
 30
0.0
 11
376.11678
 21
214.872254
 31
0.0
  0
LINE
  8
LC-004-003-----0
  6
CONTINUOUS
  5
13F
 10
376.156818
 20
216.516884
 30
0.0
 11
372.230696
 21
216.0
 31
0.0
  0
LINE
  8
LC-004-003-----0
  6
CONTINUOUS
  5
140
 10
372.230696
 20
216.0
 30
0.0
 11
376.156818
 21
215.483116
 31
0.0
  0
LINE
  8
LC-006-003-MTG-0
  6
CONTINUOUS
  5
141
 10
300.990696
 20
216.0
 30
0.0
 11
448.593216
 21
216.0
 31
0.0
  0
TEXT
  8
LC-004-003-----0
  6
CONTINUOUS
 62
     6
  5
142
 10
385.465942
 20
226.431999
 30
0.0
 40
18.0
  1
DN32
 51
15.0
  7
LC-TXTSTYLE-150-400-0-0-D0
  0
ENDBLK
  8
0
  5
143
  0
BLOCK
  8
0
  5
145
  2
*D16
 70
    65
 10
0.0
 20
0.0
 30
0.0
  3
*D16
  0
LINE
  8
LC-005-003-MTH-0
  6
CONTINUOUS
  5
146
 10
322.190696
 20
294.118048
 30
0.0
 11
322.190696
 21
255.2
 31
0.0
  0
LINE
  8
LC-005-003-MTH-0
  6
CONTINUOUS
  5
147
 10
362.190696
 20
294.118048
 30
0.0
 11
362.190696
 21
255.2
 31
0.0
  0
LINE
  8
LC-004-003-----0
  6
CONTINUOUS
  5
148
 10
304.344689
 20
263.650529
 30
0.0
 11
322.190696
 21
266.0
 31
0.0
  0
LINE
  8
LC-004-003-----0
  6
CONTINUOUS
  5
149
 10
322.190696
 20
266.0
 30
0.0
 11
304.344689
 21
268.349471
 31
0.0
  0
LINE
  8
LC-004-003-----0
  6
CONTINUOUS
  5
14A
 10
304.344689
 20
268.349471
 30
0.0
 11
304.344689
 21
263.650529
 31
0.0
  0
LINE
  8
LC-004-003-----0
  6
CONTINUOUS
  5
14B
 10
304.304651
 20
264.261391
 30
0.0
 11
317.510696
 21
266.0
 31
0.0
  0
LINE
  8
LC-004-003-----0
  6
CONTINUOUS
  5
14C
 10
317.510696
 20
266.0
 30
0.0
 11
304.304651
 21
267.738609
 31
0.0
  0
LINE
  8
LC-004-003-----0
  6
CONTINUOUS
  5
14D
 10
304.264613
 20
264.872254
 30
0.0
 11
312.830696
 21
266.0
 31
0.0
  0
LINE
  8
LC-004-003-----0
  6
CONTINUOUS
  5
14E
 10
312.830696
 20
266.0
 30
0.0
 11
304.264613
 21
267.127746
 31
0.0
  0
LINE
  8
LC-004-003-----0
  6
CONTINUOUS
  5
14F
 10
304.224575
 20
265.483116
 30
0.0
 11
308.150696
 21
266.0
 31
0.0
  0
LINE
  8
LC-004-003-----0
  6
CONTINUOUS
  5
150
 10
308.150696
 20
266.0
 30
0.0
 11
304.224575
 21
266.516884
 31
0.0
  0
LINE
  8
LC-004-003-----0
  6
CONTINUOUS
  5
151
 10
380.036704
 20
268.349471
 30
0.0
 11
362.190696
 21
266.0
 31
0.0
  0
LINE
  8
LC-004-003-----0
  6
CONTINUOUS
  5
152
 10
362.190696
 20
266.0
 30
0.0
 11
380.036704
 21
263.650529
 31
0.0
  0
LINE
  8
LC-004-003-----0
  6
CONTINUOUS
  5
153
 10
380.036704
 20
263.650529
 30
0.0
 11
380.036704
 21
268.349471
 31
0.0
  0
LINE
  8
LC-004-003-----0
  6
CONTINUOUS
  5
154
 10
380.076742
 20
267.738609
 30
0.0
 11
366.870696
 21
266.0
 31
0.0
  0
LINE
  8
LC-004-003-----0
  6
CONTINUOUS
  5
155
 10
366.870696
 20
266.0
 30
0.0
 11
380.076742
 21
264.261391
 31
0.0
  0
LINE
  8
LC-004-003-----0
  6
CONTINUOUS
  5
156
 10
380.11678
 20
267.127746
 30
0.0
 11
371.550696
 21
266.0
 31
0.0
  0
LINE
  8
LC-004-003-----0
  6
CONTINUOUS
  5
157
 10
371.550696
 20
266.0
 30
0.0
 11
380.11678
 21
264.872254
 31
0.0
  0
LINE
  8
LC-004-003-----0
  6
CONTINUOUS
  5
158
 10
380.156818
 20
266.516884
 30
0.0
 11
376.230696
 21
266.0
 31
0.0
  0
LINE
  8
LC-004-003-----0
  6
CONTINUOUS
  5
159
 10
376.230696
 20
266.0
 30
0.0
 11
380.156818
 21
265.483116
 31
0.0
  0
LINE
  8
LC-006-003-MTG-0
  6
CONTINUOUS
  5
15A
 10
296.990696
 20
266.0
 30
0.0
 11
452.593216
 21
266.0
 31
0.0
  0
TEXT
  8
LC-004-003-----0
  6
CONTINUOUS
 62
     6
  5
15B
 10
389.465942
 20
276.431999
 30
0.0
 40
18.0
  1
DN40
 51
15.0
  7
LC-TXTSTYLE-150-400-0-0-D0
  0
ENDBLK
  8
0
  5
15C
  0
ENDSEC
  0
SECTION
  2
ENTITIES
  0
VIEWPORT
  8
LC-000
  5
213
 67
     1
 68
     1
 10
420.0
 20
297.0
 30
0.0
 40
840.0
 41
594.0
 69
     1
1001
ACAD
1000
MVIEW
1002
{
1070
    16
1010
0.0
1020
0.0
1030
0.0
1010
0.0
1020
0.0
1030
1.0
1040
0.0
1040
594.0
1040
420.0
1040
297.0
1040
50.0
1040
0.0
1040
0.0
1070
     0
1070
   100
1070
     1
1070
     1
1070
     0
1070
     0
1070
     0
1070
     0
1040
0.0
1040
0.0
1040
0.0
1040
1.0
1040
1.0
1040
0.0
1040
0.0
1070
     0
1002
{
1002
}
1002
}
  0
VIEWPORT
  8
0
  5
214
 67
     1
 68
     1
 10
0.0
 20
0.0
 30
0.0
 40
0.0
 41
0.0
 69
     1
1001
ACAD
1000
MVIEW
1002
{
1070
    16
1010
0.0
1020
0.0
1030
0.0
1010
0.0
1020
0.0
1030
1.0
1040
0.0
1040
594.0
1040
0.0
1040
0.0
1040
50.0
1040
0.0
1040
0.0
1070
     0
1070
   100
1070
     0
1070
     1
1070
     0
1070
     0
1070
     0
1070
     0
1040
0.0
1040
0.0
1040
0.0
1040
0.5
1040
0.5
1040
0.5
1040
0.5
1070
     0
1002
{
1002
}
1002
}
  0
INSERT
  8
0
  5
15D
  2
*X0
 10
313.690696
 20
438.778
 30
0.0
  0
INSERT
  8
0
  5
15E
  2
*X1
 10
363.190696
 20
438.778
 30
0.0
  0
INSERT
  8
0
  5
15F
  2
*X2
 10
362.690696
 20
441.540298
 30
0.0
  0
INSERT
  8
0
  5
160
  2
*X3
 10
320.326331
 20
441.540298
 30
0.0
  0
INSERT
  8
0
  5
161
  2
*X4
 10
312.690696
 20
500.798667
 30
0.0
  0
INSERT
  8
0
  5
162
  2
*X5
 10
346.890696
 20
517.885137
 30
0.0
  0
INSERT
  8
0
  5
163
  2
*X6
 10
313.190696
 20
442.778
 30
0.0
  0
INSERT
  8
0
  5
164
  2
*X7
 10
355.207357
 20
499.778
 30
0.0
  0
INSERT
  8
0
  5
165
  2
*X8
 10
342.190696
 20
442.778
 30
0.0
  0
INSERT
  8
0
  5
166
  2
*X9
 10
327.674036
 20
474.396802
 30
0.0
  0
INSERT
  8
0
  5
167
  2
*X10
 10
318.690696
 20
442.778
 30
0.0
  0
INSERT
  8
0
  5
168
  2
*X11
 10
364.190696
 20
442.778
 30
0.0
  0
DIMENSION
  8
0
  5
169
  2
*D12
 10
440.0
 20
486.278
 30
0.0
 11
440.0
 21
486.278
 31
0.0
  1
97
 13
356.940696
 23
533.778
 33
0.0
 14
366.440696
 24
438.778
 34
0.0
 50
90.0
  3
LC-DIM-L-0090-02-02
  0
DIMENSION
  8
0
  5
16A
  2
*D13
 10
371.904355
 20
400.0
 30
0.0
 11
371.904355
 21
400.0
 31
0.0
  1
DN40
 13
321.190696
 23
441.278
 33
0.0
 14
362.690696
 24
441.278
 34
0.0
  3
LC-DIM-L-0090-02-02
  0
DIMENSION
  8
0
  5
16B
  2
*D14
 10
342.190696
 20
360.0
 30
0.0
 11
342.190696
 21
360.0
 31
0.0
  1
DN50
 13
317.190696
 23
369.66
 33
0.0
 14
367.190696
 24
369.66
 34
0.0
  3
LC-DIM-L-0090-02-02
  0
DIMENSION
  8
0
  5
16C
  2
*D15
 10
342.190696
 20
216.0
 30
0.0
 11
342.190696
 21
216.0
 31
0.0
  1
DN32
 13
326.190696
 23
246.118048
 33
0.0
 14
358.190696
 24
246.118048
 34
0.0
  3
LC-DIM-L-0090-02-02
  0
DIMENSION
  8
0
  5
16D
  2
*D16
 10
342.190696
 20
266.0
 30
0.0
 11
342.190696
 21
266.0
 31
0.0
  1
DN40
 13
322.190696
 23
294.118048
 33
0.0
 14
362.190696
 24
294.118048
 34
0.0
  3
LC-DIM-L-0090-02-02
  0
LINE
  8
LC-001-002-----0
  6
CONTINUOUS
  5
16F
 10
327.674036
 20
507.985137
 30
0.0
 11
355.207357
 21
507.985137
 31
0.0
  0
LINE
  8
LC-001-002-----0
  6
DASHDOT
 62
     2
  5
171
 10
342.190696
 20
533.778
 30
0.0
 11
342.190696
 21
438.778
 31
0.0
  0
LINE
  8
LC-001-002-----0
  6
CONTINUOUS
  5
172
 10
370.440696
 20
520.278
 30
0.0
 11
370.440696
 21
511.528
 31
0.0
  0
LINE
  8
LC-001-002-----0
  6
CONTINUOUS
  5
173
 10
313.940696
 20
520.278
 30
0.0
 11
313.940696
 21
511.528
 31
0.0
  0
LINE
  8
LC-001-002-----0
  6
CONTINUOUS
  5
174
 10
327.440696
 20
533.778
 30
0.0
 11
356.940696
 21
533.778
 31
0.0
  0
LINE
  8
LC-001-002-----0
  6
CONTINUOUS
  5
175
 10
317.940696
 20
438.778
 30
0.0
 11
366.440696
 21
438.778
 31
0.0
  0
LINE
  8
LC-001-002-----0
  6
CONTINUOUS
  5
176
 10
313.690696
 20
455.778
 30
0.0
 11
318.190696
 21
455.778
 31
0.0
  0
LINE
  8
LC-001-002-----0
  6
CONTINUOUS
  5
177
 10
370.690696
 20
455.778
 30
0.0
 11
370.690696
 21
443.028
 31
0.0
  0
LINE
  8
LC-001-002-----0
  6
CONTINUOUS
  5
178
 10
313.690696
 20
455.778
 30
0.0
 11
313.690696
 21
443.028
 31
0.0
  0
LINE
  8
LC-001-002-----0
  6
CONTINUOUS
  5
179
 10
313.690696
 20
453.278
 30
0.0
 11
315.940696
 21
453.278
 31
0.0
  0
LINE
  8
LC-001-002-----0
  6
CONTINUOUS
  5
17A
 10
368.440696
 20
453.278
 30
0.0
 11
368.440696
 21
440.778
 31
0.0
  0
LINE
  8
LC-001-002-----0
  6
CONTINUOUS
  5
17B
 10
315.940696
 20
453.278
 30
0.0
 11
315.940696
 21
440.778
 31
0.0
  0
ARC
  8
LC-002-002-RND-0
  6
CONTINUOUS
  5
17D
 10
317.940696
 20
440.778
 30
0.0
 40
2.0
 50
180.0
 51
270.0
  0
ARC
  8
LC-002-002-RND-0
  6
CONTINUOUS
  5
17E
 10
366.440696
 20
440.778
 30
0.0
 40
2.0
 50
270.0
 51
0.0
  0
LINE
  8
LC-001-002-----0
  6
CONTINUOUS
  5
17F
 10
315.940696
 20
440.778
 30
0.0
 11
313.690696
 21
443.028
 31
0.0
  0
LINE
  8
LC-001-002-----0
  6
CONTINUOUS
  5
180
 10
368.440696
 20
440.778
 30
0.0
 11
370.690696
 21
443.028
 31
0.0
  0
LINE
  8
LC-001-002-----0
  6
CONTINUOUS
  5
181
 10
314.690696
 20
453.278
 30
0.0
 11
314.690696
 21
442.028
 31
0.0
  0
LINE
  8
LC-001-002-----0
  6
CONTINUOUS
  5
182
 10
369.690696
 20
453.278
 30
0.0
 11
369.690696
 21
442.028
 31
0.0
  0
LINE
  8
LC-001-002-----0
  6
CONTINUOUS
  5
183
 10
368.440696
 20
453.278
 30
0.0
 11
370.690696
 21
453.278
 31
0.0
  0
LINE
  8
LC-001-002-----0
  6
CONTINUOUS
  5
184
 10
318.190696
 20
441.278
 30
0.0
 11
366.190696
 21
441.278
 31
0.0
  0
LINE
  8
LC-001-002-----0
  6
CONTINUOUS
  5
185
 10
318.690696
 20
455.278
 30
0.0
 11
318.690696
 21
444.278
 31
0.0
  0
LINE
  8
LC-001-002-----0
  6
CONTINUOUS
  5
186
 10
319.690696
 20
443.278
 30
0.0
 11
319.690696
 21
442.778
 31
0.0
  0
LINE
  8
LC-001-002-----0
  6
CONTINUOUS
  5
187
 10
318.190696
 20
455.778
 30
0.0
 11
318.190696
 21
441.278
 31
0.0
  0
LINE
  8
LC-001-002-----0
  6
CONTINUOUS
  5
188
 10
364.190696
 20
468.278
 30
0.0
 11
364.190696
 21
442.778
 31
0.0
  0
LINE
  8
LC-001-002-----0
  6
CONTINUOUS
  5
189
 10
318.190696
 20
455.778
 30
0.0
 11
318.690696
 21
455.278
 31
0.0
  0
LINE
  8
LC-001-002-----0
  6
CONTINUOUS
  5
18A
 10
318.190696
 20
441.278
 30
0.0
 11
319.690696
 21
442.778
 31
0.0
  0
LINE
  8
LC-001-002-----0
  6
CONTINUOUS
  5
18B
 10
320.190696
 20
468.778
 30
0.0
 11
320.190696
 21
442.778
 31
0.0
  0
LINE
  8
LC-001-002-----0
  6
CONTINUOUS
  5
18C
 10
327.674036
 20
482.778
 30
0.0
 11
327.674036
 21
507.985137
 31
0.0
  0
LINE
  8
LC-001-002-----0
  6
CONTINUOUS
  5
18D
 10
321.690696
 20
470.278
 30
0.0
 11
349.324671
 21
470.278
 31
0.0
  0
LINE
  8
LC-001-002-----0
  6
CONTINUOUS
  5
18E
 10
315.690696
 20
499.778
 30
0.0
 11
315.690696
 21
474.778
 31
0.0
  0
LINE
  8
LC-001-002-----0
  6
CONTINUOUS
  5
18F
 10
313.190696
 20
499.778
 30
0.0
 11
315.690696
 21
499.778
 31
0.0
  0
LINE
  8
LC-001-002-----0
  6
CONTINUOUS
  5
190
 10
371.190696
 20
500.778
 30
0.0
 11
371.190696
 21
499.778
 31
0.0
  0
LINE
  8
LC-001-002-----0
  6
CONTINUOUS
  5
191
 10
313.190696
 20
500.778
 30
0.0
 11
313.190696
 21
499.778
 31
0.0
  0
LINE
  8
LC-001-002-----0
  6
CONTINUOUS
  5
192
 10
313.190696
 20
500.778
 30
0.0
 11
315.440696
 21
500.778
 31
0.0
  0
LINE
  8
LC-001-002-----0
  6
CONTINUOUS
  5
193
 10
327.190696
 20
511.528
 30
0.0
 11
315.440696
 21
511.528
 31
0.0
  0
ARC
  8
LC-001-002-----0
  6
CONTINUOUS
  5
194
 10
321.687695
 20
474.588249
 30
0.0
 40
6.0
 50
178.18771
 51
255.552085
  0
LINE
  8
LC-001-002-----0
  6
CONTINUOUS
  5
195
 10
321.190696
 20
441.278
 30
0.0
 11
321.190696
 21
441.278
 31
0.0
  0
ARC
  8
LC-002-002-RND-0
  6
CONTINUOUS
  5
196
 10
318.690696
 20
441.278
 30
0.0
 40
2.5
 50
270.0
 51
0.0
  0
LINE
  8
LC-001-002-----0
  6
CONTINUOUS
  5
197
 10
366.190696
 20
455.778
 30
0.0
 11
365.690696
 21
455.278
 31
0.0
  0
LINE
  8
LC-001-002-----0
  6
CONTINUOUS
  5
198
 10
364.690696
 20
443.278
 30
0.0
 11
364.690696
 21
442.778
 31
0.0
  0
LINE
  8
LC-001-002-----0
  6
CONTINUOUS
  5
199
 10
366.190696
 20
441.278
 30
0.0
 11
364.690696
 21
442.778
 31
0.0
  0
ARC
  8
LC-002-002-RND-0
  6
CONTINUOUS
  5
19A
 10
365.690696
 20
441.278
 30
0.0
 40
2.5
 50
180.0
 51
270.0
  0
LINE
  8
LC-001-002-----0
  6
CONTINUOUS
  5
19B
 10
366.190696
 20
455.778
 30
0.0
 11
366.190696
 21
441.278
 31
0.0
  0
LINE
  8
LC-001-002-----0
  6
CONTINUOUS
  5
19C
 10
363.836822
 20
442.778
 30
0.0
 11
364.190696
 21
442.778
 31
0.0
  0
LINE
  8
LC-001-002-----0
  6
CONTINUOUS
  5
19D
 10
364.190696
 20
456.778
 30
0.0
 11
365.690696
 21
455.278
 31
0.0
  0
LINE
  8
LC-001-002-----0
  6
CONTINUOUS
  5
19E
 10
365.190696
 20
455.778
 30
0.0
 11
370.690696
 21
455.778
 31
0.0
  0
LINE
  8
LC-001-002-----0
  6
CONTINUOUS
  5
19F
 10
320.190696
 20
456.778
 30
0.0
 11
318.690696
 21
455.278
 31
0.0
  0
LINE
  8
LC-001-002-----0
  6
CONTINUOUS
  5
1A0
 10
320.190696
 20
442.778
 30
0.0
 11
318.690696
 21
444.278
 31
0.0
  0
LINE
  8
LC-001-002-----0
  6
CONTINUOUS
  5
1A1
 10
365.690696
 20
455.278
 30
0.0
 11
365.690696
 21
444.278
 31
0.0
  0
LINE
  8
LC-001-002-----0
  6
CONTINUOUS
  5
1A2
 10
364.190696
 20
442.778
 30
0.0
 11
365.690696
 21
444.278
 31
0.0
  0
ARC
  8
LC-002-002-RND-0
  6
CONTINUOUS
  5
1A3
 10
362.690696
 20
468.278
 30
0.0
 40
1.5
 50
0.0
 51
90.0
  0
LINE
  8
LC-001-002-----0
  6
CONTINUOUS
  5
1A4
 10
353.190696
 20
469.778
 30
0.0
 11
362.690696
 21
469.778
 31
0.0
  0
LINE
  8
LC-001-002-----0
  6
CONTINUOUS
  5
1A5
 10
329.174036
 20
483.644025
 30
0.0
 11
329.174036
 21
507.985137
 31
0.0
  0
LINE
  8
LC-001-002-----0
  6
CONTINUOUS
  5
1A6
 10
352.788772
 20
468.278
 30
0.0
 11
362.690696
 21
468.278
 31
0.0
  0
LINE
  8
LC-001-002-----0
  6
CONTINUOUS
  5
1A7
 10
353.190696
 20
469.778
 30
0.0
 11
329.174036
 21
483.644025
 31
0.0
  0
LINE
  8
LC-001-002-----0
  6
CONTINUOUS
  5
1A8
 10
371.690696
 20
510.187643
 30
0.0
 11
371.690696
 21
500.798667
 31
0.0
  0
LINE
  8
LC-001-002-----0
  6
CONTINUOUS
  5
1A9
 10
352.788772
 20
468.278
 30
0.0
 11
327.674036
 21
482.778
 31
0.0
  0
LINE
  8
LC-001-002-----0
  6
CONTINUOUS
  5
1AA
 10
312.690696
 20
510.278
 30
0.0
 11
312.690696
 21
500.798667
 31
0.0
  0
LINE
  8
LC-001-002-----0
  6
CONTINUOUS
  5
1AB
 10
356.707357
 20
507.985137
 30
0.0
 11
355.207357
 21
507.985137
 31
0.0
  0
LINE
  8
LC-001-002-----0
  6
CONTINUOUS
  5
1AC
 10
312.690696
 20
510.278
 30
0.0
 11
313.940696
 21
511.528
 31
0.0
  0
LINE
  8
LC-001-002-----0
  6
CONTINUOUS
  5
1AD
 10
371.690696
 20
510.278
 30
0.0
 11
370.440696
 21
511.528
 31
0.0
  0
LINE
  8
LC-001-002-----0
  6
CONTINUOUS
  5
1AE
 10
355.207357
 20
499.778
 30
0.0
 11
355.207357
 21
507.985137
 31
0.0
  0
LINE
  8
LC-001-002-----0
  6
CONTINUOUS
  5
1AF
 10
315.440696
 20
520.278
 30
0.0
 11
335.990696
 21
520.278
 31
0.0
  0
LINE
  8
LC-001-002-----0
  6
CONTINUOUS
  5
1B0
 10
360.921595
 20
470.810841
 30
0.0
 11
360.921595
 21
499.778
 31
0.0
  0
ARC
  8
LC-002-002-RND-0
  6
CONTINUOUS
  5
1B1
 10
327.440696
 20
520.278
 30
0.0
 40
13.5
 50
90.0
 51
180.0
  0
ARC
  8
LC-002-002-RND-0
  6
CONTINUOUS
  5
1B2
 10
356.940696
 20
520.278
 30
0.0
 40
13.5
 50
0.0
 51
90.0
  0
LINE
  8
LC-001-002-----0
  6
CONTINUOUS
  5
1B3
 10
356.707357
 20
500.778
 30
0.0
 11
356.707357
 21
507.985137
 31
0.0
  0
LINE
  8
LC-001-002-----0
  6
CONTINUOUS
  5
1B4
 10
370.140696
 20
506.785137
 30
0.0
 11
368.940696
 21
507.985137
 31
0.0
  0
LINE
  8
LC-001-002-----0
  6
CONTINUOUS
  5
1B5
 10
357.190696
 20
511.528
 30
0.0
 11
368.940696
 21
511.528
 31
0.0
  0
LINE
  8
LC-001-002-----0
  6
CONTINUOUS
  5
1B6
 10
370.140696
 20
504.785137
 30
0.0
 11
370.140696
 21
506.785137
 31
0.0
  0
LINE
  8
LC-001-002-----0
  6
CONTINUOUS
  5
1B7
 10
315.440696
 20
503.585137
 30
0.0
 11
314.240696
 21
504.785137
 31
0.0
  0
LINE
  8
LC-001-002-----0
  6
CONTINUOUS
  5
1B8
 10
314.240696
 20
504.785137
 30
0.0
 11
314.240696
 21
506.785137
 31
0.0
  0
LINE
  8
LC-001-002-----0
  6
CONTINUOUS
  5
1B9
 10
368.940696
 20
503.585137
 30
0.0
 11
370.140696
 21
504.785137
 31
0.0
  0
LINE
  8
LC-001-002-----0
  6
CONTINUOUS
  5
1BA
 10
367.190696
 20
511.528
 30
0.0
 11
367.190696
 21
500.778
 31
0.0
  0
LINE
  8
LC-001-002-----0
  6
CONTINUOUS
  5
1BB
 10
368.940696
 20
500.798667
 30
0.0
 11
368.940696
 21
503.585137
 31
0.0
  0
LINE
  8
LC-001-002-----0
  6
CONTINUOUS
  5
1BC
 10
314.240696
 20
506.785137
 30
0.0
 11
315.440696
 21
507.985137
 31
0.0
  0
LINE
  8
LC-001-002-----0
  6
CONTINUOUS
  5
1BD
 10
371.690696
 20
500.798667
 30
0.0
 11
368.940696
 21
500.798667
 31
0.0
  0
LINE
  8
LC-001-002-----0
  6
CONTINUOUS
  5
1BE
 10
353.190696
 20
469.778
 30
0.0
 11
353.190696
 21
499.778
 31
0.0
  0
LINE
  8
LC-001-002-----0
  6
CONTINUOUS
  5
1BF
 10
363.921595
 20
475.844128
 30
0.0
 11
363.921595
 21
499.778
 31
0.0
  0
LINE
  8
LC-001-002-----0
  6
CONTINUOUS
  5
1C0
 10
363.330477
 20
474.056032
 30
0.0
 11
360.154925
 21
469.778
 31
0.0
  0
ARC
  8
LC-002-002-RND-0
  6
CONTINUOUS
  5
1C1
 10
360.921595
 20
475.844128
 30
0.0
 40
3.0
 50
323.413763
 51
0.0
  0
LINE
  8
LC-001-002-----0
  6
CONTINUOUS
  5
1C2
 10
362.690696
 20
468.278
 30
0.0
 11
362.690696
 21
449.278
 31
0.0
  0
LINE
  8
LC-001-002-----0
  6
CONTINUOUS
  5
1C3
 10
321.690696
 20
470.278
 30
0.0
 11
321.690696
 21
449.278
 31
0.0
  0
LINE
  8
LC-001-002-----0
  6
CONTINUOUS
  5
1C4
 10
321.690696
 20
449.278
 30
0.0
 11
362.690696
 21
449.278
 31
0.0
  0
LINE
  8
LC-001-002-----0
  6
CONTINUOUS
  5
1C5
 10
362.690696
 20
449.278
 30
0.0
 11
363.836822
 21
442.778
 31
0.0
  0
LINE
  8
LC-001-002-----0
  6
CONTINUOUS
  5
1C6
 10
321.690696
 20
449.278
 30
0.0
 11
320.544571
 21
442.778
 31
0.0
  0
LINE
  8
LC-001-002-----0
  6
CONTINUOUS
  5
1C7
 10
362.690696
 20
449.278
 30
0.0
 11
364.055062
 21
441.540298
 31
0.0
  0
LINE
  8
LC-001-002-----0
  6
CONTINUOUS
  5
1C8
 10
364.055062
 20
441.540298
 30
0.0
 11
362.690696
 21
441.540298
 31
0.0
  0
LINE
  8
LC-001-002-----0
  6
CONTINUOUS
  5
1C9
 10
362.690696
 20
449.278
 30
0.0
 11
362.690696
 21
441.540298
 31
0.0
  0
LINE
  8
LC-001-002-----0
  6
CONTINUOUS
  5
1CA
 10
320.190696
 20
442.778
 30
0.0
 11
320.544571
 21
442.778
 31
0.0
  0
LINE
  8
LC-001-002-----0
  6
CONTINUOUS
  5
1CB
 10
321.690696
 20
449.278
 30
0.0
 11
321.690696
 21
441.540298
 31
0.0
  0
LINE
  8
LC-001-002-----0
  6
CONTINUOUS
  5
1CC
 10
321.690696
 20
449.278
 30
0.0
 11
320.326331
 21
441.540298
 31
0.0
  0
LINE
  8
LC-001-002-----0
  6
CONTINUOUS
  5
1CD
 10
320.326331
 20
441.540298
 30
0.0
 11
321.690696
 21
441.540298
 31
0.0
  0
LINE
  8
LC-001-002-----0
  6
CONTINUOUS
  5
1CE
 10
317.190696
 20
511.528
 30
0.0
 11
317.190696
 21
474.778
 31
0.0
  0
LINE
  8
LC-001-002-----0
  6
CONTINUOUS
  5
1CF
 10
337.690696
 20
523.542137
 30
0.0
 11
341.190696
 21
523.542137
 31
0.0
  0
ARC
  8
LC-002-002-RND-0
  6
CONTINUOUS
  5
1D0
 10
321.690696
 20
474.778
 30
0.0
 40
4.5
 50
180.0
 51
270.0
  0
LINE
  8
LC-001-002-----0
  6
CONTINUOUS
  5
1D1
 10
343.190696
 20
532.278
 30
0.0
 11
343.190696
 21
514.185137
 31
0.0
  0
LINE
  8
LC-001-002-----0
  6
CONTINUOUS
  5
1D2
 10
341.190696
 20
532.278
 30
0.0
 11
341.190696
 21
514.185137
 31
0.0
  0
LINE
  8
LC-001-002-----0
  6
CONTINUOUS
  5
1D3
 10
343.190696
 20
523.542137
 30
0.0
 11
346.690696
 21
523.542137
 31
0.0
  0
LINE
  8
LC-001-002-----0
  6
CONTINUOUS
  5
1D4
 10
348.390696
 20
520.278
 30
0.0
 11
368.940696
 21
520.278
 31
0.0
  0
LINE
  8
LC-001-002-----0
  6
CONTINUOUS
  5
1D5
 10
327.190696
 20
508.185137
 30
0.0
 11
357.190696
 21
508.185137
 31
0.0
  0
LINE
  8
LC-001-002-----0
  6
CONTINUOUS
  5
1D6
 10
356.707357
 20
500.778
 30
0.0
 11
367.190696
 21
500.778
 31
0.0
  0
LINE
  8
LC-001-002-----0
  6
CONTINUOUS
  5
1D7
 10
342.190696
 20
499.778
 30
0.0
 11
371.190696
 21
499.778
 31
0.0
  0
LINE
  8
LC-001-002-----0
  6
CONTINUOUS
  5
1D8
 10
327.440696
 20
532.278
 30
0.0
 11
335.990696
 21
532.278
 31
0.0
  0
LINE
  8
LC-001-002-----0
  6
CONTINUOUS
  5
1D9
 10
315.440696
 20
520.278
 30
0.0
 11
315.440696
 21
507.985137
 31
0.0
  0
LINE
  8
LC-001-002-----0
  6
CONTINUOUS
  5
1DA
 10
368.940696
 20
520.278
 30
0.0
 11
368.940696
 21
507.985137
 31
0.0
  0
ARC
  8
LC-002-002-RND-0
  6
CONTINUOUS
  5
1DB
 10
356.940696
 20
520.278
 30
0.0
 40
12.0
 50
0.0
 51
90.0
  0
ARC
  8
LC-002-002-RND-0
  6
CONTINUOUS
  5
1DC
 10
327.440696
 20
520.278
 30
0.0
 40
12.0
 50
90.0
 51
180.0
  0
LINE
  8
LC-001-002-----0
  6
CONTINUOUS
  5
1DD
 10
315.440696
 20
500.778
 30
0.0
 11
315.440696
 21
503.585137
 31
0.0
  0
LINE
  8
LC-001-002-----0
  6
CONTINUOUS
  5
1DE
 10
357.190696
 20
509.185137
 30
0.0
 11
357.190696
 21
508.185137
 31
0.0
  0
LINE
  8
LC-001-002-----0
  6
CONTINUOUS
  5
1DF
 10
327.190696
 20
509.185137
 30
0.0
 11
327.190696
 21
508.185137
 31
0.0
  0
LINE
  8
LC-001-002-----0
  6
CONTINUOUS
  5
1E0
 10
312.690696
 20
500.798667
 30
0.0
 11
315.440696
 21
500.798667
 31
0.0
  0
LINE
  8
LC-001-002-----0
  6
CONTINUOUS
  5
1E1
 10
327.190696
 20
509.185137
 30
0.0
 11
357.190696
 21
509.185137
 31
0.0
  0
LINE
  8
LC-001-002-----0
  6
CONTINUOUS
  5
1E2
 10
357.190696
 20
510.185137
 30
0.0
 11
327.190696
 21
510.185137
 31
0.0
  0
ARC
  8
LC-001-002-----0
  6
CONTINUOUS
  5
1E3
 10
342.190696
 20
397.185137
 30
0.0
 40
113.0
 50
82.37185
 51
97.62815
  0
LINE
  8
LC-001-002-----0
  6
CONTINUOUS
  5
1E4
 10
357.190696
 20
513.185137
 30
0.0
 11
327.190696
 21
513.185137
 31
0.0
  0
LINE
  8
LC-001-002-----0
  6
CONTINUOUS
  5
1E5
 10
327.190696
 20
510.185137
 30
0.0
 11
327.190696
 21
513.185137
 31
0.0
  0
LINE
  8
LC-001-002-----0
  6
CONTINUOUS
  5
1E6
 10
357.190696
 20
510.185137
 30
0.0
 11
357.190696
 21
513.185137
 31
0.0
  0
LINE
  8
LC-001-002-----0
  6
CONTINUOUS
  5
1E7
 10
356.190696
 20
514.185137
 30
0.0
 11
328.190696
 21
514.185137
 31
0.0
  0
LINE
  8
LC-001-002-----0
  6
CONTINUOUS
  5
1E8
 10
327.190696
 20
513.185137
 30
0.0
 11
328.190696
 21
514.185137
 31
0.0
  0
LINE
  8
LC-001-002-----0
  6
CONTINUOUS
  5
1E9
 10
357.190696
 20
513.185137
 30
0.0
 11
356.190696
 21
514.185137
 31
0.0
  0
LINE
  8
LC-001-002-----0
  6
CONTINUOUS
  5
1EA
 10
337.490696
 20
532.278
 30
0.0
 11
337.490696
 21
517.885137
 31
0.0
  0
LINE
  8
LC-001-002-----0
  6
CONTINUOUS
  5
1EB
 10
346.690696
 20
519.685137
 30
0.0
 11
346.690696
 21
517.885137
 31
0.0
  0
LINE
  8
LC-001-002-----0
  6
CONTINUOUS
  5
1EC
 10
337.690696
 20
523.542137
 30
0.0
 11
337.690696
 21
517.885137
 31
0.0
  0
LINE
  8
LC-001-002-----0
  6
CONTINUOUS
  5
1ED
 10
335.990696
 20
532.278
 30
0.0
 11
335.990696
 21
517.885137
 31
0.0
  0
LINE
  8
LC-001-002-----0
  6
CONTINUOUS
  5
1EE
 10
337.690696
 20
517.885137
 30
0.0
 11
337.690696
 21
514.185137
 31
0.0
  0
LINE
  8
LC-001-002-----0
  6
CONTINUOUS
  5
1EF
 10
335.990696
 20
517.885137
 30
0.0
 11
337.490696
 21
517.885137
 31
0.0
  0
LINE
  8
LC-001-002-----0
  6
CONTINUOUS
  5
1F0
 10
346.690696
 20
523.542137
 30
0.0
 11
346.690696
 21
514.185137
 31
0.0
  0
LINE
  8
LC-001-002-----0
  6
CONTINUOUS
  5
1F1
 10
337.490696
 20
532.278
 30
0.0
 11
346.890696
 21
532.278
 31
0.0
  0
LINE
  8
LC-001-002-----0
  6
CONTINUOUS
  5
1F2
 10
346.890696
 20
532.278
 30
0.0
 11
346.890696
 21
517.885137
 31
0.0
  0
LINE
  8
LC-001-002-----0
  6
CONTINUOUS
  5
1F3
 10
348.390696
 20
532.278
 30
0.0
 11
348.390696
 21
517.885137
 31
0.0
  0
LINE
  8
LC-001-002-----0
  6
CONTINUOUS
  5
1F4
 10
348.390696
 20
517.885137
 30
0.0
 11
346.890696
 21
517.885137
 31
0.0
  0
LINE
  8
LC-001-002-----0
  6
CONTINUOUS
  5
1F5
 10
348.390696
 20
532.278
 30
0.0
 11
356.940696
 21
532.278
 31
0.0
  0
LINE
  8
LC-001-002-----0
  6
CONTINUOUS
  5
1F6
 10
318.190696
 20
319.16
 30
0.0
 11
320.690696
 21
319.16
 31
0.0
  0
LINE
  8
LC-001-002-----0
  6
CONTINUOUS
  5
1F7
 10
358.190696
 20
246.118048
 30
0.0
 11
358.190696
 21
291.118048
 31
0.0
  0
LINE
  8
LC-001-002-----0
  6
CONTINUOUS
  5
1F8
 10
326.190696
 20
246.118048
 30
0.0
 11
326.190696
 21
291.118048
 31
0.0
  0
LINE
  8
LC-001-002-----0
  6
CONTINUOUS
  5
1F9
 10
327.128518
 20
242.618048
 30
0.0
 11
357.252874
 21
242.618048
 31
0.0
  0
LINE
  8
LC-001-002-----0
  6
DASHDOT
 62
     2
  5
1FA
 10
342.190696
 20
242.618048
 30
0.0
 11
342.190696
 21
373.16
 31
0.0
  0
LINE
  8
LC-001-002-----0
  6
CONTINUOUS
  5
1FB
 10
326.190696
 20
246.118048
 30
0.0
 11
358.190696
 21
246.118048
 31
0.0
  0
LINE
  8
LC-001-002-----0
  6
CONTINUOUS
  5
1FC
 10
358.190696
 20
246.118048
 30
0.0
 11
357.252874
 21
242.618048
 31
0.0
  0
LINE
  8
LC-001-002-----0
  6
CONTINUOUS
  5
1FD
 10
326.190696
 20
246.118048
 30
0.0
 11
327.128518
 21
242.618048
 31
0.0
  0
ARC
  8
LC-002-002-RND-0
  6
CONTINUOUS
  5
1FE
 10
363.690696
 20
317.66
 30
0.0
 40
1.5
 50
90.0
 51
180.0
  0
ARC
  8
LC-002-002-RND-0
  6
CONTINUOUS
  5
1FF
 10
324.690696
 20
291.118048
 30
0.0
 40
1.5
 50
0.0
 51
90.0
  0
ARC
  8
LC-002-002-RND-0
  6
CONTINUOUS
  5
200
 10
359.690696
 20
291.118048
 30
0.0
 40
1.5
 50
90.0
 51
180.0
  0
LINE
  8
LC-001-002-----0
  6
CONTINUOUS
  5
201
 10
320.690696
 20
319.16
 30
0.0
 11
366.190696
 21
319.16
 31
0.0
  0
LINE
  8
LC-001-002-----0
  6
CONTINUOUS
  5
202
 10
362.190696
 20
294.118048
 30
0.0
 11
362.190696
 21
317.66
 31
0.0
  0
LINE
  8
LC-001-002-----0
  6
CONTINUOUS
  5
203
 10
322.190696
 20
294.118048
 30
0.0
 11
322.190696
 21
317.66
 31
0.0
  0
LINE
  8
LC-001-002-----0
  6
CONTINUOUS
  5
204
 10
367.190696
 20
320.16
 30
0.0
 11
367.190696
 21
369.66
 31
0.0
  0
LINE
  8
LC-001-002-----0
  6
CONTINUOUS
  5
205
 10
317.190696
 20
320.16
 30
0.0
 11
317.190696
 21
369.66
 31
0.0
  0
LINE
  8
LC-001-002-----0
  6
CONTINUOUS
  5
206
 10
322.59262
 20
292.618048
 30
0.0
 11
361.788772
 21
292.618048
 31
0.0
  0
LINE
  8
LC-001-002-----0
  6
CONTINUOUS
  5
207
 10
322.190696
 20
294.118048
 30
0.0
 11
362.190696
 21
294.118048
 31
0.0
  0
LINE
  8
LC-001-002-----0
  6
CONTINUOUS
  5
208
 10
362.190696
 20
294.118048
 30
0.0
 11
361.788772
 21
292.618048
 31
0.0
  0
LINE
  8
LC-001-002-----0
  6
CONTINUOUS
  5
209
 10
322.190696
 20
294.118048
 30
0.0
 11
322.59262
 21
292.618048
 31
0.0
  0
LINE
  8
LC-001-002-----0
  6
CONTINUOUS
  5
20A
 10
317.190696
 20
320.16
 30
0.0
 11
367.190696
 21
320.16
 31
0.0
  0
LINE
  8
LC-001-002-----0
  6
CONTINUOUS
  5
20B
 10
317.190696
 20
320.16
 30
0.0
 11
318.190696
 21
319.16
 31
0.0
  0
ARC
  8
LC-002-002-RND-0
  6
CONTINUOUS
  5
20C
 10
320.690696
 20
317.66
 30
0.0
 40
1.5
 50
0.0
 51
90.0
  0
LINE
  8
LC-001-002-----0
  6
CONTINUOUS
  5
20D
 10
367.190696
 20
320.16
 30
0.0
 11
366.190696
 21
319.16
 31
0.0
  0
LINE
  8
LC-001-002-----0
  6
CONTINUOUS
  5
20E
 10
318.128518
 20
373.16
 30
0.0
 11
366.252874
 21
373.16
 31
0.0
  0
LINE
  8
LC-001-002-----0
  6
CONTINUOUS
  5
20F
 10
317.190696
 20
369.66
 30
0.0
 11
367.190696
 21
369.66
 31
0.0
  0
LINE
  8
LC-001-002-----0
  6
CONTINUOUS
  5
210
 10
317.190696
 20
369.66
 30
0.0
 11
318.128518
 21
373.16
 31
0.0
  0
LINE
  8
LC-001-002-----0
  6
CONTINUOUS
  5
211
 10
367.190696
 20
369.66
 30
0.0
 11
366.252874
 21
373.16
 31
0.0
  0
ENDSEC
  0
EOF
