  0
SECTION
  2
HEADER
  9
$ACADVER
  1
AC1015
  9
$ACADMAINTVER
 70
     6
  9
$DWGCODEPAGE
  3
DOS850
  9
$INSBASE
 10
0.0
 20
0.0
 30
0.0
  9
$EXTMIN
 10
0.0
 20
0.0
 30
0.0
  9
$EXTMAX
 10
840.0
 20
594.0
 30
0.0
  9
$LIMMIN
 10
0.0
 20
0.0
  9
$LIMMAX
 10
840.0
 20
594.0
  9
$ORTHOMODE
 70
     0
  9
$REGENMODE
 70
     1
  9
$FILLMODE
 70
     1
  9
$QTEXTMODE
 70
     0
  9
$MIRRTEXT
 70
     1
  9
$LTSCALE
 40
2.0
  9
$ATTMODE
 70
     1
  9
$TEXTSIZE
 40
0.2
  9
$TRACEWID
 40
0.05
  9
$TEXTSTYLE
  7
Standard
  9
$CLAYER
  8
0
  9
$CELTYPE
  6
ByBlock
  9
$CECOLOR
 62
     7
  9
$CELTSCALE
 40
1.0
  9
$DISPSILH
 70
     0
  9
$DIMSCALE
 40
2.0
  9
$DIMASZ
 40
3.5
  9
$DIMEXO
 40
0.0625
  9
$DIMDLI
 40
0.38
  9
$DIMRND
 40
0.0
  9
$DIMDLE
 40
0.0
  9
$DIMEXE
 40
0.18
  9
$DIMTP
 40
0.0
  9
$DIMTM
 40
0.0
  9
$DIMTXT
 40
3.5
  9
$DIMCEN
 40
0.09
  9
$DIMTSZ
 40
0.0
  9
$DIMTOL
 70
     0
  9
$DIMLIM
 70
     0
  9
$DIMTIH
 70
     1
  9
$DIMTOH
 70
     1
  9
$DIMSE1
 70
     0
  9
$DIMSE2
 70
     0
  9
$DIMTAD
 70
     1
  9
$DIMZIN
 70
     0
  9
$DIMBLK
  1

  9
$DIMASO
 70
     1
  9
$DIMSHO
 70
     1
  9
$DIMPOST
  1

  9
$DIMAPOST
  1

  9
$DIMALT
 70
     0
  9
$DIMALTD
 70
     2
  9
$DIMALTF
 40
25.4
  9
$DIMLFAC
 40
1.0
  9
$DIMTOFL
 70
     0
  9
$DIMTVP
 40
0.0
  9
$DIMTIX
 70
     0
  9
$DIMSOXD
 70
     0
  9
$DIMSAH
 70
     0
  9
$DIMBLK1
  1

  9
$DIMBLK2
  1

  9
$DIMSTYLE
  2
Standard
  9
$DIMCLRD
 70
     0
  9
$DIMCLRE
 70
     0
  9
$DIMCLRT
 70
     0
  9
$DIMTFAC
 40
1.0
  9
$DIMGAP
 40
0.09
  9
$DIMJUST
 70
     0
  9
$DIMSD1
 70
     0
  9
$DIMSD2
 70
     0
  9
$DIMTOLJ
 70
     1
  9
$DIMTZIN
 70
     0
  9
$DIMALTZ
 70
     0
  9
$DIMALTTZ
 70
     0
  9
$DIMUPT
 70
     0
  9
$DIMDEC
 70
     4
  9
$DIMTDEC
 70
     4
  9
$DIMALTU
 70
     2
  9
$DIMALTTD
 70
     2
  9
$DIMTXSTY
  7
Standard
  9
$DIMAUNIT
 70
     0
  9
$DIMADEC
 70
     0
  9
$DIMALTRND
 40
0.0
  9
$DIMAZIN
 70
     0
  9
$DIMDSEP
 70
     0
  9
$DIMATFIT
 70
     3
  9
$DIMFRAC
 70
     0
  9
$DIMLDRBLK
  1

  9
$DIMLUNIT
 70
     2
  9
$DIMLWD
 70
     0
  9
$DIMLWE
 70
     0
  9
$DIMTMOVE
 70
     0
  9
$LUNITS
 70
     2
  9
$LUPREC
 70
     6
  9
$SKETCHINC
 40
0.1
  9
$FILLETRAD
 40
0.0
  9
$AUNITS
 70
     0
  9
$AUPREC
 70
     0
  9
$MENU
  1
acad
  9
$ELEVATION
 40
0.0
  9
$PELEVATION
 40
0.0
  9
$THICKNESS
 40
0.0
  9
$LIMCHECK
 70
     0
  9
$CHAMFERA
 40
0.0
  9
$CHAMFERB
 40
0.0
  9
$CHAMFERC
 40
0.0
  9
$CHAMFERD
 40
0.0
  9
$SKPOLY
 70
     0
  9
$TDCREATE
 40
0.000000000
  9
$TDUCREATE
 40
0.000000000
  9
$TDUPDATE
 40
0.000000000
  9
$TDUUPDATE
 40
0.000000000
  9
$TDINDWG
 40
0.0000000000
  9
$TDUSRTIMER
 40
0.0000000000
  9
$USRTIMER
 70
     1
  9
$ANGBASE
 50
0.0
  9
$ANGDIR
 70
     0
  9
$PDMODE
 70
     0
  9
$PDSIZE
 40
0.0
  9
$PLINEWID
 40
0.0
  9
$SPLFRAME
 70
     0
  9
$SPLINETYPE
 70
     6
  9
$SPLINESEGS
 70
     8
  9
$HANDSEED
  5
212
  9
$SURFTAB1
 70
     6
  9
$SURFTAB2
 70
     6
  9
$SURFTYPE
 70
     6
  9
$SURFU
 70
     6
  9
$SURFV
 70
     6
  9
$UCSBASE
  2

  9
$UCSNAME
  2

  9
$UCSORG
 10
0.0
 20
0.0
 30
0.0
  9
$UCSXDIR
 10
1.0
 20
0.0
 30
0.0
  9
$UCSYDIR
 10
0.0
 20
1.0
 30
0.0
  9
$UCSORTHOREF
  2

  9
$UCSORTHOVIEW
 70
     0
  9
$UCSORGTOP
 10
0.0
 20
0.0
 30
0.0
  9
$UCSORGBOTTOM
 10
0.0
 20
0.0
 30
0.0
  9
$UCSORGLEFT
 10
0.0
 20
0.0
 30
0.0
  9
$UCSORGRIGHT
 10
0.0
 20
0.0
 30
0.0
  9
$UCSORGFRONT
 10
0.0
 20
0.0
 30
0.0
  9
$UCSORGBACK
 10
0.0
 20
0.0
 30
0.0
  9
$PUCSBASE
  2

  9
$PUCSNAME
  2

  9
$PUCSORG
 10
0.0
 20
0.0
 30
0.0
  9
$PUCSXDIR
 10
1.0
 20
0.0
 30
0.0
  9
$PUCSYDIR
 10
0.0
 20
1.0
 30
0.0
  9
$PUCSORTHOREF
  2

  9
$PUCSORTHOVIEW
 70
     0
  9
$PUCSORGTOP
 10
0.0
 20
0.0
 30
0.0
  9
$PUCSORGBOTTOM
 10
0.0
 20
0.0
 30
0.0
  9
$PUCSORGLEFT
 10
0.0
 20
0.0
 30
0.0
  9
$PUCSORGRIGHT
 10
0.0
 20
0.0
 30
0.0
  9
$PUCSORGFRONT
 10
0.0
 20
0.0
 30
0.0
  9
$PUCSORGBACK
 10
0.0
 20
0.0
 30
0.0
  9
$USERI1
 70
     0
  9
$USERI2
 70
     0
  9
$USERI3
 70
     0
  9
$USERI4
 70
     0
  9
$USERI5
 70
     0
  9
$USERR1
 40
0.0
  9
$USERR2
 40
0.0
  9
$USERR3
 40
0.0
  9
$USERR4
 40
0.0
  9
$USERR5
 40
0.0
  9
$WORLDVIEW
 70
     1
  9
$SHADEDGE
 70
     3
  9
$SHADEDIF
 70
    70
  9
$TILEMODE
 70
     1
  9
$MAXACTVP
 70
    16
  9
$PINSBASE
 10
0.0
 20
0.0
 30
0.0
  9
$PLIMCHECK
 70
     0
  9
$PEXTMIN
 10
0.0
 20
0.0
 30
0.0
  9
$PEXTMAX
 10
840.0
 20
594.0
 30
0.0
  9
$PLIMMIN
 10
0.0
 20
0.0
  9
$PLIMMAX
 10
840.0
 20
594.0
  9
$UNITMODE
 70
     0
  9
$VISRETAIN
 70
     0
  9
$PLINEGEN
 70
     1
  9
$PSLTSCALE
 70
     0
  9
$TREEDEPTH
 70
  3020
  9
$CMLSTYLE
  2
Standard
  9
$CMLJUST
 70
     0
  9
$CMLSCALE
 40
1.0
  9
$PROXYGRAPHICS
 70
     0
  9
$MEASUREMENT
 70
     0
  9
$CELWEIGHT
370
     0
  9
$ENDCAPS
280
     0
  9
$JOINSTYLE
280
     0
  9
$LWDISPLAY
290
     0
  9
$INSUNITS
 70
     0
  9
$HYPERLINKBASE
  1

  9
$STYLESHEET
  1

  9
$XEDIT
290
     1
  9
$CEPSNTYPE
380
     0
  9
$PSTYLEMODE
290
     1
  9
$FINGERPRINTGUID
  2

  9
$VERSIONGUID
  2

  9
$EXTNAMES
290
     1
  9
$PSVPSCALE
 40
0.0
  0
ENDSEC
  0
SECTION
  2
CLASSES
  0
CLASS
  1
LWPOLYLINE
  2
AcDbPolyline
  3
AutoCAD 2000
 90
        0
280
     0
281
     1
  0
CLASS
  1
IMAGE
  2
AcDbRasterImage
  3
ISM
 90
      127
280
     0
281
     1
  0
CLASS
  1
OLE2FRAME
  2
AcDbOle2Frame
  3
AutoCAD 2000
 90
        0
280
     0
281
     1
  0
CLASS
  1
HATCH
  2
AcDbHatch
  3
AutoCAD 2000
 90
        0
280
     0
281
     1
  0
CLASS
  1
DICTIONARYVAR
  2
AcDbDictionaryVar
  3
AutoCAD 2000
 90
        0
280
     0
281
     0
  0
CLASS
  1
RASTERVARIABLES
  2
AcDbRasterVariables
  3
ISM
 90
        0
280
     0
281
     0
  0
CLASS
  1
IMAGEDEF
  2
AcDbRasterImageDef
  3
ISM
 90
        0
280
     0
281
     0
  0
CLASS
  1
IMAGEDEF_REACTOR
  2
AcDbRasterImageDefReactor
  3
ISM
 90
        1
280
     0
281
     0
  0
CLASS
  1
IDBUFFER
  2
AcDbIdBuffer
  3
AutoCAD 2000
 90
        0
280
     0
281
     0
  0
CLASS
  1
SPATIAL_FILTER
  2
AcDbSpatialFilter
  3
AutoCAD 2000
 90
        0
280
     0
281
     0
  0
CLASS
  1
XRECORD
  2
AcDbXrecord
  3
AutoCAD 2000
 90
        0
280
     0
281
     0
  0
CLASS
  1
SORTENTSTABLE
  2
AcDbSortentsTable
  3
AutoCAD 2000
 90
        0
280
     0
281
     0
  0
CLASS
  1
LAYER_INDEX
  2
AcDbLayerIndex
  3
AutoCAD 2000
 90
        0
280
     0
281
     0
  0
CLASS
  1
SPATIAL_INDEX
  2
AcDbSpatialIndex
  3
AutoCAD 2000
 90
        0
280
     0
281
     0
  0
CLASS
  1
OBJECT_PTR
  2
CAseDLPNTableRecord
  3
"ASE-LPNTableRecord"
 90
        1
280
     0
281
     0
  0
CLASS
  1
LAYOUT
  2
AcDbLayout
  3
AutoCAD 2000
 90
        0
280
     0
281
     0
  0
CLASS
  1
PLOTSETTINGS
  2
AcDbPlotSettings
  3
AutoCAD 2000
 90
        0
280
     0
281
     0
  0
CLASS
  1
ACDBDICTIONARYWDFLT
  2
AcDbDictionaryWithDefault
  3
AutoCAD 2000
 90
        0
280
     0
281
     0
  0
CLASS
  1
ACDBPLACEHOLDER
  2
AcDbPlaceHolder
  3
AutoCAD 2000
 90
        0
280
     0
281
     0
  0
ENDSEC
  0
SECTION
  2
TABLES
  0
TABLE
  2
VPORT
  5
7
100
AcDbSymbolTable
 70
     1
  0
VPORT
  5
15
100
AcDbSymbolTableRecord
100
AcDbViewportTableRecord
  2
*ACTIVE
 70
     0
 10
0.0
 20
0.0
 11
1.0
 21
1.0
 12
420.0
 22
297.0
 13
0.0
 23
0.0
 14
1.0
 24
1.0
 15
0.0
 25
0.0
 16
0.0
 26
0.0
 36
1.0
 17
0.0
 27
0.0
 37
0.0
 40
594.0
 41
1.604229
 42
50.0
 43
0.0
 44
0.0
 50
0.0
 51
0.0
 71
     0
 72
   100
 73
     1
 74
     1
 75
     0
 76
     0
 77
     0
 78
     0
281
     0
 65
     0
110
0.0
120
0.0
130
0.0
111
1.0
121
0.0
131
0.0
112
0.0
122
1.0
132
0.0
345
0
346
0
 79
     0
146
0.0
  0
ENDTAB
  0
TABLE
  2
LTYPE
  5
4
100
AcDbSymbolTable
 70
     5
  0
LTYPE
  5
11
100
AcDbSymbolTableRecord
100
AcDbLinetypeTableRecord
  2
ByBlock
 70
    64
  3

 72
    65
 73
     0
 40
0.0
  0
LTYPE
  5
12
100
AcDbSymbolTableRecord
100
AcDbLinetypeTableRecord
  2
ByLayer
 70
    64
  3

 72
    65
 73
     0
 40
0.0
  0
LTYPE
  5
13
100
AcDbSymbolTableRecord
100
AcDbLinetypeTableRecord
  2
Continuous
 70
    64
  3
Solid line
 72
    65
 73
     0
 40
0.0
  0
LTYPE
  5
23
100
AcDbSymbolTableRecord
100
AcDbLinetypeTableRecord
  2
DASHED
 70
    64
  3
__ __ __ __ __
 72
    65
 73
     2
 40
6.25
 49
5.0
 74
     0
 49
-1.25
 74
     0
  0
LTYPE
  5
2A
100
AcDbSymbolTableRecord
100
AcDbLinetypeTableRecord
  2
DASHDOT
 70
    64
  3
__ . __ . __ . __ . __
 72
    65
 73
     4
 40
7.5
 49
5.0
 74
     0
 49
-1.25
 74
     0
 49
0.0
 74
     0
 49
-1.25
 74
     0
  0
ENDTAB
  0
TABLE
  2
LAYER
  5
2
100
AcDbSymbolTable
 70
    11
  0
LAYER
  5
14
100
AcDbSymbolTableRecord
100
AcDbLayerTableRecord
  2
0
 70
     0
 62
     7
  6
Continuous
290
     1
370
    -3
390
1D
  0
LAYER
  5
24
100
AcDbSymbolTableRecord
100
AcDbLayerTableRecord
  2
LC-INFO-1-2-mm-A3-0
 70
     1
 62
   255
  6
ByBlock
290
     1
370
    -3
390
1D
  0
LAYER
  5
25
100
AcDbSymbolTableRecord
100
AcDbLayerTableRecord
  2
LC-3D-HIDDEN
 70
     0
 62
     9
  6
DASHED
290
     1
370
    -3
390
1D
  0
LAYER
  5
26
100
AcDbSymbolTableRecord
100
AcDbLayerTableRecord
  2
LC-CUT-HIDDEN
 70
     0
 62
     9
  6
DASHED
290
     1
370
    -3
390
1D
  0
LAYER
  5
27
100
AcDbSymbolTableRecord
100
AcDbLayerTableRecord
  2
LC-VIEWPORT
 70
     0
 62
     7
  6
ByBlock
290
     1
370
    -3
390
1D
  0
LAYER
  5
2B
100
AcDbSymbolTableRecord
100
AcDbLayerTableRecord
  2
LC-001-002-----0
 70
     0
 62
     2
  6
DASHDOT
290
     1
370
    -3
390
1D
  0
LAYER
  5
35
100
AcDbSymbolTableRecord
100
AcDbLayerTableRecord
  2
LC-002-003-MTH-0
 70
     0
 62
     2
  6
ByBlock
290
     1
370
    -3
390
1D
  0
LAYER
  5
38
100
AcDbSymbolTableRecord
100
AcDbLayerTableRecord
  2
LC-003-003-MTG-0
 70
     0
 62
     2
  6
ByBlock
290
     1
370
    -3
390
1D
  0
LAYER
  5
3A
100
AcDbSymbolTableRecord
100
AcDbLayerTableRecord
  2
LC-004-003-----0
 70
     0
 62
     2
  6
ByBlock
290
     1
370
    -3
390
1D
  0
LAYER
  5
B3
100
AcDbSymbolTableRecord
100
AcDbLayerTableRecord
  2
LC-005-002-RND-0
 70
     0
 62
     1
  6
ByBlock
290
     1
370
    -3
390
1D
  0
LAYER
  5
F3
100
AcDbSymbolTableRecord
100
AcDbLayerTableRecord
  2
LC-006-005-----0
 70
     0
 62
     2
  6
ByBlock
290
     1
370
    -3
390
1D
  0
ENDTAB
  0
TABLE
  2
STYLE
  5
3
100
AcDbSymbolTable
 70
     3
  0
STYLE
  5
17
100
AcDbSymbolTableRecord
100
AcDbTextStyleTableRecord
  2
Standard
 70
     0
 40
0.0
 41
1.0
 50
0.0
 71
     0
 42
0.0
  3
txt
  4

  0
STYLE
  5
29
100
AcDbSymbolTableRecord
100
AcDbTextStyleTableRecord
  2
LCTX15-400-0-0-ARIAL
 70
    64
 40
3.5
 41
1.0
 50
0.0
 71
     0
 42
0.0
  3
Arial
  4

1001
ACAD
1000
Arial
1071
 16777216
  0
STYLE
  5
32
100
AcDbSymbolTableRecord
100
AcDbTextStyleTableRecord
  2
LCTX15-400-0-0-DIN-SCHRIFTP
 70
    64
 40
0.0
 41
1.0
 50
1.5
 71
     0
 42
3.5
  3
STANDARD
  4

  0
ENDTAB
  0
TABLE
  2
VIEW
  5
5
100
AcDbSymbolTable
 70
     0
  0
ENDTAB
  0
TABLE
  2
UCS
  5
6
100
AcDbSymbolTable
 70
     0
  0
ENDTAB
  0
TABLE
  2
APPID
  5
8
100
AcDbSymbolTable
 70
     1
  0
APPID
  5
16
100
AcDbSymbolTableRecord
100
AcDbRegAppTableRecord
  2
ACAD
 70
     0
  0
ENDTAB
  0
TABLE
  2
DIMSTYLE
  5
9
100
AcDbSymbolTable
 70
     3
100
AcDbDimStyleTable
 71
     0
  0
DIMSTYLE
105
18
100
AcDbSymbolTableRecord
100
AcDbDimStyleTableRecord
  2
Standard
 70
     0
  3

  4

 40
1.0
 41
0.18
 42
0.0625
 43
0.38
 44
0.18
 45
0.0
 46
0.0
 47
0.0
 48
0.0
 71
     0
 72
     0
 73
     1
 74
     1
 75
     0
 76
     0
 77
     0
 78
     0
 79
     0
140
0.18
141
0.09
142
0.0
143
25.4
144
1.0
145
0.0
146
1.0
147
0.09
148
0.0
170
     0
171
     2
172
     0
173
     0
174
     0
175
     0
176
     0
177
     0
178
     0
179
     0
271
     4
272
     4
273
     2
274
     2
275
     0
276
     0
277
     2
278
    46
279
     0
280
     0
281
     0
282
     0
283
     1
284
     0
285
     0
286
     0
288
     0
289
     0
340
17
341
0
342
0
343
0
344
0
371
    -2
372
    -2
  0
DIMSTYLE
105
31
100
AcDbSymbolTableRecord
100
AcDbDimStyleTableRecord
  2
LC-DIM-L-0140-01-02
 70
     0
  3

  4

 40
2.0
 41
3.5
 42
0.0
 43
7.5
 44
1.8
 45
0.0
 46
0.0
 47
0.0
 48
0.0
 71
     0
 72
     0
 73
     0
 74
     0
 75
     0
 76
     0
 77
     1
 78
     8
 79
     0
140
14.0
141
0.0
142
0.0
143
25.4
144
1.0
145
0.0
146
0.71
147
1.5
148
0.0
170
     0
171
     2
172
     0
173
     0
174
     0
175
     0
176
     2
177
     2
178
     2
179
     1
271
     1
272
     4
273
     2
274
     2
275
     0
276
     0
277
     2
278
    44
279
     0
280
     0
281
     0
282
     0
283
     1
284
     0
285
     0
286
     0
288
     0
289
     0
340
32
341
0
342
0
343
0
344
0
371
    -3
372
     0
  0
DIMSTYLE
105
BB
100
AcDbSymbolTableRecord
100
AcDbDimStyleTableRecord
  2
LC-DIM-L-0140-02-02
 70
     0
  3

  4

 40
2.0
 41
3.5
 42
0.0
 43
7.5
 44
1.8
 45
0.0
 46
0.0
 47
0.0
 48
0.0
 71
     0
 72
     0
 73
     0
 74
     0
 75
     0
 76
     0
 77
     1
 78
     8
 79
     0
140
14.0
141
0.0
142
0.0
143
25.4
144
1.0
145
0.0
146
0.71
147
1.5
148
0.0
170
     0
171
     2
172
     0
173
     0
174
     0
175
     0
176
     2
177
     2
178
     2
179
     2
271
     2
272
     4
273
     2
274
     2
275
     0
276
     0
277
     2
278
    44
279
     0
280
     0
281
     0
282
     0
283
     1
284
     0
285
     0
286
     0
288
     0
289
     0
340
32
341
0
342
0
343
0
344
0
371
    -3
372
     0
  0
ENDTAB
  0
TABLE
  2
BLOCK_RECORD
  5
1
100
AcDbSymbolTable
 70
     4
  0
BLOCK_RECORD
  5
A
100
AcDbSymbolTableRecord
100
AcDbBlockTableRecord
  2
*MODEL_SPACE
340
20
  0
BLOCK_RECORD
  5
B
100
AcDbSymbolTableRecord
100
AcDbBlockTableRecord
  2
*PAPER_SPACE
340
21
  0
BLOCK_RECORD
  5
33
100
AcDbSymbolTableRecord
100
AcDbBlockTableRecord
  2
*D0
340
0
  0
BLOCK_RECORD
  5
50
100
AcDbSymbolTableRecord
100
AcDbBlockTableRecord
  2
*D1
340
0
  0
BLOCK_RECORD
  5
BC
100
AcDbSymbolTableRecord
100
AcDbBlockTableRecord
  2
*D2
340
0
  0
BLOCK_RECORD
  5
D7
100
AcDbSymbolTableRecord
100
AcDbBlockTableRecord
  2
*D3
340
0
  0
ENDTAB
  0
ENDSEC
  0
SECTION
  2
BLOCKS
  0
BLOCK
  5
D
100
AcDbEntity
  8
0
390
0
100
AcDbBlockBegin
  2
*MODEL_SPACE
 70
     0
 10
0.0
 20
0.0
 30
0.0
  3
*MODEL_SPACE
  1

  0
ENDBLK
  5
E
100
AcDbEntity
  8
0
390
0
100
AcDbBlockEnd
  0
BLOCK
  5
F
100
AcDbEntity
 67
     1
  8
0
390
0
100
AcDbBlockBegin
  2
*PAPER_SPACE
 70
     0
 10
0.0
 20
0.0
 30
0.0
  3
*PAPER_SPACE
  1

  0
ENDBLK
  5
10
100
AcDbEntity
 67
     1
  8
0
390
0
100
AcDbBlockEnd
  0
BLOCK
  5
34
100
AcDbEntity
  8
0
390
0
100
AcDbBlockBegin
  2
*D0
 70
    65
 10
0.0
 20
0.0
 30
0.0
  3
*D0
  1

  0
LINE
  5
36
100
AcDbEntity
  8
LC-002-003-MTH-0
370
    25
390
0
 62
     2
100
AcDbLine
 10
282.732819
 20
223.481048
 30
0.0
 11
369.6
 21
223.481048
 31
0.0
  0
LINE
  5
37
100
AcDbEntity
  8
LC-002-003-MTH-0
370
    25
390
0
 62
     2
100
AcDbLine
 10
336.307122
 20
423.481048
 30
0.0
 11
369.6
 21
423.481048
 31
0.0
  0
LINE
  5
39
100
AcDbEntity
  8
LC-003-003-MTG-0
370
    25
390
0
 62
     2
100
AcDbLine
 10
352.8
 20
223.481048
 30
0.0
 11
352.8
 21
423.481048
 31
0.0
  0
LINE
  5
3B
100
AcDbEntity
  8
LC-004-003-----0
370
    25
390
0
 62
     2
100
AcDbLine
 10
349.145267
 20
251.241505
 30
0.0
 11
352.8
 21
223.481048
 31
0.0
  0
LINE
  5
3C
100
AcDbEntity
  8
LC-004-003-----0
370
    25
390
0
 62
     2
100
AcDbLine
 10
352.8
 20
223.481048
 30
0.0
 11
356.454733
 21
251.241505
 31
0.0
  0
LINE
  5
3D
100
AcDbEntity
  8
LC-004-003-----0
370
    25
390
0
 62
     2
100
AcDbLine
 10
356.454733
 20
251.241505
 30
0.0
 11
349.145267
 21
251.241505
 31
0.0
  0
LINE
  5
3E
100
AcDbEntity
  8
LC-004-003-----0
370
    25
390
0
 62
     2
100
AcDbLine
 10
350.095497
 20
251.303786
 30
0.0
 11
352.8
 21
230.761048
 31
0.0
  0
LINE
  5
3F
100
AcDbEntity
  8
LC-004-003-----0
370
    25
390
0
 62
     2
100
AcDbLine
 10
352.8
 20
230.761048
 30
0.0
 11
355.504503
 21
251.303786
 31
0.0
  0
LINE
  5
40
100
AcDbEntity
  8
LC-004-003-----0
370
    25
390
0
 62
     2
100
AcDbLine
 10
351.045728
 20
251.366067
 30
0.0
 11
352.8
 21
238.041048
 31
0.0
  0
LINE
  5
41
100
AcDbEntity
  8
LC-004-003-----0
370
    25
390
0
 62
     2
100
AcDbLine
 10
352.8
 20
238.041048
 30
0.0
 11
354.554272
 21
251.366067
 31
0.0
  0
LINE
  5
42
100
AcDbEntity
  8
LC-004-003-----0
370
    25
390
0
 62
     2
100
AcDbLine
 10
351.995959
 20
251.428349
 30
0.0
 11
352.8
 21
245.321048
 31
0.0
  0
LINE
  5
43
100
AcDbEntity
  8
LC-004-003-----0
370
    25
390
0
 62
     2
100
AcDbLine
 10
352.8
 20
245.321048
 30
0.0
 11
353.604041
 21
251.428349
 31
0.0
  0
LINE
  5
44
100
AcDbEntity
  8
LC-004-003-----0
370
    25
390
0
 62
     2
100
AcDbLine
 10
356.454733
 20
395.720592
 30
0.0
 11
352.8
 21
423.481048
 31
0.0
  0
LINE
  5
45
100
AcDbEntity
  8
LC-004-003-----0
370
    25
390
0
 62
     2
100
AcDbLine
 10
352.8
 20
423.481048
 30
0.0
 11
349.145267
 21
395.720592
 31
0.0
  0
LINE
  5
46
100
AcDbEntity
  8
LC-004-003-----0
370
    25
390
0
 62
     2
100
AcDbLine
 10
349.145267
 20
395.720592
 30
0.0
 11
356.454733
 21
395.720592
 31
0.0
  0
LINE
  5
47
100
AcDbEntity
  8
LC-004-003-----0
370
    25
390
0
 62
     2
100
AcDbLine
 10
355.504503
 20
395.658311
 30
0.0
 11
352.8
 21
416.201048
 31
0.0
  0
LINE
  5
48
100
AcDbEntity
  8
LC-004-003-----0
370
    25
390
0
 62
     2
100
AcDbLine
 10
352.8
 20
416.201048
 30
0.0
 11
350.095497
 21
395.658311
 31
0.0
  0
LINE
  5
49
100
AcDbEntity
  8
LC-004-003-----0
370
    25
390
0
 62
     2
100
AcDbLine
 10
354.554272
 20
395.596029
 30
0.0
 11
352.8
 21
408.921048
 31
0.0
  0
LINE
  5
4A
100
AcDbEntity
  8
LC-004-003-----0
370
    25
390
0
 62
     2
100
AcDbLine
 10
352.8
 20
408.921048
 30
0.0
 11
351.045728
 21
395.596029
 31
0.0
  0
LINE
  5
4B
100
AcDbEntity
  8
LC-004-003-----0
370
    25
390
0
 62
     2
100
AcDbLine
 10
353.604041
 20
395.533748
 30
0.0
 11
352.8
 21
401.641048
 31
0.0
  0
LINE
  5
4C
100
AcDbEntity
  8
LC-004-003-----0
370
    25
390
0
 62
     2
100
AcDbLine
 10
352.8
 20
401.641048
 30
0.0
 11
351.995959
 21
395.533748
 31
0.0
  0
TEXT
  5
4D
100
AcDbEntity
  8
LC-004-003-----0
370
    -2
390
0
 62
     7
100
AcDbText
 10
344.972446
 20
301.201208
 30
0.0
 40
28.0
  1
200
 50
90.0
 41
0.9
 51
15.0
  7
LCTX15-400-0-0-ARIAL
 72
     1
 11
344.972446
 21
327.829208
 31
0.0
100
AcDbText
  0
ENDBLK
  5
4E
100
AcDbEntity
  8
0
390
0
100
AcDbBlockEnd
  0
BLOCK
  5
51
100
AcDbEntity
  8
0
390
0
100
AcDbBlockBegin
  2
*D1
 70
    65
 10
0.0
 20
0.0
 30
0.0
  3
*D1
  1

  0
LINE
  5
52
100
AcDbEntity
  8
LC-002-003-MTH-0
370
    25
390
0
 62
     2
100
AcDbLine
 10
233.93859
 20
227.981048
 30
0.0
 11
233.93859
 21
140.0
 31
0.0
  0
LINE
  5
53
100
AcDbEntity
  8
LC-002-003-MTH-0
370
    25
390
0
 62
     2
100
AcDbLine
 10
283.93859
 20
227.981048
 30
0.0
 11
283.93859
 21
140.0
 31
0.0
  0
LINE
  5
54
100
AcDbEntity
  8
LC-004-003-----0
370
    25
390
0
 62
     2
100
AcDbLine
 10
206.178134
 20
153.145267
 30
0.0
 11
233.93859
 21
156.8
 31
0.0
  0
LINE
  5
55
100
AcDbEntity
  8
LC-004-003-----0
370
    25
390
0
 62
     2
100
AcDbLine
 10
233.93859
 20
156.8
 30
0.0
 11
206.178134
 21
160.454733
 31
0.0
  0
LINE
  5
56
100
AcDbEntity
  8
LC-004-003-----0
370
    25
390
0
 62
     2
100
AcDbLine
 10
206.178134
 20
160.454733
 30
0.0
 11
206.178134
 21
153.145267
 31
0.0
  0
LINE
  5
57
100
AcDbEntity
  8
LC-004-003-----0
370
    25
390
0
 62
     2
100
AcDbLine
 10
206.115853
 20
154.095497
 30
0.0
 11
226.65859
 21
156.8
 31
0.0
  0
LINE
  5
58
100
AcDbEntity
  8
LC-004-003-----0
370
    25
390
0
 62
     2
100
AcDbLine
 10
226.65859
 20
156.8
 30
0.0
 11
206.115853
 21
159.504503
 31
0.0
  0
LINE
  5
59
100
AcDbEntity
  8
LC-004-003-----0
370
    25
390
0
 62
     2
100
AcDbLine
 10
206.053571
 20
155.045728
 30
0.0
 11
219.37859
 21
156.8
 31
0.0
  0
LINE
  5
5A
100
AcDbEntity
  8
LC-004-003-----0
370
    25
390
0
 62
     2
100
AcDbLine
 10
219.37859
 20
156.8
 30
0.0
 11
206.053571
 21
158.554272
 31
0.0
  0
LINE
  5
5B
100
AcDbEntity
  8
LC-004-003-----0
370
    25
390
0
 62
     2
100
AcDbLine
 10
205.99129
 20
155.995959
 30
0.0
 11
212.09859
 21
156.8
 31
0.0
  0
LINE
  5
5C
100
AcDbEntity
  8
LC-004-003-----0
370
    25
390
0
 62
     2
100
AcDbLine
 10
212.09859
 20
156.8
 30
0.0
 11
205.99129
 21
157.604041
 31
0.0
  0
LINE
  5
5D
100
AcDbEntity
  8
LC-004-003-----0
370
    25
390
0
 62
     2
100
AcDbLine
 10
311.699047
 20
160.454733
 30
0.0
 11
283.93859
 21
156.8
 31
0.0
  0
LINE
  5
5E
100
AcDbEntity
  8
LC-004-003-----0
370
    25
390
0
 62
     2
100
AcDbLine
 10
283.93859
 20
156.8
 30
0.0
 11
311.699047
 21
153.145267
 31
0.0
  0
LINE
  5
5F
100
AcDbEntity
  8
LC-004-003-----0
370
    25
390
0
 62
     2
100
AcDbLine
 10
311.699047
 20
153.145267
 30
0.0
 11
311.699047
 21
160.454733
 31
0.0
  0
LINE
  5
60
100
AcDbEntity
  8
LC-004-003-----0
370
    25
390
0
 62
     2
100
AcDbLine
 10
311.761328
 20
159.504503
 30
0.0
 11
291.21859
 21
156.8
 31
0.0
  0
LINE
  5
61
100
AcDbEntity
  8
LC-004-003-----0
370
    25
390
0
 62
     2
100
AcDbLine
 10
291.21859
 20
156.8
 30
0.0
 11
311.761328
 21
154.095497
 31
0.0
  0
LINE
  5
62
100
AcDbEntity
  8
LC-004-003-----0
370
    25
390
0
 62
     2
100
AcDbLine
 10
311.823609
 20
158.554272
 30
0.0
 11
298.49859
 21
156.8
 31
0.0
  0
LINE
  5
63
100
AcDbEntity
  8
LC-004-003-----0
370
    25
390
0
 62
     2
100
AcDbLine
 10
298.49859
 20
156.8
 30
0.0
 11
311.823609
 21
155.045728
 31
0.0
  0
LINE
  5
64
100
AcDbEntity
  8
LC-004-003-----0
370
    25
390
0
 62
     2
100
AcDbLine
 10
311.885891
 20
157.604041
 30
0.0
 11
305.77859
 21
156.8
 31
0.0
  0
LINE
  5
65
100
AcDbEntity
  8
LC-004-003-----0
370
    25
390
0
 62
     2
100
AcDbLine
 10
305.77859
 20
156.8
 30
0.0
 11
311.885891
 21
155.995959
 31
0.0
  0
LINE
  5
66
100
AcDbEntity
  8
LC-003-003-MTG-0
370
    25
390
0
 62
     2
100
AcDbLine
 10
194.73859
 20
156.8
 30
0.0
 11
415.98659
 21
156.8
 31
0.0
  0
TEXT
  5
67
100
AcDbEntity
  8
LC-004-003-----0
370
    -2
390
0
 62
     7
100
AcDbText
 10
327.48675
 20
164.627554
 30
0.0
 40
28.0
  1
DN50
 41
0.9
 51
15.0
  7
LCTX15-400-0-0-ARIAL
100
AcDbText
  0
ENDBLK
  5
68
100
AcDbEntity
  8
0
390
0
100
AcDbBlockEnd
  0
BLOCK
  5
BD
100
AcDbEntity
  8
0
390
0
100
AcDbBlockBegin
  2
*D2
 70
    65
 10
0.0
 20
0.0
 30
0.0
  3
*D2
  1

  0
LINE
  5
BE
100
AcDbEntity
  8
LC-002-003-MTH-0
370
    25
390
0
 62
     2
100
AcDbLine
 10
104.93859
 20
439.874635
 30
0.0
 11
104.93859
 21
488.436
 31
0.0
  0
LINE
  5
BF
100
AcDbEntity
  8
LC-002-003-MTH-0
370
    25
390
0
 62
     2
100
AcDbLine
 10
412.93859
 20
439.874635
 30
0.0
 11
412.93859
 21
488.436
 31
0.0
  0
LINE
  5
C0
100
AcDbEntity
  8
LC-003-003-MTG-0
370
    25
390
0
 62
     2
100
AcDbLine
 10
104.93859
 20
471.636
 30
0.0
 11
212.302057
 21
471.636
 31
0.0
  0
LINE
  5
C1
100
AcDbEntity
  8
LC-003-003-MTG-0
370
    25
390
0
 62
     2
100
AcDbLine
 10
320.06899
 20
471.636
 30
0.0
 11
412.93859
 21
471.636
 31
0.0
  0
LINE
  5
C2
100
AcDbEntity
  8
LC-004-003-----0
370
    25
390
0
 62
     2
100
AcDbLine
 10
132.699047
 20
475.290733
 30
0.0
 11
104.93859
 21
471.636
 31
0.0
  0
LINE
  5
C3
100
AcDbEntity
  8
LC-004-003-----0
370
    25
390
0
 62
     2
100
AcDbLine
 10
104.93859
 20
471.636
 30
0.0
 11
132.699047
 21
467.981267
 31
0.0
  0
LINE
  5
C4
100
AcDbEntity
  8
LC-004-003-----0
370
    25
390
0
 62
     2
100
AcDbLine
 10
132.699047
 20
467.981267
 30
0.0
 11
132.699047
 21
475.290733
 31
0.0
  0
LINE
  5
C5
100
AcDbEntity
  8
LC-004-003-----0
370
    25
390
0
 62
     2
100
AcDbLine
 10
132.761328
 20
474.340503
 30
0.0
 11
112.21859
 21
471.636
 31
0.0
  0
LINE
  5
C6
100
AcDbEntity
  8
LC-004-003-----0
370
    25
390
0
 62
     2
100
AcDbLine
 10
112.21859
 20
471.636
 30
0.0
 11
132.761328
 21
468.931497
 31
0.0
  0
LINE
  5
C7
100
AcDbEntity
  8
LC-004-003-----0
370
    25
390
0
 62
     2
100
AcDbLine
 10
132.823609
 20
473.390272
 30
0.0
 11
119.49859
 21
471.636
 31
0.0
  0
LINE
  5
C8
100
AcDbEntity
  8
LC-004-003-----0
370
    25
390
0
 62
     2
100
AcDbLine
 10
119.49859
 20
471.636
 30
0.0
 11
132.823609
 21
469.881728
 31
0.0
  0
LINE
  5
C9
100
AcDbEntity
  8
LC-004-003-----0
370
    25
390
0
 62
     2
100
AcDbLine
 10
132.885891
 20
472.440041
 30
0.0
 11
126.77859
 21
471.636
 31
0.0
  0
LINE
  5
CA
100
AcDbEntity
  8
LC-004-003-----0
370
    25
390
0
 62
     2
100
AcDbLine
 10
126.77859
 20
471.636
 30
0.0
 11
132.885891
 21
470.831959
 31
0.0
  0
LINE
  5
CB
100
AcDbEntity
  8
LC-004-003-----0
370
    25
390
0
 62
     2
100
AcDbLine
 10
385.178134
 20
467.981267
 30
0.0
 11
412.93859
 21
471.636
 31
0.0
  0
LINE
  5
CC
100
AcDbEntity
  8
LC-004-003-----0
370
    25
390
0
 62
     2
100
AcDbLine
 10
412.93859
 20
471.636
 30
0.0
 11
385.178134
 21
475.290733
 31
0.0
  0
LINE
  5
CD
100
AcDbEntity
  8
LC-004-003-----0
370
    25
390
0
 62
     2
100
AcDbLine
 10
385.178134
 20
475.290733
 30
0.0
 11
385.178134
 21
467.981267
 31
0.0
  0
LINE
  5
CE
100
AcDbEntity
  8
LC-004-003-----0
370
    25
390
0
 62
     2
100
AcDbLine
 10
385.115853
 20
468.931497
 30
0.0
 11
405.65859
 21
471.636
 31
0.0
  0
LINE
  5
CF
100
AcDbEntity
  8
LC-004-003-----0
370
    25
390
0
 62
     2
100
AcDbLine
 10
405.65859
 20
471.636
 30
0.0
 11
385.115853
 21
474.340503
 31
0.0
  0
LINE
  5
D0
100
AcDbEntity
  8
LC-004-003-----0
370
    25
390
0
 62
     2
100
AcDbLine
 10
385.053571
 20
469.881728
 30
0.0
 11
398.37859
 21
471.636
 31
0.0
  0
LINE
  5
D1
100
AcDbEntity
  8
LC-004-003-----0
370
    25
390
0
 62
     2
100
AcDbLine
 10
398.37859
 20
471.636
 30
0.0
 11
385.053571
 21
473.390272
 31
0.0
  0
LINE
  5
D2
100
AcDbEntity
  8
LC-004-003-----0
370
    25
390
0
 62
     2
100
AcDbLine
 10
384.99129
 20
470.831959
 30
0.0
 11
391.09859
 21
471.636
 31
0.0
  0
LINE
  5
D3
100
AcDbEntity
  8
LC-004-003-----0
370
    25
390
0
 62
     2
100
AcDbLine
 10
391.09859
 20
471.636
 30
0.0
 11
384.99129
 21
472.440041
 31
0.0
  0
TEXT
  5
D4
100
AcDbEntity
  8
LC-004-003-----0
370
    -2
390
0
 62
     7
100
AcDbText
 10
200.28675
 20
479.463554
 30
0.0
 40
28.0
  1
%%c308
 41
0.9
 51
15.0
  7
LCTX15-400-0-0-ARIAL
 72
     1
 11
263.28675
 21
479.463554
 31
0.0
100
AcDbText
  0
ENDBLK
  5
D5
100
AcDbEntity
  8
0
390
0
100
AcDbBlockEnd
  0
BLOCK
  5
D8
100
AcDbEntity
  8
0
390
0
100
AcDbBlockBegin
  2
*D3
 70
    65
 10
0.0
 20
0.0
 30
0.0
  3
*D3
  1

  0
LINE
  5
D9
100
AcDbEntity
  8
LC-002-003-MTH-0
370
    25
390
0
 62
     2
100
AcDbLine
 10
282.732819
 20
223.481048
 30
0.0
 11
448.0
 21
223.481048
 31
0.0
  0
LINE
  5
DA
100
AcDbEntity
  8
LC-002-003-MTH-0
370
    25
390
0
 62
     2
100
AcDbLine
 10
412.93859
 20
439.874635
 30
0.0
 11
448.0
 21
439.874635
 31
0.0
  0
LINE
  5
DB
100
AcDbEntity
  8
LC-003-003-MTG-0
370
    25
390
0
 62
     2
100
AcDbLine
 10
431.2
 20
223.481048
 30
0.0
 11
431.2
 21
297.473308
 31
0.0
  0
LINE
  5
DC
100
AcDbEntity
  8
LC-003-003-MTG-0
370
    25
390
0
 62
     2
100
AcDbLine
 10
431.2
 20
380.376242
 30
0.0
 11
431.2
 21
439.874635
 31
0.0
  0
LINE
  5
DD
100
AcDbEntity
  8
LC-004-003-----0
370
    25
390
0
 62
     2
100
AcDbLine
 10
427.545267
 20
251.241505
 30
0.0
 11
431.2
 21
223.481048
 31
0.0
  0
LINE
  5
DE
100
AcDbEntity
  8
LC-004-003-----0
370
    25
390
0
 62
     2
100
AcDbLine
 10
431.2
 20
223.481048
 30
0.0
 11
434.854733
 21
251.241505
 31
0.0
  0
LINE
  5
DF
100
AcDbEntity
  8
LC-004-003-----0
370
    25
390
0
 62
     2
100
AcDbLine
 10
434.854733
 20
251.241505
 30
0.0
 11
427.545267
 21
251.241505
 31
0.0
  0
LINE
  5
E0
100
AcDbEntity
  8
LC-004-003-----0
370
    25
390
0
 62
     2
100
AcDbLine
 10
428.495497
 20
251.303786
 30
0.0
 11
431.2
 21
230.761048
 31
0.0
  0
LINE
  5
E1
100
AcDbEntity
  8
LC-004-003-----0
370
    25
390
0
 62
     2
100
AcDbLine
 10
431.2
 20
230.761048
 30
0.0
 11
433.904503
 21
251.303786
 31
0.0
  0
LINE
  5
E2
100
AcDbEntity
  8
LC-004-003-----0
370
    25
390
0
 62
     2
100
AcDbLine
 10
429.445728
 20
251.366067
 30
0.0
 11
431.2
 21
238.041048
 31
0.0
  0
LINE
  5
E3
100
AcDbEntity
  8
LC-004-003-----0
370
    25
390
0
 62
     2
100
AcDbLine
 10
431.2
 20
238.041048
 30
0.0
 11
432.954272
 21
251.366067
 31
0.0
  0
LINE
  5
E4
100
AcDbEntity
  8
LC-004-003-----0
370
    25
390
0
 62
     2
100
AcDbLine
 10
430.395959
 20
251.428349
 30
0.0
 11
431.2
 21
245.321048
 31
0.0
  0
LINE
  5
E5
100
AcDbEntity
  8
LC-004-003-----0
370
    25
390
0
 62
     2
100
AcDbLine
 10
431.2
 20
245.321048
 30
0.0
 11
432.004041
 21
251.428349
 31
0.0
  0
LINE
  5
E6
100
AcDbEntity
  8
LC-004-003-----0
370
    25
390
0
 62
     2
100
AcDbLine
 10
434.854733
 20
412.114179
 30
0.0
 11
431.2
 21
439.874635
 31
0.0
  0
LINE
  5
E7
100
AcDbEntity
  8
LC-004-003-----0
370
    25
390
0
 62
     2
100
AcDbLine
 10
431.2
 20
439.874635
 30
0.0
 11
427.545267
 21
412.114179
 31
0.0
  0
LINE
  5
E8
100
AcDbEntity
  8
LC-004-003-----0
370
    25
390
0
 62
     2
100
AcDbLine
 10
427.545267
 20
412.114179
 30
0.0
 11
434.854733
 21
412.114179
 31
0.0
  0
LINE
  5
E9
100
AcDbEntity
  8
LC-004-003-----0
370
    25
390
0
 62
     2
100
AcDbLine
 10
433.904503
 20
412.051897
 30
0.0
 11
431.2
 21
432.594635
 31
0.0
  0
LINE
  5
EA
100
AcDbEntity
  8
LC-004-003-----0
370
    25
390
0
 62
     2
100
AcDbLine
 10
431.2
 20
432.594635
 30
0.0
 11
428.495497
 21
412.051897
 31
0.0
  0
LINE
  5
EB
100
AcDbEntity
  8
LC-004-003-----0
370
    25
390
0
 62
     2
100
AcDbLine
 10
432.954272
 20
411.989616
 30
0.0
 11
431.2
 21
425.314635
 31
0.0
  0
LINE
  5
EC
100
AcDbEntity
  8
LC-004-003-----0
370
    25
390
0
 62
     2
100
AcDbLine
 10
431.2
 20
425.314635
 30
0.0
 11
429.445728
 21
411.989616
 31
0.0
  0
LINE
  5
ED
100
AcDbEntity
  8
LC-004-003-----0
370
    25
390
0
 62
     2
100
AcDbLine
 10
432.004041
 20
411.927335
 30
0.0
 11
431.2
 21
418.034635
 31
0.0
  0
LINE
  5
EE
100
AcDbEntity
  8
LC-004-003-----0
370
    25
390
0
 62
     2
100
AcDbLine
 10
431.2
 20
418.034635
 30
0.0
 11
430.395959
 21
411.927335
 31
0.0
  0
TEXT
  5
EF
100
AcDbEntity
  8
LC-004-003-----0
370
    -2
390
0
 62
     7
100
AcDbText
 10
423.372446
 20
309.398002
 30
0.0
 40
28.0
  1
216
 50
90.0
 41
0.9
 51
15.0
  7
LCTX15-400-0-0-ARIAL
 72
     1
 11
423.372446
 21
336.026002
 31
0.0
100
AcDbText
  0
ENDBLK
  5
F0
100
AcDbEntity
  8
0
390
0
100
AcDbBlockEnd
  0
ENDSEC
  0
SECTION
  2
ENTITIES
  0
VIEWPORT
  5
20D
100
AcDbEntity
 67
     1
  8
LC-VIEWPORT
390
0
100
AcDbViewport
 10
420.0
 20
297.0
 30
0.0
 40
840.0
 41
594.0
 68
     1
 69
     1
 12
420.0
 22
297.0
 13
0.0
 23
0.0
 14
1.0
 24
1.0
 15
0.0
 25
0.0
 16
0.0
 26
0.0
 36
1.0
 17
0.0
 27
0.0
 37
0.0
 42
50.0
 43
0.0
 44
0.0
 45
594.0
 50
0.0
 51
0.0
 72
   100
 90
    32928
340
0
  1

281
     0
 71
     0
 74
     1
110
0.0
120
0.0
130
0.0
111
1.0
121
0.0
131
0.0
112
0.0
122
1.0
132
0.0
345
0
346
0
 79
     0
146
0.0
  0
LINE
  5
2C
100
AcDbEntity
  8
LC-001-002-----0
370
    25
390
0
 62
     2
100
AcDbLine
 10
189.188612
 20
422.481039
 30
0.0
 11
189.18859
 21
438.461235
 31
0.0
  0
LINE
  5
2D
100
AcDbEntity
  8
LC-001-002-----0
370
    25
390
0
 62
     2
100
AcDbLine
 10
328.68859
 20
422.481039
 30
0.0
 11
328.68859
 21
438.461235
 31
0.0
  0
LINE
  5
2E
100
AcDbEntity
  8
LC-001-002-----0
370
    25
390
0
 62
     2
100
AcDbLine
 10
258.93859
 20
442.874934
 30
0.0
 11
258.93859
 21
223.481048
 31
0.0
  0
LINE
  5
2F
100
AcDbEntity
  8
LC-001-002-----0
370
    50
390
0
  6
ByBlock
 62
     7
100
AcDbLine
 10
191.73859
 20
424.208532
 30
0.0
 11
191.73859
 21
437.950922
 31
0.0
  0
LINE
  5
30
100
AcDbEntity
  8
LC-001-002-----0
370
    50
390
0
  6
ByBlock
 62
     7
100
AcDbLine
 10
370.938598
 20
442.874635
 30
0.0
 11
365.43859
 21
442.778647
 31
0.0
  0
DIMENSION
  5
4F
100
AcDbEntity
  8
LC-004-003-----0
370
    25
390
0
 62
     2
100
AcDbDimension
  2
*D0
 10
352.8
 20
323.481048
 30
0.0
 11
352.8
 21
323.481048
 31
0.0
 71
     5
 72
     1
 41
1.0
 42
0.0
  3
LC-DIM-L-0140-01-02
100
AcDbAlignedDimension
 13
336.307122
 23
423.481048
 33
0.0
 14
282.732819
 24
223.481048
 34
0.0
 50
90.0
100
AcDbRotatedDimension
  0
DIMENSION
  5
69
100
AcDbEntity
  8
LC-004-003-----0
370
    25
390
0
 62
     2
100
AcDbDimension
  2
*D1
 10
258.93859
 20
156.8
 30
0.0
 11
258.93859
 21
156.8
 31
0.0
 71
     5
 72
     1
 41
1.0
 42
0.0
  1
DN50
  3
LC-DIM-L-0140-01-02
100
AcDbAlignedDimension
 13
233.93859
 23
227.981048
 33
0.0
 14
283.93859
 24
227.981048
 34
0.0
100
AcDbRotatedDimension
  0
LINE
  5
6A
100
AcDbEntity
  8
LC-001-002-----0
370
    50
390
0
  6
ByBlock
 62
     7
100
AcDbLine
 10
193.547509
 20
423.481048
 30
0.0
 11
206.93859
 21
423.481048
 31
0.0
  0
LINE
  5
6B
100
AcDbEntity
  8
LC-001-002-----0
370
    50
390
0
  6
ByBlock
 62
     7
100
AcDbLine
 10
235.144362
 20
223.481048
 30
0.0
 11
233.93859
 21
227.981048
 31
0.0
  0
ARC
  5
6C
100
AcDbEntity
  8
LC-001-002-----0
370
    50
390
0
  6
ByBlock
 62
     7
100
AcDbCircle
 10
328.68859
 20
432.481039
 30
0.0
 40
10.0
100
AcDbArc
 50
244.157941
 51
295.841807
  0
LINE
  5
6D
100
AcDbEntity
  8
LC-001-002-----0
370
    50
390
0
  6
ByBlock
 62
     7
100
AcDbLine
 10
336.307122
 20
431.844235
 30
0.0
 11
336.307122
 21
423.481048
 31
0.0
  0
LINE
  5
6E
100
AcDbEntity
  8
LC-001-002-----0
370
    50
390
0
  6
ByBlock
 62
     7
100
AcDbLine
 10
336.307122
 20
423.481048
 30
0.0
 11
333.047509
 21
423.481048
 31
0.0
  0
LINE
  5
6F
100
AcDbEntity
  8
LC-001-002-----0
370
    50
390
0
  6
ByBlock
 62
     7
100
AcDbLine
 10
318.688705
 20
426.482429
 30
0.0
 11
310.924497
 21
426.482429
 31
0.0
  0
LINE
  5
70
100
AcDbEntity
  8
LC-001-002-----0
370
    50
390
0
  6
ByBlock
 62
     7
100
AcDbLine
 10
280.93859
 20
223.481048
 30
0.0
 11
236.93859
 21
223.481048
 31
0.0
  0
LINE
  5
71
100
AcDbEntity
  8
LC-001-002-----0
370
    50
390
0
  6
ByBlock
 62
     7
100
AcDbLine
 10
283.938581
 20
422.774638
 30
0.0
 11
283.938581
 21
422.774612
 31
0.0
  0
LINE
  5
72
100
AcDbEntity
  8
LC-001-002-----0
370
    50
390
0
  6
ByBlock
 62
     7
100
AcDbLine
 10
233.93859
 20
422.774029
 30
0.0
 11
233.93859
 21
227.981048
 31
0.0
  0
LINE
  5
73
100
AcDbEntity
  8
LC-001-002-----0
370
    50
390
0
  6
ByBlock
 62
     7
100
AcDbLine
 10
283.93859
 20
422.774681
 30
0.0
 11
283.93859
 21
227.981048
 31
0.0
  0
LINE
  5
74
100
AcDbEntity
  8
LC-001-002-----0
370
    50
390
0
  6
ByBlock
 62
     7
100
AcDbLine
 10
236.93859
 20
425.696499
 30
0.0
 11
236.93859
 21
223.481048
 31
0.0
  0
LINE
  5
75
100
AcDbEntity
  8
LC-001-002-----0
370
    50
390
0
  6
ByBlock
 62
     7
100
AcDbLine
 10
280.93859
 20
425.69452
 30
0.0
 11
280.93859
 21
223.481048
 31
0.0
  0
LINE
  5
76
100
AcDbEntity
  8
LC-001-002-----0
370
    50
390
0
  6
ByBlock
 62
     7
100
AcDbLine
 10
282.732819
 20
223.481048
 30
0.0
 11
283.93859
 21
227.981048
 31
0.0
  0
LINE
  5
77
100
AcDbEntity
  8
LC-001-002-----0
370
    50
390
0
  6
ByBlock
 62
     7
100
AcDbLine
 10
236.93859
 20
223.481048
 30
0.0
 11
235.144362
 21
223.481048
 31
0.0
  0
LINE
  5
78
100
AcDbEntity
  8
LC-001-002-----0
370
    50
390
0
  6
ByBlock
 62
     7
100
AcDbLine
 10
280.93859
 20
223.481048
 30
0.0
 11
282.732819
 21
223.481048
 31
0.0
  0
LINE
  5
79
100
AcDbEntity
  8
LC-001-002-----0
370
    50
390
0
  6
ByBlock
 62
     7
100
AcDbLine
 10
324.328205
 20
423.481759
 30
0.0
 11
310.93859
 21
423.48177
 31
0.0
  0
LINE
  5
7A
100
AcDbEntity
  8
LC-001-002-----0
370
    50
390
0
  6
ByBlock
 62
     7
100
AcDbLine
 10
181.570059
 20
423.481048
 30
0.0
 11
184.829672
 21
423.481048
 31
0.0
  0
LINE
  5
7B
100
AcDbEntity
  8
LC-001-002-----0
370
    50
390
0
  6
ByBlock
 62
     7
100
AcDbLine
 10
310.93859
 20
426.482429
 30
0.0
 11
280.93859
 21
425.69452
 31
0.0
  0
LINE
  5
7C
100
AcDbEntity
  8
LC-001-002-----0
370
    50
390
0
  6
ByBlock
 62
     7
100
AcDbLine
 10
310.93859
 20
423.48177
 30
0.0
 11
283.93859
 21
422.774681
 31
0.0
  0
LINE
  5
7D
100
AcDbEntity
  8
LC-001-002-----0
370
    50
390
0
  6
ByBlock
 62
     7
100
AcDbLine
 10
206.93859
 20
423.481048
 30
0.0
 11
233.93859
 21
422.774029
 31
0.0
  0
ARC
  5
7E
100
AcDbEntity
  8
LC-001-002-----0
370
    50
390
0
  6
ByBlock
 62
     7
100
AcDbCircle
 10
189.18859
 20
432.481039
 30
0.0
 40
10.0
100
AcDbArc
 50
244.158193
 51
295.842059
  0
LINE
  5
7F
100
AcDbEntity
  8
LC-001-002-----0
370
    50
390
0
  6
ByBlock
 62
     7
100
AcDbLine
 10
236.93859
 20
425.696499
 30
0.0
 11
206.860079
 21
426.484133
 31
0.0
  0
LINE
  5
80
100
AcDbEntity
  8
LC-001-002-----0
370
    50
390
0
  6
ByBlock
 62
     7
100
AcDbLine
 10
206.860079
 20
426.484133
 30
0.0
 11
311.00345
 21
426.484133
 31
0.0
  0
LINE
  5
81
100
AcDbEntity
  8
LC-001-002-----0
370
    50
390
0
  6
ByBlock
 62
     7
100
AcDbLine
 10
206.93859
 20
423.481048
 30
0.0
 11
206.93859
 21
423.481048
 31
0.0
  0
LINE
  5
82
100
AcDbEntity
  8
LC-001-002-----0
370
    50
390
0
  6
ByBlock
 62
     7
100
AcDbLine
 10
206.860079
 20
426.484133
 30
0.0
 11
199.188564
 21
426.482483
 31
0.0
  0
LINE
  5
83
100
AcDbEntity
  8
LC-001-002-----0
370
    50
390
0
  6
ByBlock
 62
     7
100
AcDbLine
 10
341.483122
 20
434.389234
 30
0.0
 11
341.483122
 21
437.952234
 31
0.0
  0
LINE
  5
84
100
AcDbEntity
  8
LC-001-002-----0
370
    50
390
0
  6
ByBlock
 62
     7
100
AcDbLine
 10
106.93859
 20
442.874635
 30
0.0
 11
146.938582
 21
442.874635
 31
0.0
  0
LINE
  5
85
100
AcDbEntity
  8
LC-001-002-----0
370
    50
390
0
  6
ByBlock
 62
     7
100
AcDbLine
 10
334.65659
 20
437.952235
 30
0.0
 11
334.65659
 21
434.389235
 31
0.0
  0
LINE
  5
86
100
AcDbEntity
  8
LC-001-002-----0
370
    50
390
0
  6
ByBlock
 62
     7
100
AcDbLine
 10
176.494059
 20
434.389235
 30
0.0
 11
176.494059
 21
437.952235
 31
0.0
  0
LINE
  5
87
100
AcDbEntity
  8
LC-001-002-----0
370
    50
390
0
  6
ByBlock
 62
     7
100
AcDbLine
 10
184.95659
 20
438.461235
 30
0.0
 11
184.662719
 21
437.952235
 31
0.0
  0
LINE
  5
88
100
AcDbEntity
  8
LC-001-002-----0
370
    50
390
0
  6
ByBlock
 62
     7
100
AcDbLine
 10
185.250462
 20
437.952235
 30
0.0
 11
184.95659
 21
438.461235
 31
0.0
  0
LINE
  5
89
100
AcDbEntity
  8
LC-001-002-----0
370
    50
390
0
  6
ByBlock
 62
     7
100
AcDbLine
 10
172.93859
 20
437.952235
 30
0.0
 11
183.22059
 21
437.952235
 31
0.0
  0
LINE
  5
8A
100
AcDbEntity
  8
LC-001-002-----0
370
    50
390
0
  6
ByBlock
 62
     7
100
AcDbLine
 10
195.15659
 20
439.478532
 30
0.0
 11
195.15659
 21
437.951532
 31
0.0
  0
LINE
  5
8B
100
AcDbEntity
  8
LC-001-002-----0
370
    50
390
0
  6
ByBlock
 62
     7
100
AcDbLine
 10
183.22059
 20
437.952235
 30
0.0
 11
192.187373
 21
437.952235
 31
0.0
  0
LINE
  5
8C
100
AcDbEntity
  8
LC-001-002-----0
370
    50
390
0
  6
ByBlock
 62
     7
100
AcDbLine
 10
199.15659
 20
439.478532
 30
0.0
 11
199.188564
 21
439.478532
 31
0.0
  0
LINE
  5
8D
100
AcDbEntity
  8
LC-001-002-----0
370
    50
390
0
  6
ByBlock
 62
     7
100
AcDbLine
 10
183.22059
 20
437.952235
 30
0.0
 11
183.22059
 21
434.389235
 31
0.0
  0
LINE
  5
8E
100
AcDbEntity
  8
LC-001-002-----0
370
    50
390
0
  6
ByBlock
 62
     7
100
AcDbLine
 10
410.938596
 20
442.874528
 30
0.0
 11
370.938579
 21
442.874635
 31
0.0
  0
LINE
  5
8F
100
AcDbEntity
  8
LC-001-002-----0
370
    50
390
0
  6
ByBlock
 62
     7
100
AcDbLine
 10
365.43859
 20
442.778647
 30
0.0
 11
344.93859
 21
437.952235
 31
0.0
  0
LINE
  5
90
100
AcDbEntity
  8
LC-001-002-----0
370
    50
390
0
  6
ByBlock
 62
     7
100
AcDbLine
 10
146.938582
 20
442.874635
 30
0.0
 11
152.43859
 21
442.778647
 31
0.0
  0
LINE
  5
91
100
AcDbEntity
  8
LC-001-002-----0
370
    50
390
0
  6
ByBlock
 62
     7
100
AcDbLine
 10
412.93859
 20
439.874635
 30
0.0
 11
366.194687
 21
439.874635
 31
0.0
  0
LINE
  5
92
100
AcDbEntity
  8
LC-001-002-----0
370
    50
390
0
  6
ByBlock
 62
     7
100
AcDbLine
 10
199.15659
 20
439.478532
 30
0.0
 11
199.15659
 21
439.478649
 31
0.0
  0
LINE
  5
93
100
AcDbEntity
  8
LC-001-002-----0
370
    50
390
0
  6
ByBlock
 62
     7
100
AcDbLine
 10
334.65659
 20
434.389235
 30
0.0
 11
341.483122
 21
434.389235
 31
0.0
  0
LINE
  5
94
100
AcDbEntity
  8
LC-001-002-----0
370
    50
390
0
  6
ByBlock
 62
     7
100
AcDbLine
 10
183.22059
 20
434.389235
 30
0.0
 11
176.494059
 21
434.389235
 31
0.0
  0
LINE
  5
95
100
AcDbEntity
  8
LC-001-002-----0
370
    50
390
0
  6
ByBlock
 62
     7
100
AcDbLine
 10
336.307122
 20
431.844235
 30
0.0
 11
343.433122
 21
431.844235
 31
0.0
  0
LINE
  5
96
100
AcDbEntity
  8
LC-001-002-----0
370
    50
390
0
  6
ByBlock
 62
     7
100
AcDbLine
 10
343.433122
 20
431.844235
 30
0.0
 11
346.927313
 21
435.338426
 31
0.0
  0
LINE
  5
97
100
AcDbEntity
  8
LC-001-002-----0
370
    50
390
0
  6
ByBlock
 62
     7
100
AcDbLine
 10
324.126719
 20
437.952235
 30
0.0
 11
324.42059
 21
438.461235
 31
0.0
  0
LINE
  5
98
100
AcDbEntity
  8
LC-001-002-----0
370
    50
390
0
  6
ByBlock
 62
     7
100
AcDbLine
 10
324.42059
 20
438.461235
 30
0.0
 11
324.714462
 21
437.952235
 31
0.0
  0
LINE
  5
99
100
AcDbEntity
  8
LC-001-002-----0
370
    50
390
0
  6
ByBlock
 62
     7
100
AcDbLine
 10
322.72059
 20
437.952235
 30
0.0
 11
328.68859
 21
437.952235
 31
0.0
  0
LINE
  5
9A
100
AcDbEntity
  8
LC-001-002-----0
370
    50
390
0
  6
ByBlock
 62
     7
100
AcDbLine
 10
181.570059
 20
431.844235
 30
0.0
 11
174.444059
 21
431.844235
 31
0.0
  0
LINE
  5
9B
100
AcDbEntity
  8
LC-001-002-----0
370
    50
390
0
  6
ByBlock
 62
     7
100
AcDbLine
 10
174.444059
 20
431.844235
 30
0.0
 11
170.949868
 21
435.338426
 31
0.0
  0
LINE
  5
9C
100
AcDbEntity
  8
LC-001-002-----0
370
    50
390
0
  6
ByBlock
 62
     7
100
AcDbLine
 10
326.13859
 20
437.952235
 30
0.0
 11
326.13859
 21
424.208532
 31
0.0
  0
LINE
  5
9D
100
AcDbEntity
  8
LC-001-002-----0
370
    50
390
0
  6
ByBlock
 62
     7
100
AcDbLine
 10
195.15659
 20
439.478532
 30
0.0
 11
195.15659
 21
437.951532
 31
0.0
  0
LINE
  5
9E
100
AcDbEntity
  8
LC-001-002-----0
370
    50
390
0
  6
ByBlock
 62
     7
100
AcDbLine
 10
104.93859
 20
439.874635
 30
0.0
 11
151.682494
 21
439.874635
 31
0.0
  0
LINE
  5
9F
100
AcDbEntity
  8
LC-001-002-----0
370
    50
390
0
  6
ByBlock
 62
     7
100
AcDbLine
 10
331.23859
 20
437.952235
 30
0.0
 11
331.23859
 21
424.208532
 31
0.0
  0
LINE
  5
A0
100
AcDbEntity
  8
LC-001-002-----0
370
    50
390
0
  6
ByBlock
 62
     7
100
AcDbLine
 10
331.23859
 20
424.208532
 30
0.0
 11
326.13859
 21
424.208532
 31
0.0
  0
LINE
  5
A1
100
AcDbEntity
  8
LC-001-002-----0
370
    50
390
0
  6
ByBlock
 62
     7
100
AcDbLine
 10
152.43859
 20
442.778647
 30
0.0
 11
172.93859
 21
437.952235
 31
0.0
  0
LINE
  5
A2
100
AcDbEntity
  8
LC-001-002-----0
370
    50
390
0
  6
ByBlock
 62
     7
100
AcDbLine
 10
186.63859
 20
424.208532
 30
0.0
 11
191.73859
 21
424.208532
 31
0.0
  0
LINE
  5
A3
100
AcDbEntity
  8
LC-001-002-----0
370
    50
390
0
  6
ByBlock
 62
     7
100
AcDbLine
 10
195.15659
 20
439.478532
 30
0.0
 11
196.15659
 21
439.478532
 31
0.0
  0
LINE
  5
A4
100
AcDbEntity
  8
LC-001-002-----0
370
    50
390
0
  6
ByBlock
 62
     7
100
AcDbLine
 10
199.188564
 20
442.529293
 30
0.0
 11
199.188564
 21
426.482483
 31
0.0
  0
LINE
  5
A5
100
AcDbEntity
  8
LC-001-002-----0
370
    50
390
0
  6
ByBlock
 62
     7
100
AcDbLine
 10
322.72059
 20
439.478458
 30
0.0
 11
318.718705
 21
439.479235
 31
0.0
  0
LINE
  5
A6
100
AcDbEntity
  8
LC-001-002-----0
370
    50
390
0
  6
ByBlock
 62
     7
100
AcDbLine
 10
318.688705
 20
439.478532
 30
0.0
 11
318.688705
 21
426.482429
 31
0.0
  0
LINE
  5
A7
100
AcDbEntity
  8
LC-001-002-----0
370
    50
390
0
  6
ByBlock
 62
     7
100
AcDbLine
 10
181.570059
 20
431.844235
 30
0.0
 11
181.570059
 21
423.481048
 31
0.0
  0
LINE
  5
A8
100
AcDbEntity
  8
LC-001-002-----0
370
    50
390
0
  6
ByBlock
 62
     7
100
AcDbLine
 10
193.45659
 20
438.461235
 30
0.0
 11
193.162719
 21
437.952235
 31
0.0
  0
LINE
  5
A9
100
AcDbEntity
  8
LC-001-002-----0
370
    50
390
0
  6
ByBlock
 62
     7
100
AcDbLine
 10
193.750462
 20
437.952235
 30
0.0
 11
193.45659
 21
438.461235
 31
0.0
  0
LINE
  5
AA
100
AcDbEntity
  8
LC-001-002-----0
370
    50
390
0
  6
ByBlock
 62
     7
100
AcDbLine
 10
195.15659
 20
439.478532
 30
0.0
 11
195.15659
 21
437.951532
 31
0.0
  0
LINE
  5
AB
100
AcDbEntity
  8
LC-001-002-----0
370
    50
390
0
  6
ByBlock
 62
     7
100
AcDbLine
 10
186.63859
 20
437.952235
 30
0.0
 11
186.63859
 21
424.208532
 31
0.0
  0
LINE
  5
AC
100
AcDbEntity
  8
LC-001-002-----0
370
    50
390
0
  6
ByBlock
 62
     7
100
AcDbLine
 10
322.72059
 20
439.478532
 30
0.0
 11
322.72059
 21
437.952235
 31
0.0
  0
LINE
  5
AD
100
AcDbEntity
  8
LC-001-002-----0
370
    50
390
0
  6
ByBlock
 62
     7
100
AcDbLine
 10
184.95659
 20
438.461235
 30
0.0
 11
189.18859
 21
438.461235
 31
0.0
  0
LINE
  5
AE
100
AcDbEntity
  8
LC-001-002-----0
370
    50
390
0
  6
ByBlock
 62
     7
100
AcDbLine
 10
332.92059
 20
438.461235
 30
0.0
 11
328.68859
 21
438.461235
 31
0.0
  0
LINE
  5
AF
100
AcDbEntity
  8
LC-001-002-----0
370
    50
390
0
  6
ByBlock
 62
     7
100
AcDbLine
 10
332.626719
 20
437.952235
 30
0.0
 11
332.92059
 21
438.461235
 31
0.0
  0
LINE
  5
B0
100
AcDbEntity
  8
LC-001-002-----0
370
    50
390
0
  6
ByBlock
 62
     7
100
AcDbLine
 10
332.92059
 20
438.461235
 30
0.0
 11
333.214462
 21
437.952235
 31
0.0
  0
LINE
  5
B1
100
AcDbEntity
  8
LC-001-002-----0
370
    50
390
0
  6
ByBlock
 62
     7
100
AcDbLine
 10
104.93859
 20
440.874635
 30
0.0
 11
104.93859
 21
439.874635
 31
0.0
  0
LINE
  5
B2
100
AcDbEntity
  8
LC-001-002-----0
370
    50
390
0
  6
ByBlock
 62
     7
100
AcDbLine
 10
151.682494
 20
439.874635
 30
0.0
 11
170.949868
 21
435.338426
 31
0.0
  0
ARC
  5
B4
100
AcDbEntity
  8
LC-005-002-RND-0
370
    50
390
0
 62
     1
100
AcDbCircle
 10
106.93859
 20
440.874635
 30
0.0
 40
2.0
100
AcDbArc
 50
90.0
 51
180.0
  0
LINE
  5
B5
100
AcDbEntity
  8
LC-001-002-----0
370
    50
390
0
  6
ByBlock
 62
     1
100
AcDbLine
 10
412.93859
 20
440.874528
 30
0.0
 11
412.93859
 21
439.874635
 31
0.0
  0
ARC
  5
B6
100
AcDbEntity
  8
LC-005-002-RND-0
370
    50
390
0
 62
     1
100
AcDbCircle
 10
410.93859
 20
440.874528
 30
0.0
 40
2.0
100
AcDbArc
 50
360.0
 51
89.999847
  0
LINE
  5
B7
100
AcDbEntity
  8
LC-001-002-----0
370
    50
390
0
  6
ByBlock
 62
     1
100
AcDbLine
 10
192.187373
 20
437.952235
 30
0.0
 11
195.15659
 21
437.952235
 31
0.0
  0
LINE
  5
B8
100
AcDbEntity
  8
LC-001-002-----0
370
    50
390
0
  6
ByBlock
 62
     1
100
AcDbLine
 10
334.65659
 20
437.952235
 30
0.0
 11
344.93859
 21
437.952235
 31
0.0
  0
LINE
  5
B9
100
AcDbEntity
  8
LC-001-002-----0
370
    50
390
0
  6
ByBlock
 62
     1
100
AcDbLine
 10
236.93859
 20
425.696499
 30
0.0
 11
280.93859
 21
425.69452
 31
0.0
  0
LINE
  5
BA
100
AcDbEntity
  8
LC-001-002-----0
370
    50
390
0
  6
ByBlock
 62
     1
100
AcDbLine
 10
366.194687
 20
439.874635
 30
0.0
 11
346.927313
 21
435.338426
 31
0.0
  0
DIMENSION
  5
D6
100
AcDbEntity
  8
LC-004-003-----0
370
    25
390
0
 62
     2
100
AcDbDimension
  2
*D2
 10
258.93859
 20
471.636
 30
0.0
 11
258.93859
 21
471.636
 31
0.0
 71
     5
 72
     1
 41
1.0
 42
0.0
  1
%%c<>
  3
LC-DIM-L-0140-02-02
100
AcDbAlignedDimension
 13
104.93859
 23
439.874635
 33
0.0
 14
412.93859
 24
439.874635
 34
0.0
100
AcDbRotatedDimension
  0
DIMENSION
  5
F1
100
AcDbEntity
  8
LC-004-003-----0
370
    25
390
0
 62
     2
100
AcDbDimension
  2
*D3
 10
431.2
 20
331.677842
 30
0.0
 11
431.2
 21
331.677842
 31
0.0
 71
     5
 72
     1
 41
1.0
 42
0.0
  1
216
  3
LC-DIM-L-0140-02-02
100
AcDbAlignedDimension
 13
282.732819
 23
223.481048
 33
0.0
 14
412.93859
 24
439.874635
 34
0.0
 50
90.0
100
AcDbRotatedDimension
  0
LINE
  5
F2
100
AcDbEntity
  8
LC-001-002-----0
370
    50
390
0
  6
ByBlock
 62
     1
100
AcDbLine
 10
189.18859
 20
438.461235
 30
0.0
 11
193.45659
 21
438.461235
 31
0.0
  0
LINE
  5
F4
102
{ACAD_REACTORS
330
20F
102
}
100
AcDbEntity
  8
LC-006-005-----0
370
    25
390
0
 62
     2
100
AcDbLine
 10
236.93859
 20
424.913357
 30
0.0
 11
236.134389
 21
425.717558
 31
0.0
  0
LINE
  5
F5
102
{ACAD_REACTORS
330
20F
102
}
100
AcDbEntity
  8
LC-006-005-----0
370
    25
390
0
 62
     2
100
AcDbLine
 10
236.93859
 20
422.08493
 30
0.0
 11
233.229906
 21
425.793614
 31
0.0
  0
LINE
  5
F6
102
{ACAD_REACTORS
330
20F
102
}
100
AcDbEntity
  8
LC-006-005-----0
370
    25
390
0
 62
     2
100
AcDbLine
 10
236.93859
 20
419.256503
 30
0.0
 11
233.93859
 21
422.256503
 31
0.0
  0
LINE
  5
F7
102
{ACAD_REACTORS
330
20F
102
}
100
AcDbEntity
  8
LC-006-005-----0
370
    25
390
0
 62
     2
100
AcDbLine
 10
233.407148
 20
422.787945
 30
0.0
 11
230.325422
 21
425.869671
 31
0.0
  0
LINE
  5
F8
102
{ACAD_REACTORS
330
20F
102
}
100
AcDbEntity
  8
LC-006-005-----0
370
    25
390
0
 62
     2
100
AcDbLine
 10
236.93859
 20
416.428075
 30
0.0
 11
233.93859
 21
419.428075
 31
0.0
  0
LINE
  5
F9
102
{ACAD_REACTORS
330
20F
102
}
100
AcDbEntity
  8
LC-006-005-----0
370
    25
390
0
 62
     2
100
AcDbLine
 10
230.502664
 20
422.864001
 30
0.0
 11
227.420938
 21
425.945728
 31
0.0
  0
LINE
  5
FA
102
{ACAD_REACTORS
330
20F
102
}
100
AcDbEntity
  8
LC-006-005-----0
370
    25
390
0
 62
     2
100
AcDbLine
 10
236.93859
 20
413.599648
 30
0.0
 11
233.93859
 21
416.599648
 31
0.0
  0
LINE
  5
FB
102
{ACAD_REACTORS
330
20F
102
}
100
AcDbEntity
  8
LC-006-005-----0
370
    25
390
0
 62
     2
100
AcDbLine
 10
227.598181
 20
422.940058
 30
0.0
 11
224.516454
 21
426.021784
 31
0.0
  0
LINE
  5
FC
102
{ACAD_REACTORS
330
20F
102
}
100
AcDbEntity
  8
LC-006-005-----0
370
    25
390
0
 62
     2
100
AcDbLine
 10
236.93859
 20
410.771221
 30
0.0
 11
233.93859
 21
413.771221
 31
0.0
  0
LINE
  5
FD
102
{ACAD_REACTORS
330
20F
102
}
100
AcDbEntity
  8
LC-006-005-----0
370
    25
390
0
 62
     2
100
AcDbLine
 10
224.693697
 20
423.016115
 30
0.0
 11
221.611971
 21
426.097841
 31
0.0
  0
LINE
  5
FE
102
{ACAD_REACTORS
330
20F
102
}
100
AcDbEntity
  8
LC-006-005-----0
370
    25
390
0
 62
     2
100
AcDbLine
 10
236.93859
 20
407.942794
 30
0.0
 11
233.93859
 21
410.942794
 31
0.0
  0
LINE
  5
FF
102
{ACAD_REACTORS
330
20F
102
}
100
AcDbEntity
  8
LC-006-005-----0
370
    25
390
0
 62
     2
100
AcDbLine
 10
221.789213
 20
423.092171
 30
0.0
 11
218.707487
 21
426.173897
 31
0.0
  0
LINE
  5
100
102
{ACAD_REACTORS
330
20F
102
}
100
AcDbEntity
  8
LC-006-005-----0
370
    25
390
0
 62
     2
100
AcDbLine
 10
236.93859
 20
405.114367
 30
0.0
 11
233.93859
 21
408.114367
 31
0.0
  0
LINE
  5
101
102
{ACAD_REACTORS
330
20F
102
}
100
AcDbEntity
  8
LC-006-005-----0
370
    25
390
0
 62
     2
100
AcDbLine
 10
218.88473
 20
423.168228
 30
0.0
 11
215.803003
 21
426.249954
 31
0.0
  0
LINE
  5
102
102
{ACAD_REACTORS
330
20F
102
}
100
AcDbEntity
  8
LC-006-005-----0
370
    25
390
0
 62
     2
100
AcDbLine
 10
236.93859
 20
402.28594
 30
0.0
 11
233.93859
 21
405.28594
 31
0.0
  0
LINE
  5
103
102
{ACAD_REACTORS
330
20F
102
}
100
AcDbEntity
  8
LC-006-005-----0
370
    25
390
0
 62
     2
100
AcDbLine
 10
215.980246
 20
423.244284
 30
0.0
 11
212.89852
 21
426.326011
 31
0.0
  0
LINE
  5
104
102
{ACAD_REACTORS
330
20F
102
}
100
AcDbEntity
  8
LC-006-005-----0
370
    25
390
0
 62
     2
100
AcDbLine
 10
236.93859
 20
399.457513
 30
0.0
 11
233.93859
 21
402.457513
 31
0.0
  0
LINE
  5
105
102
{ACAD_REACTORS
330
20F
102
}
100
AcDbEntity
  8
LC-006-005-----0
370
    25
390
0
 62
     2
100
AcDbLine
 10
213.075762
 20
423.320341
 30
0.0
 11
209.994036
 21
426.402067
 31
0.0
  0
LINE
  5
106
102
{ACAD_REACTORS
330
20F
102
}
100
AcDbEntity
  8
LC-006-005-----0
370
    25
390
0
 62
     2
100
AcDbLine
 10
199.188564
 20
437.207539
 30
0.0
 11
196.156678
 21
440.239425
 31
0.0
  0
LINE
  5
107
102
{ACAD_REACTORS
330
20F
102
}
100
AcDbEntity
  8
LC-006-005-----0
370
    25
390
0
 62
     2
100
AcDbLine
 10
236.93859
 20
396.629086
 30
0.0
 11
233.93859
 21
399.629086
 31
0.0
  0
LINE
  5
108
102
{ACAD_REACTORS
330
20F
102
}
100
AcDbEntity
  8
LC-006-005-----0
370
    25
390
0
 62
     2
100
AcDbLine
 10
210.171278
 20
423.396398
 30
0.0
 11
207.089552
 21
426.478124
 31
0.0
  0
LINE
  5
109
102
{ACAD_REACTORS
330
20F
102
}
100
AcDbEntity
  8
LC-006-005-----0
370
    25
390
0
 62
     2
100
AcDbLine
 10
199.188564
 20
434.379112
 30
0.0
 11
195.15659
 21
438.411086
 31
0.0
  0
LINE
  5
10A
102
{ACAD_REACTORS
330
20F
102
}
100
AcDbEntity
  8
LC-006-005-----0
370
    25
390
0
 62
     2
100
AcDbLine
 10
236.93859
 20
393.800658
 30
0.0
 11
233.93859
 21
396.800658
 31
0.0
  0
LINE
  5
10B
102
{ACAD_REACTORS
330
20F
102
}
100
AcDbEntity
  8
LC-006-005-----0
370
    25
390
0
 62
     2
100
AcDbLine
 10
207.266795
 20
423.472454
 30
0.0
 11
204.255676
 21
426.483573
 31
0.0
  0
LINE
  5
10C
102
{ACAD_REACTORS
330
20F
102
}
100
AcDbEntity
  8
LC-006-005-----0
370
    25
390
0
 62
     2
100
AcDbLine
 10
199.188564
 20
431.550685
 30
0.0
 11
192.787014
 21
437.952235
 31
0.0
  0
LINE
  5
10D
102
{ACAD_REACTORS
330
20F
102
}
100
AcDbEntity
  8
LC-006-005-----0
370
    25
390
0
 62
     2
100
AcDbLine
 10
236.93859
 20
390.972231
 30
0.0
 11
233.93859
 21
393.972231
 31
0.0
  0
LINE
  5
10E
102
{ACAD_REACTORS
330
20F
102
}
100
AcDbEntity
  8
LC-006-005-----0
370
    25
390
0
 62
     2
100
AcDbLine
 10
204.429773
 20
423.481048
 30
0.0
 11
201.427857
 21
426.482965
 31
0.0
  0
LINE
  5
10F
102
{ACAD_REACTORS
330
20F
102
}
100
AcDbEntity
  8
LC-006-005-----0
370
    25
390
0
 62
     2
100
AcDbLine
 10
199.188564
 20
428.722258
 30
0.0
 11
191.73859
 21
436.172231
 31
0.0
  0
LINE
  5
110
102
{ACAD_REACTORS
330
20F
102
}
100
AcDbEntity
  8
LC-006-005-----0
370
    25
390
0
 62
     2
100
AcDbLine
 10
236.93859
 20
388.143804
 30
0.0
 11
233.93859
 21
391.143804
 31
0.0
  0
LINE
  5
111
102
{ACAD_REACTORS
330
20F
102
}
100
AcDbEntity
  8
LC-006-005-----0
370
    25
390
0
 62
     2
100
AcDbLine
 10
201.601346
 20
423.481048
 30
0.0
 11
191.73859
 21
433.343804
 31
0.0
  0
LINE
  5
112
102
{ACAD_REACTORS
330
20F
102
}
100
AcDbEntity
  8
LC-006-005-----0
370
    25
390
0
 62
     2
100
AcDbLine
 10
236.93859
 20
385.315377
 30
0.0
 11
233.93859
 21
388.315377
 31
0.0
  0
LINE
  5
113
102
{ACAD_REACTORS
330
20F
102
}
100
AcDbEntity
  8
LC-006-005-----0
370
    25
390
0
 62
     2
100
AcDbLine
 10
198.772919
 20
423.481048
 30
0.0
 11
191.73859
 21
430.515377
 31
0.0
  0
LINE
  5
114
102
{ACAD_REACTORS
330
20F
102
}
100
AcDbEntity
  8
LC-006-005-----0
370
    25
390
0
 62
     2
100
AcDbLine
 10
186.63859
 20
435.615377
 30
0.0
 11
184.301733
 21
437.952235
 31
0.0
  0
LINE
  5
115
102
{ACAD_REACTORS
330
20F
102
}
100
AcDbEntity
  8
LC-006-005-----0
370
    25
390
0
 62
     2
100
AcDbLine
 10
236.93859
 20
382.48695
 30
0.0
 11
233.93859
 21
385.48695
 31
0.0
  0
LINE
  5
116
102
{ACAD_REACTORS
330
20F
102
}
100
AcDbEntity
  8
LC-006-005-----0
370
    25
390
0
 62
     2
100
AcDbLine
 10
195.944492
 20
423.481048
 30
0.0
 11
191.73859
 21
427.68695
 31
0.0
  0
LINE
  5
117
102
{ACAD_REACTORS
330
20F
102
}
100
AcDbEntity
  8
LC-006-005-----0
370
    25
390
0
 62
     2
100
AcDbLine
 10
186.63859
 20
432.78695
 30
0.0
 11
183.22059
 21
436.20495
 31
0.0
  0
LINE
  5
118
102
{ACAD_REACTORS
330
20F
102
}
100
AcDbEntity
  8
LC-006-005-----0
370
    25
390
0
 62
     2
100
AcDbLine
 10
236.93859
 20
379.658523
 30
0.0
 11
233.93859
 21
382.658523
 31
0.0
  0
LINE
  5
119
102
{ACAD_REACTORS
330
20F
102
}
100
AcDbEntity
  8
LC-006-005-----0
370
    25
390
0
 62
     2
100
AcDbLine
 10
193.252893
 20
423.344221
 30
0.0
 11
191.73859
 21
424.858523
 31
0.0
  0
LINE
  5
11A
102
{ACAD_REACTORS
330
20F
102
}
100
AcDbEntity
  8
LC-006-005-----0
370
    25
390
0
 62
     2
100
AcDbLine
 10
186.63859
 20
429.958523
 30
0.0
 11
182.207878
 21
434.389235
 31
0.0
  0
LINE
  5
11B
102
{ACAD_REACTORS
330
20F
102
}
100
AcDbEntity
  8
LC-006-005-----0
370
    25
390
0
 62
     2
100
AcDbLine
 10
236.93859
 20
376.830096
 30
0.0
 11
233.93859
 21
379.830096
 31
0.0
  0
LINE
  5
11C
102
{ACAD_REACTORS
330
20F
102
}
100
AcDbEntity
  8
LC-006-005-----0
370
    25
390
0
 62
     2
100
AcDbLine
 10
191.102739
 20
422.665947
 30
0.0
 11
189.560154
 21
424.208532
 31
0.0
  0
LINE
  5
11D
102
{ACAD_REACTORS
330
20F
102
}
100
AcDbEntity
  8
LC-006-005-----0
370
    25
390
0
 62
     2
100
AcDbLine
 10
186.63859
 20
427.130096
 30
0.0
 11
179.379451
 21
434.389235
 31
0.0
  0
LINE
  5
11E
102
{ACAD_REACTORS
330
20F
102
}
100
AcDbEntity
  8
LC-006-005-----0
370
    25
390
0
 62
     2
100
AcDbLine
 10
176.494059
 20
437.274627
 30
0.0
 11
175.816451
 21
437.952235
 31
0.0
  0
LINE
  5
11F
102
{ACAD_REACTORS
330
20F
102
}
100
AcDbEntity
  8
LC-006-005-----0
370
    25
390
0
 62
     2
100
AcDbLine
 10
236.93859
 20
374.001669
 30
0.0
 11
233.93859
 21
377.001669
 31
0.0
  0
LINE
  5
120
102
{ACAD_REACTORS
330
20F
102
}
100
AcDbEntity
  8
LC-006-005-----0
370
    25
390
0
 62
     2
100
AcDbLine
 10
188.430439
 20
422.50982
 30
0.0
 11
186.731727
 21
424.208532
 31
0.0
  0
LINE
  5
121
102
{ACAD_REACTORS
330
20F
102
}
100
AcDbEntity
  8
LC-006-005-----0
370
    25
390
0
 62
     2
100
AcDbLine
 10
186.63859
 20
424.301669
 30
0.0
 11
181.570059
 21
429.3702
 31
0.0
  0
LINE
  5
122
102
{ACAD_REACTORS
330
20F
102
}
100
AcDbEntity
  8
LC-006-005-----0
370
    25
390
0
 62
     2
100
AcDbLine
 10
179.096024
 20
431.844235
 30
0.0
 11
176.551024
 21
434.389235
 31
0.0
  0
LINE
  5
123
102
{ACAD_REACTORS
330
20F
102
}
100
AcDbEntity
  8
LC-006-005-----0
370
    25
390
0
 62
     2
100
AcDbLine
 10
176.494059
 20
434.4462
 30
0.0
 11
172.988024
 21
437.952235
 31
0.0
  0
LINE
  5
124
102
{ACAD_REACTORS
330
20F
102
}
100
AcDbEntity
  8
LC-006-005-----0
370
    25
390
0
 62
     2
100
AcDbLine
 10
236.93859
 20
371.173241
 30
0.0
 11
233.93859
 21
374.173241
 31
0.0
  0
LINE
  5
125
102
{ACAD_REACTORS
330
20F
102
}
100
AcDbEntity
  8
LC-006-005-----0
370
    25
390
0
 62
     2
100
AcDbLine
 10
184.630783
 20
423.481048
 30
0.0
 11
181.570059
 21
426.541773
 31
0.0
  0
LINE
  5
126
102
{ACAD_REACTORS
330
20F
102
}
100
AcDbEntity
  8
LC-006-005-----0
370
    25
390
0
 62
     2
100
AcDbLine
 10
176.267597
 20
431.844235
 30
0.0
 11
169.303854
 21
438.807978
 31
0.0
  0
LINE
  5
127
102
{ACAD_REACTORS
330
20F
102
}
100
AcDbEntity
  8
LC-006-005-----0
370
    25
390
0
 62
     2
100
AcDbLine
 10
236.93859
 20
368.344814
 30
0.0
 11
233.93859
 21
371.344814
 31
0.0
  0
LINE
  5
128
102
{ACAD_REACTORS
330
20F
102
}
100
AcDbEntity
  8
LC-006-005-----0
370
    25
390
0
 62
     2
100
AcDbLine
 10
181.802356
 20
423.481048
 30
0.0
 11
181.570059
 21
423.713345
 31
0.0
  0
LINE
  5
129
102
{ACAD_REACTORS
330
20F
102
}
100
AcDbEntity
  8
LC-006-005-----0
370
    25
390
0
 62
     2
100
AcDbLine
 10
169.63554
 20
435.647865
 30
0.0
 11
165.604461
 21
439.678943
 31
0.0
  0
LINE
  5
12A
102
{ACAD_REACTORS
330
20F
102
}
100
AcDbEntity
  8
LC-006-005-----0
370
    25
390
0
 62
     2
100
AcDbLine
 10
236.93859
 20
365.516387
 30
0.0
 11
233.93859
 21
368.516387
 31
0.0
  0
LINE
  5
12B
102
{ACAD_REACTORS
330
20F
102
}
100
AcDbEntity
  8
LC-006-005-----0
370
    25
390
0
 62
     2
100
AcDbLine
 10
165.936148
 20
436.51883
 30
0.0
 11
161.905069
 21
440.549909
 31
0.0
  0
LINE
  5
12C
102
{ACAD_REACTORS
330
20F
102
}
100
AcDbEntity
  8
LC-006-005-----0
370
    25
390
0
 62
     2
100
AcDbLine
 10
236.93859
 20
362.68796
 30
0.0
 11
233.93859
 21
365.68796
 31
0.0
  0
LINE
  5
12D
102
{ACAD_REACTORS
330
20F
102
}
100
AcDbEntity
  8
LC-006-005-----0
370
    25
390
0
 62
     2
100
AcDbLine
 10
162.236755
 20
437.389795
 30
0.0
 11
158.205676
 21
441.420874
 31
0.0
  0
LINE
  5
12E
102
{ACAD_REACTORS
330
20F
102
}
100
AcDbEntity
  8
LC-006-005-----0
370
    25
390
0
 62
     2
100
AcDbLine
 10
236.93859
 20
359.859533
 30
0.0
 11
233.93859
 21
362.859533
 31
0.0
  0
LINE
  5
12F
102
{ACAD_REACTORS
330
20F
102
}
100
AcDbEntity
  8
LC-006-005-----0
370
    25
390
0
 62
     2
100
AcDbLine
 10
158.537362
 20
438.260761
 30
0.0
 11
154.506284
 21
442.29184
 31
0.0
  0
LINE
  5
130
102
{ACAD_REACTORS
330
20F
102
}
100
AcDbEntity
  8
LC-006-005-----0
370
    25
390
0
 62
     2
100
AcDbLine
 10
236.93859
 20
357.031106
 30
0.0
 11
233.93859
 21
360.031106
 31
0.0
  0
LINE
  5
131
102
{ACAD_REACTORS
330
20F
102
}
100
AcDbEntity
  8
LC-006-005-----0
370
    25
390
0
 62
     2
100
AcDbLine
 10
154.83797
 20
439.131726
 30
0.0
 11
151.16889
 21
442.800806
 31
0.0
  0
LINE
  5
132
102
{ACAD_REACTORS
330
20F
102
}
100
AcDbEntity
  8
LC-006-005-----0
370
    25
390
0
 62
     2
100
AcDbLine
 10
236.93859
 20
354.202679
 30
0.0
 11
233.93859
 21
357.202679
 31
0.0
  0
LINE
  5
133
102
{ACAD_REACTORS
330
20F
102
}
100
AcDbEntity
  8
LC-006-005-----0
370
    25
390
0
 62
     2
100
AcDbLine
 10
151.266634
 20
439.874635
 30
0.0
 11
148.290224
 21
442.851045
 31
0.0
  0
LINE
  5
134
102
{ACAD_REACTORS
330
20F
102
}
100
AcDbEntity
  8
LC-006-005-----0
370
    25
390
0
 62
     2
100
AcDbLine
 10
236.93859
 20
351.374252
 30
0.0
 11
233.93859
 21
354.374252
 31
0.0
  0
LINE
  5
135
102
{ACAD_REACTORS
330
20F
102
}
100
AcDbEntity
  8
LC-006-005-----0
370
    25
390
0
 62
     2
100
AcDbLine
 10
148.438207
 20
439.874635
 30
0.0
 11
145.438207
 21
442.874635
 31
0.0
  0
LINE
  5
136
102
{ACAD_REACTORS
330
20F
102
}
100
AcDbEntity
  8
LC-006-005-----0
370
    25
390
0
 62
     2
100
AcDbLine
 10
236.93859
 20
348.545824
 30
0.0
 11
233.93859
 21
351.545824
 31
0.0
  0
LINE
  5
137
102
{ACAD_REACTORS
330
20F
102
}
100
AcDbEntity
  8
LC-006-005-----0
370
    25
390
0
 62
     2
100
AcDbLine
 10
145.60978
 20
439.874635
 30
0.0
 11
142.60978
 21
442.874635
 31
0.0
  0
LINE
  5
138
102
{ACAD_REACTORS
330
20F
102
}
100
AcDbEntity
  8
LC-006-005-----0
370
    25
390
0
 62
     2
100
AcDbLine
 10
236.93859
 20
345.717397
 30
0.0
 11
233.93859
 21
348.717397
 31
0.0
  0
LINE
  5
139
102
{ACAD_REACTORS
330
20F
102
}
100
AcDbEntity
  8
LC-006-005-----0
370
    25
390
0
 62
     2
100
AcDbLine
 10
142.781353
 20
439.874635
 30
0.0
 11
139.781353
 21
442.874635
 31
0.0
  0
LINE
  5
13A
102
{ACAD_REACTORS
330
20F
102
}
100
AcDbEntity
  8
LC-006-005-----0
370
    25
390
0
 62
     2
100
AcDbLine
 10
236.93859
 20
342.88897
 30
0.0
 11
233.93859
 21
345.88897
 31
0.0
  0
LINE
  5
13B
102
{ACAD_REACTORS
330
20F
102
}
100
AcDbEntity
  8
LC-006-005-----0
370
    25
390
0
 62
     2
100
AcDbLine
 10
139.952926
 20
439.874635
 30
0.0
 11
136.952926
 21
442.874635
 31
0.0
  0
LINE
  5
13C
102
{ACAD_REACTORS
330
20F
102
}
100
AcDbEntity
  8
LC-006-005-----0
370
    25
390
0
 62
     2
100
AcDbLine
 10
236.93859
 20
340.060543
 30
0.0
 11
233.93859
 21
343.060543
 31
0.0
  0
LINE
  5
13D
102
{ACAD_REACTORS
330
20F
102
}
100
AcDbEntity
  8
LC-006-005-----0
370
    25
390
0
 62
     2
100
AcDbLine
 10
137.124499
 20
439.874635
 30
0.0
 11
134.124499
 21
442.874635
 31
0.0
  0
LINE
  5
13E
102
{ACAD_REACTORS
330
20F
102
}
100
AcDbEntity
  8
LC-006-005-----0
370
    25
390
0
 62
     2
100
AcDbLine
 10
236.93859
 20
337.232116
 30
0.0
 11
233.93859
 21
340.232116
 31
0.0
  0
LINE
  5
13F
102
{ACAD_REACTORS
330
20F
102
}
100
AcDbEntity
  8
LC-006-005-----0
370
    25
390
0
 62
     2
100
AcDbLine
 10
134.296071
 20
439.874635
 30
0.0
 11
131.296071
 21
442.874635
 31
0.0
  0
LINE
  5
140
102
{ACAD_REACTORS
330
20F
102
}
100
AcDbEntity
  8
LC-006-005-----0
370
    25
390
0
 62
     2
100
AcDbLine
 10
236.93859
 20
334.403689
 30
0.0
 11
233.93859
 21
337.403689
 31
0.0
  0
LINE
  5
141
102
{ACAD_REACTORS
330
20F
102
}
100
AcDbEntity
  8
LC-006-005-----0
370
    25
390
0
 62
     2
100
AcDbLine
 10
131.467644
 20
439.874635
 30
0.0
 11
128.467644
 21
442.874635
 31
0.0
  0
LINE
  5
142
102
{ACAD_REACTORS
330
20F
102
}
100
AcDbEntity
  8
LC-006-005-----0
370
    25
390
0
 62
     2
100
AcDbLine
 10
236.93859
 20
331.575262
 30
0.0
 11
233.93859
 21
334.575262
 31
0.0
  0
LINE
  5
143
102
{ACAD_REACTORS
330
20F
102
}
100
AcDbEntity
  8
LC-006-005-----0
370
    25
390
0
 62
     2
100
AcDbLine
 10
128.639217
 20
439.874635
 30
0.0
 11
125.639217
 21
442.874635
 31
0.0
  0
LINE
  5
144
102
{ACAD_REACTORS
330
20F
102
}
100
AcDbEntity
  8
LC-006-005-----0
370
    25
390
0
 62
     2
100
AcDbLine
 10
236.93859
 20
328.746835
 30
0.0
 11
233.93859
 21
331.746835
 31
0.0
  0
LINE
  5
145
102
{ACAD_REACTORS
330
20F
102
}
100
AcDbEntity
  8
LC-006-005-----0
370
    25
390
0
 62
     2
100
AcDbLine
 10
125.81079
 20
439.874635
 30
0.0
 11
122.81079
 21
442.874635
 31
0.0
  0
LINE
  5
146
102
{ACAD_REACTORS
330
20F
102
}
100
AcDbEntity
  8
LC-006-005-----0
370
    25
390
0
 62
     2
100
AcDbLine
 10
236.93859
 20
325.918407
 30
0.0
 11
233.93859
 21
328.918407
 31
0.0
  0
LINE
  5
147
102
{ACAD_REACTORS
330
20F
102
}
100
AcDbEntity
  8
LC-006-005-----0
370
    25
390
0
 62
     2
100
AcDbLine
 10
122.982363
 20
439.874635
 30
0.0
 11
119.982363
 21
442.874635
 31
0.0
  0
LINE
  5
148
102
{ACAD_REACTORS
330
20F
102
}
100
AcDbEntity
  8
LC-006-005-----0
370
    25
390
0
 62
     2
100
AcDbLine
 10
236.93859
 20
323.08998
 30
0.0
 11
233.93859
 21
326.08998
 31
0.0
  0
LINE
  5
149
102
{ACAD_REACTORS
330
20F
102
}
100
AcDbEntity
  8
LC-006-005-----0
370
    25
390
0
 62
     2
100
AcDbLine
 10
120.153936
 20
439.874635
 30
0.0
 11
117.153936
 21
442.874635
 31
0.0
  0
LINE
  5
14A
102
{ACAD_REACTORS
330
20F
102
}
100
AcDbEntity
  8
LC-006-005-----0
370
    25
390
0
 62
     2
100
AcDbLine
 10
236.93859
 20
320.261553
 30
0.0
 11
233.93859
 21
323.261553
 31
0.0
  0
LINE
  5
14B
102
{ACAD_REACTORS
330
20F
102
}
100
AcDbEntity
  8
LC-006-005-----0
370
    25
390
0
 62
     2
100
AcDbLine
 10
117.325509
 20
439.874635
 30
0.0
 11
114.325509
 21
442.874635
 31
0.0
  0
LINE
  5
14C
102
{ACAD_REACTORS
330
20F
102
}
100
AcDbEntity
  8
LC-006-005-----0
370
    25
390
0
 62
     2
100
AcDbLine
 10
236.93859
 20
317.433126
 30
0.0
 11
233.93859
 21
320.433126
 31
0.0
  0
LINE
  5
14D
102
{ACAD_REACTORS
330
20F
102
}
100
AcDbEntity
  8
LC-006-005-----0
370
    25
390
0
 62
     2
100
AcDbLine
 10
114.497082
 20
439.874635
 30
0.0
 11
111.497082
 21
442.874635
 31
0.0
  0
LINE
  5
14E
102
{ACAD_REACTORS
330
20F
102
}
100
AcDbEntity
  8
LC-006-005-----0
370
    25
390
0
 62
     2
100
AcDbLine
 10
236.93859
 20
314.604699
 30
0.0
 11
233.93859
 21
317.604699
 31
0.0
  0
LINE
  5
14F
102
{ACAD_REACTORS
330
20F
102
}
100
AcDbEntity
  8
LC-006-005-----0
370
    25
390
0
 62
     2
100
AcDbLine
 10
111.668654
 20
439.874635
 30
0.0
 11
108.668654
 21
442.874635
 31
0.0
  0
LINE
  5
150
102
{ACAD_REACTORS
330
20F
102
}
100
AcDbEntity
  8
LC-006-005-----0
370
    25
390
0
 62
     2
100
AcDbLine
 10
236.93859
 20
311.776272
 30
0.0
 11
233.93859
 21
314.776272
 31
0.0
  0
LINE
  5
151
102
{ACAD_REACTORS
330
20F
102
}
100
AcDbEntity
  8
LC-006-005-----0
370
    25
390
0
 62
     2
100
AcDbLine
 10
108.840227
 20
439.874635
 30
0.0
 11
106.048975
 21
442.665887
 31
0.0
  0
LINE
  5
152
102
{ACAD_REACTORS
330
20F
102
}
100
AcDbEntity
  8
LC-006-005-----0
370
    25
390
0
 62
     2
100
AcDbLine
 10
236.93859
 20
308.947845
 30
0.0
 11
233.93859
 21
311.947845
 31
0.0
  0
LINE
  5
153
102
{ACAD_REACTORS
330
20F
102
}
100
AcDbEntity
  8
LC-006-005-----0
370
    25
390
0
 62
     2
100
AcDbLine
 10
106.0118
 20
439.874635
 30
0.0
 11
104.939884
 21
440.946551
 31
0.0
  0
LINE
  5
154
102
{ACAD_REACTORS
330
20F
102
}
100
AcDbEntity
  8
LC-006-005-----0
370
    25
390
0
 62
     2
100
AcDbLine
 10
236.93859
 20
306.119418
 30
0.0
 11
233.93859
 21
309.119418
 31
0.0
  0
LINE
  5
155
102
{ACAD_REACTORS
330
20F
102
}
100
AcDbEntity
  8
LC-006-005-----0
370
    25
390
0
 62
     2
100
AcDbLine
 10
236.93859
 20
303.29099
 30
0.0
 11
233.93859
 21
306.29099
 31
0.0
  0
LINE
  5
156
102
{ACAD_REACTORS
330
20F
102
}
100
AcDbEntity
  8
LC-006-005-----0
370
    25
390
0
 62
     2
100
AcDbLine
 10
236.93859
 20
300.462563
 30
0.0
 11
233.93859
 21
303.462563
 31
0.0
  0
LINE
  5
157
102
{ACAD_REACTORS
330
20F
102
}
100
AcDbEntity
  8
LC-006-005-----0
370
    25
390
0
 62
     2
100
AcDbLine
 10
236.93859
 20
297.634136
 30
0.0
 11
233.93859
 21
300.634136
 31
0.0
  0
LINE
  5
158
102
{ACAD_REACTORS
330
20F
102
}
100
AcDbEntity
  8
LC-006-005-----0
370
    25
390
0
 62
     2
100
AcDbLine
 10
236.93859
 20
294.805709
 30
0.0
 11
233.93859
 21
297.805709
 31
0.0
  0
LINE
  5
159
102
{ACAD_REACTORS
330
20F
102
}
100
AcDbEntity
  8
LC-006-005-----0
370
    25
390
0
 62
     2
100
AcDbLine
 10
236.93859
 20
291.977282
 30
0.0
 11
233.93859
 21
294.977282
 31
0.0
  0
LINE
  5
15A
102
{ACAD_REACTORS
330
20F
102
}
100
AcDbEntity
  8
LC-006-005-----0
370
    25
390
0
 62
     2
100
AcDbLine
 10
236.93859
 20
289.148855
 30
0.0
 11
233.93859
 21
292.148855
 31
0.0
  0
LINE
  5
15B
102
{ACAD_REACTORS
330
20F
102
}
100
AcDbEntity
  8
LC-006-005-----0
370
    25
390
0
 62
     2
100
AcDbLine
 10
236.93859
 20
286.320428
 30
0.0
 11
233.93859
 21
289.320428
 31
0.0
  0
LINE
  5
15C
102
{ACAD_REACTORS
330
20F
102
}
100
AcDbEntity
  8
LC-006-005-----0
370
    25
390
0
 62
     2
100
AcDbLine
 10
236.93859
 20
283.492001
 30
0.0
 11
233.93859
 21
286.492001
 31
0.0
  0
LINE
  5
15D
102
{ACAD_REACTORS
330
20F
102
}
100
AcDbEntity
  8
LC-006-005-----0
370
    25
390
0
 62
     2
100
AcDbLine
 10
236.93859
 20
280.663573
 30
0.0
 11
233.93859
 21
283.663573
 31
0.0
  0
LINE
  5
15E
102
{ACAD_REACTORS
330
20F
102
}
100
AcDbEntity
  8
LC-006-005-----0
370
    25
390
0
 62
     2
100
AcDbLine
 10
236.93859
 20
277.835146
 30
0.0
 11
233.93859
 21
280.835146
 31
0.0
  0
LINE
  5
15F
102
{ACAD_REACTORS
330
20F
102
}
100
AcDbEntity
  8
LC-006-005-----0
370
    25
390
0
 62
     2
100
AcDbLine
 10
236.93859
 20
275.006719
 30
0.0
 11
233.93859
 21
278.006719
 31
0.0
  0
LINE
  5
160
102
{ACAD_REACTORS
330
20F
102
}
100
AcDbEntity
  8
LC-006-005-----0
370
    25
390
0
 62
     2
100
AcDbLine
 10
236.93859
 20
272.178292
 30
0.0
 11
233.93859
 21
275.178292
 31
0.0
  0
LINE
  5
161
102
{ACAD_REACTORS
330
20F
102
}
100
AcDbEntity
  8
LC-006-005-----0
370
    25
390
0
 62
     2
100
AcDbLine
 10
236.93859
 20
269.349865
 30
0.0
 11
233.93859
 21
272.349865
 31
0.0
  0
LINE
  5
162
102
{ACAD_REACTORS
330
20F
102
}
100
AcDbEntity
  8
LC-006-005-----0
370
    25
390
0
 62
     2
100
AcDbLine
 10
236.93859
 20
266.521438
 30
0.0
 11
233.93859
 21
269.521438
 31
0.0
  0
LINE
  5
163
102
{ACAD_REACTORS
330
20F
102
}
100
AcDbEntity
  8
LC-006-005-----0
370
    25
390
0
 62
     2
100
AcDbLine
 10
236.93859
 20
263.693011
 30
0.0
 11
233.93859
 21
266.693011
 31
0.0
  0
LINE
  5
164
102
{ACAD_REACTORS
330
20F
102
}
100
AcDbEntity
  8
LC-006-005-----0
370
    25
390
0
 62
     2
100
AcDbLine
 10
236.93859
 20
260.864584
 30
0.0
 11
233.93859
 21
263.864584
 31
0.0
  0
LINE
  5
165
102
{ACAD_REACTORS
330
20F
102
}
100
AcDbEntity
  8
LC-006-005-----0
370
    25
390
0
 62
     2
100
AcDbLine
 10
236.93859
 20
258.036156
 30
0.0
 11
233.93859
 21
261.036156
 31
0.0
  0
LINE
  5
166
102
{ACAD_REACTORS
330
20F
102
}
100
AcDbEntity
  8
LC-006-005-----0
370
    25
390
0
 62
     2
100
AcDbLine
 10
236.93859
 20
255.207729
 30
0.0
 11
233.93859
 21
258.207729
 31
0.0
  0
LINE
  5
167
102
{ACAD_REACTORS
330
20F
102
}
100
AcDbEntity
  8
LC-006-005-----0
370
    25
390
0
 62
     2
100
AcDbLine
 10
236.93859
 20
252.379302
 30
0.0
 11
233.93859
 21
255.379302
 31
0.0
  0
LINE
  5
168
102
{ACAD_REACTORS
330
20F
102
}
100
AcDbEntity
  8
LC-006-005-----0
370
    25
390
0
 62
     2
100
AcDbLine
 10
236.93859
 20
249.550875
 30
0.0
 11
233.93859
 21
252.550875
 31
0.0
  0
LINE
  5
169
102
{ACAD_REACTORS
330
20F
102
}
100
AcDbEntity
  8
LC-006-005-----0
370
    25
390
0
 62
     2
100
AcDbLine
 10
236.93859
 20
246.722448
 30
0.0
 11
233.93859
 21
249.722448
 31
0.0
  0
LINE
  5
16A
102
{ACAD_REACTORS
330
20F
102
}
100
AcDbEntity
  8
LC-006-005-----0
370
    25
390
0
 62
     2
100
AcDbLine
 10
236.93859
 20
243.894021
 30
0.0
 11
233.93859
 21
246.894021
 31
0.0
  0
LINE
  5
16B
102
{ACAD_REACTORS
330
20F
102
}
100
AcDbEntity
  8
LC-006-005-----0
370
    25
390
0
 62
     2
100
AcDbLine
 10
236.93859
 20
241.065594
 30
0.0
 11
233.93859
 21
244.065594
 31
0.0
  0
LINE
  5
16C
102
{ACAD_REACTORS
330
20F
102
}
100
AcDbEntity
  8
LC-006-005-----0
370
    25
390
0
 62
     2
100
AcDbLine
 10
236.93859
 20
238.237167
 30
0.0
 11
233.93859
 21
241.237167
 31
0.0
  0
LINE
  5
16D
102
{ACAD_REACTORS
330
20F
102
}
100
AcDbEntity
  8
LC-006-005-----0
370
    25
390
0
 62
     2
100
AcDbLine
 10
236.93859
 20
235.408739
 30
0.0
 11
233.93859
 21
238.408739
 31
0.0
  0
LINE
  5
16E
102
{ACAD_REACTORS
330
20F
102
}
100
AcDbEntity
  8
LC-006-005-----0
370
    25
390
0
 62
     2
100
AcDbLine
 10
236.93859
 20
232.580312
 30
0.0
 11
233.93859
 21
235.580312
 31
0.0
  0
LINE
  5
16F
102
{ACAD_REACTORS
330
20F
102
}
100
AcDbEntity
  8
LC-006-005-----0
370
    25
390
0
 62
     2
100
AcDbLine
 10
236.93859
 20
229.751885
 30
0.0
 11
233.93859
 21
232.751885
 31
0.0
  0
LINE
  5
170
102
{ACAD_REACTORS
330
20F
102
}
100
AcDbEntity
  8
LC-006-005-----0
370
    25
390
0
 62
     2
100
AcDbLine
 10
236.93859
 20
226.923458
 30
0.0
 11
233.93859
 21
229.923458
 31
0.0
  0
LINE
  5
171
102
{ACAD_REACTORS
330
20F
102
}
100
AcDbEntity
  8
LC-006-005-----0
370
    25
390
0
 62
     2
100
AcDbLine
 10
236.93859
 20
224.095031
 30
0.0
 11
234.262895
 21
226.770726
 31
0.0
  0
LINE
  5
172
100
AcDbEntity
  8
LC-001-002-----0
370
    50
390
0
  6
ByBlock
 62
     1
100
AcDbLine
 10
328.68859
 20
438.461235
 30
0.0
 11
322.72059
 21
438.461235
 31
0.0
  0
LINE
  5
173
100
AcDbEntity
  8
LC-001-002-----0
370
    50
390
0
  6
ByBlock
 62
     1
100
AcDbLine
 10
328.68859
 20
437.952235
 30
0.0
 11
334.65659
 21
437.952235
 31
0.0
  0
LINE
  5
174
102
{ACAD_REACTORS
330
210
102
}
100
AcDbEntity
  8
LC-006-005-----0
370
    25
390
0
 62
     2
100
AcDbLine
 10
412.894952
 20
441.29004
 30
0.0
 11
411.354102
 21
442.83089
 31
0.0
  0
LINE
  5
175
102
{ACAD_REACTORS
330
210
102
}
100
AcDbEntity
  8
LC-006-005-----0
370
    25
390
0
 62
     2
100
AcDbLine
 10
411.48193
 20
439.874635
 30
0.0
 11
408.48203
 21
442.874535
 31
0.0
  0
LINE
  5
176
102
{ACAD_REACTORS
330
210
102
}
100
AcDbEntity
  8
LC-006-005-----0
370
    25
390
0
 62
     2
100
AcDbLine
 10
408.653503
 20
439.874635
 30
0.0
 11
405.653595
 21
442.874542
 31
0.0
  0
LINE
  5
177
102
{ACAD_REACTORS
330
210
102
}
100
AcDbEntity
  8
LC-006-005-----0
370
    25
390
0
 62
     2
100
AcDbLine
 10
405.825075
 20
439.874635
 30
0.0
 11
402.82516
 21
442.87455
 31
0.0
  0
LINE
  5
178
102
{ACAD_REACTORS
330
210
102
}
100
AcDbEntity
  8
LC-006-005-----0
370
    25
390
0
 62
     2
100
AcDbLine
 10
402.996648
 20
439.874635
 30
0.0
 11
399.996726
 21
442.874557
 31
0.0
  0
LINE
  5
179
102
{ACAD_REACTORS
330
210
102
}
100
AcDbEntity
  8
LC-006-005-----0
370
    25
390
0
 62
     2
100
AcDbLine
 10
400.168221
 20
439.874635
 30
0.0
 11
397.168291
 21
442.874565
 31
0.0
  0
LINE
  5
17A
102
{ACAD_REACTORS
330
210
102
}
100
AcDbEntity
  8
LC-006-005-----0
370
    25
390
0
 62
     2
100
AcDbLine
 10
397.339794
 20
439.874635
 30
0.0
 11
394.339856
 21
442.874572
 31
0.0
  0
LINE
  5
17B
102
{ACAD_REACTORS
330
210
102
}
100
AcDbEntity
  8
LC-006-005-----0
370
    25
390
0
 62
     2
100
AcDbLine
 10
394.511367
 20
439.874635
 30
0.0
 11
391.511422
 21
442.87458
 31
0.0
  0
LINE
  5
17C
102
{ACAD_REACTORS
330
210
102
}
100
AcDbEntity
  8
LC-006-005-----0
370
    25
390
0
 62
     2
100
AcDbLine
 10
391.68294
 20
439.874635
 30
0.0
 11
388.682987
 21
442.874588
 31
0.0
  0
LINE
  5
17D
102
{ACAD_REACTORS
330
210
102
}
100
AcDbEntity
  8
LC-006-005-----0
370
    25
390
0
 62
     2
100
AcDbLine
 10
388.854513
 20
439.874635
 30
0.0
 11
385.854552
 21
442.874595
 31
0.0
  0
LINE
  5
17E
102
{ACAD_REACTORS
330
210
102
}
100
AcDbEntity
  8
LC-006-005-----0
370
    25
390
0
 62
     2
100
AcDbLine
 10
386.026086
 20
439.874635
 30
0.0
 11
383.026118
 21
442.874603
 31
0.0
  0
LINE
  5
17F
102
{ACAD_REACTORS
330
210
102
}
100
AcDbEntity
  8
LC-006-005-----0
370
    25
390
0
 62
     2
100
AcDbLine
 10
383.197658
 20
439.874635
 30
0.0
 11
380.197683
 21
442.87461
 31
0.0
  0
LINE
  5
180
102
{ACAD_REACTORS
330
210
102
}
100
AcDbEntity
  8
LC-006-005-----0
370
    25
390
0
 62
     2
100
AcDbLine
 10
380.369231
 20
439.874635
 30
0.0
 11
377.369248
 21
442.874618
 31
0.0
  0
LINE
  5
181
102
{ACAD_REACTORS
330
210
102
}
100
AcDbEntity
  8
LC-006-005-----0
370
    25
390
0
 62
     2
100
AcDbLine
 10
377.540804
 20
439.874635
 30
0.0
 11
374.540814
 21
442.874625
 31
0.0
  0
LINE
  5
182
102
{ACAD_REACTORS
330
210
102
}
100
AcDbEntity
  8
LC-006-005-----0
370
    25
390
0
 62
     2
100
AcDbLine
 10
374.712377
 20
439.874635
 30
0.0
 11
371.712379
 21
442.874633
 31
0.0
  0
LINE
  5
183
102
{ACAD_REACTORS
330
210
102
}
100
AcDbEntity
  8
LC-006-005-----0
370
    25
390
0
 62
     2
100
AcDbLine
 10
371.88395
 20
439.874635
 30
0.0
 11
368.919193
 21
442.839391
 31
0.0
  0
LINE
  5
184
102
{ACAD_REACTORS
330
210
102
}
100
AcDbEntity
  8
LC-006-005-----0
370
    25
390
0
 62
     2
100
AcDbLine
 10
369.055523
 20
439.874635
 30
0.0
 11
366.139282
 21
442.790875
 31
0.0
  0
LINE
  5
185
102
{ACAD_REACTORS
330
210
102
}
100
AcDbEntity
  8
LC-006-005-----0
370
    25
390
0
 62
     2
100
AcDbLine
 10
366.227096
 20
439.874635
 30
0.0
 11
363.726233
 21
442.375498
 31
0.0
  0
LINE
  5
186
102
{ACAD_REACTORS
330
210
102
}
100
AcDbEntity
  8
LC-006-005-----0
370
    25
390
0
 62
     2
100
AcDbLine
 10
363.621888
 20
439.651416
 30
0.0
 11
361.436814
 21
441.836489
 31
0.0
  0
LINE
  5
187
102
{ACAD_REACTORS
330
210
102
}
100
AcDbEntity
  8
LC-006-005-----0
370
    25
390
0
 62
     2
100
AcDbLine
 10
361.400582
 20
439.044294
 30
0.0
 11
359.147395
 21
441.297481
 31
0.0
  0
LINE
  5
188
102
{ACAD_REACTORS
330
210
102
}
100
AcDbEntity
  8
LC-006-005-----0
370
    25
390
0
 62
     2
100
AcDbLine
 10
359.179277
 20
438.437172
 30
0.0
 11
356.857977
 21
440.758472
 31
0.0
  0
LINE
  5
189
102
{ACAD_REACTORS
330
210
102
}
100
AcDbEntity
  8
LC-006-005-----0
370
    25
390
0
 62
     2
100
AcDbLine
 10
356.957972
 20
437.83005
 30
0.0
 11
354.568558
 21
440.219464
 31
0.0
  0
LINE
  5
18A
102
{ACAD_REACTORS
330
210
102
}
100
AcDbEntity
  8
LC-006-005-----0
370
    25
390
0
 62
     2
100
AcDbLine
 10
354.736666
 20
437.222928
 30
0.0
 11
352.27914
 21
439.680455
 31
0.0
  0
LINE
  5
18B
102
{ACAD_REACTORS
330
210
102
}
100
AcDbEntity
  8
LC-006-005-----0
370
    25
390
0
 62
     2
100
AcDbLine
 10
352.515361
 20
436.615807
 30
0.0
 11
349.989721
 21
439.141446
 31
0.0
  0
LINE
  5
18C
102
{ACAD_REACTORS
330
210
102
}
100
AcDbEntity
  8
LC-006-005-----0
370
    25
390
0
 62
     2
100
AcDbLine
 10
350.294056
 20
436.008685
 30
0.0
 11
347.700303
 21
438.602438
 31
0.0
  0
LINE
  5
18D
102
{ACAD_REACTORS
330
210
102
}
100
AcDbEntity
  8
LC-006-005-----0
370
    25
390
0
 62
     2
100
AcDbLine
 10
348.07275
 20
435.401563
 30
0.0
 11
345.410884
 21
438.063429
 31
0.0
  0
LINE
  5
18E
102
{ACAD_REACTORS
330
210
102
}
100
AcDbEntity
  8
LC-006-005-----0
370
    25
390
0
 62
     2
100
AcDbLine
 10
346.117387
 20
434.5285
 30
0.0
 11
342.693652
 21
437.952235
 31
0.0
  0
LINE
  5
18F
102
{ACAD_REACTORS
330
210
102
}
100
AcDbEntity
  8
LC-006-005-----0
370
    25
390
0
 62
     2
100
AcDbLine
 10
344.703173
 20
433.114286
 30
0.0
 11
341.483122
 21
436.334338
 31
0.0
  0
LINE
  5
190
102
{ACAD_REACTORS
330
210
102
}
100
AcDbEntity
  8
LC-006-005-----0
370
    25
390
0
 62
     2
100
AcDbLine
 10
343.144797
 20
431.844235
 30
0.0
 11
340.599797
 21
434.389235
 31
0.0
  0
LINE
  5
191
102
{ACAD_REACTORS
330
210
102
}
100
AcDbEntity
  8
LC-006-005-----0
370
    25
390
0
 62
     2
100
AcDbLine
 10
340.31637
 20
431.844235
 30
0.0
 11
337.77137
 21
434.389235
 31
0.0
  0
LINE
  5
192
102
{ACAD_REACTORS
330
210
102
}
100
AcDbEntity
  8
LC-006-005-----0
370
    25
390
0
 62
     2
100
AcDbLine
 10
334.65659
 20
437.504015
 30
0.0
 11
334.20837
 21
437.952235
 31
0.0
  0
LINE
  5
193
102
{ACAD_REACTORS
330
210
102
}
100
AcDbEntity
  8
LC-006-005-----0
370
    25
390
0
 62
     2
100
AcDbLine
 10
337.487943
 20
431.844235
 30
0.0
 11
334.942943
 21
434.389235
 31
0.0
  0
LINE
  5
194
102
{ACAD_REACTORS
330
210
102
}
100
AcDbEntity
  8
LC-006-005-----0
370
    25
390
0
 62
     2
100
AcDbLine
 10
334.65659
 20
434.675587
 30
0.0
 11
331.6886
 21
437.643578
 31
0.0
  0
LINE
  5
195
102
{ACAD_REACTORS
330
210
102
}
100
AcDbEntity
  8
LC-006-005-----0
370
    25
390
0
 62
     2
100
AcDbLine
 10
336.307122
 20
430.196629
 30
0.0
 11
331.688608
 21
434.815143
 31
0.0
  0
LINE
  5
196
102
{ACAD_REACTORS
330
210
102
}
100
AcDbEntity
  8
LC-006-005-----0
370
    25
390
0
 62
     2
100
AcDbLine
 10
336.307122
 20
427.368202
 30
0.0
 11
331.688615
 21
431.986709
 31
0.0
  0
LINE
  5
197
102
{ACAD_REACTORS
330
210
102
}
100
AcDbEntity
  8
LC-006-005-----0
370
    25
390
0
 62
     2
100
AcDbLine
 10
336.307122
 20
424.539775
 30
0.0
 11
331.668304
 21
429.178593
 31
0.0
  0
LINE
  5
198
102
{ACAD_REACTORS
330
210
102
}
100
AcDbEntity
  8
LC-006-005-----0
370
    25
390
0
 62
     2
100
AcDbLine
 10
325.689855
 20
435.157042
 30
0.0
 11
322.894662
 21
437.952235
 31
0.0
  0
LINE
  5
199
102
{ACAD_REACTORS
330
210
102
}
100
AcDbEntity
  8
LC-006-005-----0
370
    25
390
0
 62
     2
100
AcDbLine
 10
322.72059
 20
438.126306
 30
0.0
 11
321.368176
 21
439.478721
 31
0.0
  0
LINE
  5
19A
102
{ACAD_REACTORS
330
210
102
}
100
AcDbEntity
  8
LC-006-005-----0
370
    25
390
0
 62
     2
100
AcDbLine
 10
334.537421
 20
423.481048
 30
0.0
 11
331.23859
 21
426.779879
 31
0.0
  0
LINE
  5
19B
102
{ACAD_REACTORS
330
210
102
}
100
AcDbEntity
  8
LC-006-005-----0
370
    25
390
0
 62
     2
100
AcDbLine
 10
325.689857
 20
432.328613
 30
0.0
 11
318.688705
 21
439.329765
 31
0.0
  0
LINE
  5
19C
102
{ACAD_REACTORS
330
210
102
}
100
AcDbEntity
  8
LC-006-005-----0
370
    25
390
0
 62
     2
100
AcDbLine
 10
332.106693
 20
423.083349
 30
0.0
 11
330.98151
 21
424.208532
 31
0.0
  0
LINE
  5
19D
102
{ACAD_REACTORS
330
210
102
}
100
AcDbEntity
  8
LC-006-005-----0
370
    25
390
0
 62
     2
100
AcDbLine
 10
329.816737
 20
422.544878
 30
0.0
 11
328.153083
 21
424.208532
 31
0.0
  0
LINE
  5
19E
102
{ACAD_REACTORS
330
210
102
}
100
AcDbEntity
  8
LC-006-005-----0
370
    25
390
0
 62
     2
100
AcDbLine
 10
326.13859
 20
426.223025
 30
0.0
 11
318.688705
 21
433.672911
 31
0.0
  0
LINE
  5
19F
102
{ACAD_REACTORS
330
210
102
}
100
AcDbEntity
  8
LC-006-005-----0
370
    25
390
0
 62
     2
100
AcDbLine
 10
326.888866
 20
422.644322
 30
0.0
 11
318.688705
 21
430.844483
 31
0.0
  0
LINE
  5
1A0
102
{ACAD_REACTORS
330
210
102
}
100
AcDbEntity
  8
LC-006-005-----0
370
    25
390
0
 62
     2
100
AcDbLine
 10
323.223001
 20
423.48176
 30
0.0
 11
318.688705
 21
428.016056
 31
0.0
  0
LINE
  5
1A1
102
{ACAD_REACTORS
330
210
102
}
100
AcDbEntity
  8
LC-006-005-----0
370
    25
390
0
 62
     2
100
AcDbLine
 10
320.394572
 20
423.481762
 30
0.0
 11
317.393905
 21
426.482429
 31
0.0
  0
LINE
  5
1A2
102
{ACAD_REACTORS
330
210
102
}
100
AcDbEntity
  8
LC-006-005-----0
370
    25
390
0
 62
     2
100
AcDbLine
 10
317.566142
 20
423.481764
 30
0.0
 11
314.565477
 21
426.482429
 31
0.0
  0
LINE
  5
1A3
102
{ACAD_REACTORS
330
210
102
}
100
AcDbEntity
  8
LC-006-005-----0
370
    25
390
0
 62
     2
100
AcDbLine
 10
314.737713
 20
423.481767
 30
0.0
 11
311.73705
 21
426.482429
 31
0.0
  0
LINE
  5
1A4
102
{ACAD_REACTORS
330
210
102
}
100
AcDbEntity
  8
LC-006-005-----0
370
    25
390
0
 62
     2
100
AcDbLine
 10
311.909283
 20
423.481769
 30
0.0
 11
308.960573
 21
426.430479
 31
0.0
  0
LINE
  5
1A5
102
{ACAD_REACTORS
330
210
102
}
100
AcDbEntity
  8
LC-006-005-----0
370
    25
390
0
 62
     2
100
AcDbLine
 10
309.128265
 20
423.43436
 30
0.0
 11
306.20453
 21
426.358096
 31
0.0
  0
LINE
  5
1A6
102
{ACAD_REACTORS
330
210
102
}
100
AcDbEntity
  8
LC-006-005-----0
370
    25
390
0
 62
     2
100
AcDbLine
 10
306.37202
 20
423.362178
 30
0.0
 11
303.448486
 21
426.285712
 31
0.0
  0
LINE
  5
1A7
102
{ACAD_REACTORS
330
210
102
}
100
AcDbEntity
  8
LC-006-005-----0
370
    25
390
0
 62
     2
100
AcDbLine
 10
303.615775
 20
423.289996
 30
0.0
 11
300.692443
 21
426.213328
 31
0.0
  0
LINE
  5
1A8
102
{ACAD_REACTORS
330
210
102
}
100
AcDbEntity
  8
LC-006-005-----0
370
    25
390
0
 62
     2
100
AcDbLine
 10
300.859529
 20
423.217815
 30
0.0
 11
297.9364
 21
426.140944
 31
0.0
  0
LINE
  5
1A9
102
{ACAD_REACTORS
330
210
102
}
100
AcDbEntity
  8
LC-006-005-----0
370
    25
390
0
 62
     2
100
AcDbLine
 10
298.103284
 20
423.145633
 30
0.0
 11
295.180356
 21
426.068561
 31
0.0
  0
LINE
  5
1AA
102
{ACAD_REACTORS
330
210
102
}
100
AcDbEntity
  8
LC-006-005-----0
370
    25
390
0
 62
     2
100
AcDbLine
 10
295.347039
 20
423.073451
 30
0.0
 11
292.424313
 21
425.996177
 31
0.0
  0
LINE
  5
1AB
102
{ACAD_REACTORS
330
210
102
}
100
AcDbEntity
  8
LC-006-005-----0
370
    25
390
0
 62
     2
100
AcDbLine
 10
292.590794
 20
423.001269
 30
0.0
 11
289.668269
 21
425.923793
 31
0.0
  0
LINE
  5
1AC
102
{ACAD_REACTORS
330
210
102
}
100
AcDbEntity
  8
LC-006-005-----0
370
    25
390
0
 62
     2
100
AcDbLine
 10
289.834548
 20
422.929087
 30
0.0
 11
286.912226
 21
425.85141
 31
0.0
  0
LINE
  5
1AD
102
{ACAD_REACTORS
330
210
102
}
100
AcDbEntity
  8
LC-006-005-----0
370
    25
390
0
 62
     2
100
AcDbLine
 10
287.078303
 20
422.856905
 30
0.0
 11
284.156183
 21
425.779026
 31
0.0
  0
LINE
  5
1AE
102
{ACAD_REACTORS
330
210
102
}
100
AcDbEntity
  8
LC-006-005-----0
370
    25
390
0
 62
     2
100
AcDbLine
 10
284.322058
 20
422.784723
 30
0.0
 11
281.400139
 21
425.706642
 31
0.0
  0
LINE
  5
1AF
102
{ACAD_REACTORS
330
210
102
}
100
AcDbEntity
  8
LC-006-005-----0
370
    25
390
0
 62
     2
100
AcDbLine
 10
283.93859
 20
420.339764
 30
0.0
 11
280.93859
 21
423.339764
 31
0.0
  0
LINE
  5
1B0
102
{ACAD_REACTORS
330
210
102
}
100
AcDbEntity
  8
LC-006-005-----0
370
    25
390
0
 62
     2
100
AcDbLine
 10
283.93859
 20
417.511337
 30
0.0
 11
280.93859
 21
420.511337
 31
0.0
  0
LINE
  5
1B1
102
{ACAD_REACTORS
330
210
102
}
100
AcDbEntity
  8
LC-006-005-----0
370
    25
390
0
 62
     2
100
AcDbLine
 10
283.93859
 20
414.682909
 30
0.0
 11
280.93859
 21
417.682909
 31
0.0
  0
LINE
  5
1B2
102
{ACAD_REACTORS
330
210
102
}
100
AcDbEntity
  8
LC-006-005-----0
370
    25
390
0
 62
     2
100
AcDbLine
 10
283.93859
 20
411.854482
 30
0.0
 11
280.93859
 21
414.854482
 31
0.0
  0
LINE
  5
1B3
102
{ACAD_REACTORS
330
210
102
}
100
AcDbEntity
  8
LC-006-005-----0
370
    25
390
0
 62
     2
100
AcDbLine
 10
283.93859
 20
409.026055
 30
0.0
 11
280.93859
 21
412.026055
 31
0.0
  0
LINE
  5
1B4
102
{ACAD_REACTORS
330
210
102
}
100
AcDbEntity
  8
LC-006-005-----0
370
    25
390
0
 62
     2
100
AcDbLine
 10
283.93859
 20
406.197628
 30
0.0
 11
280.93859
 21
409.197628
 31
0.0
  0
LINE
  5
1B5
102
{ACAD_REACTORS
330
210
102
}
100
AcDbEntity
  8
LC-006-005-----0
370
    25
390
0
 62
     2
100
AcDbLine
 10
283.93859
 20
403.369201
 30
0.0
 11
280.93859
 21
406.369201
 31
0.0
  0
LINE
  5
1B6
102
{ACAD_REACTORS
330
210
102
}
100
AcDbEntity
  8
LC-006-005-----0
370
    25
390
0
 62
     2
100
AcDbLine
 10
283.93859
 20
400.540774
 30
0.0
 11
280.93859
 21
403.540774
 31
0.0
  0
LINE
  5
1B7
102
{ACAD_REACTORS
330
210
102
}
100
AcDbEntity
  8
LC-006-005-----0
370
    25
390
0
 62
     2
100
AcDbLine
 10
283.93859
 20
397.712347
 30
0.0
 11
280.93859
 21
400.712347
 31
0.0
  0
LINE
  5
1B8
102
{ACAD_REACTORS
330
210
102
}
100
AcDbEntity
  8
LC-006-005-----0
370
    25
390
0
 62
     2
100
AcDbLine
 10
283.93859
 20
394.88392
 30
0.0
 11
280.93859
 21
397.88392
 31
0.0
  0
LINE
  5
1B9
102
{ACAD_REACTORS
330
210
102
}
100
AcDbEntity
  8
LC-006-005-----0
370
    25
390
0
 62
     2
100
AcDbLine
 10
283.93859
 20
392.055492
 30
0.0
 11
280.93859
 21
395.055492
 31
0.0
  0
LINE
  5
1BA
102
{ACAD_REACTORS
330
210
102
}
100
AcDbEntity
  8
LC-006-005-----0
370
    25
390
0
 62
     2
100
AcDbLine
 10
283.93859
 20
389.227065
 30
0.0
 11
280.93859
 21
392.227065
 31
0.0
  0
LINE
  5
1BB
102
{ACAD_REACTORS
330
210
102
}
100
AcDbEntity
  8
LC-006-005-----0
370
    25
390
0
 62
     2
100
AcDbLine
 10
283.93859
 20
386.398638
 30
0.0
 11
280.93859
 21
389.398638
 31
0.0
  0
LINE
  5
1BC
102
{ACAD_REACTORS
330
210
102
}
100
AcDbEntity
  8
LC-006-005-----0
370
    25
390
0
 62
     2
100
AcDbLine
 10
283.93859
 20
383.570211
 30
0.0
 11
280.93859
 21
386.570211
 31
0.0
  0
LINE
  5
1BD
102
{ACAD_REACTORS
330
210
102
}
100
AcDbEntity
  8
LC-006-005-----0
370
    25
390
0
 62
     2
100
AcDbLine
 10
283.93859
 20
380.741784
 30
0.0
 11
280.93859
 21
383.741784
 31
0.0
  0
LINE
  5
1BE
102
{ACAD_REACTORS
330
210
102
}
100
AcDbEntity
  8
LC-006-005-----0
370
    25
390
0
 62
     2
100
AcDbLine
 10
283.93859
 20
377.913357
 30
0.0
 11
280.93859
 21
380.913357
 31
0.0
  0
LINE
  5
1BF
102
{ACAD_REACTORS
330
210
102
}
100
AcDbEntity
  8
LC-006-005-----0
370
    25
390
0
 62
     2
100
AcDbLine
 10
283.93859
 20
375.08493
 30
0.0
 11
280.93859
 21
378.08493
 31
0.0
  0
LINE
  5
1C0
102
{ACAD_REACTORS
330
210
102
}
100
AcDbEntity
  8
LC-006-005-----0
370
    25
390
0
 62
     2
100
AcDbLine
 10
283.93859
 20
372.256503
 30
0.0
 11
280.93859
 21
375.256503
 31
0.0
  0
LINE
  5
1C1
102
{ACAD_REACTORS
330
210
102
}
100
AcDbEntity
  8
LC-006-005-----0
370
    25
390
0
 62
     2
100
AcDbLine
 10
283.93859
 20
369.428075
 30
0.0
 11
280.93859
 21
372.428075
 31
0.0
  0
LINE
  5
1C2
102
{ACAD_REACTORS
330
210
102
}
100
AcDbEntity
  8
LC-006-005-----0
370
    25
390
0
 62
     2
100
AcDbLine
 10
283.93859
 20
366.599648
 30
0.0
 11
280.93859
 21
369.599648
 31
0.0
  0
LINE
  5
1C3
102
{ACAD_REACTORS
330
210
102
}
100
AcDbEntity
  8
LC-006-005-----0
370
    25
390
0
 62
     2
100
AcDbLine
 10
283.93859
 20
363.771221
 30
0.0
 11
280.93859
 21
366.771221
 31
0.0
  0
LINE
  5
1C4
102
{ACAD_REACTORS
330
210
102
}
100
AcDbEntity
  8
LC-006-005-----0
370
    25
390
0
 62
     2
100
AcDbLine
 10
283.93859
 20
360.942794
 30
0.0
 11
280.93859
 21
363.942794
 31
0.0
  0
LINE
  5
1C5
102
{ACAD_REACTORS
330
210
102
}
100
AcDbEntity
  8
LC-006-005-----0
370
    25
390
0
 62
     2
100
AcDbLine
 10
283.93859
 20
358.114367
 30
0.0
 11
280.93859
 21
361.114367
 31
0.0
  0
LINE
  5
1C6
102
{ACAD_REACTORS
330
210
102
}
100
AcDbEntity
  8
LC-006-005-----0
370
    25
390
0
 62
     2
100
AcDbLine
 10
283.93859
 20
355.28594
 30
0.0
 11
280.93859
 21
358.28594
 31
0.0
  0
LINE
  5
1C7
102
{ACAD_REACTORS
330
210
102
}
100
AcDbEntity
  8
LC-006-005-----0
370
    25
390
0
 62
     2
100
AcDbLine
 10
283.93859
 20
352.457513
 30
0.0
 11
280.93859
 21
355.457513
 31
0.0
  0
LINE
  5
1C8
102
{ACAD_REACTORS
330
210
102
}
100
AcDbEntity
  8
LC-006-005-----0
370
    25
390
0
 62
     2
100
AcDbLine
 10
283.93859
 20
349.629086
 30
0.0
 11
280.93859
 21
352.629086
 31
0.0
  0
LINE
  5
1C9
102
{ACAD_REACTORS
330
210
102
}
100
AcDbEntity
  8
LC-006-005-----0
370
    25
390
0
 62
     2
100
AcDbLine
 10
283.93859
 20
346.800658
 30
0.0
 11
280.93859
 21
349.800658
 31
0.0
  0
LINE
  5
1CA
102
{ACAD_REACTORS
330
210
102
}
100
AcDbEntity
  8
LC-006-005-----0
370
    25
390
0
 62
     2
100
AcDbLine
 10
283.93859
 20
343.972231
 30
0.0
 11
280.93859
 21
346.972231
 31
0.0
  0
LINE
  5
1CB
102
{ACAD_REACTORS
330
210
102
}
100
AcDbEntity
  8
LC-006-005-----0
370
    25
390
0
 62
     2
100
AcDbLine
 10
283.93859
 20
341.143804
 30
0.0
 11
280.93859
 21
344.143804
 31
0.0
  0
LINE
  5
1CC
102
{ACAD_REACTORS
330
210
102
}
100
AcDbEntity
  8
LC-006-005-----0
370
    25
390
0
 62
     2
100
AcDbLine
 10
283.93859
 20
338.315377
 30
0.0
 11
280.93859
 21
341.315377
 31
0.0
  0
LINE
  5
1CD
102
{ACAD_REACTORS
330
210
102
}
100
AcDbEntity
  8
LC-006-005-----0
370
    25
390
0
 62
     2
100
AcDbLine
 10
283.93859
 20
335.48695
 30
0.0
 11
280.93859
 21
338.48695
 31
0.0
  0
LINE
  5
1CE
102
{ACAD_REACTORS
330
210
102
}
100
AcDbEntity
  8
LC-006-005-----0
370
    25
390
0
 62
     2
100
AcDbLine
 10
283.93859
 20
332.658523
 30
0.0
 11
280.93859
 21
335.658523
 31
0.0
  0
LINE
  5
1CF
102
{ACAD_REACTORS
330
210
102
}
100
AcDbEntity
  8
LC-006-005-----0
370
    25
390
0
 62
     2
100
AcDbLine
 10
283.93859
 20
329.830096
 30
0.0
 11
280.93859
 21
332.830096
 31
0.0
  0
LINE
  5
1D0
102
{ACAD_REACTORS
330
210
102
}
100
AcDbEntity
  8
LC-006-005-----0
370
    25
390
0
 62
     2
100
AcDbLine
 10
283.93859
 20
327.001669
 30
0.0
 11
280.93859
 21
330.001669
 31
0.0
  0
LINE
  5
1D1
102
{ACAD_REACTORS
330
210
102
}
100
AcDbEntity
  8
LC-006-005-----0
370
    25
390
0
 62
     2
100
AcDbLine
 10
283.93859
 20
324.173241
 30
0.0
 11
280.93859
 21
327.173241
 31
0.0
  0
LINE
  5
1D2
102
{ACAD_REACTORS
330
210
102
}
100
AcDbEntity
  8
LC-006-005-----0
370
    25
390
0
 62
     2
100
AcDbLine
 10
283.93859
 20
321.344814
 30
0.0
 11
280.93859
 21
324.344814
 31
0.0
  0
LINE
  5
1D3
102
{ACAD_REACTORS
330
210
102
}
100
AcDbEntity
  8
LC-006-005-----0
370
    25
390
0
 62
     2
100
AcDbLine
 10
283.93859
 20
318.516387
 30
0.0
 11
280.93859
 21
321.516387
 31
0.0
  0
LINE
  5
1D4
102
{ACAD_REACTORS
330
210
102
}
100
AcDbEntity
  8
LC-006-005-----0
370
    25
390
0
 62
     2
100
AcDbLine
 10
283.93859
 20
315.68796
 30
0.0
 11
280.93859
 21
318.68796
 31
0.0
  0
LINE
  5
1D5
102
{ACAD_REACTORS
330
210
102
}
100
AcDbEntity
  8
LC-006-005-----0
370
    25
390
0
 62
     2
100
AcDbLine
 10
283.93859
 20
312.859533
 30
0.0
 11
280.93859
 21
315.859533
 31
0.0
  0
LINE
  5
1D6
102
{ACAD_REACTORS
330
210
102
}
100
AcDbEntity
  8
LC-006-005-----0
370
    25
390
0
 62
     2
100
AcDbLine
 10
283.93859
 20
310.031106
 30
0.0
 11
280.93859
 21
313.031106
 31
0.0
  0
LINE
  5
1D7
102
{ACAD_REACTORS
330
210
102
}
100
AcDbEntity
  8
LC-006-005-----0
370
    25
390
0
 62
     2
100
AcDbLine
 10
283.93859
 20
307.202679
 30
0.0
 11
280.93859
 21
310.202679
 31
0.0
  0
LINE
  5
1D8
102
{ACAD_REACTORS
330
210
102
}
100
AcDbEntity
  8
LC-006-005-----0
370
    25
390
0
 62
     2
100
AcDbLine
 10
283.93859
 20
304.374252
 30
0.0
 11
280.93859
 21
307.374252
 31
0.0
  0
LINE
  5
1D9
102
{ACAD_REACTORS
330
210
102
}
100
AcDbEntity
  8
LC-006-005-----0
370
    25
390
0
 62
     2
100
AcDbLine
 10
283.93859
 20
301.545824
 30
0.0
 11
280.93859
 21
304.545824
 31
0.0
  0
LINE
  5
1DA
102
{ACAD_REACTORS
330
210
102
}
100
AcDbEntity
  8
LC-006-005-----0
370
    25
390
0
 62
     2
100
AcDbLine
 10
283.93859
 20
298.717397
 30
0.0
 11
280.93859
 21
301.717397
 31
0.0
  0
LINE
  5
1DB
102
{ACAD_REACTORS
330
210
102
}
100
AcDbEntity
  8
LC-006-005-----0
370
    25
390
0
 62
     2
100
AcDbLine
 10
283.93859
 20
295.88897
 30
0.0
 11
280.93859
 21
298.88897
 31
0.0
  0
LINE
  5
1DC
102
{ACAD_REACTORS
330
210
102
}
100
AcDbEntity
  8
LC-006-005-----0
370
    25
390
0
 62
     2
100
AcDbLine
 10
283.93859
 20
293.060543
 30
0.0
 11
280.93859
 21
296.060543
 31
0.0
  0
LINE
  5
1DD
102
{ACAD_REACTORS
330
210
102
}
100
AcDbEntity
  8
LC-006-005-----0
370
    25
390
0
 62
     2
100
AcDbLine
 10
283.93859
 20
290.232116
 30
0.0
 11
280.93859
 21
293.232116
 31
0.0
  0
LINE
  5
1DE
102
{ACAD_REACTORS
330
210
102
}
100
AcDbEntity
  8
LC-006-005-----0
370
    25
390
0
 62
     2
100
AcDbLine
 10
283.93859
 20
287.403689
 30
0.0
 11
280.93859
 21
290.403689
 31
0.0
  0
LINE
  5
1DF
102
{ACAD_REACTORS
330
210
102
}
100
AcDbEntity
  8
LC-006-005-----0
370
    25
390
0
 62
     2
100
AcDbLine
 10
283.93859
 20
284.575262
 30
0.0
 11
280.93859
 21
287.575262
 31
0.0
  0
LINE
  5
1E0
102
{ACAD_REACTORS
330
210
102
}
100
AcDbEntity
  8
LC-006-005-----0
370
    25
390
0
 62
     2
100
AcDbLine
 10
283.93859
 20
281.746835
 30
0.0
 11
280.93859
 21
284.746835
 31
0.0
  0
LINE
  5
1E1
102
{ACAD_REACTORS
330
210
102
}
100
AcDbEntity
  8
LC-006-005-----0
370
    25
390
0
 62
     2
100
AcDbLine
 10
283.93859
 20
278.918407
 30
0.0
 11
280.93859
 21
281.918407
 31
0.0
  0
LINE
  5
1E2
102
{ACAD_REACTORS
330
210
102
}
100
AcDbEntity
  8
LC-006-005-----0
370
    25
390
0
 62
     2
100
AcDbLine
 10
283.93859
 20
276.08998
 30
0.0
 11
280.93859
 21
279.08998
 31
0.0
  0
LINE
  5
1E3
102
{ACAD_REACTORS
330
210
102
}
100
AcDbEntity
  8
LC-006-005-----0
370
    25
390
0
 62
     2
100
AcDbLine
 10
283.93859
 20
273.261553
 30
0.0
 11
280.93859
 21
276.261553
 31
0.0
  0
LINE
  5
1E4
102
{ACAD_REACTORS
330
210
102
}
100
AcDbEntity
  8
LC-006-005-----0
370
    25
390
0
 62
     2
100
AcDbLine
 10
283.93859
 20
270.433126
 30
0.0
 11
280.93859
 21
273.433126
 31
0.0
  0
LINE
  5
1E5
102
{ACAD_REACTORS
330
210
102
}
100
AcDbEntity
  8
LC-006-005-----0
370
    25
390
0
 62
     2
100
AcDbLine
 10
283.93859
 20
267.604699
 30
0.0
 11
280.93859
 21
270.604699
 31
0.0
  0
LINE
  5
1E6
102
{ACAD_REACTORS
330
210
102
}
100
AcDbEntity
  8
LC-006-005-----0
370
    25
390
0
 62
     2
100
AcDbLine
 10
283.93859
 20
264.776272
 30
0.0
 11
280.93859
 21
267.776272
 31
0.0
  0
LINE
  5
1E7
102
{ACAD_REACTORS
330
210
102
}
100
AcDbEntity
  8
LC-006-005-----0
370
    25
390
0
 62
     2
100
AcDbLine
 10
283.93859
 20
261.947845
 30
0.0
 11
280.93859
 21
264.947845
 31
0.0
  0
LINE
  5
1E8
102
{ACAD_REACTORS
330
210
102
}
100
AcDbEntity
  8
LC-006-005-----0
370
    25
390
0
 62
     2
100
AcDbLine
 10
283.93859
 20
259.119418
 30
0.0
 11
280.93859
 21
262.119418
 31
0.0
  0
LINE
  5
1E9
102
{ACAD_REACTORS
330
210
102
}
100
AcDbEntity
  8
LC-006-005-----0
370
    25
390
0
 62
     2
100
AcDbLine
 10
283.93859
 20
256.29099
 30
0.0
 11
280.93859
 21
259.29099
 31
0.0
  0
LINE
  5
1EA
102
{ACAD_REACTORS
330
210
102
}
100
AcDbEntity
  8
LC-006-005-----0
370
    25
390
0
 62
     2
100
AcDbLine
 10
283.93859
 20
253.462563
 30
0.0
 11
280.93859
 21
256.462563
 31
0.0
  0
LINE
  5
1EB
102
{ACAD_REACTORS
330
210
102
}
100
AcDbEntity
  8
LC-006-005-----0
370
    25
390
0
 62
     2
100
AcDbLine
 10
283.93859
 20
250.634136
 30
0.0
 11
280.93859
 21
253.634136
 31
0.0
  0
LINE
  5
1EC
102
{ACAD_REACTORS
330
210
102
}
100
AcDbEntity
  8
LC-006-005-----0
370
    25
390
0
 62
     2
100
AcDbLine
 10
283.93859
 20
247.805709
 30
0.0
 11
280.93859
 21
250.805709
 31
0.0
  0
LINE
  5
1ED
102
{ACAD_REACTORS
330
210
102
}
100
AcDbEntity
  8
LC-006-005-----0
370
    25
390
0
 62
     2
100
AcDbLine
 10
283.93859
 20
244.977282
 30
0.0
 11
280.93859
 21
247.977282
 31
0.0
  0
LINE
  5
1EE
102
{ACAD_REACTORS
330
210
102
}
100
AcDbEntity
  8
LC-006-005-----0
370
    25
390
0
 62
     2
100
AcDbLine
 10
283.93859
 20
242.148855
 30
0.0
 11
280.93859
 21
245.148855
 31
0.0
  0
LINE
  5
1EF
102
{ACAD_REACTORS
330
210
102
}
100
AcDbEntity
  8
LC-006-005-----0
370
    25
390
0
 62
     2
100
AcDbLine
 10
283.93859
 20
239.320428
 30
0.0
 11
280.93859
 21
242.320428
 31
0.0
  0
LINE
  5
1F0
102
{ACAD_REACTORS
330
210
102
}
100
AcDbEntity
  8
LC-006-005-----0
370
    25
390
0
 62
     2
100
AcDbLine
 10
283.93859
 20
236.492001
 30
0.0
 11
280.93859
 21
239.492001
 31
0.0
  0
LINE
  5
1F1
102
{ACAD_REACTORS
330
210
102
}
100
AcDbEntity
  8
LC-006-005-----0
370
    25
390
0
 62
     2
100
AcDbLine
 10
283.93859
 20
233.663573
 30
0.0
 11
280.93859
 21
236.663573
 31
0.0
  0
LINE
  5
1F2
102
{ACAD_REACTORS
330
210
102
}
100
AcDbEntity
  8
LC-006-005-----0
370
    25
390
0
 62
     2
100
AcDbLine
 10
283.93859
 20
230.835146
 30
0.0
 11
280.93859
 21
233.835146
 31
0.0
  0
LINE
  5
1F3
102
{ACAD_REACTORS
330
210
102
}
100
AcDbEntity
  8
LC-006-005-----0
370
    25
390
0
 62
     2
100
AcDbLine
 10
283.93859
 20
228.006719
 30
0.0
 11
280.93859
 21
231.006719
 31
0.0
  0
LINE
  5
1F4
102
{ACAD_REACTORS
330
210
102
}
100
AcDbEntity
  8
LC-006-005-----0
370
    25
390
0
 62
     2
100
AcDbLine
 10
283.346298
 20
225.770584
 30
0.0
 11
280.93859
 21
228.178292
 31
0.0
  0
LINE
  5
1F5
102
{ACAD_REACTORS
330
210
102
}
100
AcDbEntity
  8
LC-006-005-----0
370
    25
390
0
 62
     2
100
AcDbLine
 10
282.748581
 20
223.539874
 30
0.0
 11
280.93859
 21
225.349865
 31
0.0
  0
LINE
  5
1F6
102
{ACAD_REACTORS
330
210
102
}
100
AcDbEntity
  8
LC-006-005-----0
370
    25
390
0
 62
     2
100
AcDbLine
 10
325.689859
 20
429.500184
 30
0.0
 11
318.688705
 21
436.501338
 31
0.0
  0
LINE
  5
1F7
100
AcDbEntity
  8
LC-001-002-----0
370
    50
390
0
  6
ByBlock
 62
     1
100
AcDbLine
 10
199.188564
 20
439.476882
 30
0.0
 11
318.688705
 21
439.476882
 31
0.0
  0
LINE
  5
1F8
100
AcDbEntity
  8
LC-001-002-----0
370
    50
390
0
  6
ByBlock
 62
     1
100
AcDbLine
 10
196.156678
 20
439.477015
 30
0.0
 11
196.156678
 21
442.531483
 31
0.0
  0
LINE
  5
1F9
100
AcDbEntity
  8
LC-001-002-----0
370
    50
390
0
  6
ByBlock
 62
     1
100
AcDbLine
 10
199.188651
 20
442.529293
 30
0.0
 11
196.156678
 21
442.529293
 31
0.0
  0
LINE
  5
1FA
100
AcDbEntity
  8
LC-001-002-----0
370
    50
390
0
  6
ByBlock
 62
     1
100
AcDbLine
 10
152.438678
 20
442.776997
 30
0.0
 11
365.438678
 21
442.776997
 31
0.0
  0
LINE
  5
1FB
100
AcDbEntity
  8
LC-001-002-----0
370
    50
390
0
  6
ByBlock
 62
     1
100
AcDbLine
 10
106.938678
 20
442.872985
 30
0.0
 11
258.938678
 21
442.872985
 31
0.0
  0
LINE
  5
1FC
102
{ACAD_REACTORS
330
211
102
}
100
AcDbEntity
  8
LC-001-002-----0
370
    50
390
0
  6
ByBlock
 62
     1
100
AcDbLine
 10
186.656678
 20
438.459585
 30
0.0
 11
186.362807
 21
437.950585
 31
0.0
  0
LINE
  5
1FD
102
{ACAD_REACTORS
330
211
102
}
100
AcDbEntity
  8
LC-001-002-----0
370
    50
390
0
  6
ByBlock
 62
     1
100
AcDbLine
 10
186.950549
 20
437.950585
 30
0.0
 11
186.656678
 21
438.459585
 31
0.0
  0
LINE
  5
1FE
102
{ACAD_REACTORS
330
211
102
}
100
AcDbEntity
  8
LC-001-002-----0
370
    50
390
0
  6
ByBlock
 62
     1
100
AcDbLine
 10
188.356678
 20
438.459585
 30
0.0
 11
188.062807
 21
437.950585
 31
0.0
  0
LINE
  5
1FF
102
{ACAD_REACTORS
330
211
102
}
100
AcDbEntity
  8
LC-001-002-----0
370
    50
390
0
  6
ByBlock
 62
     1
100
AcDbLine
 10
188.650549
 20
437.950585
 30
0.0
 11
188.356678
 21
438.459585
 31
0.0
  0
LINE
  5
200
102
{ACAD_REACTORS
330
211
102
}
100
AcDbEntity
  8
LC-001-002-----0
370
    50
390
0
  6
ByBlock
 62
     1
100
AcDbLine
 10
190.056678
 20
438.459585
 30
0.0
 11
189.762807
 21
437.950585
 31
0.0
  0
LINE
  5
201
102
{ACAD_REACTORS
330
211
102
}
100
AcDbEntity
  8
LC-001-002-----0
370
    50
390
0
  6
ByBlock
 62
     1
100
AcDbLine
 10
190.350549
 20
437.950585
 30
0.0
 11
190.056678
 21
438.459585
 31
0.0
  0
LINE
  5
202
102
{ACAD_REACTORS
330
211
102
}
100
AcDbEntity
  8
LC-001-002-----0
370
    50
390
0
  6
ByBlock
 62
     1
100
AcDbLine
 10
191.756678
 20
438.459585
 30
0.0
 11
191.462807
 21
437.950585
 31
0.0
  0
LINE
  5
203
102
{ACAD_REACTORS
330
211
102
}
100
AcDbEntity
  8
LC-001-002-----0
370
    50
390
0
  6
ByBlock
 62
     1
100
AcDbLine
 10
192.050355
 20
437.950922
 30
0.0
 11
191.756678
 21
438.459585
 31
0.0
  0
LINE
  5
204
100
AcDbEntity
  8
LC-001-002-----0
370
    50
390
0
  6
ByBlock
 62
     1
100
AcDbLine
 10
280.93859
 20
425.696499
 30
0.0
 11
236.93859
 21
425.69452
 31
0.0
  0
LINE
  5
205
102
{ACAD_REACTORS
330
20E
102
}
100
AcDbEntity
  8
LC-001-002-----0
370
    50
390
0
  6
ByBlock
 62
     1
100
AcDbLine
 10
331.220503
 20
438.459585
 30
0.0
 11
331.514374
 21
437.950585
 31
0.0
  0
LINE
  5
206
102
{ACAD_REACTORS
330
20E
102
}
100
AcDbEntity
  8
LC-001-002-----0
370
    50
390
0
  6
ByBlock
 62
     1
100
AcDbLine
 10
330.926632
 20
437.950585
 30
0.0
 11
331.220503
 21
438.459585
 31
0.0
  0
LINE
  5
207
102
{ACAD_REACTORS
330
20E
102
}
100
AcDbEntity
  8
LC-001-002-----0
370
    50
390
0
  6
ByBlock
 62
     1
100
AcDbLine
 10
329.520503
 20
438.459585
 30
0.0
 11
329.814374
 21
437.950585
 31
0.0
  0
LINE
  5
208
102
{ACAD_REACTORS
330
20E
102
}
100
AcDbEntity
  8
LC-001-002-----0
370
    50
390
0
  6
ByBlock
 62
     1
100
AcDbLine
 10
329.226632
 20
437.950585
 30
0.0
 11
329.520503
 21
438.459585
 31
0.0
  0
LINE
  5
209
102
{ACAD_REACTORS
330
20E
102
}
100
AcDbEntity
  8
LC-001-002-----0
370
    50
390
0
  6
ByBlock
 62
     1
100
AcDbLine
 10
327.820503
 20
438.459585
 30
0.0
 11
328.114374
 21
437.950585
 31
0.0
  0
LINE
  5
20A
102
{ACAD_REACTORS
330
20E
102
}
100
AcDbEntity
  8
LC-001-002-----0
370
    50
390
0
  6
ByBlock
 62
     1
100
AcDbLine
 10
327.526632
 20
437.950585
 30
0.0
 11
327.820503
 21
438.459585
 31
0.0
  0
LINE
  5
20B
102
{ACAD_REACTORS
330
20E
102
}
100
AcDbEntity
  8
LC-001-002-----0
370
    50
390
0
  6
ByBlock
 62
     1
100
AcDbLine
 10
326.120503
 20
438.459585
 30
0.0
 11
326.414374
 21
437.950585
 31
0.0
  0
LINE
  5
20C
102
{ACAD_REACTORS
330
20E
102
}
100
AcDbEntity
  8
LC-001-002-----0
370
    50
390
0
  6
ByBlock
 62
     1
100
AcDbLine
 10
325.826826
 20
437.950922
 30
0.0
 11
326.120503
 21
438.459585
 31
0.0
  0
ENDSEC
  0
SECTION
  2
OBJECTS
  0
DICTIONARY
  5
19
100
AcDbDictionary
280
     0
281
     1
  3
ACAD_GROUP
350
1A
  3
ACAD_MLINESTYLE
350
1B
  3
ACAD_LAYOUT
350
1E
  3
ACAD_PLOTSETTINGS
350
22
  3
ACAD_PLOTSTYLENAME
350
1F
  0
DICTIONARY
  5
1A
102
{ACAD_REACTORS
330
19
102
}
100
AcDbDictionary
280
     0
281
     1
  3
ablaufschn
350
20E
  3
GRP1361
350
20F
  3
GRP1491
350
210
  3
ablaufschn
350
211
  0
DICTIONARY
  5
1B
102
{ACAD_REACTORS
330
19
102
}
100
AcDbDictionary
280
     0
281
     1
  3
Standard
350
1C
  0
MLINESTYLE
  5
1C
102
{ACAD_REACTORS
330
1B
102
}
100
AcDbMlineStyle
  2
Standard
 70
     0
  3

 62
     0
 51
90.0
 52
90.0
 71
     2
 49
0.5
 62
   256
  6
ByLayer
 49
-0.5
 62
   256
  6
ByLayer
  0
ACDBDICTIONARYWDFLT
  5
1F
102
{ACAD_REACTORS
330
19
102
}
100
AcDbDictionary
281
     1
  3
Normal
350
1D
100
AcDbDictionaryWithDefault
340
1D
  0
ACDBPLACEHOLDER
  5
1D
102
{ACAD_REACTORS
330
1F
102
}
  0
LAYOUT
  5
20
102
{ACAD_REACTORS
330
1E
102
}
100
AcDbPlotSettings
  1

  2

  4

  6

 40
0.0
 41
0.0
 42
0.0
 43
0.0
 44
0.0
 45
0.0
 46
0.0
 47
0.0
 48
0.0
 49
0.0
140
0.0
141
0.0
142
1.0
143
1.0
 70
  1152
 72
     0
 73
     0
 74
     0
  7

 75
     0
147
1.0
148
0.0
149
0.0
100
AcDbLayout
  1
Model
 70
     0
 71
     0
 10
0.0
 20
0.0
 11
0.0
 21
0.0
 12
0.0
 22
0.0
 32
0.0
 14
0.0
 24
0.0
 34
0.0
 15
0.0
 25
0.0
 35
0.0
146
0.0
 13
0.0
 23
0.0
 33
0.0
 16
0.0
 26
0.0
 36
0.0
 17
0.0
 27
0.0
 37
0.0
 76
     0
330
A
331
0
345
0
346
0
  0
LAYOUT
  5
21
102
{ACAD_REACTORS
330
1E
102
}
100
AcDbPlotSettings
  1

  2

  4

  6

 40
0.0
 41
0.0
 42
0.0
 43
0.0
 44
0.0
 45
0.0
 46
0.0
 47
0.0
 48
0.0
 49
0.0
140
0.0
141
0.0
142
1.0
143
1.0
 70
   128
 72
     0
 73
     0
 74
     0
  7

 75
     0
147
1.0
148
0.0
149
0.0
100
AcDbLayout
  1
Layout1
 70
     0
 71
     0
 10
0.0
 20
0.0
 11
0.0
 21
0.0
 12
0.0
 22
0.0
 32
0.0
 14
0.0
 24
0.0
 34
0.0
 15
0.0
 25
0.0
 35
0.0
146
0.0
 13
0.0
 23
0.0
 33
0.0
 16
0.0
 26
0.0
 36
0.0
 17
0.0
 27
0.0
 37
0.0
 76
     0
330
B
331
0
345
0
346
0
  0
DICTIONARY
  5
1E
102
{ACAD_REACTORS
330
19
102
}
100
AcDbDictionary
280
     0
281
     1
  3
Layout1
350
21
  3
Model
350
20
  0
DICTIONARY
  5
22
102
{ACAD_REACTORS
330
19
102
}
100
AcDbDictionary
280
     0
281
     1
  0
GROUP
  5
20E
102
{ACAD_REACTORS
330
1A
102
}
100
AcDbGroup
300
ablaufschn
 70
     0
 71
     1
340
205
340
206
340
207
340
208
340
209
340
20A
340
20B
340
20C
  0
GROUP
  5
20F
102
{ACAD_REACTORS
330
1A
102
}
100
AcDbGroup
300
GRP1361
 70
     0
 71
     1
340
F4
340
F5
340
F6
340
F7
340
F8
340
F9
340
FA
340
FB
340
FC
340
FD
340
FE
340
FF
340
100
340
101
340
102
340
103
340
104
340
105
340
106
340
107
340
108
340
109
340
10A
340
10B
340
10C
340
10D
340
10E
340
10F
340
110
340
111
340
112
340
113
340
114
340
115
340
116
340
117
340
118
340
119
340
11A
340
11B
340
11C
340
11D
340
11E
340
11F
340
120
340
121
340
122
340
123
340
124
340
125
340
126
340
127
340
128
340
129
340
12A
340
12B
340
12C
340
12D
340
12E
340
12F
340
130
340
131
340
132
340
133
340
134
340
135
340
136
340
137
340
138
340
139
340
13A
340
13B
340
13C
340
13D
340
13E
340
13F
340
140
340
141
340
142
340
143
340
144
340
145
340
146
340
147
340
148
340
149
340
14A
340
14B
340
14C
340
14D
340
14E
340
14F
340
150
340
151
340
152
340
153
340
154
340
155
340
156
340
157
340
158
340
159
340
15A
340
15B
340
15C
340
15D
340
15E
340
15F
340
160
340
161
340
162
340
163
340
164
340
165
340
166
340
167
340
168
340
169
340
16A
340
16B
340
16C
340
16D
340
16E
340
16F
340
170
340
171
  0
GROUP
  5
210
102
{ACAD_REACTORS
330
1A
102
}
100
AcDbGroup
300
GRP1491
 70
     0
 71
     1
340
174
340
175
340
176
340
177
340
178
340
179
340
17A
340
17B
340
17C
340
17D
340
17E
340
17F
340
180
340
181
340
182
340
183
340
184
340
185
340
186
340
187
340
188
340
189
340
18A
340
18B
340
18C
340
18D
340
18E
340
18F
340
190
340
191
340
192
340
193
340
194
340
195
340
196
340
197
340
198
340
199
340
19A
340
19B
340
19C
340
19D
340
19E
340
19F
340
1A0
340
1A1
340
1A2
340
1A3
340
1A4
340
1A5
340
1A6
340
1A7
340
1A8
340
1A9
340
1AA
340
1AB
340
1AC
340
1AD
340
1AE
340
1AF
340
1B0
340
1B1
340
1B2
340
1B3
340
1B4
340
1B5
340
1B6
340
1B7
340
1B8
340
1B9
340
1BA
340
1BB
340
1BC
340
1BD
340
1BE
340
1BF
340
1C0
340
1C1
340
1C2
340
1C3
340
1C4
340
1C5
340
1C6
340
1C7
340
1C8
340
1C9
340
1CA
340
1CB
340
1CC
340
1CD
340
1CE
340
1CF
340
1D0
340
1D1
340
1D2
340
1D3
340
1D4
340
1D5
340
1D6
340
1D7
340
1D8
340
1D9
340
1DA
340
1DB
340
1DC
340
1DD
340
1DE
340
1DF
340
1E0
340
1E1
340
1E2
340
1E3
340
1E4
340
1E5
340
1E6
340
1E7
340
1E8
340
1E9
340
1EA
340
1EB
340
1EC
340
1ED
340
1EE
340
1EF
340
1F0
340
1F1
340
1F2
340
1F3
340
1F4
340
1F5
340
1F6
  0
GROUP
  5
211
102
{ACAD_REACTORS
330
1A
102
}
100
AcDbGroup
300
ablaufschn
 70
     0
 71
     1
340
1FC
340
1FD
340
1FE
340
1FF
340
200
340
201
340
202
340
203
  0
ENDSEC
  0
EOF
