  0
SECTION
  2
HEADER
  9
$ACADVER
  1
AC1009
  9
$INSBASE
 10
0.0
 20
0.0
 30
0.0
  9
$EXTMIN
 10
0.0
 20
0.0
 30
0.0
  9
$EXTMAX
 10
840.0
 20
594.0
 30
0.0
  9
$LIMMIN
 10
0.0
 20
0.0
  9
$LIMMAX
 10
840.0
 20
594.0
  9
$ORTHOMODE
 70
     0
  9
$REGENMODE
 70
     1
  9
$FILLMODE
 70
     1
  9
$QTEXTMODE
 70
     0
  9
$MIRRTEXT
 70
     1
  9
$DRAGMODE
 70
     2
  9
$LTSCALE
 40
2.0
  9
$OSMODE
 70
     0
  9
$ATTMODE
 70
     1
  9
$TEXTSIZE
 40
0.2
  9
$TRACEWID
 40
0.05
  9
$TEXTSTYLE
  7
STANDARD
  9
$CLAYER
  8
0
  9
$CELTYPE
  6
BYLAYER
  9
$CECOLOR
 62
     7
  9
$DIMSCALE
 40
2.0
  9
$DIMASZ
 40
3.5
  9
$DIMEXO
 40
0.0625
  9
$DIMDLI
 40
0.38
  9
$DIMRND
 40
0.0
  9
$DIMDLE
 40
0.0
  9
$DIMEXE
 40
0.18
  9
$DIMTP
 40
0.0
  9
$DIMTM
 40
0.0
  9
$DIMTXT
 40
3.5
  9
$DIMCEN
 40
0.09
  9
$DIMTSZ
 40
0.0
  9
$DIMTOL
 70
     0
  9
$DIMLIM
 70
     0
  9
$DIMTIH
 70
     1
  9
$DIMTOH
 70
     1
  9
$DIMSE1
 70
     0
  9
$DIMSE2
 70
     0
  9
$DIMTAD
 70
     1
  9
$DIMZIN
 70
     0
  9
$DIMBLK
  1

  9
$DIMASO
 70
     1
  9
$DIMSHO
 70
     1
  9
$DIMPOST
  1

  9
$DIMAPOST
  1

  9
$DIMALT
 70
     0
  9
$DIMALTD
 70
     2
  9
$DIMALTF
 40
25.4
  9
$DIMLFAC
 40
1.0
  9
$DIMTOFL
 70
     0
  9
$DIMTVP
 40
0.0
  9
$DIMTIX
 70
     0
  9
$DIMSOXD
 70
     0
  9
$DIMSAH
 70
     0
  9
$DIMBLK1
  1

  9
$DIMBLK2
  1

  9
$DIMSTYLE
  2
STANDARD
  9
$DIMCLRD
 70
     0
  9
$DIMCLRE
 70
     0
  9
$DIMCLRT
 70
     0
  9
$DIMTFAC
 40
1.0
  9
$DIMGAP
 40
0.09
  9
$LUNITS
 70
     2
  9
$LUPREC
 70
     2
  9
$AXISMODE
 70
     0
  9
$AXISUNIT
 10
0.0
 20
0.0
  9
$SKETCHINC
 40
0.1
  9
$FILLETRAD
 40
0.0
  9
$AUNITS
 70
     0
  9
$AUPREC
 70
     0
  9
$MENU
  1
acad
  9
$ELEVATION
 40
0.0
  9
$PELEVATION
 40
0.0
  9
$THICKNESS
 40
0.0
  9
$LIMCHECK
 70
     0
  9
$BLIPMODE
 70
     1
  9
$CHAMFERA
 40
0.0
  9
$CHAMFERB
 40
0.0
  9
$SKPOLY
 70
     0
  9
$TDCREATE
 40
0.000000000
  9
$TDUPDATE
 40
0.000000000
  9
$TDINDWG
 40
0.0000000000
  9
$TDUSRTIMER
 40
0.0000000000
  9
$USRTIMER
 70
     1
  9
$ANGBASE
 50
0.0
  9
$ANGDIR
 70
     0
  9
$PDMODE
 70
     0
  9
$PDSIZE
 40
0.0
  9
$PLINEWID
 40
0.0
  9
$COORDS
 70
     0
  9
$SPLFRAME
 70
     0
  9
$SPLINETYPE
 70
     6
  9
$SPLINESEGS
 70
     8
  9
$ATTDIA
 70
     0
  9
$ATTREQ
 70
     1
  9
$HANDLING
 70
     1
  9
$HANDSEED
  5
334
  9
$SURFTAB1
 70
     6
  9
$SURFTAB2
 70
     6
  9
$SURFTYPE
 70
     6
  9
$SURFU
 70
     6
  9
$SURFV
 70
     6
  9
$UCSNAME
  2

  9
$UCSORG
 10
0.0
 20
0.0
 30
0.0
  9
$UCSXDIR
 10
1.0
 20
0.0
 30
0.0
  9
$UCSYDIR
 10
0.0
 20
1.0
 30
0.0
  9
$PUCSNAME
  2

  9
$PUCSORG
 10
0.0
 20
0.0
 30
0.0
  9
$PUCSXDIR
 10
1.0
 20
0.0
 30
0.0
  9
$PUCSYDIR
 10
0.0
 20
1.0
 30
0.0
  9
$USERI1
 70
     0
  9
$USERI2
 70
     0
  9
$USERI3
 70
     0
  9
$USERI4
 70
     0
  9
$USERI5
 70
     0
  9
$USERR1
 40
0.0
  9
$USERR2
 40
0.0
  9
$USERR3
 40
0.0
  9
$USERR4
 40
0.0
  9
$USERR5
 40
0.0
  9
$WORLDVIEW
 70
     1
  9
$SHADEDGE
 70
     3
  9
$SHADEDIF
 70
    70
  9
$TILEMODE
 70
     1
  9
$MAXACTVP
 70
    16
  9
$PINSBASE
 10
0.0
 20
0.0
 30
0.0
  9
$PLIMCHECK
 70
     0
  9
$PEXTMIN
 10
1.000000E+20
 20
1.000000E+20
 30
1.000000E+20
  9
$PEXTMAX
 10
-1.000000E+20
 20
-1.000000E+20
 30
-1.000000E+20
  9
$PLIMMIN
 10
0.0
 20
0.0
  9
$PLIMMAX
 10
840.0
 20
594.0
  9
$UNITMODE
 70
     0
  9
$VISRETAIN
 70
     0
  9
$PLINEGEN
 70
     1
  9
$PSLTSCALE
 70
     0
  9
$TREEDEPTH
 70
  3020
  9
$DWGCODEPAGE
  3
dos850
  0
ENDSEC
  0
SECTION
  2
TABLES
  0
TABLE
  2
VPORT
 70
     1
  0
VPORT
  2
*ACTIVE
 70
     0
 10
0.0
 20
0.0
 11
1.0
 21
1.0
 12
420.0
 22
297.0
 13
0.0
 23
0.0
 14
1.0
 24
1.0
 15
0.0
 25
0.0
 16
0.0
 26
0.0
 36
1.0
 17
0.0
 27
0.0
 37
0.0
 40
594.0
 41
1.604229
 42
50.0
 43
0.0
 44
0.0
 50
0.0
 51
0.0
 71
     0
 72
   100
 73
     1
 74
     1
 75
     0
 76
     0
 77
     0
 78
     0
  0
ENDTAB
  0
TABLE
  2
LTYPE
 70
     3
  0
LTYPE
  2
CONTINUOUS
 70
    64
  3
Solid line
 72
    65
 73
     0
 40
0.0
  0
LTYPE
  2
DASHED
 70
    64
  3
__ __ __ __ __
 72
    65
 73
     2
 40
6.25
 49
5.0
 49
-1.25
  0
LTYPE
  2
DASHDOT
 70
    64
  3
__ . __ . __ . __ . __
 72
    65
 73
     4
 40
7.5
 49
5.0
 49
-1.25
 49
0.0
 49
-1.25
  0
ENDTAB
  0
TABLE
  2
LAYER
 70
    11
  0
LAYER
  2
0
 70
     0
 62
     7
  6
CONTINUOUS
  0
LAYER
  2
LC-INFO-1-2-MM-A3-0
 70
     1
 62
    -1
  6
CONTINUOUS
  0
LAYER
  2
LC-006-003-MTH-0
 70
     0
 62
     2
  6
CONTINUOUS
  0
LAYER
  2
LC-007-003-MTG-0
 70
     0
 62
     2
  6
CONTINUOUS
  0
LAYER
  2
LC-005-003-----0
 70
     0
 62
     2
  6
CONTINUOUS
  0
LAYER
  2
LC-004-005-----0
 70
     0
 62
     2
  6
CONTINUOUS
  0
LAYER
  2
LC-003-000-----0
 70
     0
 62
     7
  6
CONTINUOUS
  0
LAYER
  2
LC-001-002-----0
 70
     0
 62
     1
  6
CONTINUOUS
  0
LAYER
  2
LC-002-002-RND-0
 70
     0
 62
     1
  6
CONTINUOUS
  0
LAYER
  2
LC-008-006-MLN-0
 70
     0
 62
     2
  6
DASHDOT
  0
LAYER
  2
LC-000
 70
     0
 62
     7
  6
CONTINUOUS
  0
ENDTAB
  0
TABLE
  2
STYLE
 70
     4
  0
STYLE
  2
STANDARD
 70
     0
 40
0.0
 41
1.0
 50
0.0
 71
     0
 42
0.0
  3
txt
  4

  0
STYLE
  2
LC-STANDARD
 70
    64
 40
0.0
 41
1.0
 50
0.0
 71
     0
 42
3.5
  3
MONOTXT
  4

  0
STYLE
  2
LC-TXTSTYLE-150-400-0-0-A2
 70
    64
 40
0.0
 41
1.0
 50
15.0
 71
     0
 42
3.5
  3
MONOTXT
  4

  0
STYLE
  2
LC-TXTSTYLE-150-400-0-0-D3
 70
    64
 40
0.0
 41
1.0
 50
15.0
 71
     0
 42
3.5
  3
LC-STANDARD
  4

  0
ENDTAB
  0
TABLE
  2
VIEW
 70
     0
  0
ENDTAB
  0
TABLE
  2
UCS
 70
     0
  0
ENDTAB
  0
TABLE
  2
APPID
 70
     1
  0
APPID
  2
ACAD
 70
     0
  0
ENDTAB
  0
TABLE
  2
DIMSTYLE
 70
     3
  0
DIMSTYLE
  2
STANDARD
 70
     0
  3

  4

  5

  6

  7

 40
1.0
 41
0.18
 42
0.0625
 43
0.38
 44
0.18
 45
0.0
 46
0.0
 47
0.0
 48
0.0
 71
     0
 72
     0
 73
     1
 74
     1
 75
     0
 76
     0
 77
     0
 78
     0
140
0.18
141
0.09
142
0.0
143
25.4
144
1.0
145
0.0
146
1.0
147
0.09
170
     0
171
     2
172
     0
173
     0
174
     0
175
     0
176
     0
177
     0
178
     0
  0
DIMSTYLE
  2
LC-STANDARD
 70
     0
  3

  4

  5

  6

  7

 40
1.0
 41
3.5
 42
0.0
 43
7.5
 44
1.8
 45
0.0
 46
0.0
 47
0.0
 48
0.0
 71
     0
 72
     0
 73
     0
 74
     0
 75
     0
 76
     0
 77
     1
 78
     8
140
3.5
141
0.0
142
0.0
143
25.4
144
1.0
145
0.0
146
0.71
147
1.5
170
     0
171
     2
172
     1
173
     0
174
     0
175
     0
176
     0
177
     0
178
     3
  0
DIMSTYLE
  2
LC-DIM-L-0140-02-02
 70
     0
  3

  4

  5

  6

  7

 40
2.0
 41
3.5
 42
0.0
 43
7.5
 44
1.8
 45
0.0
 46
0.0
 47
0.0
 48
0.0
 71
     0
 72
     0
 73
     0
 74
     0
 75
     0
 76
     0
 77
     1
 78
     8
140
14.0
141
0.0
142
0.0
143
25.4
144
1.0
145
0.0
146
0.71
147
1.5
170
     0
171
     2
172
     0
173
     0
174
     0
175
     0
176
     2
177
     2
178
     8
  0
ENDTAB
  0
ENDSEC
  0
SECTION
  2
BLOCKS
  0
BLOCK
  8
0
  5
23
  2
BLK1
 70
    64
 10
0.0
 20
0.0
 30
0.0
  3
BLK1
  0
ENDBLK
  8
0
  5
24
  0
BLOCK
  8
0
  5
26
  2
BLK2
 70
    64
 10
0.0
 20
0.0
 30
0.0
  3
BLK2
  0
ENDBLK
  8
0
  5
27
  0
BLOCK
  8
0
  5
29
  2
*D2
 70
    65
 10
0.0
 20
0.0
 30
0.0
  3
*D2
  0
LINE
  8
LC-006-003-MTH-0
  6
CONTINUOUS
  5
2B
 10
272.999949
 20
251.291364
 30
0.0
 11
272.999949
 21
340.8
 31
0.0
  0
LINE
  8
LC-006-003-MTH-0
  6
CONTINUOUS
  5
2C
 10
382.99995
 20
253.811134
 30
0.0
 11
382.99995
 21
340.8
 31
0.0
  0
LINE
  8
LC-007-003-MTG-0
  6
CONTINUOUS
  5
2E
 10
272.999949
 20
324.0
 30
0.0
 11
382.99995
 21
324.0
 31
0.0
  0
LINE
  8
LC-005-003-----0
  6
CONTINUOUS
  5
30
 10
300.760405
 20
327.654733
 30
0.0
 11
272.999949
 21
324.0
 31
0.0
  0
LINE
  8
LC-005-003-----0
  6
CONTINUOUS
  5
31
 10
272.999949
 20
324.0
 30
0.0
 11
300.760405
 21
320.345267
 31
0.0
  0
LINE
  8
LC-005-003-----0
  6
CONTINUOUS
  5
32
 10
300.760405
 20
320.345267
 30
0.0
 11
300.760405
 21
327.654733
 31
0.0
  0
LINE
  8
LC-005-003-----0
  6
CONTINUOUS
  5
33
 10
300.822687
 20
326.704503
 30
0.0
 11
280.279949
 21
324.0
 31
0.0
  0
LINE
  8
LC-005-003-----0
  6
CONTINUOUS
  5
34
 10
280.279949
 20
324.0
 30
0.0
 11
300.822687
 21
321.295497
 31
0.0
  0
LINE
  8
LC-005-003-----0
  6
CONTINUOUS
  5
35
 10
300.884968
 20
325.754272
 30
0.0
 11
287.559949
 21
324.0
 31
0.0
  0
LINE
  8
LC-005-003-----0
  6
CONTINUOUS
  5
36
 10
287.559949
 20
324.0
 30
0.0
 11
300.884968
 21
322.245728
 31
0.0
  0
LINE
  8
LC-005-003-----0
  6
CONTINUOUS
  5
37
 10
300.94725
 20
324.804041
 30
0.0
 11
294.839949
 21
324.0
 31
0.0
  0
LINE
  8
LC-005-003-----0
  6
CONTINUOUS
  5
38
 10
294.839949
 20
324.0
 30
0.0
 11
300.94725
 21
323.195959
 31
0.0
  0
LINE
  8
LC-005-003-----0
  6
CONTINUOUS
  5
39
 10
355.239493
 20
320.345267
 30
0.0
 11
382.99995
 21
324.0
 31
0.0
  0
LINE
  8
LC-005-003-----0
  6
CONTINUOUS
  5
3A
 10
382.99995
 20
324.0
 30
0.0
 11
355.239493
 21
327.654733
 31
0.0
  0
LINE
  8
LC-005-003-----0
  6
CONTINUOUS
  5
3B
 10
355.239493
 20
327.654733
 30
0.0
 11
355.239493
 21
320.345267
 31
0.0
  0
LINE
  8
LC-005-003-----0
  6
CONTINUOUS
  5
3C
 10
355.177212
 20
321.295497
 30
0.0
 11
375.71995
 21
324.0
 31
0.0
  0
LINE
  8
LC-005-003-----0
  6
CONTINUOUS
  5
3D
 10
375.71995
 20
324.0
 30
0.0
 11
355.177212
 21
326.704503
 31
0.0
  0
LINE
  8
LC-005-003-----0
  6
CONTINUOUS
  5
3E
 10
355.114931
 20
322.245728
 30
0.0
 11
368.43995
 21
324.0
 31
0.0
  0
LINE
  8
LC-005-003-----0
  6
CONTINUOUS
  5
3F
 10
368.43995
 20
324.0
 30
0.0
 11
355.114931
 21
325.754272
 31
0.0
  0
LINE
  8
LC-005-003-----0
  6
CONTINUOUS
  5
40
 10
355.052649
 20
323.195959
 30
0.0
 11
361.15995
 21
324.0
 31
0.0
  0
LINE
  8
LC-005-003-----0
  6
CONTINUOUS
  5
41
 10
361.15995
 20
324.0
 30
0.0
 11
355.052649
 21
324.804041
 31
0.0
  0
TEXT
  8
LC-005-003-----0
  6
CONTINUOUS
 62
     8
  5
43
 10
294.250472
 20
331.827554
 30
0.0
 40
28.0
  1
Ø110
 41
0.9
 51
15.0
  7
LC-TXTSTYLE-150-400-0-0-D0
 72
     1
 11
332.348109
 21
331.827554
 31
0.0
  0
ENDBLK
  8
0
  5
44
  0
BLOCK
  8
0
  5
46
  2
*D3
 70
    65
 10
0.0
 20
0.0
 30
0.0
  3
*D3
  0
LINE
  8
LC-006-003-MTH-0
  6
CONTINUOUS
  5
47
 10
261.999949
 20
243.4
 30
0.0
 11
261.999949
 21
163.2
 31
0.0
  0
LINE
  8
LC-006-003-MTH-0
  6
CONTINUOUS
  5
48
 10
393.999949
 20
243.4
 30
0.0
 11
393.999949
 21
163.2
 31
0.0
  0
LINE
  8
LC-007-003-MTG-0
  6
CONTINUOUS
  5
49
 10
261.999949
 20
180.0
 30
0.0
 11
393.999949
 21
180.0
 31
0.0
  0
LINE
  8
LC-005-003-----0
  6
CONTINUOUS
  5
4A
 10
289.760405
 20
183.654733
 30
0.0
 11
261.999949
 21
180.0
 31
0.0
  0
LINE
  8
LC-005-003-----0
  6
CONTINUOUS
  5
4B
 10
261.999949
 20
180.0
 30
0.0
 11
289.760405
 21
176.345267
 31
0.0
  0
LINE
  8
LC-005-003-----0
  6
CONTINUOUS
  5
4C
 10
289.760405
 20
176.345267
 30
0.0
 11
289.760405
 21
183.654733
 31
0.0
  0
LINE
  8
LC-005-003-----0
  6
CONTINUOUS
  5
4D
 10
289.822687
 20
182.704503
 30
0.0
 11
269.279949
 21
180.0
 31
0.0
  0
LINE
  8
LC-005-003-----0
  6
CONTINUOUS
  5
4E
 10
269.279949
 20
180.0
 30
0.0
 11
289.822687
 21
177.295497
 31
0.0
  0
LINE
  8
LC-005-003-----0
  6
CONTINUOUS
  5
4F
 10
289.884968
 20
181.754272
 30
0.0
 11
276.559949
 21
180.0
 31
0.0
  0
LINE
  8
LC-005-003-----0
  6
CONTINUOUS
  5
50
 10
276.559949
 20
180.0
 30
0.0
 11
289.884968
 21
178.245728
 31
0.0
  0
LINE
  8
LC-005-003-----0
  6
CONTINUOUS
  5
51
 10
289.94725
 20
180.804041
 30
0.0
 11
283.839949
 21
180.0
 31
0.0
  0
LINE
  8
LC-005-003-----0
  6
CONTINUOUS
  5
52
 10
283.839949
 20
180.0
 30
0.0
 11
289.94725
 21
179.195959
 31
0.0
  0
LINE
  8
LC-005-003-----0
  6
CONTINUOUS
  5
53
 10
366.239493
 20
176.345267
 30
0.0
 11
393.999949
 21
180.0
 31
0.0
  0
LINE
  8
LC-005-003-----0
  6
CONTINUOUS
  5
54
 10
393.999949
 20
180.0
 30
0.0
 11
366.239493
 21
183.654733
 31
0.0
  0
LINE
  8
LC-005-003-----0
  6
CONTINUOUS
  5
55
 10
366.239493
 20
183.654733
 30
0.0
 11
366.239493
 21
176.345267
 31
0.0
  0
LINE
  8
LC-005-003-----0
  6
CONTINUOUS
  5
56
 10
366.177212
 20
177.295497
 30
0.0
 11
386.719949
 21
180.0
 31
0.0
  0
LINE
  8
LC-005-003-----0
  6
CONTINUOUS
  5
57
 10
386.719949
 20
180.0
 30
0.0
 11
366.177212
 21
182.704503
 31
0.0
  0
LINE
  8
LC-005-003-----0
  6
CONTINUOUS
  5
58
 10
366.11493
 20
178.245728
 30
0.0
 11
379.439949
 21
180.0
 31
0.0
  0
LINE
  8
LC-005-003-----0
  6
CONTINUOUS
  5
59
 10
379.439949
 20
180.0
 30
0.0
 11
366.11493
 21
181.754272
 31
0.0
  0
LINE
  8
LC-005-003-----0
  6
CONTINUOUS
  5
5A
 10
366.052649
 20
179.195959
 30
0.0
 11
372.159949
 21
180.0
 31
0.0
  0
LINE
  8
LC-005-003-----0
  6
CONTINUOUS
  5
5B
 10
372.159949
 20
180.0
 30
0.0
 11
366.052649
 21
180.804041
 31
0.0
  0
TEXT
  8
LC-005-003-----0
  6
CONTINUOUS
 62
     8
  5
5C
 10
294.250472
 20
187.827554
 30
0.0
 40
28.0
  1
Ø132
 51
15.0
  7
LC-TXTSTYLE-150-400-0-0-D0
 72
     1
 11
332.348109
 21
187.827554
 31
0.0
  0
ENDBLK
  8
0
  5
5D
  0
BLOCK
  8
0
  5
5F
  2
*D4
 70
    65
 10
0.0
 20
0.0
 30
0.0
  3
*D4
  0
LINE
  8
LC-006-003-MTH-0
  6
CONTINUOUS
  5
60
 10
393.999949
 20
243.4
 30
0.0
 11
448.8
 21
243.4
 31
0.0
  0
LINE
  8
LC-006-003-MTH-0
  6
CONTINUOUS
  5
61
 10
392.999949
 20
299.9
 30
0.0
 11
448.8
 21
299.9
 31
0.0
  0
LINE
  8
LC-005-003-----0
  6
CONTINUOUS
  5
62
 10
435.654733
 20
215.639544
 30
0.0
 11
432.0
 21
243.4
 31
0.0
  0
LINE
  8
LC-005-003-----0
  6
CONTINUOUS
  5
63
 10
432.0
 20
243.4
 30
0.0
 11
428.345267
 21
215.639544
 31
0.0
  0
LINE
  8
LC-005-003-----0
  6
CONTINUOUS
  5
64
 10
428.345267
 20
215.639544
 30
0.0
 11
435.654733
 21
215.639544
 31
0.0
  0
LINE
  8
LC-005-003-----0
  6
CONTINUOUS
  5
65
 10
434.704503
 20
215.577262
 30
0.0
 11
432.0
 21
236.12
 31
0.0
  0
LINE
  8
LC-005-003-----0
  6
CONTINUOUS
  5
66
 10
432.0
 20
236.12
 30
0.0
 11
429.295497
 21
215.577262
 31
0.0
  0
LINE
  8
LC-005-003-----0
  6
CONTINUOUS
  5
67
 10
433.754272
 20
215.514981
 30
0.0
 11
432.0
 21
228.84
 31
0.0
  0
LINE
  8
LC-005-003-----0
  6
CONTINUOUS
  5
68
 10
432.0
 20
228.84
 30
0.0
 11
430.245728
 21
215.514981
 31
0.0
  0
LINE
  8
LC-005-003-----0
  6
CONTINUOUS
  5
69
 10
432.804041
 20
215.4527
 30
0.0
 11
432.0
 21
221.56
 31
0.0
  0
LINE
  8
LC-005-003-----0
  6
CONTINUOUS
  5
6A
 10
432.0
 20
221.56
 30
0.0
 11
431.195959
 21
215.4527
 31
0.0
  0
LINE
  8
LC-005-003-----0
  6
CONTINUOUS
  5
6B
 10
428.345267
 20
327.660456
 30
0.0
 11
432.0
 21
299.9
 31
0.0
  0
LINE
  8
LC-005-003-----0
  6
CONTINUOUS
  5
6C
 10
432.0
 20
299.9
 30
0.0
 11
435.654733
 21
327.660456
 31
0.0
  0
LINE
  8
LC-005-003-----0
  6
CONTINUOUS
  5
6D
 10
435.654733
 20
327.660456
 30
0.0
 11
428.345267
 21
327.660456
 31
0.0
  0
LINE
  8
LC-005-003-----0
  6
CONTINUOUS
  5
6E
 10
429.295497
 20
327.722738
 30
0.0
 11
432.0
 21
307.18
 31
0.0
  0
LINE
  8
LC-005-003-----0
  6
CONTINUOUS
  5
6F
 10
432.0
 20
307.18
 30
0.0
 11
434.704503
 21
327.722738
 31
0.0
  0
LINE
  8
LC-005-003-----0
  6
CONTINUOUS
  5
70
 10
430.245728
 20
327.785019
 30
0.0
 11
432.0
 21
314.46
 31
0.0
  0
LINE
  8
LC-005-003-----0
  6
CONTINUOUS
  5
71
 10
432.0
 20
314.46
 30
0.0
 11
433.754272
 21
327.785019
 31
0.0
  0
LINE
  8
LC-005-003-----0
  6
CONTINUOUS
  5
72
 10
431.195959
 20
327.8473
 30
0.0
 11
432.0
 21
321.74
 31
0.0
  0
LINE
  8
LC-005-003-----0
  6
CONTINUOUS
  5
73
 10
432.0
 20
321.74
 30
0.0
 11
432.804041
 21
327.8473
 31
0.0
  0
LINE
  8
LC-007-003-MTG-0
  6
CONTINUOUS
  5
74
 10
432.0
 20
204.2
 30
0.0
 11
432.0
 21
339.1
 31
0.0
  0
TEXT
  8
LC-005-003-----0
  6
CONTINUOUS
 62
     8
  5
75
 10
424.172446
 20
257.82816
 30
0.0
 40
28.0
  1
57
 50
90.0
 51
15.0
  7
LC-TXTSTYLE-150-400-0-0-D0
  0
ENDBLK
  8
0
  5
76
  0
BLOCK
  8
0
  5
78
  2
*D5
 70
    65
 10
0.0
 20
0.0
 30
0.0
  3
*D5
  0
LINE
  8
LC-006-003-MTH-0
  6
CONTINUOUS
  5
79
 10
212.999949
 20
463.857723
 30
0.0
 11
212.999949
 21
526.4
 31
0.0
  0
LINE
  8
LC-006-003-MTH-0
  6
CONTINUOUS
  5
7A
 10
442.999949
 20
462.376579
 30
0.0
 11
442.999949
 21
526.4
 31
0.0
  0
LINE
  8
LC-007-003-MTG-0
  6
CONTINUOUS
  5
7B
 10
212.999949
 20
509.6
 30
0.0
 11
442.999949
 21
509.6
 31
0.0
  0
LINE
  8
LC-005-003-----0
  6
CONTINUOUS
  5
7C
 10
240.760405
 20
513.254733
 30
0.0
 11
212.999949
 21
509.6
 31
0.0
  0
LINE
  8
LC-005-003-----0
  6
CONTINUOUS
  5
7D
 10
212.999949
 20
509.6
 30
0.0
 11
240.760405
 21
505.945267
 31
0.0
  0
LINE
  8
LC-005-003-----0
  6
CONTINUOUS
  5
7E
 10
240.760405
 20
505.945267
 30
0.0
 11
240.760405
 21
513.254733
 31
0.0
  0
LINE
  8
LC-005-003-----0
  6
CONTINUOUS
  5
7F
 10
240.822687
 20
512.304503
 30
0.0
 11
220.279949
 21
509.6
 31
0.0
  0
LINE
  8
LC-005-003-----0
  6
CONTINUOUS
  5
80
 10
220.279949
 20
509.6
 30
0.0
 11
240.822687
 21
506.895497
 31
0.0
  0
LINE
  8
LC-005-003-----0
  6
CONTINUOUS
  5
81
 10
240.884968
 20
511.354272
 30
0.0
 11
227.559949
 21
509.6
 31
0.0
  0
LINE
  8
LC-005-003-----0
  6
CONTINUOUS
  5
82
 10
227.559949
 20
509.6
 30
0.0
 11
240.884968
 21
507.845728
 31
0.0
  0
LINE
  8
LC-005-003-----0
  6
CONTINUOUS
  5
83
 10
240.94725
 20
510.404041
 30
0.0
 11
234.839949
 21
509.6
 31
0.0
  0
LINE
  8
LC-005-003-----0
  6
CONTINUOUS
  5
84
 10
234.839949
 20
509.6
 30
0.0
 11
240.94725
 21
508.795959
 31
0.0
  0
LINE
  8
LC-005-003-----0
  6
CONTINUOUS
  5
85
 10
415.239493
 20
505.945267
 30
0.0
 11
442.999949
 21
509.6
 31
0.0
  0
LINE
  8
LC-005-003-----0
  6
CONTINUOUS
  5
86
 10
442.999949
 20
509.6
 30
0.0
 11
415.239493
 21
513.254733
 31
0.0
  0
LINE
  8
LC-005-003-----0
  6
CONTINUOUS
  5
87
 10
415.239493
 20
513.254733
 30
0.0
 11
415.239493
 21
505.945267
 31
0.0
  0
LINE
  8
LC-005-003-----0
  6
CONTINUOUS
  5
88
 10
415.177212
 20
506.895497
 30
0.0
 11
435.719949
 21
509.6
 31
0.0
  0
LINE
  8
LC-005-003-----0
  6
CONTINUOUS
  5
89
 10
435.719949
 20
509.6
 30
0.0
 11
415.177212
 21
512.304503
 31
0.0
  0
LINE
  8
LC-005-003-----0
  6
CONTINUOUS
  5
8A
 10
415.11493
 20
507.845728
 30
0.0
 11
428.439949
 21
509.6
 31
0.0
  0
LINE
  8
LC-005-003-----0
  6
CONTINUOUS
  5
8B
 10
428.439949
 20
509.6
 30
0.0
 11
415.11493
 21
511.354272
 31
0.0
  0
LINE
  8
LC-005-003-----0
  6
CONTINUOUS
  5
8C
 10
415.052649
 20
508.795959
 30
0.0
 11
421.159949
 21
509.6
 31
0.0
  0
LINE
  8
LC-005-003-----0
  6
CONTINUOUS
  5
8D
 10
421.159949
 20
509.6
 30
0.0
 11
415.052649
 21
510.404041
 31
0.0
  0
TEXT
  8
LC-005-003-----0
  6
CONTINUOUS
 62
     8
  5
8E
 10
294.250472
 20
517.427554
 30
0.0
 40
28.0
  1
Ø230
 51
15.0
  7
LC-TXTSTYLE-150-400-0-0-D0
 72
     1
 11
332.348109
 21
517.427554
 31
0.0
  0
ENDBLK
  8
0
  5
8F
  0
BLOCK
  8
0
  5
91
  2
*D6
 70
    65
 10
0.0
 20
0.0
 30
0.0
  3
*D6
  0
LINE
  8
LC-006-003-MTH-0
  6
CONTINUOUS
  5
92
 10
393.999949
 20
243.4
 30
0.0
 11
520.8
 21
243.4
 31
0.0
  0
LINE
  8
LC-006-003-MTH-0
  6
CONTINUOUS
  5
93
 10
442.999949
 20
462.376579
 30
0.0
 11
520.8
 21
462.376579
 31
0.0
  0
LINE
  8
LC-007-003-MTG-0
  6
CONTINUOUS
  5
94
 10
504.0
 20
243.4
 30
0.0
 11
504.0
 21
462.376579
 31
0.0
  0
LINE
  8
LC-005-003-----0
  6
CONTINUOUS
  5
95
 10
500.345267
 20
271.160456
 30
0.0
 11
504.0
 21
243.4
 31
0.0
  0
LINE
  8
LC-005-003-----0
  6
CONTINUOUS
  5
96
 10
504.0
 20
243.4
 30
0.0
 11
507.654733
 21
271.160456
 31
0.0
  0
LINE
  8
LC-005-003-----0
  6
CONTINUOUS
  5
97
 10
507.654733
 20
271.160456
 30
0.0
 11
500.345267
 21
271.160456
 31
0.0
  0
LINE
  8
LC-005-003-----0
  6
CONTINUOUS
  5
98
 10
501.295497
 20
271.222738
 30
0.0
 11
504.0
 21
250.68
 31
0.0
  0
LINE
  8
LC-005-003-----0
  6
CONTINUOUS
  5
99
 10
504.0
 20
250.68
 30
0.0
 11
506.704503
 21
271.222738
 31
0.0
  0
LINE
  8
LC-005-003-----0
  6
CONTINUOUS
  5
9A
 10
502.245728
 20
271.285019
 30
0.0
 11
504.0
 21
257.96
 31
0.0
  0
LINE
  8
LC-005-003-----0
  6
CONTINUOUS
  5
9B
 10
504.0
 20
257.96
 30
0.0
 11
505.754272
 21
271.285019
 31
0.0
  0
LINE
  8
LC-005-003-----0
  6
CONTINUOUS
  5
9C
 10
503.195959
 20
271.3473
 30
0.0
 11
504.0
 21
265.24
 31
0.0
  0
LINE
  8
LC-005-003-----0
  6
CONTINUOUS
  5
9D
 10
504.0
 20
265.24
 30
0.0
 11
504.804041
 21
271.3473
 31
0.0
  0
LINE
  8
LC-005-003-----0
  6
CONTINUOUS
  5
9E
 10
507.654733
 20
434.616123
 30
0.0
 11
504.0
 21
462.376579
 31
0.0
  0
LINE
  8
LC-005-003-----0
  6
CONTINUOUS
  5
9F
 10
504.0
 20
462.376579
 30
0.0
 11
500.345267
 21
434.616123
 31
0.0
  0
LINE
  8
LC-005-003-----0
  6
CONTINUOUS
  5
A0
 10
500.345267
 20
434.616123
 30
0.0
 11
507.654733
 21
434.616123
 31
0.0
  0
LINE
  8
LC-005-003-----0
  6
CONTINUOUS
  5
A1
 10
506.704503
 20
434.553842
 30
0.0
 11
504.0
 21
455.096579
 31
0.0
  0
LINE
  8
LC-005-003-----0
  6
CONTINUOUS
  5
A2
 10
504.0
 20
455.096579
 30
0.0
 11
501.295497
 21
434.553842
 31
0.0
  0
LINE
  8
LC-005-003-----0
  6
CONTINUOUS
  5
A3
 10
505.754272
 20
434.49156
 30
0.0
 11
504.0
 21
447.816579
 31
0.0
  0
LINE
  8
LC-005-003-----0
  6
CONTINUOUS
  5
A4
 10
504.0
 20
447.816579
 30
0.0
 11
502.245728
 21
434.49156
 31
0.0
  0
LINE
  8
LC-005-003-----0
  6
CONTINUOUS
  5
A5
 10
504.804041
 20
434.429279
 30
0.0
 11
504.0
 21
440.536579
 31
0.0
  0
LINE
  8
LC-005-003-----0
  6
CONTINUOUS
  5
A6
 10
504.0
 20
440.536579
 30
0.0
 11
503.195959
 21
434.429279
 31
0.0
  0
TEXT
  8
LC-005-003-----0
  6
CONTINUOUS
 62
     8
  5
A7
 10
496.172446
 20
312.57038
 30
0.0
 40
28.0
  1
219
 50
90.0
 51
15.0
  7
LC-TXTSTYLE-150-400-0-0-D0
 72
     1
 11
496.172446
 21
342.33416
 31
0.0
  0
ENDBLK
  8
0
  5
A8
  0
BLOCK
  8
0
  5
AA
  2
*D7
 70
    65
 10
0.0
 20
0.0
 30
0.0
  3
*D7
  0
LINE
  8
LC-006-003-MTH-0
  6
CONTINUOUS
  5
AB
 10
393.999949
 20
243.4
 30
0.0
 11
484.8
 21
243.4
 31
0.0
  0
LINE
  8
LC-006-003-MTH-0
  6
CONTINUOUS
  5
AC
 10
404.000471
 20
445.9
 30
0.0
 11
484.8
 21
445.9
 31
0.0
  0
LINE
  8
LC-007-003-MTG-0
  6
CONTINUOUS
  5
AD
 10
468.0
 20
243.4
 30
0.0
 11
468.0
 21
445.9
 31
0.0
  0
LINE
  8
LC-005-003-----0
  6
CONTINUOUS
  5
AE
 10
464.345267
 20
271.160456
 30
0.0
 11
468.0
 21
243.4
 31
0.0
  0
LINE
  8
LC-005-003-----0
  6
CONTINUOUS
  5
AF
 10
468.0
 20
243.4
 30
0.0
 11
471.654733
 21
271.160456
 31
0.0
  0
LINE
  8
LC-005-003-----0
  6
CONTINUOUS
  5
B0
 10
471.654733
 20
271.160456
 30
0.0
 11
464.345267
 21
271.160456
 31
0.0
  0
LINE
  8
LC-005-003-----0
  6
CONTINUOUS
  5
B1
 10
465.295497
 20
271.222738
 30
0.0
 11
468.0
 21
250.68
 31
0.0
  0
LINE
  8
LC-005-003-----0
  6
CONTINUOUS
  5
B2
 10
468.0
 20
250.68
 30
0.0
 11
470.704503
 21
271.222738
 31
0.0
  0
LINE
  8
LC-005-003-----0
  6
CONTINUOUS
  5
B3
 10
466.245728
 20
271.285019
 30
0.0
 11
468.0
 21
257.96
 31
0.0
  0
LINE
  8
LC-005-003-----0
  6
CONTINUOUS
  5
B4
 10
468.0
 20
257.96
 30
0.0
 11
469.754272
 21
271.285019
 31
0.0
  0
LINE
  8
LC-005-003-----0
  6
CONTINUOUS
  5
B5
 10
467.195959
 20
271.3473
 30
0.0
 11
468.0
 21
265.24
 31
0.0
  0
LINE
  8
LC-005-003-----0
  6
CONTINUOUS
  5
B6
 10
468.0
 20
265.24
 30
0.0
 11
468.804041
 21
271.3473
 31
0.0
  0
LINE
  8
LC-005-003-----0
  6
CONTINUOUS
  5
B7
 10
471.654733
 20
418.139544
 30
0.0
 11
468.0
 21
445.9
 31
0.0
  0
LINE
  8
LC-005-003-----0
  6
CONTINUOUS
  5
B8
 10
468.0
 20
445.9
 30
0.0
 11
464.345267
 21
418.139544
 31
0.0
  0
LINE
  8
LC-005-003-----0
  6
CONTINUOUS
  5
B9
 10
464.345267
 20
418.139544
 30
0.0
 11
471.654733
 21
418.139544
 31
0.0
  0
LINE
  8
LC-005-003-----0
  6
CONTINUOUS
  5
BA
 10
470.704503
 20
418.077262
 30
0.0
 11
468.0
 21
438.62
 31
0.0
  0
LINE
  8
LC-005-003-----0
  6
CONTINUOUS
  5
BB
 10
468.0
 20
438.62
 30
0.0
 11
465.295497
 21
418.077262
 31
0.0
  0
LINE
  8
LC-005-003-----0
  6
CONTINUOUS
  5
BC
 10
469.754272
 20
418.014981
 30
0.0
 11
468.0
 21
431.34
 31
0.0
  0
LINE
  8
LC-005-003-----0
  6
CONTINUOUS
  5
BD
 10
468.0
 20
431.34
 30
0.0
 11
466.245728
 21
418.014981
 31
0.0
  0
LINE
  8
LC-005-003-----0
  6
CONTINUOUS
  5
BE
 10
468.804041
 20
417.9527
 30
0.0
 11
468.0
 21
424.06
 31
0.0
  0
LINE
  8
LC-005-003-----0
  6
CONTINUOUS
  5
BF
 10
468.0
 20
424.06
 30
0.0
 11
467.195959
 21
417.9527
 31
0.0
  0
TEXT
  8
LC-005-003-----0
  6
CONTINUOUS
 62
     8
  5
C0
 10
460.172446
 20
312.57038
 30
0.0
 40
28.0
  1
203
 50
90.0
 51
15.0
  7
LC-TXTSTYLE-150-400-0-0-D0
 72
     1
 11
460.172446
 21
342.33416
 31
0.0
  0
ENDBLK
  8
0
  5
C1
  0
BLOCK
  8
0
  5
C3
  2
BLK3
 70
    64
 10
0.0
 20
0.0
 30
0.0
  3
BLK3
  0
ENDBLK
  8
0
  5
C4
  0
BLOCK
  8
0
  5
C6
  2
*X9
 70
    65
 10
260.999949
 20
245.9
 30
0.0
  3
*X9
  0
LINE
  8
LC-004-005-----0
  6
CONTINUOUS
  5
C8
 10
269.499949
 20
296.185476
 30
0.0
 11
265.785425
 21
299.9
 31
0.0
  0
LINE
  8
LC-004-005-----0
  6
DASHED
  5
CA
 10
272.034512
 20
287.994059
 30
0.0
 11
261.218833
 21
298.809738
 31
0.0
  0
LINE
  8
LC-004-005-----0
  6
DASHED
  5
CB
 10
269.020258
 20
288.179886
 30
0.0
 11
263.999949
 21
293.200194
 31
0.0
  0
LINE
  8
LC-004-005-----0
  6
DASHED
  5
CC
 10
261.300144
 20
295.9
 30
0.0
 11
260.999949
 21
296.200194
 31
0.0
  0
LINE
  8
LC-004-005-----0
  6
CONTINUOUS
  5
CD
 10
273.399845
 20
278.143445
 30
0.0
 11
269.198184
 21
282.345105
 31
0.0
  0
LINE
  8
LC-004-005-----0
  6
CONTINUOUS
  5
CE
 10
268.91595
 20
282.62734
 30
0.0
 11
263.999949
 21
287.54334
 31
0.0
  0
LINE
  8
LC-004-005-----0
  6
CONTINUOUS
  5
CF
 10
270.300237
 20
278.414625
 30
0.0
 11
263.999949
 21
284.714913
 31
0.0
  0
LINE
  8
LC-004-005-----0
  6
DASHED
  5
D0
 10
268.499949
 20
274.558059
 30
0.0
 11
263.999949
 21
279.058059
 31
0.0
  0
LINE
  8
LC-004-005-----0
  6
DASHED
  5
D1
 10
268.499949
 20
271.729631
 30
0.0
 11
263.999949
 21
276.229631
 31
0.0
  0
LINE
  8
LC-004-005-----0
  6
CONTINUOUS
  5
D2
 10
268.499949
 20
266.072777
 30
0.0
 11
263.999949
 21
270.572777
 31
0.0
  0
LINE
  8
LC-004-005-----0
  6
CONTINUOUS
  5
D3
 10
268.499949
 20
263.24435
 30
0.0
 11
263.999949
 21
267.74435
 31
0.0
  0
LINE
  8
LC-004-005-----0
  6
DASHED
  5
D4
 10
268.499949
 20
257.587496
 30
0.0
 11
263.999949
 21
262.087496
 31
0.0
  0
LINE
  8
LC-004-005-----0
  6
DASHED
  5
D5
 10
268.499949
 20
254.759069
 30
0.0
 11
263.999949
 21
259.259069
 31
0.0
  0
LINE
  8
LC-004-005-----0
  6
CONTINUOUS
  5
D6
 10
268.499949
 20
249.102214
 30
0.0
 11
263.999949
 21
253.602214
 31
0.0
  0
LINE
  8
LC-004-005-----0
  6
CONTINUOUS
  5
D7
 10
268.499949
 20
246.273787
 30
0.0
 11
263.999949
 21
250.773787
 31
0.0
  0
ENDBLK
  8
0
  5
D8
  0
BLOCK
  8
0
  5
DA
  2
BLK4
 70
    64
 10
0.0
 20
0.0
 30
0.0
  3
BLK4
  0
ENDBLK
  8
0
  5
DB
  0
BLOCK
  8
0
  5
DD
  2
BLK5
 70
    64
 10
0.0
 20
0.0
 30
0.0
  3
BLK5
  0
ENDBLK
  8
0
  5
DE
  0
BLOCK
  8
0
  5
E0
  2
BLK6
 70
    64
 10
0.0
 20
0.0
 30
0.0
  3
BLK6
  0
ENDBLK
  8
0
  5
E1
  0
BLOCK
  8
0
  5
E3
  2
BLK7
 70
    64
 10
0.0
 20
0.0
 30
0.0
  3
BLK7
  0
ENDBLK
  8
0
  5
E4
  0
BLOCK
  8
0
  5
E6
  2
BLK8
 70
    64
 10
0.0
 20
0.0
 30
0.0
  3
BLK8
  0
ENDBLK
  8
0
  5
E7
  0
BLOCK
  8
0
  5
E9
  2
BLK9
 70
    64
 10
0.0
 20
0.0
 30
0.0
  3
BLK9
  0
ENDBLK
  8
0
  5
EA
  0
BLOCK
  8
0
  5
EC
  2
*X16
 70
    65
 10
379.999949
 20
245.9
 30
0.0
  3
*X16
  0
LINE
  8
LC-004-005-----0
  6
DASHED
  5
ED
 10
394.236218
 20
295.9
 30
0.0
 11
390.236218
 21
299.9
 31
0.0
  0
LINE
  8
LC-004-005-----0
  6
DASHED
  5
EE
 10
391.999949
 20
295.307842
 30
0.0
 11
388.20387
 21
299.103921
 31
0.0
  0
LINE
  8
LC-004-005-----0
  6
CONTINUOUS
  5
EF
 10
391.999949
 20
289.650988
 30
0.0
 11
386.499949
 21
295.150988
 31
0.0
  0
LINE
  8
LC-004-005-----0
  6
CONTINUOUS
  5
F0
 10
391.999949
 20
286.822561
 30
0.0
 11
386.489492
 21
292.333017
 31
0.0
  0
LINE
  8
LC-004-005-----0
  6
DASHED
  5
F1
 10
391.999949
 20
281.165706
 30
0.0
 11
387.249949
 21
285.915706
 31
0.0
  0
LINE
  8
LC-004-005-----0
  6
DASHED
  5
F2
 10
385.074557
 20
288.091099
 30
0.0
 11
383.181601
 21
289.984055
 31
0.0
  0
LINE
  8
LC-004-005-----0
  6
DASHED
  5
F3
 10
391.999949
 20
278.337279
 30
0.0
 11
387.246074
 21
283.091154
 31
0.0
  0
LINE
  8
LC-004-005-----0
  6
DASHED
  5
F4
 10
382.473677
 20
287.863551
 30
0.0
 11
381.38845
 21
288.948779
 31
0.0
  0
LINE
  8
LC-004-005-----0
  6
CONTINUOUS
  5
F5
 10
391.999949
 20
272.680425
 30
0.0
 11
387.499949
 21
277.180425
 31
0.0
  0
LINE
  8
LC-004-005-----0
  6
CONTINUOUS
  5
F6
 10
386.220207
 20
278.460167
 30
0.0
 11
383.971458
 21
280.708916
 31
0.0
  0
LINE
  8
LC-004-005-----0
  6
CONTINUOUS
  5
F7
 10
391.999949
 20
269.851998
 30
0.0
 11
387.499949
 21
274.351998
 31
0.0
  0
LINE
  8
LC-004-005-----0
  6
CONTINUOUS
  5
F8
 10
383.619328
 20
278.232619
 30
0.0
 11
382.178307
 21
279.67364
 31
0.0
  0
LINE
  8
LC-004-005-----0
  6
DASHED
  5
F9
 10
391.999949
 20
264.195144
 30
0.0
 11
387.499949
 21
268.695144
 31
0.0
  0
LINE
  8
LC-004-005-----0
  6
DASHED
  5
FA
 10
391.999949
 20
261.366716
 30
0.0
 11
387.499949
 21
265.866716
 31
0.0
  0
LINE
  8
LC-004-005-----0
  6
CONTINUOUS
  5
FB
 10
391.999949
 20
255.709862
 30
0.0
 11
387.499949
 21
260.209862
 31
0.0
  0
LINE
  8
LC-004-005-----0
  6
CONTINUOUS
  5
FC
 10
391.999949
 20
252.881435
 30
0.0
 11
387.499949
 21
257.381435
 31
0.0
  0
LINE
  8
LC-004-005-----0
  6
DASHED
  5
FD
 10
391.294022
 20
247.930508
 30
0.0
 11
387.499949
 21
251.724581
 31
0.0
  0
LINE
  8
LC-004-005-----0
  6
DASHED
  5
FE
 10
390.496103
 20
245.9
 30
0.0
 11
387.499949
 21
248.896154
 31
0.0
  0
ENDBLK
  8
0
  5
FF
  0
BLOCK
  8
0
  5
101
  2
OBJ1
 70
    64
 10
0.0
 20
0.0
 30
0.0
  3
OBJ1
  0
LINE
  8
LC-004-005-----0
  6
CONTINUOUS
  5
102
 10
393.352933
 20
295.4
 30
0.0
 11
393.999949
 21
294.752985
 31
0.0
  0
LINE
  8
LC-004-005-----0
  6
CONTINUOUS
  5
103
 10
391.499949
 20
293.010344
 30
0.0
 11
393.999949
 21
290.510344
 31
0.0
  0
LINE
  8
LC-004-005-----0
  6
CONTINUOUS
  5
104
 10
391.499949
 20
288.767703
 30
0.0
 11
393.999949
 21
286.267703
 31
0.0
  0
LINE
  8
LC-004-005-----0
  6
CONTINUOUS
  5
105
 10
391.499949
 20
284.525063
 30
0.0
 11
393.999949
 21
282.025063
 31
0.0
  0
LINE
  8
LC-004-005-----0
  6
CONTINUOUS
  5
106
 10
391.499949
 20
280.282422
 30
0.0
 11
393.999949
 21
277.782422
 31
0.0
  0
LINE
  8
LC-004-005-----0
  6
CONTINUOUS
  5
107
 10
391.499949
 20
276.039781
 30
0.0
 11
393.999949
 21
273.539781
 31
0.0
  0
LINE
  8
LC-004-005-----0
  6
CONTINUOUS
  5
108
 10
391.499949
 20
271.797141
 30
0.0
 11
393.999949
 21
269.297141
 31
0.0
  0
LINE
  8
LC-004-005-----0
  6
CONTINUOUS
  5
109
 10
391.499949
 20
267.5545
 30
0.0
 11
393.999949
 21
265.0545
 31
0.0
  0
LINE
  8
LC-004-005-----0
  6
CONTINUOUS
  5
10A
 10
391.499949
 20
263.311859
 30
0.0
 11
393.999949
 21
260.811859
 31
0.0
  0
LINE
  8
LC-004-005-----0
  6
CONTINUOUS
  5
10B
 10
391.499949
 20
259.069219
 30
0.0
 11
393.999949
 21
256.569219
 31
0.0
  0
LINE
  8
LC-004-005-----0
  6
CONTINUOUS
  5
10C
 10
391.499949
 20
254.826578
 30
0.0
 11
393.999949
 21
252.326578
 31
0.0
  0
LINE
  8
LC-004-005-----0
  6
CONTINUOUS
  5
10D
 10
391.499949
 20
250.583937
 30
0.0
 11
393.999949
 21
248.083937
 31
0.0
  0
LINE
  8
LC-004-005-----0
  6
CONTINUOUS
  5
10E
 10
391.499949
 20
246.341297
 30
0.0
 11
393.999949
 21
243.841297
 31
0.0
  0
LINE
  8
LC-004-005-----0
  6
CONTINUOUS
  5
10F
 10
387.698604
 20
245.9
 30
0.0
 11
390.198604
 21
243.4
 31
0.0
  0
LINE
  8
LC-004-005-----0
  6
CONTINUOUS
  5
110
 10
383.455964
 20
245.9
 30
0.0
 11
386.000119
 21
243.355844
 31
0.0
  0
LINE
  8
LC-004-005-----0
  6
CONTINUOUS
  5
111
 10
383.300119
 20
241.813204
 30
0.0
 11
386.000119
 21
239.113204
 31
0.0
  0
LINE
  8
LC-004-005-----0
  6
CONTINUOUS
  5
112
 10
382.913514
 20
237.957169
 30
0.0
 11
385.470682
 21
235.4
 31
0.0
  0
LINE
  8
LC-004-005-----0
  6
CONTINUOUS
  5
113
 10
382.016938
 20
234.611103
 30
0.0
 11
384.613023
 21
232.015019
 31
0.0
  0
LINE
  8
LC-004-005-----0
  6
CONTINUOUS
  5
114
 10
381.500119
 20
230.885282
 30
0.0
 11
383.000119
 21
229.385282
 31
0.0
  0
LINE
  8
LC-004-005-----0
  6
CONTINUOUS
  5
115
 10
381.500119
 20
226.642641
 30
0.0
 11
382.840071
 21
225.30269
 31
0.0
  0
ENDBLK
  8
0
  5
116
  0
BLOCK
  8
0
  5
118
  2
OBJ2
 70
    64
 10
0.0
 20
0.0
 30
0.0
  3
OBJ2
  0
LINE
  8
LC-004-005-----0
  6
CONTINUOUS
  5
119
 10
250.98523
 20
243.4
 30
0.0
 11
253.48523
 21
240.9
 31
0.0
  0
LINE
  8
LC-004-005-----0
  6
CONTINUOUS
  5
11A
 10
250.499949
 20
239.642641
 30
0.0
 11
252.499949
 21
237.642641
 31
0.0
  0
ENDBLK
  8
0
  5
11B
  0
BLOCK
  8
0
  5
11D
  2
OBJ3
 70
    64
 10
0.0
 20
0.0
 30
0.0
  3
OBJ3
  0
LINE
  8
LC-004-005-----0
  6
CONTINUOUS
  5
11E
 10
261.999949
 20
293.734621
 30
0.0
 11
264.499949
 21
291.234621
 31
0.0
  0
LINE
  8
LC-004-005-----0
  6
CONTINUOUS
  5
11F
 10
261.999949
 20
289.49198
 30
0.0
 11
264.499949
 21
286.99198
 31
0.0
  0
LINE
  8
LC-004-005-----0
  6
CONTINUOUS
  5
120
 10
261.999949
 20
285.24934
 30
0.0
 11
264.499949
 21
282.74934
 31
0.0
  0
LINE
  8
LC-004-005-----0
  6
CONTINUOUS
  5
121
 10
261.999949
 20
281.006699
 30
0.0
 11
264.499949
 21
278.506699
 31
0.0
  0
LINE
  8
LC-004-005-----0
  6
CONTINUOUS
  5
122
 10
261.999949
 20
276.764058
 30
0.0
 11
264.499949
 21
274.264058
 31
0.0
  0
LINE
  8
LC-004-005-----0
  6
CONTINUOUS
  5
123
 10
261.999949
 20
272.521418
 30
0.0
 11
264.499949
 21
270.021418
 31
0.0
  0
LINE
  8
LC-004-005-----0
  6
CONTINUOUS
  5
124
 10
261.999949
 20
268.278777
 30
0.0
 11
264.499949
 21
265.778777
 31
0.0
  0
LINE
  8
LC-004-005-----0
  6
CONTINUOUS
  5
125
 10
261.999949
 20
264.036136
 30
0.0
 11
264.499949
 21
261.536136
 31
0.0
  0
LINE
  8
LC-004-005-----0
  6
CONTINUOUS
  5
126
 10
261.999949
 20
259.793496
 30
0.0
 11
264.733258
 21
257.060186
 31
0.0
  0
LINE
  8
LC-004-005-----0
  6
CONTINUOUS
  5
127
 10
271.650803
 20
245.9
 30
0.0
 11
272.699778
 21
244.851026
 31
0.0
  0
LINE
  8
LC-004-005-----0
  6
CONTINUOUS
  5
128
 10
261.999949
 20
255.550855
 30
0.0
 11
264.499949
 21
253.050855
 31
0.0
  0
LINE
  8
LC-004-005-----0
  6
CONTINUOUS
  5
129
 10
267.408163
 20
245.9
 30
0.0
 11
272.699778
 21
240.608385
 31
0.0
  0
LINE
  8
LC-004-005-----0
  6
CONTINUOUS
  5
12A
 10
261.999949
 20
251.308214
 30
0.0
 11
264.499949
 21
248.808214
 31
0.0
  0
LINE
  8
LC-004-005-----0
  6
CONTINUOUS
  5
12B
 10
269.999778
 20
239.065744
 30
0.0
 11
273.810393
 21
235.25513
 31
0.0
  0
LINE
  8
LC-004-005-----0
  6
CONTINUOUS
  5
12C
 10
261.999949
 20
247.065574
 30
0.0
 11
268.165522
 21
240.9
 31
0.0
  0
LINE
  8
LC-004-005-----0
  6
CONTINUOUS
  5
12D
 10
271.999778
 20
232.823104
 30
0.0
 11
274.499778
 21
230.323104
 31
0.0
  0
LINE
  8
LC-004-005-----0
  6
CONTINUOUS
  5
12E
 10
261.422881
 20
243.4
 30
0.0
 11
263.922881
 21
240.9
 31
0.0
  0
LINE
  8
LC-004-005-----0
  6
CONTINUOUS
  5
12F
 10
272.999778
 20
227.580463
 30
0.0
 11
274.499778
 21
226.080463
 31
0.0
  0
ENDBLK
  8
0
  5
130
  0
BLOCK
  8
0
  5
132
  2
*X20
 70
    65
 10
382.399975
 20
221.949541
 30
0.0
  3
*X20
  0
LINE
  8
LC-004-005-----0
  6
CONTINUOUS
  5
133
 10
387.249975
 20
232.175565
 30
0.0
 11
386.52554
 21
232.9
 31
0.0
  0
LINE
  8
LC-004-005-----0
  6
DASHED
  5
134
 10
387.249975
 20
229.347138
 30
0.0
 11
384.723544
 21
231.873569
 31
0.0
  0
LINE
  8
LC-004-005-----0
  6
DASHED
  5
135
 10
387.249975
 20
227.932924
 30
0.0
 11
384.016438
 21
231.166462
 31
0.0
  0
LINE
  8
LC-004-005-----0
  6
CONTINUOUS
  5
136
 10
387.249975
 20
225.104497
 30
0.0
 11
382.835212
 21
229.51926
 31
0.0
  0
LINE
  8
LC-004-005-----0
  6
CONTINUOUS
  5
137
 10
387.249975
 20
223.690284
 30
0.0
 11
384.749949
 21
226.19031
 31
0.0
  0
LINE
  8
LC-004-005-----0
  6
CONTINUOUS
  5
138
 10
383.945347
 20
226.994912
 30
0.0
 11
382.494367
 21
228.445892
 31
0.0
  0
LINE
  8
LC-004-005-----0
  6
DASHED
  5
139
 10
386.162291
 20
221.949541
 30
0.0
 11
384.749949
 21
223.361882
 31
0.0
  0
LINE
  8
LC-004-005-----0
  6
DASHED
  5
13A
 10
382.531133
 20
225.580699
 30
0.0
 11
382.399975
 21
225.711856
 31
0.0
  0
ENDBLK
  8
0
  5
13B
  0
BLOCK
  8
0
  5
13D
  2
*X21
 70
    65
 10
263.599923
 20
221.949541
 30
0.0
  3
*X21
  0
LINE
  8
LC-004-005-----0
  6
CONTINUOUS
  5
13E
 10
273.480466
 20
228.565348
 30
0.0
 11
269.145815
 21
232.9
 31
0.0
  0
LINE
  8
LC-004-005-----0
  6
DASHED
  5
13F
 10
273.599923
 20
225.617464
 30
0.0
 11
268.749923
 21
230.467464
 31
0.0
  0
LINE
  8
LC-004-005-----0
  6
DASHED
  5
140
 10
271.249949
 20
226.553225
 30
0.0
 11
268.749923
 21
229.053251
 31
0.0
  0
LINE
  8
LC-004-005-----0
  6
CONTINUOUS
  5
141
 10
271.249949
 20
223.724797
 30
0.0
 11
268.749923
 21
226.224824
 31
0.0
  0
LINE
  8
LC-004-005-----0
  6
CONTINUOUS
  5
142
 10
271.249949
 20
222.310584
 30
0.0
 11
268.749923
 21
224.81061
 31
0.0
  0
LINE
  8
LC-004-005-----0
  6
DASHED
  5
143
 10
268.782565
 20
221.949541
 30
0.0
 11
268.749923
 21
221.982183
 31
0.0
  0
ENDBLK
  8
0
  5
144
  0
ENDSEC
  0
SECTION
  2
ENTITIES
  0
VIEWPORT
  8
LC-000
  5
327
 67
     1
 68
     1
 10
420.0
 20
297.0
 30
0.0
 40
840.0
 41
594.0
 69
     1
1001
ACAD
1000
MVIEW
1002
{
1070
    16
1010
0.0
1020
0.0
1030
0.0
1010
0.0
1020
0.0
1030
1.0
1040
0.0
1040
594.0
1040
420.0
1040
297.0
1040
50.0
1040
0.0
1040
0.0
1070
     0
1070
   100
1070
     1
1070
     1
1070
     0
1070
     0
1070
     0
1070
     0
1040
0.0
1040
0.0
1040
0.0
1040
1.0
1040
1.0
1040
0.0
1040
0.0
1070
     0
1002
{
1002
}
1002
}
  0
VIEWPORT
  8
0
  5
328
 67
     1
 68
     1
 10
0.0
 20
0.0
 30
0.0
 40
0.0
 41
0.0
 69
     1
1001
ACAD
1000
MVIEW
1002
{
1070
    16
1010
0.0
1020
0.0
1030
0.0
1010
0.0
1020
0.0
1030
1.0
1040
0.0
1040
594.0
1040
0.0
1040
0.0
1040
50.0
1040
0.0
1040
0.0
1070
     0
1070
   100
1070
     0
1070
     1
1070
     0
1070
     0
1070
     0
1070
     0
1040
0.0
1040
0.0
1040
0.0
1040
0.5
1040
0.5
1040
0.5
1040
0.5
1070
     0
1002
{
1002
}
1002
}
  0
INSERT
  8
0
  5
146
  2
BLK1
 10
0.0
 20
0.0
 30
0.0
  0
INSERT
  8
0
  5
147
  2
BLK2
 10
0.0
 20
0.0
 30
0.0
  0
DIMENSION
  8
0
  5
148
  2
*D2
 10
327.999949
 20
324.0
 30
0.0
 11
327.999949
 21
324.0
 31
0.0
  1
%%c<>
 13
272.999949
 23
251.291364
 33
0.0
 14
382.99995
 24
253.811134
 34
0.0
  3
LC-DIM-L-0140-02-02
  0
DIMENSION
  8
0
  5
149
  2
*D3
 10
327.999949
 20
180.0
 30
0.0
 11
327.999949
 21
180.0
 31
0.0
  1
%%c<>
 13
261.999949
 23
243.4
 33
0.0
 14
393.999949
 24
243.4
 34
0.0
  3
LC-DIM-L-0140-02-02
  0
DIMENSION
  8
0
  5
14A
  2
*D4
 10
432.0
 20
270.27
 30
0.0
 11
432.0
 21
270.27
 31
0.0
  1
57
 13
393.999949
 23
243.4
 33
0.0
 14
392.999949
 24
299.9
 34
0.0
 50
90.0
  3
LC-DIM-L-0140-02-02
  0
DIMENSION
  8
0
  5
14B
  2
*D5
 10
327.999949
 20
509.6
 30
0.0
 11
327.999949
 21
509.6
 31
0.0
  1
%%c<>
 13
212.999949
 23
463.857723
 33
0.0
 14
442.999949
 24
462.376579
 34
0.0
  3
LC-DIM-L-0140-02-02
  0
DIMENSION
  8
0
  5
14C
  2
*D6
 10
504.0
 20
337.986
 30
0.0
 11
504.0
 21
337.986
 31
0.0
  1
219
 13
393.999949
 23
243.4
 33
0.0
 14
442.999949
 24
462.376579
 34
0.0
 50
90.0
  3
LC-DIM-L-0140-02-02
  0
DIMENSION
  8
0
  5
14D
  2
*D7
 10
468.0
 20
337.986
 30
0.0
 11
468.0
 21
337.986
 31
0.0
  1
203
 13
393.999949
 23
243.4
 33
0.0
 14
404.000471
 24
445.9
 34
0.0
 50
90.0
  3
LC-DIM-L-0140-02-02
  0
INSERT
  8
0
  5
14E
  2
BLK3
 10
0.0
 20
0.0
 30
0.0
  0
INSERT
  8
0
  5
14F
  2
*X9
 10
260.999949
 20
245.9
 30
0.0
  0
INSERT
  8
0
  5
150
  2
BLK4
 10
0.0
 20
0.0
 30
0.0
  0
INSERT
  8
0
  5
151
  2
BLK5
 10
0.0
 20
0.0
 30
0.0
  0
INSERT
  8
0
  5
152
  2
BLK6
 10
0.0
 20
0.0
 30
0.0
  0
INSERT
  8
0
  5
153
  2
BLK7
 10
0.0
 20
0.0
 30
0.0
  0
INSERT
  8
0
  5
154
  2
BLK8
 10
0.0
 20
0.0
 30
0.0
  0
INSERT
  8
0
  5
155
  2
BLK9
 10
0.0
 20
0.0
 30
0.0
  0
INSERT
  8
0
  5
156
  2
*X16
 10
379.999949
 20
245.9
 30
0.0
  0
INSERT
  8
0
  5
157
  2
OBJ1
 10
0.0
 20
0.0
 30
0.0
  0
INSERT
  8
0
  5
158
  2
OBJ2
 10
0.0
 20
0.0
 30
0.0
  0
INSERT
  8
0
  5
159
  2
OBJ3
 10
0.0
 20
0.0
 30
0.0
  0
INSERT
  8
0
  5
15A
  2
*X20
 10
382.399975
 20
221.949541
 30
0.0
  0
INSERT
  8
0
  5
15B
  2
*X21
 10
263.599923
 20
221.949541
 30
0.0
  0
LINE
  8
LC-001-002-----0
  6
CONTINUOUS
  5
15D
 10
253.99946
 20
459.401381
 30
0.0
 11
253.99946
 21
460.90069
 31
0.0
  0
LINE
  8
LC-001-002-----0
  6
CONTINUOUS
  5
15E
 10
402.000439
 20
459.401381
 30
0.0
 11
402.000439
 21
460.90069
 31
0.0
  0
LINE
  8
LC-001-002-----0
  6
CONTINUOUS
  5
15F
 10
266.999837
 20
460.900776
 30
0.0
 11
266.999837
 21
463.900776
 31
0.0
  0
LINE
  8
LC-001-002-----0
  6
CONTINUOUS
  5
160
 10
442.999949
 20
463.857723
 30
0.0
 11
442.999949
 21
462.379583
 31
0.0
  0
LINE
  8
LC-001-002-----0
  6
CONTINUOUS
  5
161
 10
212.999949
 20
463.857723
 30
0.0
 11
212.999949
 21
462.379583
 31
0.0
  0
ARC
  8
LC-002-002-RND-0
  6
CONTINUOUS
  5
163
 10
440.999949
 20
463.857723
 30
0.0
 40
2.0
 50
360.0
 51
91.898364
  0
LINE
  8
LC-001-002-----0
  6
CONTINUOUS
  5
164
 10
391.999949
 20
249.580236
 30
0.0
 11
391.687772
 21
249.4
 31
0.0
  0
LINE
  8
LC-001-002-----0
  6
CONTINUOUS
  5
165
 10
214.999986
 20
465.85882
 30
0.0
 11
440.933696
 21
465.85882
 31
0.0
  0
ARC
  8
LC-002-002-RND-0
  6
CONTINUOUS
  5
166
 10
214.999949
 20
463.857723
 30
0.0
 40
2.0
 50
88.101636
 51
180.0
  0
ARC
  8
LC-001-002-----0
  6
CONTINUOUS
  5
167
 10
257.99946
 20
454.900701
 30
0.0
 40
10.0
 50
244.158193
 51
295.842059
  0
LINE
  8
LC-004-005-----0
  6
CONTINUOUS
  5
168
 10
274.007016
 20
246.641577
 30
0.0
 11
275.999949
 21
248.63451
 31
0.0
  0
LINE
  8
LC-004-005-----0
  6
CONTINUOUS
  5
169
 10
273.409299
 20
248.872287
 30
0.0
 11
275.999949
 21
251.462937
 31
0.0
  0
LINE
  8
LC-004-005-----0
  6
CONTINUOUS
  5
16A
 10
272.999949
 20
251.291364
 30
0.0
 11
275.999949
 21
254.291364
 31
0.0
  0
LINE
  8
LC-004-005-----0
  6
CONTINUOUS
  5
16B
 10
272.999949
 20
254.119791
 30
0.0
 11
275.999949
 21
257.119791
 31
0.0
  0
LINE
  8
LC-004-005-----0
  6
CONTINUOUS
  5
16C
 10
380.74567
 20
245.9
 30
0.0
 11
382.177959
 21
247.332288
 31
0.0
  0
LINE
  8
LC-004-005-----0
  6
CONTINUOUS
  5
16D
 10
272.999949
 20
256.948219
 30
0.0
 11
275.999949
 21
259.948219
 31
0.0
  0
LINE
  8
LC-004-005-----0
  6
CONTINUOUS
  5
16E
 10
272.999949
 20
259.776646
 30
0.0
 11
275.999949
 21
262.776646
 31
0.0
  0
LINE
  8
LC-001-002-----0
  6
CONTINUOUS
  5
16F
 10
274.205721
 20
245.9
 30
0.0
 11
272.999949
 21
250.4
 31
0.0
  0
LINE
  8
LC-001-002-----0
  6
CONTINUOUS
  5
170
 10
253.99946
 20
460.90069
 30
0.0
 11
255.49946
 21
460.90069
 31
0.0
  0
LINE
  8
LC-004-005-----0
  6
CONTINUOUS
  5
171
 10
272.999949
 20
262.605073
 30
0.0
 11
275.999949
 21
265.605073
 31
0.0
  0
LINE
  8
LC-004-005-----0
  6
CONTINUOUS
  5
172
 10
272.999949
 20
265.4335
 30
0.0
 11
275.999949
 21
268.4335
 31
0.0
  0
LINE
  8
LC-004-005-----0
  6
CONTINUOUS
  5
173
 10
272.999949
 20
268.261927
 30
0.0
 11
275.999949
 21
271.261927
 31
0.0
  0
LINE
  8
LC-004-005-----0
  6
CONTINUOUS
  5
174
 10
272.999949
 20
271.090354
 30
0.0
 11
275.999949
 21
274.090354
 31
0.0
  0
LINE
  8
LC-001-002-----0
  6
CONTINUOUS
  5
175
 10
255.49946
 20
460.90069
 30
0.0
 11
260.49946
 21
460.90069
 31
0.0
  0
LINE
  8
LC-001-002-----0
  6
CONTINUOUS
  5
176
 10
261.99946
 20
460.90069
 30
0.0
 11
261.99946
 21
459.401381
 31
0.0
  0
LINE
  8
LC-004-005-----0
  6
CONTINUOUS
  5
177
 10
272.999949
 20
273.918781
 30
0.0
 11
275.999949
 21
276.918781
 31
0.0
  0
LINE
  8
LC-001-002-----0
  6
CONTINUOUS
  5
178
 10
261.99946
 20
460.90069
 30
0.0
 11
260.49946
 21
460.90069
 31
0.0
  0
LINE
  8
LC-004-005-----0
  6
CONTINUOUS
  5
179
 10
272.999949
 20
276.747208
 30
0.0
 11
275.999949
 21
279.747208
 31
0.0
  0
LINE
  8
LC-001-002-----0
  6
CONTINUOUS
  5
17A
 10
251.999428
 20
445.9
 30
0.0
 11
253.642008
 21
445.9
 31
0.0
  0
LINE
  8
LC-001-002-----0
  6
CONTINUOUS
  5
17B
 10
266.999837
 20
463.900776
 30
0.0
 11
264.999837
 21
463.900776
 31
0.0
  0
LINE
  8
LC-004-005-----0
  6
CONTINUOUS
  5
17C
 10
272.999949
 20
279.575636
 30
0.0
 11
275.999949
 21
282.575636
 31
0.0
  0
LINE
  8
LC-004-005-----0
  6
CONTINUOUS
  5
17D
 10
272.999949
 20
282.404063
 30
0.0
 11
275.999949
 21
285.404063
 31
0.0
  0
LINE
  8
LC-001-002-----0
  6
CONTINUOUS
  5
17E
 10
253.99946
 20
459.401381
 30
0.0
 11
253.288624
 21
459.401381
 31
0.0
  0
LINE
  8
LC-001-002-----0
  6
CONTINUOUS
  5
17F
 10
252.999949
 20
459.901381
 30
0.0
 11
253.99946
 21
459.901381
 31
0.0
  0
LINE
  8
LC-004-005-----0
  6
CONTINUOUS
  5
180
 10
272.999949
 20
285.23249
 30
0.0
 11
275.999949
 21
288.23249
 31
0.0
  0
LINE
  8
LC-004-005-----0
  6
CONTINUOUS
  5
181
 10
272.999949
 20
288.060917
 30
0.0
 11
275.999949
 21
291.060917
 31
0.0
  0
LINE
  8
LC-004-005-----0
  6
CONTINUOUS
  5
182
 10
272.999949
 20
290.889344
 30
0.0
 11
275.999949
 21
293.889344
 31
0.0
  0
LINE
  8
LC-004-005-----0
  6
CONTINUOUS
  5
183
 10
272.999949
 20
293.717771
 30
0.0
 11
275.999949
 21
296.717771
 31
0.0
  0
LINE
  8
LC-001-002-----0
  6
CONTINUOUS
  5
184
 10
262.999949
 20
459.901381
 30
0.0
 11
261.99946
 21
459.901381
 31
0.0
  0
LINE
  8
LC-004-005-----0
  6
CONTINUOUS
  5
185
 10
272.999949
 20
296.546198
 30
0.0
 11
275.999949
 21
299.546198
 31
0.0
  0
LINE
  8
LC-004-005-----0
  6
CONTINUOUS
  5
186
 10
272.999949
 20
299.374625
 30
0.0
 11
275.999949
 21
302.374625
 31
0.0
  0
LINE
  8
LC-001-002-----0
  6
CONTINUOUS
  5
187
 10
262.999949
 20
459.901381
 30
0.0
 11
263.999949
 21
459.901381
 31
0.0
  0
LINE
  8
LC-001-002-----0
  6
CONTINUOUS
  5
188
 10
262.356912
 20
445.9
 30
0.0
 11
272.999949
 21
445.9
 31
0.0
  0
LINE
  8
LC-004-005-----0
  6
CONTINUOUS
  5
189
 10
272.999949
 20
302.203053
 30
0.0
 11
275.999949
 21
305.203053
 31
0.0
  0
LINE
  8
LC-001-002-----0
  6
CONTINUOUS
  5
18A
 10
379.999949
 20
448.901381
 30
0.0
 11
275.999949
 21
448.901381
 31
0.0
  0
LINE
  8
LC-004-005-----0
  6
CONTINUOUS
  5
18B
 10
272.999949
 20
305.03148
 30
0.0
 11
275.999949
 21
308.03148
 31
0.0
  0
LINE
  8
LC-004-005-----0
  6
CONTINUOUS
  5
18C
 10
272.999949
 20
307.859907
 30
0.0
 11
275.999949
 21
310.859907
 31
0.0
  0
LINE
  8
LC-004-005-----0
  6
CONTINUOUS
  5
18D
 10
272.999949
 20
310.688334
 30
0.0
 11
275.999949
 21
313.688334
 31
0.0
  0
LINE
  8
LC-001-002-----0
  6
CONTINUOUS
  5
18E
 10
222.71502
 20
465.603106
 30
0.0
 11
214.999986
 21
465.85882
 31
0.0
  0
LINE
  8
LC-004-005-----0
  6
CONTINUOUS
  5
18F
 10
272.999949
 20
313.516761
 30
0.0
 11
275.999949
 21
316.516761
 31
0.0
  0
LINE
  8
LC-001-002-----0
  6
CONTINUOUS
  5
190
 10
275.999949
 20
448.901381
 30
0.0
 11
267.999923
 21
448.901381
 31
0.0
  0
LINE
  8
LC-004-005-----0
  6
CONTINUOUS
  5
191
 10
272.999949
 20
316.345188
 30
0.0
 11
275.999949
 21
319.345188
 31
0.0
  0
LINE
  8
LC-004-005-----0
  6
CONTINUOUS
  5
192
 10
272.999949
 20
319.173615
 30
0.0
 11
275.999949
 21
322.173615
 31
0.0
  0
LINE
  8
LC-004-005-----0
  6
CONTINUOUS
  5
193
 10
379.999949
 20
247.982706
 30
0.0
 11
382.999949
 21
250.982706
 31
0.0
  0
LINE
  8
LC-001-002-----0
  6
CONTINUOUS
  5
194
 10
327.999949
 20
245.9
 30
0.0
 11
379.999949
 21
245.9
 31
0.0
  0
ARC
  8
LC-001-002-----0
  6
CONTINUOUS
  5
195
 10
398.000439
 20
454.900701
 30
0.0
 40
10.0
 50
244.157941
 51
295.841807
  0
LINE
  8
LC-001-002-----0
  6
DASHDOT
 62
     2
  5
197
 10
327.999949
 20
221.949541
 30
0.0
 11
327.999949
 21
307.098
 31
0.0
  0
LINE
  8
LC-001-002-----0
  6
CONTINUOUS
  5
198
 10
242.999949
 20
459.401381
 30
0.0
 11
222.71502
 21
465.603106
 31
0.0
  0
LINE
  8
LC-004-005-----0
  6
CONTINUOUS
  5
199
 10
272.999949
 20
322.002042
 30
0.0
 11
275.999949
 21
325.002042
 31
0.0
  0
LINE
  8
LC-004-005-----0
  6
CONTINUOUS
  5
19A
 10
272.999949
 20
324.83047
 30
0.0
 11
275.999949
 21
327.83047
 31
0.0
  0
LINE
  8
LC-004-005-----0
  6
CONTINUOUS
  5
19B
 10
379.999949
 20
250.811134
 30
0.0
 11
382.999949
 21
253.811134
 31
0.0
  0
LINE
  8
LC-001-002-----0
  6
CONTINUOUS
  5
19C
 10
242.550801
 20
455.850008
 30
0.0
 11
222.374298
 21
462.019967
 31
0.0
  0
LINE
  8
LC-001-002-----0
  6
CONTINUOUS
  5
19D
 10
388.000061
 20
448.901381
 30
0.0
 11
380.099949
 21
448.901381
 31
0.0
  0
LINE
  8
LC-004-005-----0
  6
CONTINUOUS
  5
19E
 10
272.999949
 20
327.658897
 30
0.0
 11
275.999949
 21
330.658897
 31
0.0
  0
LINE
  8
LC-001-002-----0
  6
CONTINUOUS
  5
19F
 10
222.374298
 20
462.019967
 30
0.0
 11
212.999949
 21
462.376579
 31
0.0
  0
LINE
  8
LC-001-002-----0
  6
CONTINUOUS
  5
1A0
 10
402.000439
 20
460.90069
 30
0.0
 11
400.500439
 21
460.90069
 31
0.0
  0
LINE
  8
LC-004-005-----0
  6
CONTINUOUS
  5
1A1
 10
272.999949
 20
330.487324
 30
0.0
 11
275.999949
 21
333.487324
 31
0.0
  0
LINE
  8
LC-001-002-----0
  6
CONTINUOUS
  5
1A2
 10
327.999949
 20
245.9
 30
0.0
 11
275.999949
 21
245.9
 31
0.0
  0
LINE
  8
LC-001-002-----0
  6
CONTINUOUS
  5
1A3
 10
433.6256
 20
462.019967
 30
0.0
 11
442.999949
 21
462.376579
 31
0.0
  0
LINE
  8
LC-001-002-----0
  6
CONTINUOUS
  5
1A4
 10
413.449098
 20
455.850008
 30
0.0
 11
433.6256
 21
462.019967
 31
0.0
  0
LINE
  8
LC-004-005-----0
  6
CONTINUOUS
  5
1A5
 10
379.999949
 20
253.639561
 30
0.0
 11
382.999949
 21
256.639561
 31
0.0
  0
LINE
  8
LC-001-002-----0
  6
CONTINUOUS
  5
1A6
 10
412.999949
 20
459.401381
 30
0.0
 11
433.284879
 21
465.603106
 31
0.0
  0
LINE
  8
LC-004-005-----0
  6
CONTINUOUS
  5
1A7
 10
272.999949
 20
333.315751
 30
0.0
 11
275.999949
 21
336.315751
 31
0.0
  0
LINE
  8
LC-001-002-----0
  6
CONTINUOUS
  5
1A8
 10
433.284879
 20
465.603106
 30
0.0
 11
441.055345
 21
465.856955
 31
0.0
  0
LINE
  8
LC-001-002-----0
  6
CONTINUOUS
  5
1A9
 10
400.500439
 20
460.90069
 30
0.0
 11
395.500439
 21
460.90069
 31
0.0
  0
LINE
  8
LC-001-002-----0
  6
CONTINUOUS
  5
1AA
 10
379.999949
 20
448.901381
 30
0.0
 11
380.099949
 21
448.901381
 31
0.0
  0
LINE
  8
LC-001-002-----0
  6
CONTINUOUS
  5
1AB
 10
382.999949
 20
445.90069
 30
0.0
 11
382.999949
 21
445.900664
 31
0.0
  0
LINE
  8
LC-004-005-----0
  6
CONTINUOUS
  5
1AC
 10
272.999949
 20
336.144178
 30
0.0
 11
275.999949
 21
339.144178
 31
0.0
  0
LINE
  8
LC-004-005-----0
  6
CONTINUOUS
  5
1AD
 10
272.999949
 20
338.972605
 30
0.0
 11
275.999949
 21
341.972605
 31
0.0
  0
LINE
  8
LC-004-005-----0
  6
CONTINUOUS
  5
1AE
 10
272.999949
 20
341.801032
 30
0.0
 11
275.999949
 21
344.801032
 31
0.0
  0
LINE
  8
LC-004-005-----0
  6
CONTINUOUS
  5
1AF
 10
272.999949
 20
344.629459
 30
0.0
 11
275.999949
 21
347.629459
 31
0.0
  0
LINE
  8
LC-004-005-----0
  6
CONTINUOUS
  5
1B0
 10
379.999949
 20
256.467988
 30
0.0
 11
382.999949
 21
259.467988
 31
0.0
  0
LINE
  8
LC-001-002-----0
  6
CONTINUOUS
  5
1B1
 10
272.999949
 20
445.9
 30
0.0
 11
272.999949
 21
250.4
 31
0.0
  0
LINE
  8
LC-001-002-----0
  6
CONTINUOUS
  5
1B2
 10
382.999959
 20
445.900691
 30
0.0
 11
382.999949
 21
250.4
 31
0.0
  0
LINE
  8
LC-001-002-----0
  6
CONTINUOUS
  5
1B3
 10
275.999949
 20
448.901381
 30
0.0
 11
275.999949
 21
245.9
 31
0.0
  0
LINE
  8
LC-001-002-----0
  6
CONTINUOUS
  5
1B4
 10
379.999959
 20
448.901381
 30
0.0
 11
379.999949
 21
245.9
 31
0.0
  0
LINE
  8
LC-001-002-----0
  6
CONTINUOUS
  5
1B5
 10
381.794178
 20
245.9
 30
0.0
 11
382.999949
 21
250.4
 31
0.0
  0
LINE
  8
LC-004-005-----0
  6
CONTINUOUS
  5
1B6
 10
379.999949
 20
259.296415
 30
0.0
 11
382.999949
 21
262.296415
 31
0.0
  0
LINE
  8
LC-004-005-----0
  6
CONTINUOUS
  5
1B7
 10
379.999949
 20
262.124842
 30
0.0
 11
382.999949
 21
265.124842
 31
0.0
  0
LINE
  8
LC-001-002-----0
  6
CONTINUOUS
  5
1B8
 10
267.999837
 20
460.90069
 30
0.0
 11
388.000061
 21
460.90069
 31
0.0
  0
LINE
  8
LC-001-002-----0
  6
CONTINUOUS
  5
1B9
 10
394.000439
 20
460.90069
 30
0.0
 11
394.000439
 21
459.401381
 31
0.0
  0
LINE
  8
LC-001-002-----0
  6
CONTINUOUS
  5
1BA
 10
394.000439
 20
460.90069
 30
0.0
 11
395.500439
 21
460.90069
 31
0.0
  0
LINE
  8
LC-001-002-----0
  6
CONTINUOUS
  5
1BB
 10
404.000471
 20
445.9
 30
0.0
 11
402.357891
 21
445.9
 31
0.0
  0
LINE
  8
LC-001-002-----0
  6
CONTINUOUS
  5
1BC
 10
244.999428
 20
459.401381
 30
0.0
 11
251.999949
 21
459.401381
 31
0.0
  0
LINE
  8
LC-004-005-----0
  6
CONTINUOUS
  5
1BD
 10
272.999949
 20
347.457887
 30
0.0
 11
275.999949
 21
350.457887
 31
0.0
  0
LINE
  8
LC-004-005-----0
  6
CONTINUOUS
  5
1BE
 10
272.999949
 20
350.286314
 30
0.0
 11
275.999949
 21
353.286314
 31
0.0
  0
LINE
  8
LC-004-005-----0
  6
CONTINUOUS
  5
1BF
 10
272.999949
 20
353.114741
 30
0.0
 11
275.999949
 21
356.114741
 31
0.0
  0
LINE
  8
LC-004-005-----0
  6
CONTINUOUS
  5
1C0
 10
272.999949
 20
355.943168
 30
0.0
 11
275.999949
 21
358.943168
 31
0.0
  0
LINE
  8
LC-004-005-----0
  6
CONTINUOUS
  5
1C1
 10
272.999949
 20
358.771595
 30
0.0
 11
275.999949
 21
361.771595
 31
0.0
  0
LINE
  8
LC-004-005-----0
  6
CONTINUOUS
  5
1C2
 10
272.999949
 20
361.600022
 30
0.0
 11
275.999949
 21
364.600022
 31
0.0
  0
LINE
  8
LC-004-005-----0
  6
CONTINUOUS
  5
1C3
 10
272.999949
 20
364.428449
 30
0.0
 11
275.999949
 21
367.428449
 31
0.0
  0
LINE
  8
LC-004-005-----0
  6
CONTINUOUS
  5
1C4
 10
272.999949
 20
367.256876
 30
0.0
 11
275.999949
 21
370.256876
 31
0.0
  0
LINE
  8
LC-004-005-----0
  6
CONTINUOUS
  5
1C5
 10
272.999949
 20
370.085304
 30
0.0
 11
275.999949
 21
373.085304
 31
0.0
  0
LINE
  8
LC-004-005-----0
  6
CONTINUOUS
  5
1C6
 10
272.999949
 20
372.913731
 30
0.0
 11
275.999949
 21
375.913731
 31
0.0
  0
LINE
  8
LC-004-005-----0
  6
CONTINUOUS
  5
1C7
 10
272.999949
 20
375.742158
 30
0.0
 11
275.999949
 21
378.742158
 31
0.0
  0
LINE
  8
LC-004-005-----0
  6
CONTINUOUS
  5
1C8
 10
272.999949
 20
378.570585
 30
0.0
 11
275.999949
 21
381.570585
 31
0.0
  0
LINE
  8
LC-004-005-----0
  6
CONTINUOUS
  5
1C9
 10
272.999949
 20
381.399012
 30
0.0
 11
275.999949
 21
384.399012
 31
0.0
  0
LINE
  8
LC-004-005-----0
  6
CONTINUOUS
  5
1CA
 10
272.999949
 20
384.227439
 30
0.0
 11
275.999949
 21
387.227439
 31
0.0
  0
LINE
  8
LC-004-005-----0
  6
CONTINUOUS
  5
1CB
 10
272.999949
 20
387.055866
 30
0.0
 11
275.999949
 21
390.055866
 31
0.0
  0
LINE
  8
LC-004-005-----0
  6
CONTINUOUS
  5
1CC
 10
272.999949
 20
389.884293
 30
0.0
 11
275.999949
 21
392.884293
 31
0.0
  0
LINE
  8
LC-004-005-----0
  6
CONTINUOUS
  5
1CD
 10
272.999949
 20
392.712721
 30
0.0
 11
275.999949
 21
395.712721
 31
0.0
  0
LINE
  8
LC-004-005-----0
  6
CONTINUOUS
  5
1CE
 10
272.999949
 20
395.541148
 30
0.0
 11
275.999949
 21
398.541148
 31
0.0
  0
LINE
  8
LC-004-005-----0
  6
CONTINUOUS
  5
1CF
 10
272.999949
 20
398.369575
 30
0.0
 11
275.999949
 21
401.369575
 31
0.0
  0
LINE
  8
LC-004-005-----0
  6
CONTINUOUS
  5
1D0
 10
272.999949
 20
401.198002
 30
0.0
 11
275.999949
 21
404.198002
 31
0.0
  0
LINE
  8
LC-004-005-----0
  6
CONTINUOUS
  5
1D1
 10
272.999949
 20
404.026429
 30
0.0
 11
275.999949
 21
407.026429
 31
0.0
  0
LINE
  8
LC-004-005-----0
  6
CONTINUOUS
  5
1D2
 10
272.999949
 20
406.854856
 30
0.0
 11
275.999949
 21
409.854856
 31
0.0
  0
LINE
  8
LC-004-005-----0
  6
CONTINUOUS
  5
1D3
 10
272.999949
 20
409.683283
 30
0.0
 11
275.999949
 21
412.683283
 31
0.0
  0
LINE
  8
LC-004-005-----0
  6
CONTINUOUS
  5
1D4
 10
272.999949
 20
412.51171
 30
0.0
 11
275.999949
 21
415.51171
 31
0.0
  0
LINE
  8
LC-004-005-----0
  6
CONTINUOUS
  5
1D5
 10
272.999949
 20
415.340138
 30
0.0
 11
275.999949
 21
418.340138
 31
0.0
  0
LINE
  8
LC-004-005-----0
  6
CONTINUOUS
  5
1D6
 10
272.999949
 20
418.168565
 30
0.0
 11
275.999949
 21
421.168565
 31
0.0
  0
LINE
  8
LC-004-005-----0
  6
CONTINUOUS
  5
1D7
 10
272.999949
 20
420.996992
 30
0.0
 11
275.999949
 21
423.996992
 31
0.0
  0
LINE
  8
LC-004-005-----0
  6
CONTINUOUS
  5
1D8
 10
272.999949
 20
423.825419
 30
0.0
 11
275.999949
 21
426.825419
 31
0.0
  0
LINE
  8
LC-004-005-----0
  6
CONTINUOUS
  5
1D9
 10
272.999949
 20
426.653846
 30
0.0
 11
275.999949
 21
429.653846
 31
0.0
  0
LINE
  8
LC-004-005-----0
  6
CONTINUOUS
  5
1DA
 10
272.999949
 20
429.482273
 30
0.0
 11
275.999949
 21
432.482273
 31
0.0
  0
LINE
  8
LC-004-005-----0
  6
CONTINUOUS
  5
1DB
 10
272.999949
 20
432.3107
 30
0.0
 11
275.999949
 21
435.3107
 31
0.0
  0
LINE
  8
LC-004-005-----0
  6
CONTINUOUS
  5
1DC
 10
272.999949
 20
435.139127
 30
0.0
 11
275.999949
 21
438.139127
 31
0.0
  0
LINE
  8
LC-004-005-----0
  6
CONTINUOUS
  5
1DD
 10
272.999949
 20
437.967555
 30
0.0
 11
275.999949
 21
440.967555
 31
0.0
  0
LINE
  8
LC-004-005-----0
  6
CONTINUOUS
  5
1DE
 10
272.999949
 20
440.795982
 30
0.0
 11
275.999949
 21
443.795982
 31
0.0
  0
LINE
  8
LC-004-005-----0
  6
CONTINUOUS
  5
1DF
 10
272.999949
 20
443.624409
 30
0.0
 11
275.999949
 21
446.624409
 31
0.0
  0
LINE
  8
LC-004-005-----0
  6
CONTINUOUS
  5
1E0
 10
272.447113
 20
445.9
 30
0.0
 11
275.448494
 21
448.901381
 31
0.0
  0
LINE
  8
LC-004-005-----0
  6
CONTINUOUS
  5
1E1
 10
269.618686
 20
445.9
 30
0.0
 11
272.620067
 21
448.901381
 31
0.0
  0
LINE
  8
LC-004-005-----0
  6
CONTINUOUS
  5
1E2
 10
266.790259
 20
445.9
 30
0.0
 11
269.79164
 21
448.901381
 31
0.0
  0
LINE
  8
LC-004-005-----0
  6
CONTINUOUS
  5
1E3
 10
263.961832
 20
445.9
 30
0.0
 11
267.999837
 21
449.938005
 31
0.0
  0
LINE
  8
LC-004-005-----0
  6
CONTINUOUS
  5
1E4
 10
260.43531
 20
445.201905
 30
0.0
 11
267.999837
 21
452.766432
 31
0.0
  0
LINE
  8
LC-004-005-----0
  6
CONTINUOUS
  5
1E5
 10
257.328231
 20
444.923253
 30
0.0
 11
258.805668
 21
446.40069
 31
0.0
  0
LINE
  8
LC-004-005-----0
  6
CONTINUOUS
  5
1E6
 10
260.49946
 20
448.094482
 30
0.0
 11
267.999837
 21
455.594859
 31
0.0
  0
LINE
  8
LC-004-005-----0
  6
CONTINUOUS
  5
1E7
 10
254.952693
 20
445.376142
 30
0.0
 11
255.977241
 21
446.40069
 31
0.0
  0
LINE
  8
LC-004-005-----0
  6
CONTINUOUS
  5
1E8
 10
260.49946
 20
450.922909
 30
0.0
 11
267.999837
 21
458.423286
 31
0.0
  0
LINE
  8
LC-004-005-----0
  6
CONTINUOUS
  5
1E9
 10
252.648124
 20
445.9
 30
0.0
 11
255.49946
 21
448.751336
 31
0.0
  0
LINE
  8
LC-004-005-----0
  6
CONTINUOUS
  5
1EA
 10
260.49946
 20
453.751336
 30
0.0
 11
267.649504
 21
460.901381
 31
0.0
  0
LINE
  8
LC-004-005-----0
  6
CONTINUOUS
  5
1EB
 10
251.999428
 20
448.079731
 30
0.0
 11
255.49946
 21
451.579763
 31
0.0
  0
LINE
  8
LC-004-005-----0
  6
CONTINUOUS
  5
1EC
 10
260.49946
 20
456.579763
 30
0.0
 11
263.321077
 21
459.401381
 31
0.0
  0
LINE
  8
LC-004-005-----0
  6
CONTINUOUS
  5
1ED
 10
263.999949
 20
460.080253
 30
0.0
 11
264.821077
 21
460.901381
 31
0.0
  0
LINE
  8
LC-004-005-----0
  6
CONTINUOUS
  5
1EE
 10
264.999837
 20
461.080141
 30
0.0
 11
266.999837
 21
463.080141
 31
0.0
  0
LINE
  8
LC-004-005-----0
  6
CONTINUOUS
  5
1EF
 10
251.999428
 20
450.908158
 30
0.0
 11
255.49946
 21
454.408191
 31
0.0
  0
LINE
  8
LC-004-005-----0
  6
CONTINUOUS
  5
1F0
 10
260.49946
 20
459.408191
 30
0.0
 11
261.99196
 21
460.90069
 31
0.0
  0
LINE
  8
LC-004-005-----0
  6
CONTINUOUS
  5
1F1
 10
251.664223
 20
453.401381
 30
0.0
 11
255.49946
 21
457.236618
 31
0.0
  0
LINE
  8
LC-004-005-----0
  6
CONTINUOUS
  5
1F2
 10
248.835796
 20
453.401381
 30
0.0
 11
251.335796
 21
455.901381
 31
0.0
  0
LINE
  8
LC-004-005-----0
  6
CONTINUOUS
  5
1F3
 10
251.999949
 20
456.565534
 30
0.0
 11
255.49946
 21
460.065045
 31
0.0
  0
LINE
  8
LC-004-005-----0
  6
CONTINUOUS
  5
1F4
 10
246.007369
 20
453.401381
 30
0.0
 11
248.507369
 21
455.901381
 31
0.0
  0
LINE
  8
LC-004-005-----0
  6
CONTINUOUS
  5
1F5
 10
251.999949
 20
459.393961
 30
0.0
 11
252.007369
 21
459.401381
 31
0.0
  0
LINE
  8
LC-004-005-----0
  6
CONTINUOUS
  5
1F6
 10
244.089185
 20
454.311624
 30
0.0
 11
245.678942
 21
455.901381
 31
0.0
  0
LINE
  8
LC-004-005-----0
  6
CONTINUOUS
  5
1F7
 10
242.674971
 20
455.725837
 30
0.0
 11
244.999428
 21
458.050294
 31
0.0
  0
LINE
  8
LC-004-005-----0
  6
CONTINUOUS
  5
1F8
 10
240.574933
 20
456.454227
 30
0.0
 11
243.522087
 21
459.401381
 31
0.0
  0
LINE
  8
LC-004-005-----0
  6
CONTINUOUS
  5
1F9
 10
238.408883
 20
457.116603
 30
0.0
 11
241.233667
 21
459.941388
 31
0.0
  0
LINE
  8
LC-004-005-----0
  6
CONTINUOUS
  5
1FA
 10
236.242832
 20
457.77898
 30
0.0
 11
239.067503
 21
460.60365
 31
0.0
  0
LINE
  8
LC-004-005-----0
  6
CONTINUOUS
  5
1FB
 10
234.076782
 20
458.441356
 30
0.0
 11
236.901338
 21
461.265913
 31
0.0
  0
LINE
  8
LC-004-005-----0
  6
CONTINUOUS
  5
1FC
 10
231.910731
 20
459.103733
 30
0.0
 11
234.735174
 21
461.928176
 31
0.0
  0
LINE
  8
LC-004-005-----0
  6
CONTINUOUS
  5
1FD
 10
229.74468
 20
459.766109
 30
0.0
 11
232.56901
 21
462.590439
 31
0.0
  0
LINE
  8
LC-004-005-----0
  6
CONTINUOUS
  5
1FE
 10
227.57863
 20
460.428486
 30
0.0
 11
230.402846
 21
463.252702
 31
0.0
  0
LINE
  8
LC-004-005-----0
  6
CONTINUOUS
  5
1FF
 10
225.412579
 20
461.090863
 30
0.0
 11
228.236681
 21
463.914965
 31
0.0
  0
LINE
  8
LC-004-005-----0
  6
CONTINUOUS
  5
200
 10
223.246529
 20
461.753239
 30
0.0
 11
226.070517
 21
464.577228
 31
0.0
  0
LINE
  8
LC-004-005-----0
  6
CONTINUOUS
  5
201
 10
220.746743
 20
462.081881
 30
0.0
 11
223.904353
 21
465.239491
 31
0.0
  0
LINE
  8
LC-004-005-----0
  6
CONTINUOUS
  5
202
 10
218.02197
 20
462.185535
 30
0.0
 11
221.480461
 21
465.644025
 31
0.0
  0
LINE
  8
LC-004-005-----0
  6
CONTINUOUS
  5
203
 10
215.297197
 20
462.289189
 30
0.0
 11
218.742774
 21
465.734766
 31
0.0
  0
LINE
  8
LC-004-005-----0
  6
CONTINUOUS
  5
204
 10
212.999949
 20
462.820368
 30
0.0
 11
216.005087
 21
465.825506
 31
0.0
  0
LINE
  8
LC-004-005-----0
  6
CONTINUOUS
  5
205
 10
379.999949
 20
264.953269
 30
0.0
 11
382.999949
 21
267.953269
 31
0.0
  0
LINE
  8
LC-004-005-----0
  6
CONTINUOUS
  5
206
 10
379.999949
 20
267.781696
 30
0.0
 11
382.999949
 21
270.781696
 31
0.0
  0
LINE
  8
LC-004-005-----0
  6
CONTINUOUS
  5
207
 10
379.999949
 20
270.610123
 30
0.0
 11
382.999949
 21
273.610123
 31
0.0
  0
LINE
  8
LC-004-005-----0
  6
CONTINUOUS
  5
208
 10
379.999949
 20
273.438551
 30
0.0
 11
382.999949
 21
276.438551
 31
0.0
  0
LINE
  8
LC-004-005-----0
  6
CONTINUOUS
  5
209
 10
379.999949
 20
276.266978
 30
0.0
 11
382.999949
 21
279.266978
 31
0.0
  0
LINE
  8
LC-004-005-----0
  6
CONTINUOUS
  5
20A
 10
379.999949
 20
279.095405
 30
0.0
 11
382.999949
 21
282.095405
 31
0.0
  0
LINE
  8
LC-004-005-----0
  6
CONTINUOUS
  5
20B
 10
379.999949
 20
281.923832
 30
0.0
 11
382.999949
 21
284.923832
 31
0.0
  0
LINE
  8
LC-004-005-----0
  6
CONTINUOUS
  5
20C
 10
379.999949
 20
284.752259
 30
0.0
 11
382.999949
 21
287.752259
 31
0.0
  0
LINE
  8
LC-004-005-----0
  6
CONTINUOUS
  5
20D
 10
379.999949
 20
287.580686
 30
0.0
 11
382.999949
 21
290.580686
 31
0.0
  0
LINE
  8
LC-004-005-----0
  6
CONTINUOUS
  5
20E
 10
379.999949
 20
290.409113
 30
0.0
 11
382.999949
 21
293.409113
 31
0.0
  0
LINE
  8
LC-004-005-----0
  6
CONTINUOUS
  5
20F
 10
379.999949
 20
293.23754
 30
0.0
 11
382.999949
 21
296.23754
 31
0.0
  0
LINE
  8
LC-004-005-----0
  6
CONTINUOUS
  5
210
 10
379.999949
 20
296.065968
 30
0.0
 11
382.999949
 21
299.065968
 31
0.0
  0
LINE
  8
LC-004-005-----0
  6
CONTINUOUS
  5
211
 10
379.999949
 20
298.894395
 30
0.0
 11
382.999949
 21
301.894395
 31
0.0
  0
LINE
  8
LC-004-005-----0
  6
CONTINUOUS
  5
212
 10
379.999949
 20
301.722822
 30
0.0
 11
382.999949
 21
304.722822
 31
0.0
  0
LINE
  8
LC-004-005-----0
  6
CONTINUOUS
  5
213
 10
379.999949
 20
304.551249
 30
0.0
 11
382.999949
 21
307.551249
 31
0.0
  0
LINE
  8
LC-004-005-----0
  6
CONTINUOUS
  5
214
 10
379.999949
 20
307.379676
 30
0.0
 11
382.999949
 21
310.379676
 31
0.0
  0
LINE
  8
LC-004-005-----0
  6
CONTINUOUS
  5
215
 10
379.999949
 20
310.208103
 30
0.0
 11
382.999949
 21
313.208103
 31
0.0
  0
LINE
  8
LC-004-005-----0
  6
CONTINUOUS
  5
216
 10
379.999949
 20
313.03653
 30
0.0
 11
382.999949
 21
316.03653
 31
0.0
  0
LINE
  8
LC-004-005-----0
  6
CONTINUOUS
  5
217
 10
379.999949
 20
315.864957
 30
0.0
 11
382.999949
 21
318.864957
 31
0.0
  0
LINE
  8
LC-004-005-----0
  6
CONTINUOUS
  5
218
 10
379.999949
 20
318.693385
 30
0.0
 11
382.999949
 21
321.693385
 31
0.0
  0
LINE
  8
LC-004-005-----0
  6
CONTINUOUS
  5
219
 10
379.999949
 20
321.521812
 30
0.0
 11
382.999949
 21
324.521812
 31
0.0
  0
LINE
  8
LC-004-005-----0
  6
CONTINUOUS
  5
21A
 10
379.999949
 20
324.350239
 30
0.0
 11
382.999949
 21
327.350239
 31
0.0
  0
LINE
  8
LC-004-005-----0
  6
CONTINUOUS
  5
21B
 10
379.999949
 20
327.178666
 30
0.0
 11
382.999949
 21
330.178666
 31
0.0
  0
LINE
  8
LC-004-005-----0
  6
CONTINUOUS
  5
21C
 10
379.999949
 20
330.007093
 30
0.0
 11
382.999949
 21
333.007093
 31
0.0
  0
LINE
  8
LC-004-005-----0
  6
CONTINUOUS
  5
21D
 10
379.999949
 20
332.83552
 30
0.0
 11
382.999949
 21
335.83552
 31
0.0
  0
LINE
  8
LC-004-005-----0
  6
CONTINUOUS
  5
21E
 10
379.999949
 20
335.663947
 30
0.0
 11
382.999949
 21
338.663947
 31
0.0
  0
LINE
  8
LC-004-005-----0
  6
CONTINUOUS
  5
21F
 10
379.999949
 20
338.492374
 30
0.0
 11
382.999949
 21
341.492374
 31
0.0
  0
LINE
  8
LC-004-005-----0
  6
CONTINUOUS
  5
220
 10
379.999949
 20
341.320802
 30
0.0
 11
382.999949
 21
344.320802
 31
0.0
  0
LINE
  8
LC-004-005-----0
  6
CONTINUOUS
  5
221
 10
379.999949
 20
344.149229
 30
0.0
 11
382.999949
 21
347.149229
 31
0.0
  0
LINE
  8
LC-004-005-----0
  6
CONTINUOUS
  5
222
 10
379.999949
 20
346.977656
 30
0.0
 11
382.999949
 21
349.977656
 31
0.0
  0
LINE
  8
LC-004-005-----0
  6
CONTINUOUS
  5
223
 10
379.999949
 20
349.806083
 30
0.0
 11
382.999949
 21
352.806083
 31
0.0
  0
LINE
  8
LC-004-005-----0
  6
CONTINUOUS
  5
224
 10
379.999949
 20
352.63451
 30
0.0
 11
382.999949
 21
355.63451
 31
0.0
  0
LINE
  8
LC-004-005-----0
  6
CONTINUOUS
  5
225
 10
379.999949
 20
355.462937
 30
0.0
 11
382.999949
 21
358.462937
 31
0.0
  0
LINE
  8
LC-004-005-----0
  6
CONTINUOUS
  5
226
 10
379.999949
 20
358.291364
 30
0.0
 11
382.999949
 21
361.291364
 31
0.0
  0
LINE
  8
LC-004-005-----0
  6
CONTINUOUS
  5
227
 10
379.999949
 20
361.119791
 30
0.0
 11
382.999949
 21
364.119791
 31
0.0
  0
LINE
  8
LC-004-005-----0
  6
CONTINUOUS
  5
228
 10
379.999949
 20
363.948219
 30
0.0
 11
382.999949
 21
366.948219
 31
0.0
  0
LINE
  8
LC-004-005-----0
  6
CONTINUOUS
  5
229
 10
379.999949
 20
366.776646
 30
0.0
 11
382.999949
 21
369.776646
 31
0.0
  0
LINE
  8
LC-001-002-----0
  6
CONTINUOUS
  5
22A
 10
263.999949
 20
460.901381
 30
0.0
 11
263.999949
 21
459.401381
 31
0.0
  0
LINE
  8
LC-001-002-----0
  6
CONTINUOUS
  5
22B
 10
251.999949
 20
459.401381
 30
0.0
 11
251.999949
 21
455.901381
 31
0.0
  0
LINE
  8
LC-001-002-----0
  6
CONTINUOUS
  5
22C
 10
275.999949
 20
245.9
 30
0.0
 11
265.249949
 21
245.9
 31
0.0
  0
LINE
  8
LC-001-002-----0
  6
CONTINUOUS
  5
22D
 10
263.999949
 20
459.401381
 30
0.0
 11
263.288624
 21
459.401381
 31
0.0
  0
LINE
  8
LC-001-002-----0
  6
CONTINUOUS
  5
22E
 10
379.999949
 20
245.9
 30
0.0
 11
381.794178
 21
245.9
 31
0.0
  0
LINE
  8
LC-001-002-----0
  6
CONTINUOUS
  5
22F
 10
251.999428
 20
455.901381
 30
0.0
 11
244.999428
 21
455.901381
 31
0.0
  0
LINE
  8
LC-004-005-----0
  6
CONTINUOUS
  5
230
 10
379.999949
 20
369.605073
 30
0.0
 11
382.999949
 21
372.605073
 31
0.0
  0
ARC
  8
LC-001-002-----0
  6
CONTINUOUS
  5
231
 10
267.155349
 20
286.504797
 30
0.0
 40
5.844601
 50
331.647004
 51
60.0
  0
ARC
  8
LC-002-002-RND-0
  6
CONTINUOUS
  5
232
 10
272.122814
 20
283.824163
 30
0.0
 40
0.2
 50
157.017983
 51
331.647004
  0
ARC
  8
LC-001-002-----0
  6
CONTINUOUS
  5
233
 10
269.065356
 20
275.389681
 30
0.0
 40
3.12106
 50
337.017983
 51
85.0
  0
ARC
  8
LC-001-002-----0
  6
CONTINUOUS
  5
234
 10
269.065356
 20
285.120845
 30
0.0
 40
3.12106
 50
337.017983
 51
85.0
  0
LINE
  8
LC-001-002-----0
  6
CONTINUOUS
  5
235
 10
244.999428
 20
455.901381
 30
0.0
 11
244.999428
 21
459.401381
 31
0.0
  0
LINE
  8
LC-001-002-----0
  6
CONTINUOUS
  5
236
 10
251.999428
 20
453.401381
 30
0.0
 11
244.999428
 21
453.401381
 31
0.0
  0
LINE
  8
LC-001-002-----0
  6
CONTINUOUS
  5
237
 10
244.999428
 20
453.401381
 30
0.0
 11
242.550801
 21
455.850008
 31
0.0
  0
LINE
  8
LC-004-005-----0
  6
CONTINUOUS
  5
238
 10
379.999949
 20
372.4335
 30
0.0
 11
382.999949
 21
375.4335
 31
0.0
  0
LINE
  8
LC-001-002-----0
  6
CONTINUOUS
  5
239
 10
264.999837
 20
460.900316
 30
0.0
 11
264.999837
 21
463.900776
 31
0.0
  0
LINE
  8
LC-001-002-----0
  6
CONTINUOUS
  5
23A
 10
266.999837
 20
460.901381
 30
0.0
 11
267.999837
 21
460.901381
 31
0.0
  0
LINE
  8
LC-001-002-----0
  6
CONTINUOUS
  5
23B
 10
356.050473
 20
460.90069
 30
0.0
 11
356.050473
 21
463.90069
 31
0.0
  0
LINE
  8
LC-001-002-----0
  6
CONTINUOUS
  5
23C
 10
356.050473
 20
463.90069
 30
0.0
 11
360.999962
 21
463.90069
 31
0.0
  0
LINE
  8
LC-001-002-----0
  6
CONTINUOUS
  5
23D
 10
360.999962
 20
463.90069
 30
0.0
 11
360.999962
 21
460.90069
 31
0.0
  0
LINE
  8
LC-001-002-----0
  6
CONTINUOUS
  5
23E
 10
263.288624
 20
459.401381
 30
0.0
 11
262.999949
 21
459.901381
 31
0.0
  0
LINE
  8
LC-001-002-----0
  6
CONTINUOUS
  5
23F
 10
262.999949
 20
459.901381
 30
0.0
 11
262.711274
 21
459.401381
 31
0.0
  0
LINE
  8
LC-001-002-----0
  6
CONTINUOUS
  5
240
 10
262.711274
 20
459.401381
 30
0.0
 11
261.99946
 21
459.401381
 31
0.0
  0
LINE
  8
LC-001-002-----0
  6
CONTINUOUS
  5
241
 10
252.999949
 20
459.901381
 30
0.0
 11
252.711274
 21
459.401381
 31
0.0
  0
LINE
  8
LC-001-002-----0
  6
CONTINUOUS
  5
242
 10
253.288624
 20
459.401381
 30
0.0
 11
252.999949
 21
459.901381
 31
0.0
  0
LINE
  8
LC-001-002-----0
  6
CONTINUOUS
  5
243
 10
252.711274
 20
459.401381
 30
0.0
 11
251.999949
 21
459.401381
 31
0.0
  0
LINE
  8
LC-001-002-----0
  6
CONTINUOUS
  5
244
 10
402.000439
 20
459.401381
 30
0.0
 11
402.711274
 21
459.401381
 31
0.0
  0
LINE
  8
LC-001-002-----0
  6
CONTINUOUS
  5
245
 10
255.49946
 20
446.40069
 30
0.0
 11
260.49946
 21
446.40069
 31
0.0
  0
LINE
  8
LC-001-002-----0
  6
CONTINUOUS
  5
246
 10
402.999949
 20
459.901381
 30
0.0
 11
402.000439
 21
459.901381
 31
0.0
  0
ARC
  8
LC-001-002-----0
  6
CONTINUOUS
  5
247
 10
267.155349
 20
276.773634
 30
0.0
 40
5.844601
 50
331.647004
 51
60.0
  0
LINE
  8
LC-001-002-----0
  6
CONTINUOUS
  5
248
 10
262.999949
 20
299.9
 30
0.0
 11
272.999949
 21
299.9
 31
0.0
  0
ARC
  8
LC-002-002-RND-0
  6
CONTINUOUS
  5
249
 10
262.999949
 20
297.9
 30
0.0
 40
2.0
 50
90.0
 51
180.0
  0
ARC
  8
LC-002-002-RND-0
  6
CONTINUOUS
  5
24A
 10
272.122814
 20
274.092999
 30
0.0
 40
0.2
 50
157.017983
 51
331.647004
  0
ARC
  8
LC-001-002-----0
  6
CONTINUOUS
  5
24B
 10
388.84455
 20
286.504797
 30
0.0
 40
5.844601
 50
120.0
 51
208.352996
  0
LINE
  8
LC-001-002-----0
  6
CONTINUOUS
  5
24C
 10
391.499949
 20
285.4
 30
0.0
 11
391.499949
 21
295.4
 31
0.0
  0
LINE
  8
LC-001-002-----0
  6
CONTINUOUS
  5
24D
 10
392.999949
 20
459.901381
 30
0.0
 11
394.000439
 21
459.901381
 31
0.0
  0
LINE
  8
LC-001-002-----0
  6
CONTINUOUS
  5
24E
 10
392.999949
 20
459.901381
 30
0.0
 11
391.999949
 21
459.901381
 31
0.0
  0
ARC
  8
LC-002-002-RND-0
  6
CONTINUOUS
  5
24F
 10
383.877084
 20
283.824163
 30
0.0
 40
0.2
 50
208.352996
 51
22.982017
  0
ARC
  8
LC-001-002-----0
  6
CONTINUOUS
  5
250
 10
386.934543
 20
275.389681
 30
0.0
 40
3.12106
 50
95.0
 51
202.982017
  0
ARC
  8
LC-001-002-----0
  6
CONTINUOUS
  5
251
 10
386.934543
 20
285.120845
 30
0.0
 40
3.12106
 50
95.0
 51
202.982017
  0
ARC
  8
LC-001-002-----0
  6
CONTINUOUS
  5
252
 10
388.84455
 20
276.773634
 30
0.0
 40
5.844601
 50
120.0
 51
208.352996
  0
LINE
  8
LC-001-002-----0
  6
CONTINUOUS
  5
253
 10
260.999949
 20
297.9
 30
0.0
 11
260.999949
 21
295.9
 31
0.0
  0
ARC
  8
LC-002-002-RND-0
  6
CONTINUOUS
  5
254
 10
383.877084
 20
274.092999
 30
0.0
 40
0.2
 50
208.352996
 51
22.982017
  0
ARC
  8
LC-002-002-RND-0
  6
CONTINUOUS
  5
255
 10
268.999949
 20
278.026476
 30
0.0
 40
0.5
 50
85.0
 51
180.0
  0
LINE
  8
LC-001-002-----0
  6
CONTINUOUS
  5
256
 10
263.999949
 20
295.9
 30
0.0
 11
263.999949
 21
249.580236
 31
0.0
  0
LINE
  8
LC-001-002-----0
  6
CONTINUOUS
  5
257
 10
260.999949
 20
295.9
 30
0.0
 11
263.999949
 21
295.9
 31
0.0
  0
LINE
  8
LC-001-002-----0
  6
CONTINUOUS
  5
258
 10
392.999949
 20
299.9
 30
0.0
 11
382.999952
 21
299.9
 31
0.0
  0
LINE
  8
LC-001-002-----0
  6
CONTINUOUS
  5
259
 10
385.92225
 20
281.835207
 30
0.0
 11
386.749949
 21
282.313079
 31
0.0
  0
LINE
  8
LC-001-002-----0
  6
CONTINUOUS
  5
25A
 10
268.499949
 20
278.026476
 30
0.0
 11
268.499949
 21
245.9
 31
0.0
  0
ARC
  8
LC-002-002-RND-0
  6
CONTINUOUS
  5
25B
 10
392.999949
 20
297.9
 30
0.0
 40
2.0
 50
0.0
 51
90.0
  0
LINE
  8
LC-001-002-----0
  6
CONTINUOUS
  5
25C
 10
269.499949
 20
297.4
 30
0.0
 11
269.499949
 21
292.477255
 31
0.0
  0
LINE
  8
LC-001-002-----0
  6
CONTINUOUS
  5
25D
 10
394.999949
 20
297.9
 30
0.0
 11
394.999949
 21
295.9
 31
0.0
  0
LINE
  8
LC-001-002-----0
  6
CONTINUOUS
  5
25E
 10
269.043527
 20
278.524573
 30
0.0
 11
269.337374
 21
278.498865
 31
0.0
  0
LINE
  8
LC-001-002-----0
  6
CONTINUOUS
  5
25F
 10
390.749949
 20
245.9
 30
0.0
 11
327.999949
 21
245.9
 31
0.0
  0
ARC
  8
LC-002-002-RND-0
  6
CONTINUOUS
  5
260
 10
386.999949
 20
278.026476
 30
0.0
 40
0.5
 50
0.0
 51
95.0
  0
LINE
  8
LC-001-002-----0
  6
CONTINUOUS
  5
261
 10
388.000061
 20
448.901381
 30
0.0
 11
379.999949
 21
448.901381
 31
0.0
  0
LINE
  8
LC-001-002-----0
  6
CONTINUOUS
  5
262
 10
411.000471
 20
459.401381
 30
0.0
 11
403.999949
 21
459.401381
 31
0.0
  0
LINE
  8
LC-001-002-----0
  6
CONTINUOUS
  5
263
 10
382.999949
 20
445.90069
 30
0.0
 11
382.999949
 21
445.90069
 31
0.0
  0
LINE
  8
LC-001-002-----0
  6
CONTINUOUS
  5
264
 10
379.999949
 20
448.901381
 30
0.0
 11
380.099949
 21
448.901381
 31
0.0
  0
LINE
  8
LC-001-002-----0
  6
CONTINUOUS
  5
265
 10
391.999949
 20
460.901381
 30
0.0
 11
391.999949
 21
459.401381
 31
0.0
  0
LINE
  8
LC-001-002-----0
  6
CONTINUOUS
  5
266
 10
403.999949
 20
459.401381
 30
0.0
 11
403.999949
 21
455.901381
 31
0.0
  0
LINE
  8
LC-001-002-----0
  6
CONTINUOUS
  5
267
 10
391.999949
 20
459.401381
 30
0.0
 11
392.711274
 21
459.401381
 31
0.0
  0
LINE
  8
LC-001-002-----0
  6
CONTINUOUS
  5
268
 10
404.000471
 20
455.901381
 30
0.0
 11
411.000471
 21
455.901381
 31
0.0
  0
LINE
  8
LC-001-002-----0
  6
CONTINUOUS
  5
269
 10
411.000471
 20
455.901381
 30
0.0
 11
411.000471
 21
459.401381
 31
0.0
  0
LINE
  8
LC-001-002-----0
  6
CONTINUOUS
  5
26A
 10
404.000471
 20
453.401381
 30
0.0
 11
411.000471
 21
453.401381
 31
0.0
  0
LINE
  8
LC-001-002-----0
  6
CONTINUOUS
  5
26B
 10
411.000471
 20
453.401381
 30
0.0
 11
413.449098
 21
455.850008
 31
0.0
  0
LINE
  8
LC-001-002-----0
  6
CONTINUOUS
  5
26C
 10
389.000061
 20
460.901381
 30
0.0
 11
388.000061
 21
460.901381
 31
0.0
  0
LINE
  8
LC-001-002-----0
  6
CONTINUOUS
  5
26D
 10
260.49946
 20
460.90069
 30
0.0
 11
260.49946
 21
446.40069
 31
0.0
  0
LINE
  8
LC-001-002-----0
  6
CONTINUOUS
  5
26E
 10
255.49946
 20
460.90069
 30
0.0
 11
255.49946
 21
446.40069
 31
0.0
  0
LINE
  8
LC-001-002-----0
  6
CONTINUOUS
  5
26F
 10
251.999428
 20
453.401381
 30
0.0
 11
251.999428
 21
445.9
 31
0.0
  0
LINE
  8
LC-001-002-----0
  6
CONTINUOUS
  5
270
 10
263.999949
 20
460.901381
 30
0.0
 11
264.999837
 21
460.901381
 31
0.0
  0
LINE
  8
LC-001-002-----0
  6
CONTINUOUS
  5
271
 10
244.999428
 20
459.401381
 30
0.0
 11
242.999949
 21
459.401381
 31
0.0
  0
LINE
  8
LC-001-002-----0
  6
CONTINUOUS
  5
272
 10
392.711274
 20
459.401381
 30
0.0
 11
392.999949
 21
459.901381
 31
0.0
  0
LINE
  8
LC-001-002-----0
  6
CONTINUOUS
  5
273
 10
392.999949
 20
459.901381
 30
0.0
 11
393.288624
 21
459.401381
 31
0.0
  0
LINE
  8
LC-001-002-----0
  6
CONTINUOUS
  5
274
 10
393.288624
 20
459.401381
 30
0.0
 11
394.000439
 21
459.401381
 31
0.0
  0
LINE
  8
LC-001-002-----0
  6
CONTINUOUS
  5
275
 10
393.64152
 20
445.90071
 30
0.0
 11
382.999959
 21
445.900734
 31
0.0
  0
LINE
  8
LC-001-002-----0
  6
CONTINUOUS
  5
276
 10
267.999837
 20
460.901381
 30
0.0
 11
267.999837
 21
448.901381
 31
0.0
  0
LINE
  8
LC-001-002-----0
  6
CONTINUOUS
  5
277
 10
402.999949
 20
459.901381
 30
0.0
 11
403.288624
 21
459.401381
 31
0.0
  0
LINE
  8
LC-001-002-----0
  6
CONTINUOUS
  5
278
 10
402.711274
 20
459.401381
 30
0.0
 11
402.999949
 21
459.901381
 31
0.0
  0
LINE
  8
LC-001-002-----0
  6
CONTINUOUS
  5
279
 10
403.288624
 20
459.401381
 30
0.0
 11
403.999949
 21
459.401381
 31
0.0
  0
LINE
  8
LC-001-002-----0
  6
CONTINUOUS
  5
27A
 10
400.500439
 20
446.40069
 30
0.0
 11
395.500439
 21
446.40069
 31
0.0
  0
LINE
  8
LC-001-002-----0
  6
CONTINUOUS
  5
27B
 10
395.500439
 20
460.90069
 30
0.0
 11
395.500439
 21
446.40069
 31
0.0
  0
LINE
  8
LC-001-002-----0
  6
CONTINUOUS
  5
27C
 10
400.500439
 20
460.90069
 30
0.0
 11
400.500439
 21
446.40069
 31
0.0
  0
LINE
  8
LC-001-002-----0
  6
CONTINUOUS
  5
27D
 10
404.000471
 20
453.401381
 30
0.0
 11
404.000471
 21
445.9
 31
0.0
  0
LINE
  8
LC-001-002-----0
  6
CONTINUOUS
  5
27E
 10
391.999949
 20
460.901381
 30
0.0
 11
391.000061
 21
460.901381
 31
0.0
  0
LINE
  8
LC-001-002-----0
  6
CONTINUOUS
  5
27F
 10
411.000471
 20
459.401381
 30
0.0
 11
412.999949
 21
459.401381
 31
0.0
  0
LINE
  8
LC-001-002-----0
  6
CONTINUOUS
  5
280
 10
388.000061
 20
460.901381
 30
0.0
 11
388.000061
 21
448.901381
 31
0.0
  0
LINE
  8
LC-001-002-----0
  6
CONTINUOUS
  5
281
 10
389.000061
 20
460.901381
 30
0.0
 11
391.000061
 21
460.901381
 31
0.0
  0
LINE
  8
LC-001-002-----0
  6
CONTINUOUS
  5
282
 10
391.999949
 20
295.9
 30
0.0
 11
391.999949
 21
249.580236
 31
0.0
  0
LINE
  8
LC-004-005-----0
  6
CONTINUOUS
  5
283
 10
379.999949
 20
375.261927
 30
0.0
 11
382.999949
 21
378.261927
 31
0.0
  0
LINE
  8
LC-001-002-----0
  6
CONTINUOUS
  5
284
 10
394.999949
 20
295.9
 30
0.0
 11
391.999949
 21
295.9
 31
0.0
  0
LINE
  8
LC-004-005-----0
  6
CONTINUOUS
  5
285
 10
379.999949
 20
378.090354
 30
0.0
 11
382.999949
 21
381.090354
 31
0.0
  0
LINE
  8
LC-001-002-----0
  6
CONTINUOUS
  5
286
 10
385.999949
 20
291.61123
 30
0.0
 11
385.92225
 21
291.56637
 31
0.0
  0
LINE
  8
LC-004-005-----0
  6
CONTINUOUS
  5
287
 10
379.999949
 20
380.918781
 30
0.0
 11
382.999949
 21
383.918781
 31
0.0
  0
LINE
  8
LC-001-002-----0
  6
CONTINUOUS
  5
288
 10
387.499949
 20
278.026476
 30
0.0
 11
387.499949
 21
245.9
 31
0.0
  0
LINE
  8
LC-004-005-----0
  6
CONTINUOUS
  5
289
 10
379.999949
 20
383.747208
 30
0.0
 11
382.999949
 21
386.747208
 31
0.0
  0
ARC
  8
LC-002-002-RND-0
  6
CONTINUOUS
  5
28A
 10
385.499949
 20
292.477255
 30
0.0
 40
1.0
 50
300.0
 51
0.0
  0
LINE
  8
LC-004-005-----0
  6
CONTINUOUS
  5
28B
 10
379.999949
 20
386.575636
 30
0.0
 11
382.999949
 21
389.575636
 31
0.0
  0
LINE
  8
LC-001-002-----0
  6
CONTINUOUS
  5
28C
 10
270.077649
 20
281.835207
 30
0.0
 11
269.249949
 21
282.313079
 31
0.0
  0
LINE
  8
LC-004-005-----0
  6
CONTINUOUS
  5
28D
 10
379.999949
 20
389.404063
 30
0.0
 11
382.999949
 21
392.404063
 31
0.0
  0
LINE
  8
LC-001-002-----0
  6
CONTINUOUS
  5
28E
 10
386.499949
 20
297.4
 30
0.0
 11
386.499949
 21
292.477255
 31
0.0
  0
LINE
  8
LC-004-005-----0
  6
CONTINUOUS
  5
28F
 10
379.999949
 20
392.23249
 30
0.0
 11
382.999949
 21
395.23249
 31
0.0
  0
LINE
  8
LC-001-002-----0
  6
CONTINUOUS
  5
290
 10
269.499949
 20
297.4
 30
0.0
 11
267.499949
 21
299.4
 31
0.0
  0
LINE
  8
LC-004-005-----0
  6
CONTINUOUS
  5
291
 10
379.999949
 20
395.060917
 30
0.0
 11
382.999949
 21
398.060917
 31
0.0
  0
LINE
  8
LC-001-002-----0
  6
CONTINUOUS
  5
292
 10
267.499949
 20
299.4
 30
0.0
 11
267.499949
 21
299.9
 31
0.0
  0
LINE
  8
LC-004-005-----0
  6
CONTINUOUS
  5
293
 10
379.999949
 20
397.889344
 30
0.0
 11
382.999949
 21
400.889344
 31
0.0
  0
LINE
  8
LC-004-005-----0
  6
CONTINUOUS
  5
294
 10
379.999949
 20
400.717771
 30
0.0
 11
382.999949
 21
403.717771
 31
0.0
  0
LINE
  8
LC-004-005-----0
  6
CONTINUOUS
  5
295
 10
441.605719
 20
462.323541
 30
0.0
 11
442.999949
 21
463.717771
 31
0.0
  0
LINE
  8
LC-004-005-----0
  6
CONTINUOUS
  5
296
 10
379.999949
 20
403.546198
 30
0.0
 11
382.999949
 21
406.546198
 31
0.0
  0
LINE
  8
LC-004-005-----0
  6
CONTINUOUS
  5
297
 10
438.66544
 20
462.211689
 30
0.0
 11
442.027389
 21
465.573638
 31
0.0
  0
LINE
  8
LC-004-005-----0
  6
CONTINUOUS
  5
298
 10
379.999949
 20
406.374625
 30
0.0
 11
382.999949
 21
409.374625
 31
0.0
  0
LINE
  8
LC-004-005-----0
  6
CONTINUOUS
  5
299
 10
435.725161
 20
462.099837
 30
0.0
 11
439.432181
 21
465.806857
 31
0.0
  0
LINE
  8
LC-004-005-----0
  6
CONTINUOUS
  5
29A
 10
379.999949
 20
409.203053
 30
0.0
 11
382.999949
 21
412.203053
 31
0.0
  0
LINE
  8
LC-004-005-----0
  6
CONTINUOUS
  5
29B
 10
432.46061
 20
461.663713
 30
0.0
 11
436.506793
 21
465.709896
 31
0.0
  0
LINE
  8
LC-004-005-----0
  6
CONTINUOUS
  5
29C
 10
379.999949
 20
412.03148
 30
0.0
 11
382.999949
 21
415.03148
 31
0.0
  0
LINE
  8
LC-004-005-----0
  6
CONTINUOUS
  5
29D
 10
428.386246
 20
460.417776
 30
0.0
 11
433.581404
 21
465.612934
 31
0.0
  0
LINE
  8
LC-004-005-----0
  6
CONTINUOUS
  5
29E
 10
379.999949
 20
414.859907
 30
0.0
 11
382.999949
 21
417.859907
 31
0.0
  0
LINE
  8
LC-004-005-----0
  6
CONTINUOUS
  5
29F
 10
424.311881
 20
459.171838
 30
0.0
 11
429.623864
 21
464.483822
 31
0.0
  0
LINE
  8
LC-004-005-----0
  6
CONTINUOUS
  5
2A0
 10
379.999949
 20
417.688334
 30
0.0
 11
382.999949
 21
420.688334
 31
0.0
  0
LINE
  8
LC-004-005-----0
  6
CONTINUOUS
  5
2A1
 10
420.237516
 20
457.925901
 30
0.0
 11
425.549902
 21
463.238286
 31
0.0
  0
LINE
  8
LC-004-005-----0
  6
CONTINUOUS
  5
2A2
 10
379.999949
 20
420.516761
 30
0.0
 11
382.999949
 21
423.516761
 31
0.0
  0
LINE
  8
LC-004-005-----0
  6
CONTINUOUS
  5
2A3
 10
416.163152
 20
456.679963
 30
0.0
 11
421.475939
 21
461.992751
 31
0.0
  0
LINE
  8
LC-004-005-----0
  6
CONTINUOUS
  5
2A4
 10
379.999949
 20
423.345188
 30
0.0
 11
382.999949
 21
426.345188
 31
0.0
  0
LINE
  8
LC-004-005-----0
  6
CONTINUOUS
  5
2A5
 10
402.554761
 20
445.9
 30
0.0
 11
404.000471
 21
447.34571
 31
0.0
  0
LINE
  8
LC-004-005-----0
  6
CONTINUOUS
  5
2A6
 10
410.056142
 20
453.401381
 30
0.0
 11
417.401977
 21
460.747216
 31
0.0
  0
LINE
  8
LC-004-005-----0
  6
CONTINUOUS
  5
2A7
 10
379.999949
 20
426.173615
 30
0.0
 11
382.999949
 21
429.173615
 31
0.0
  0
LINE
  8
LC-004-005-----0
  6
CONTINUOUS
  5
2A8
 10
398.755588
 20
444.929254
 30
0.0
 11
400.227024
 21
446.40069
 31
0.0
  0
LINE
  8
LC-004-005-----0
  6
CONTINUOUS
  5
2A9
 10
400.500439
 20
446.674105
 30
0.0
 11
404.000471
 21
450.174137
 31
0.0
  0
LINE
  8
LC-004-005-----0
  6
CONTINUOUS
  5
2AA
 10
407.227715
 20
453.401381
 30
0.0
 11
409.727715
 21
455.901381
 31
0.0
  0
LINE
  8
LC-004-005-----0
  6
CONTINUOUS
  5
2AB
 10
411.000471
 20
457.174137
 30
0.0
 11
413.328014
 21
459.50168
 31
0.0
  0
LINE
  8
LC-004-005-----0
  6
CONTINUOUS
  5
2AC
 10
379.999949
 20
429.002042
 30
0.0
 11
382.999949
 21
432.002042
 31
0.0
  0
LINE
  8
LC-004-005-----0
  6
CONTINUOUS
  5
2AD
 10
396.083968
 20
445.086061
 30
0.0
 11
397.398597
 21
446.40069
 31
0.0
  0
LINE
  8
LC-004-005-----0
  6
CONTINUOUS
  5
2AE
 10
400.500439
 20
449.502532
 30
0.0
 11
404.000471
 21
453.002564
 31
0.0
  0
LINE
  8
LC-004-005-----0
  6
CONTINUOUS
  5
2AF
 10
404.399288
 20
453.401381
 30
0.0
 11
406.899288
 21
455.901381
 31
0.0
  0
LINE
  8
LC-004-005-----0
  6
CONTINUOUS
  5
2B0
 10
379.999949
 20
431.83047
 30
0.0
 11
382.999949
 21
434.83047
 31
0.0
  0
LINE
  8
LC-004-005-----0
  6
CONTINUOUS
  5
2B1
 10
393.934217
 20
445.764737
 30
0.0
 11
395.500439
 21
447.330959
 31
0.0
  0
LINE
  8
LC-004-005-----0
  6
CONTINUOUS
  5
2B2
 10
400.500439
 20
452.330959
 30
0.0
 11
404.070861
 21
455.901381
 31
0.0
  0
LINE
  8
LC-004-005-----0
  6
CONTINUOUS
  5
2B3
 10
379.999949
 20
434.658897
 30
0.0
 11
382.999949
 21
437.658897
 31
0.0
  0
LINE
  8
LC-004-005-----0
  6
CONTINUOUS
  5
2B4
 10
391.241053
 20
445.9
 30
0.0
 11
395.500439
 21
450.159386
 31
0.0
  0
LINE
  8
LC-004-005-----0
  6
CONTINUOUS
  5
2B5
 10
400.500439
 20
455.159386
 30
0.0
 11
403.999949
 21
458.658897
 31
0.0
  0
LINE
  8
LC-004-005-----0
  6
CONTINUOUS
  5
2B6
 10
379.999949
 20
437.487324
 30
0.0
 11
382.999949
 21
440.487324
 31
0.0
  0
LINE
  8
LC-004-005-----0
  6
CONTINUOUS
  5
2B7
 10
388.412626
 20
445.9
 30
0.0
 11
395.500439
 21
452.987813
 31
0.0
  0
LINE
  8
LC-004-005-----0
  6
CONTINUOUS
  5
2B8
 10
400.500439
 20
457.987813
 30
0.0
 11
402.000439
 21
459.487813
 31
0.0
  0
LINE
  8
LC-004-005-----0
  6
CONTINUOUS
  5
2B9
 10
379.999949
 20
440.315751
 30
0.0
 11
382.999949
 21
443.315751
 31
0.0
  0
LINE
  8
LC-004-005-----0
  6
CONTINUOUS
  5
2BA
 10
385.584198
 20
445.9
 30
0.0
 11
395.500439
 21
455.81624
 31
0.0
  0
LINE
  8
LC-004-005-----0
  6
CONTINUOUS
  5
2BB
 10
400.500439
 20
460.81624
 30
0.0
 11
400.584889
 21
460.90069
 31
0.0
  0
LINE
  8
LC-004-005-----0
  6
CONTINUOUS
  5
2BC
 10
379.999949
 20
443.144178
 30
0.0
 11
385.757152
 21
448.901381
 31
0.0
  0
LINE
  8
LC-004-005-----0
  6
CONTINUOUS
  5
2BD
 10
388.000061
 20
451.14429
 30
0.0
 11
395.500439
 21
458.644667
 31
0.0
  0
LINE
  8
LC-004-005-----0
  6
CONTINUOUS
  5
2BE
 10
379.999949
 20
445.972605
 30
0.0
 11
382.928725
 21
448.901381
 31
0.0
  0
LINE
  8
LC-004-005-----0
  6
CONTINUOUS
  5
2BF
 10
388.000061
 20
453.972717
 30
0.0
 11
393.428725
 21
459.401381
 31
0.0
  0
LINE
  8
LC-004-005-----0
  6
CONTINUOUS
  5
2C0
 10
394.000439
 20
459.973095
 30
0.0
 11
394.928035
 21
460.90069
 31
0.0
  0
LINE
  8
LC-004-005-----0
  6
CONTINUOUS
  5
2C1
 10
379.999949
 20
448.801032
 30
0.0
 11
380.100298
 21
448.901381
 31
0.0
  0
LINE
  8
LC-004-005-----0
  6
CONTINUOUS
  5
2C2
 10
388.000061
 20
456.801144
 30
0.0
 11
391.999949
 21
460.801032
 31
0.0
  0
LINE
  8
LC-004-005-----0
  6
CONTINUOUS
  5
2C3
 10
388.000061
 20
459.629572
 30
0.0
 11
389.271204
 21
460.900714
 31
0.0
  0
LINE
  8
LC-001-002-----0
  6
CONTINUOUS
  5
2C4
 10
386.956371
 20
278.524573
 30
0.0
 11
386.662525
 21
278.498865
 31
0.0
  0
LINE
  8
LC-001-002-----0
  6
CONTINUOUS
  5
2C5
 10
386.662525
 20
288.230028
 30
0.0
 11
386.706371
 21
288.233864
 31
0.0
  0
LINE
  8
LC-001-002-----0
  6
CONTINUOUS
  5
2C6
 10
268.749949
 20
287.735767
 30
0.0
 11
268.749949
 21
283.179105
 31
0.0
  0
LINE
  8
LC-001-002-----0
  6
CONTINUOUS
  5
2C7
 10
269.999949
 20
291.61123
 30
0.0
 11
270.077649
 21
291.56637
 31
0.0
  0
LINE
  8
LC-001-002-----0
  6
CONTINUOUS
  5
2C8
 10
275.999949
 20
278.415965
 30
0.0
 11
275.999949
 21
277.915965
 31
0.0
  0
LINE
  8
LC-001-002-----0
  6
CONTINUOUS
  5
2C9
 10
269.293527
 20
288.233864
 30
0.0
 11
269.337374
 21
288.230028
 31
0.0
  0
LINE
  8
LC-001-002-----0
  6
CONTINUOUS
  5
2CA
 10
386.499949
 20
297.4
 30
0.0
 11
388.499949
 21
299.4
 31
0.0
  0
LINE
  8
LC-001-002-----0
  6
CONTINUOUS
  5
2CB
 10
388.499949
 20
299.4
 30
0.0
 11
388.499949
 21
299.9
 31
0.0
  0
ARC
  8
LC-002-002-RND-0
  6
CONTINUOUS
  5
2CC
 10
270.499949
 20
292.477255
 30
0.0
 40
1.0
 50
180.0
 51
240.0
  0
ARC
  8
LC-002-002-RND-0
  6
CONTINUOUS
  5
2CD
 10
269.249949
 20
287.735767
 30
0.0
 40
0.5
 50
85.0
 51
180.0
  0
LINE
  8
LC-001-002-----0
  6
CONTINUOUS
  5
2CE
 10
387.249949
 20
287.735767
 30
0.0
 11
387.249949
 21
283.179105
 31
0.0
  0
LINE
  8
LC-001-002-----0
  6
CONTINUOUS
  5
2CF
 10
379.999949
 20
278.415965
 30
0.0
 11
379.999949
 21
277.915965
 31
0.0
  0
ARC
  8
LC-002-002-RND-0
  6
CONTINUOUS
  5
2D0
 10
386.749949
 20
287.735767
 30
0.0
 40
0.5
 50
0.0
 51
95.0
  0
ARC
  8
LC-002-002-RND-0
  6
CONTINUOUS
  5
2D1
 10
386.249949
 20
283.179105
 30
0.0
 40
1.0
 50
300.0
 51
0.0
  0
LINE
  8
LC-001-002-----0
  6
CONTINUOUS
  5
2D2
 10
379.999949
 20
288.147128
 30
0.0
 11
379.999949
 21
287.647128
 31
0.0
  0
ARC
  8
LC-002-002-RND-0
  6
CONTINUOUS
  5
2D3
 10
269.749949
 20
283.179105
 30
0.0
 40
1.0
 50
180.0
 51
240.0
  0
LINE
  8
LC-001-002-----0
  6
CONTINUOUS
  5
2D4
 10
263.999949
 20
249.580236
 30
0.0
 11
264.312127
 21
249.4
 31
0.0
  0
LINE
  8
LC-001-002-----0
  6
CONTINUOUS
  5
2D5
 10
275.999949
 20
288.147128
 30
0.0
 11
275.999949
 21
287.647128
 31
0.0
  0
LINE
  8
LC-001-002-----0
  6
CONTINUOUS
  5
2D6
 10
264.312127
 20
249.4
 30
0.0
 11
265.249949
 21
245.9
 31
0.0
  0
LINE
  8
LC-001-002-----0
  6
CONTINUOUS
  5
2D7
 10
391.687772
 20
249.4
 30
0.0
 11
390.749949
 21
245.9
 31
0.0
  0
LINE
  8
LC-001-002-----0
  6
CONTINUOUS
  5
2D8
 10
393.999949
 20
295.4
 30
0.0
 11
391.499949
 21
295.4
 31
0.0
  0
LINE
  8
LC-001-002-----0
  6
DASHDOT
 62
     2
  5
2D9
 10
258.211415
 20
243.4
 30
0.0
 11
258.211415
 21
240.9
 31
0.0
  0
LINE
  8
LC-001-002-----0
  6
CONTINUOUS
  5
2DA
 10
384.749949
 20
227.075251
 30
0.0
 11
384.749949
 21
221.949541
 31
0.0
  0
LINE
  8
LC-001-002-----0
  6
CONTINUOUS
  5
2DB
 10
387.249975
 20
221.949541
 30
0.0
 11
387.249975
 21
232.9
 31
0.0
  0
LINE
  8
LC-001-002-----0
  6
CONTINUOUS
  5
2DC
 10
327.999949
 20
245.9
 30
0.0
 11
275.999949
 21
245.9
 31
0.0
  0
LINE
  8
LC-001-002-----0
  6
CONTINUOUS
  5
2DD
 10
271.999778
 20
231.401311
 30
0.0
 11
272.999778
 21
230.4
 31
0.0
  0
LINE
  8
LC-001-002-----0
  6
CONTINUOUS
  5
2DE
 10
271.999778
 20
235.4
 30
0.0
 11
271.999778
 21
231.401311
 31
0.0
  0
LINE
  8
LC-001-002-----0
  6
CONTINUOUS
  5
2DF
 10
384.000119
 20
235.4
 30
0.0
 11
386.000119
 21
235.4
 31
0.0
  0
LINE
  8
LC-001-002-----0
  6
CONTINUOUS
  5
2E0
 10
272.999778
 20
230.4
 30
0.0
 11
272.999778
 21
225.9
 31
0.0
  0
LINE
  8
LC-001-002-----0
  6
CONTINUOUS
  5
2E1
 10
269.999778
 20
240.9
 30
0.0
 11
269.999778
 21
235.4
 31
0.0
  0
LINE
  8
LC-001-002-----0
  6
CONTINUOUS
  5
2E2
 10
386.000119
 20
243.4
 30
0.0
 11
386.000119
 21
235.4
 31
0.0
  0
LINE
  8
LC-001-002-----0
  6
CONTINUOUS
  5
2E3
 10
391.499949
 20
245.9
 30
0.0
 11
391.499949
 21
256.9
 31
0.0
  0
LINE
  8
LC-001-002-----0
  6
CONTINUOUS
  5
2E4
 10
264.499949
 20
245.9
 30
0.0
 11
264.499949
 21
256.9
 31
0.0
  0
LINE
  8
LC-001-002-----0
  6
CONTINUOUS
  5
2E5
 10
261.999949
 20
243.4
 30
0.0
 11
261.999949
 21
295.4
 31
0.0
  0
LINE
  8
LC-001-002-----0
  6
CONTINUOUS
  5
2E6
 10
393.999949
 20
243.4
 30
0.0
 11
393.999949
 21
295.4
 31
0.0
  0
LINE
  8
LC-001-002-----0
  6
CONTINUOUS
  5
2E7
 10
386.000119
 20
243.4
 30
0.0
 11
393.999949
 21
243.4
 31
0.0
  0
LINE
  8
LC-001-002-----0
  6
CONTINUOUS
  5
2E8
 10
261.999949
 20
243.4
 30
0.0
 11
250.499949
 21
243.4
 31
0.0
  0
LINE
  8
LC-001-002-----0
  6
CONTINUOUS
  5
2E9
 10
327.999949
 20
245.9
 30
0.0
 11
264.499949
 21
245.9
 31
0.0
  0
LINE
  8
LC-001-002-----0
  6
CONTINUOUS
  5
2EA
 10
271.999778
 20
235.4
 30
0.0
 11
250.499949
 21
235.4
 31
0.0
  0
LINE
  8
LC-001-002-----0
  6
CONTINUOUS
  5
2EB
 10
327.999949
 20
245.9
 30
0.0
 11
391.499949
 21
245.9
 31
0.0
  0
LINE
  8
LC-001-002-----0
  6
CONTINUOUS
  5
2EC
 10
381.500119
 20
234.4
 30
0.0
 11
381.500119
 21
222.4
 31
0.0
  0
LINE
  8
LC-001-002-----0
  6
CONTINUOUS
  5
2ED
 10
264.499949
 20
295.4
 30
0.0
 11
261.999949
 21
295.4
 31
0.0
  0
LINE
  8
LC-001-002-----0
  6
CONTINUOUS
  5
2EE
 10
383.300119
 20
245.9
 30
0.0
 11
383.300119
 21
239.4
 31
0.0
  0
LINE
  8
LC-001-002-----0
  6
CONTINUOUS
  5
2EF
 10
273.9376
 20
222.4
 30
0.0
 11
381.500119
 21
222.4
 31
0.0
  0
LINE
  8
LC-001-002-----0
  6
CONTINUOUS
  5
2F0
 10
384.000119
 20
233.9
 30
0.0
 11
386.000119
 21
233.9
 31
0.0
  0
LINE
  8
LC-001-002-----0
  6
CONTINUOUS
  5
2F1
 10
383.000119
 20
230.4
 30
0.0
 11
383.000119
 21
225.9
 31
0.0
  0
LINE
  8
LC-001-002-----0
  6
CONTINUOUS
  5
2F2
 10
272.999778
 20
225.9
 30
0.0
 11
273.9376
 21
222.4
 31
0.0
  0
LINE
  8
LC-001-002-----0
  6
CONTINUOUS
  5
2F3
 10
383.000119
 20
225.9
 30
0.0
 11
382.062297
 21
222.4
 31
0.0
  0
LINE
  8
LC-001-002-----0
  6
CONTINUOUS
  5
2F4
 10
386.000119
 20
233.403934
 30
0.0
 11
383.000119
 21
230.4
 31
0.0
  0
LINE
  8
LC-001-002-----0
  6
CONTINUOUS
  5
2F5
 10
272.699778
 20
245.9
 30
0.0
 11
272.699778
 21
239.4
 31
0.0
  0
LINE
  8
LC-001-002-----0
  6
CONTINUOUS
  5
2F6
 10
274.039524
 20
234.4
 30
0.0
 11
381.960374
 21
234.4
 31
0.0
  0
LINE
  8
LC-001-002-----0
  6
CONTINUOUS
  5
2F7
 10
382.062297
 20
222.4
 30
0.0
 11
381.500119
 21
222.4
 31
0.0
  0
LINE
  8
LC-001-002-----0
  6
CONTINUOUS
  5
2F8
 10
272.699778
 20
239.4
 30
0.0
 11
274.039524
 21
234.4
 31
0.0
  0
LINE
  8
LC-001-002-----0
  6
CONTINUOUS
  5
2F9
 10
381.660374
 20
234.4
 30
0.0
 11
381.500119
 21
234.4
 31
0.0
  0
LINE
  8
LC-001-002-----0
  6
CONTINUOUS
  5
2FA
 10
384.000119
 20
235.4
 30
0.0
 11
384.000119
 21
233.9
 31
0.0
  0
LINE
  8
LC-001-002-----0
  6
CONTINUOUS
  5
2FB
 10
274.499778
 20
222.4
 30
0.0
 11
274.499778
 21
234.4
 31
0.0
  0
LINE
  8
LC-001-002-----0
  6
CONTINUOUS
  5
2FC
 10
383.300119
 20
239.4
 30
0.0
 11
381.960374
 21
234.4
 31
0.0
  0
LINE
  8
LC-001-002-----0
  6
CONTINUOUS
  5
2FD
 10
272.699778
 20
239.4
 30
0.0
 11
383.300119
 21
239.4
 31
0.0
  0
LINE
  8
LC-008-006-MLN-0
  5
2FF
 10
327.999949
 20
221.949541
 30
0.0
 11
327.999949
 21
298.4
 31
0.0
  0
LINE
  8
LC-001-002-----0
  6
CONTINUOUS
  5
300
 10
386.000119
 20
233.9
 30
0.0
 11
386.000119
 21
233.4
 31
0.0
  0
LINE
  8
LC-001-002-----0
  6
CONTINUOUS
  5
301
 10
391.499949
 20
285.4
 30
0.0
 11
391.499949
 21
295.4
 31
0.0
  0
LINE
  8
LC-001-002-----0
  6
CONTINUOUS
  5
302
 10
391.499949
 20
271.4
 30
0.0
 11
391.499949
 21
284.9
 31
0.0
  0
ARC
  8
LC-001-002-----0
  6
CONTINUOUS
  5
303
 10
264.499949
 20
285.15
 30
0.0
 40
0.25
 50
270.0
 51
90.0
  0
ARC
  8
LC-001-002-----0
  6
CONTINUOUS
  5
304
 10
264.499949
 20
271.15
 30
0.0
 40
0.25
 50
270.0
 51
90.0
  0
ARC
  8
LC-001-002-----0
  6
CONTINUOUS
  5
305
 10
264.499949
 20
257.15
 30
0.0
 40
0.25
 50
270.0
 51
90.0
  0
ARC
  8
LC-001-002-----0
  6
CONTINUOUS
  5
306
 10
391.499949
 20
271.15
 30
0.0
 40
0.25
 50
90.0
 51
270.0
  0
ARC
  8
LC-001-002-----0
  6
CONTINUOUS
  5
307
 10
391.499949
 20
257.15
 30
0.0
 40
0.25
 50
90.0
 51
270.0
  0
ARC
  8
LC-001-002-----0
  6
CONTINUOUS
  5
308
 10
391.499949
 20
285.15
 30
0.0
 40
0.25
 50
90.0
 51
270.0
  0
LINE
  8
LC-001-002-----0
  6
CONTINUOUS
  5
309
 10
391.499949
 20
257.4
 30
0.0
 11
391.499949
 21
270.9
 31
0.0
  0
LINE
  8
LC-001-002-----0
  6
CONTINUOUS
  5
30A
 10
264.499949
 20
257.4
 30
0.0
 11
264.499949
 21
270.9
 31
0.0
  0
LINE
  8
LC-001-002-----0
  6
CONTINUOUS
  5
30B
 10
264.499949
 20
271.4
 30
0.0
 11
264.499949
 21
284.9
 31
0.0
  0
LINE
  8
LC-001-002-----0
  6
CONTINUOUS
  5
30C
 10
264.499949
 20
285.4
 30
0.0
 11
264.499949
 21
295.4
 31
0.0
  0
LINE
  8
LC-001-002-----0
  6
CONTINUOUS
  5
30D
 10
250.499949
 20
243.4
 30
0.0
 11
250.499949
 21
235.4
 31
0.0
  0
LINE
  8
LC-001-002-----0
  6
CONTINUOUS
  5
30E
 10
269.999778
 20
240.9
 30
0.0
 11
252.499949
 21
240.9
 31
0.0
  0
LINE
  8
LC-001-002-----0
  6
CONTINUOUS
  5
30F
 10
254.999949
 20
243.4
 30
0.0
 11
254.999949
 21
240.9
 31
0.0
  0
LINE
  8
LC-001-002-----0
  6
CONTINUOUS
  5
310
 10
260.999949
 20
243.4
 30
0.0
 11
260.999949
 21
240.9
 31
0.0
  0
LINE
  8
LC-001-002-----0
  6
CONTINUOUS
  5
311
 10
252.499949
 20
240.9
 30
0.0
 11
252.499949
 21
235.4
 31
0.0
  0
LINE
  8
LC-001-002-----0
  6
CONTINUOUS
  5
312
 10
275.999949
 20
245.9
 30
0.0
 11
274.205721
 21
245.9
 31
0.0
  0
LINE
  8
LC-001-002-----0
  6
CONTINUOUS
  5
313
 10
379.999949
 20
245.9
 30
0.0
 11
381.794178
 21
245.9
 31
0.0
  0
LINE
  8
LC-001-002-----0
  6
CONTINUOUS
  5
314
 10
382.399975
 20
227.478932
 30
0.0
 11
382.399975
 21
225.449541
 31
0.0
  0
LINE
  8
LC-001-002-----0
  6
CONTINUOUS
  5
315
 10
387.249975
 20
221.949541
 30
0.0
 11
384.749949
 21
221.949541
 31
0.0
  0
LINE
  8
LC-001-002-----0
  6
CONTINUOUS
  5
316
 10
271.249949
 20
227.075251
 30
0.0
 11
271.249949
 21
221.949541
 31
0.0
  0
ARC
  8
LC-002-002-RND-0
  6
CONTINUOUS
  5
317
 10
268.599923
 20
227.478932
 30
0.0
 40
5.0
 50
0.0
 51
45.0
  0
LINE
  8
LC-001-002-----0
  6
CONTINUOUS
  5
318
 10
268.749923
 20
221.949541
 30
0.0
 11
268.749923
 21
232.9
 31
0.0
  0
LINE
  8
LC-001-002-----0
  6
CONTINUOUS
  5
319
 10
268.749923
 20
221.949541
 30
0.0
 11
384.749949
 21
221.949541
 31
0.0
  0
LINE
  8
LC-001-002-----0
  6
CONTINUOUS
  5
31A
 10
268.749923
 20
232.9
 30
0.0
 11
271.999779
 21
232.9
 31
0.0
  0
LINE
  8
LC-001-002-----0
  6
CONTINUOUS
  5
31B
 10
387.249975
 20
232.9
 30
0.0
 11
385.749975
 21
232.9
 31
0.0
  0
ARC
  8
LC-002-002-RND-0
  6
CONTINUOUS
  5
31C
 10
387.399975
 20
227.478932
 30
0.0
 40
5.0
 50
135.0
 51
180.0
  0
ARC
  8
LC-002-002-RND-0
  6
CONTINUOUS
  5
31D
 10
384.449949
 20
227.075251
 30
0.0
 40
0.3
 50
0.0
 51
135.0
  0
LINE
  8
LC-001-002-----0
  6
CONTINUOUS
  5
31E
 10
270.249923
 20
232.9
 30
0.0
 11
272.135457
 21
231.014466
 31
0.0
  0
LINE
  8
LC-001-002-----0
  6
CONTINUOUS
  5
31F
 10
384.237817
 20
227.287383
 30
0.0
 11
382.399975
 21
225.449541
 31
0.0
  0
LINE
  8
LC-001-002-----0
  6
CONTINUOUS
  5
320
 10
271.762081
 20
227.287383
 30
0.0
 11
273.599923
 21
225.449541
 31
0.0
  0
ARC
  8
LC-002-002-RND-0
  6
CONTINUOUS
  5
321
 10
271.549949
 20
227.075251
 30
0.0
 40
0.3
 50
45.0
 51
180.0
  0
LINE
  8
LC-001-002-----0
  6
CONTINUOUS
  5
322
 10
273.599923
 20
227.478932
 30
0.0
 11
273.599923
 21
225.449541
 31
0.0
  0
LINE
  8
LC-001-002-----0
  6
CONTINUOUS
  5
323
 10
385.749975
 20
232.9
 30
0.0
 11
383.864442
 21
231.014466
 31
0.0
  0
LINE
  8
LC-001-002-----0
  6
CONTINUOUS
  5
324
 10
390.749949
 20
245.9
 30
0.0
 11
327.999949
 21
245.9
 31
0.0
  0
LINE
  8
LC-001-002-----0
  6
DASHDOT
 62
     2
  5
325
 10
327.999949
 20
365.904
 30
0.0
 11
327.999949
 21
465.85882
 31
0.0
  0
ENDSEC
  0
EOF
