  0
SECTION
  2
HEADER
  9
$ACADVER
  1
AC1009
  9
$INSBASE
 10
126.043785
 20
338.233
 30
0.0
  9
$EXTMIN
 10
126.043785
 20
338.233
 30
0.0
  9
$EXTMAX
 10
966.043785
 20
932.233
 30
0.0
  9
$LIMMIN
 10
126.043785
 20
338.233
  9
$LIMMAX
 10
966.043785
 20
932.233
  9
$ORTHOMODE
 70
     0
  9
$REGENMODE
 70
     1
  9
$FILLMODE
 70
     1
  9
$QTEXTMODE
 70
     0
  9
$MIRRTEXT
 70
     1
  9
$DRAGMODE
 70
     2
  9
$LTSCALE
 40
2.0
  9
$OSMODE
 70
     0
  9
$ATTMODE
 70
     1
  9
$TEXTSIZE
 40
0.2
  9
$TRACEWID
 40
0.05
  9
$TEXTSTYLE
  7
STANDARD
  9
$CLAYER
  8
0
  9
$CELTYPE
  6
BYLAYER
  9
$CECOLOR
 62
     7
  9
$DIMSCALE
 40
2.0
  9
$DIMASZ
 40
3.5
  9
$DIMEXO
 40
0.0625
  9
$DIMDLI
 40
0.38
  9
$DIMRND
 40
0.0
  9
$DIMDLE
 40
0.0
  9
$DIMEXE
 40
0.18
  9
$DIMTP
 40
0.0
  9
$DIMTM
 40
0.0
  9
$DIMTXT
 40
3.5
  9
$DIMCEN
 40
0.09
  9
$DIMTSZ
 40
0.0
  9
$DIMTOL
 70
     0
  9
$DIMLIM
 70
     0
  9
$DIMTIH
 70
     1
  9
$DIMTOH
 70
     1
  9
$DIMSE1
 70
     0
  9
$DIMSE2
 70
     0
  9
$DIMTAD
 70
     1
  9
$DIMZIN
 70
     0
  9
$DIMBLK
  1

  9
$DIMASO
 70
     1
  9
$DIMSHO
 70
     1
  9
$DIMPOST
  1

  9
$DIMAPOST
  1

  9
$DIMALT
 70
     0
  9
$DIMALTD
 70
     2
  9
$DIMALTF
 40
25.4
  9
$DIMLFAC
 40
1.0
  9
$DIMTOFL
 70
     0
  9
$DIMTVP
 40
0.0
  9
$DIMTIX
 70
     0
  9
$DIMSOXD
 70
     0
  9
$DIMSAH
 70
     0
  9
$DIMBLK1
  1

  9
$DIMBLK2
  1

  9
$DIMSTYLE
  2
STANDARD
  9
$DIMCLRD
 70
     0
  9
$DIMCLRE
 70
     0
  9
$DIMCLRT
 70
     0
  9
$DIMTFAC
 40
1.0
  9
$DIMGAP
 40
0.09
  9
$LUNITS
 70
     2
  9
$LUPREC
 70
     2
  9
$AXISMODE
 70
     0
  9
$AXISUNIT
 10
0.0
 20
0.0
  9
$SKETCHINC
 40
0.1
  9
$FILLETRAD
 40
0.0
  9
$AUNITS
 70
     0
  9
$AUPREC
 70
     0
  9
$MENU
  1
acad
  9
$ELEVATION
 40
0.0
  9
$PELEVATION
 40
0.0
  9
$THICKNESS
 40
0.0
  9
$LIMCHECK
 70
     0
  9
$BLIPMODE
 70
     1
  9
$CHAMFERA
 40
0.0
  9
$CHAMFERB
 40
0.0
  9
$SKPOLY
 70
     0
  9
$TDCREATE
 40
0.000000000
  9
$TDUPDATE
 40
0.000000000
  9
$TDINDWG
 40
0.0000000000
  9
$TDUSRTIMER
 40
0.0000000000
  9
$USRTIMER
 70
     1
  9
$ANGBASE
 50
0.0
  9
$ANGDIR
 70
     0
  9
$PDMODE
 70
     0
  9
$PDSIZE
 40
0.0
  9
$PLINEWID
 40
0.0
  9
$COORDS
 70
     0
  9
$SPLFRAME
 70
     0
  9
$SPLINETYPE
 70
     6
  9
$SPLINESEGS
 70
     8
  9
$ATTDIA
 70
     0
  9
$ATTREQ
 70
     1
  9
$HANDLING
 70
     1
  9
$HANDSEED
  5
2CC
  9
$SURFTAB1
 70
     6
  9
$SURFTAB2
 70
     6
  9
$SURFTYPE
 70
     6
  9
$SURFU
 70
     6
  9
$SURFV
 70
     6
  9
$UCSNAME
  2

  9
$UCSORG
 10
0.0
 20
0.0
 30
0.0
  9
$UCSXDIR
 10
1.0
 20
0.0
 30
0.0
  9
$UCSYDIR
 10
0.0
 20
1.0
 30
0.0
  9
$PUCSNAME
  2

  9
$PUCSORG
 10
0.0
 20
0.0
 30
0.0
  9
$PUCSXDIR
 10
1.0
 20
0.0
 30
0.0
  9
$PUCSYDIR
 10
0.0
 20
1.0
 30
0.0
  9
$USERI1
 70
     0
  9
$USERI2
 70
     0
  9
$USERI3
 70
     0
  9
$USERI4
 70
     0
  9
$USERI5
 70
     0
  9
$USERR1
 40
0.0
  9
$USERR2
 40
0.0
  9
$USERR3
 40
0.0
  9
$USERR4
 40
0.0
  9
$USERR5
 40
0.0
  9
$WORLDVIEW
 70
     1
  9
$SHADEDGE
 70
     3
  9
$SHADEDIF
 70
    70
  9
$TILEMODE
 70
     1
  9
$MAXACTVP
 70
    16
  9
$PINSBASE
 10
0.0
 20
0.0
 30
0.0
  9
$PLIMCHECK
 70
     0
  9
$PEXTMIN
 10
1.000000E+20
 20
1.000000E+20
 30
1.000000E+20
  9
$PEXTMAX
 10
-1.000000E+20
 20
-1.000000E+20
 30
-1.000000E+20
  9
$PLIMMIN
 10
126.043785
 20
338.233
  9
$PLIMMAX
 10
966.043785
 20
932.233
  9
$UNITMODE
 70
     0
  9
$VISRETAIN
 70
     0
  9
$PLINEGEN
 70
     1
  9
$PSLTSCALE
 70
     0
  9
$TREEDEPTH
 70
  3020
  9
$DWGCODEPAGE
  3
dos850
  0
ENDSEC
  0
SECTION
  2
TABLES
  0
TABLE
  2
VPORT
 70
     1
  0
VPORT
  2
*ACTIVE
 70
     0
 10
0.0
 20
0.0
 11
1.0
 21
1.0
 12
420.0
 22
297.0
 13
0.0
 23
0.0
 14
1.0
 24
1.0
 15
0.0
 25
0.0
 16
0.0
 26
0.0
 36
1.0
 17
126.043785
 27
338.233
 37
0.0
 40
594.0
 41
1.604229
 42
50.0
 43
0.0
 44
0.0
 50
0.0
 51
0.0
 71
     0
 72
   100
 73
     1
 74
     1
 75
     0
 76
     0
 77
     0
 78
     0
  0
ENDTAB
  0
TABLE
  2
LTYPE
 70
     2
  0
LTYPE
  2
CONTINUOUS
 70
    64
  3
Solid line
 72
    65
 73
     0
 40
0.0
  0
LTYPE
  2
DASHDOT
 70
    64
  3
__ . __ . __ . __ . __
 72
    65
 73
     4
 40
7.5
 49
5.0
 49
-1.25
 49
0.0
 49
-1.25
  0
ENDTAB
  0
TABLE
  2
LAYER
 70
    11
  0
LAYER
  2
0
 70
     0
 62
     7
  6
CONTINUOUS
  0
LAYER
  2
LC-INFO-1-2-MM-A3-0
 70
     1
 62
    -1
  6
CONTINUOUS
  0
LAYER
  2
LC-004-005-----0
 70
     0
 62
     2
  6
CONTINUOUS
  0
LAYER
  2
LC-006-003-MTH-0
 70
     0
 62
     2
  6
CONTINUOUS
  0
LAYER
  2
LC-007-003-MTG-0
 70
     0
 62
     2
  6
CONTINUOUS
  0
LAYER
  2
LC-005-003-----0
 70
     0
 62
     2
  6
CONTINUOUS
  0
LAYER
  2
LC-002-000-----0
 70
     0
 62
     7
  6
CONTINUOUS
  0
LAYER
  2
LC-001-002-----0
 70
     0
 62
     1
  6
CONTINUOUS
  0
LAYER
  2
LC-003-002-RND-0
 70
     0
 62
     2
  6
DASHDOT
  0
LAYER
  2
LC-008-007-KH--0
 70
     0
 62
     7
  6
DASHDOT
  0
LAYER
  2
LC-000
 70
     0
 62
     7
  6
CONTINUOUS
  0
ENDTAB
  0
TABLE
  2
STYLE
 70
     3
  0
STYLE
  2
STANDARD
 70
     0
 40
0.0
 41
1.0
 50
0.0
 71
     0
 42
0.0
  3
txt
  4

  0
STYLE
  2
LC-TXTSTYLE-150-400-0-0-A1
 70
    64
 40
0.0
 41
1.0
 50
15.0
 71
     0
 42
3.5
  3
Arial
  4

  0
STYLE
  2
LC-STANDARD
 70
    64
 40
0.0
 41
1.0
 50
0.0
 71
     0
 42
3.5
  3
MONOTXT
  4

  0
ENDTAB
  0
TABLE
  2
VIEW
 70
     0
  0
ENDTAB
  0
TABLE
  2
UCS
 70
     0
  0
ENDTAB
  0
TABLE
  2
APPID
 70
     1
  0
APPID
  2
ACAD
 70
     0
  0
ENDTAB
  0
TABLE
  2
DIMSTYLE
 70
     3
  0
DIMSTYLE
  2
STANDARD
 70
     0
  3

  4

  5

  6

  7

 40
1.0
 41
0.18
 42
0.0625
 43
0.38
 44
0.18
 45
0.0
 46
0.0
 47
0.0
 48
0.0
 71
     0
 72
     0
 73
     1
 74
     1
 75
     0
 76
     0
 77
     0
 78
     0
140
0.18
141
0.09
142
0.0
143
25.4
144
1.0
145
0.0
146
1.0
147
0.09
170
     0
171
     2
172
     0
173
     0
174
     0
175
     0
176
     0
177
     0
178
     0
  0
DIMSTYLE
  2
LC-STANDARD
 70
     0
  3

  4

  5

  6

  7

 40
1.0
 41
3.5
 42
0.0
 43
7.5
 44
1.8
 45
0.0
 46
0.0
 47
0.0
 48
0.0
 71
     0
 72
     0
 73
     0
 74
     0
 75
     0
 76
     0
 77
     1
 78
     8
140
3.5
141
0.0
142
0.0
143
25.4
144
1.0
145
0.0
146
0.71
147
1.5
170
     0
171
     2
172
     1
173
     0
174
     0
175
     0
176
     0
177
     0
178
     3
  0
DIMSTYLE
  2
LC-DIM-L-0140-02-02
 70
     0
  3

  4

  5

  6

  7

 40
2.0
 41
3.5
 42
0.0
 43
7.5
 44
1.8
 45
0.0
 46
0.0
 47
0.0
 48
0.0
 71
     0
 72
     0
 73
     0
 74
     0
 75
     0
 76
     0
 77
     1
 78
     8
140
14.0
141
0.0
142
0.0
143
25.4
144
1.0
145
0.0
146
0.71
147
1.5
170
     0
171
     2
172
     0
173
     0
174
     0
175
     0
176
     2
177
     2
178
     8
  0
ENDTAB
  0
ENDSEC
  0
SECTION
  2
BLOCKS
  0
BLOCK
  8
0
  5
23
  2
BLK1
 70
    64
 10
0.0
 20
0.0
 30
0.0
  3
BLK1
  0
ENDBLK
  8
0
  5
24
  0
BLOCK
  8
0
  5
26
  2
*X1
 70
    65
 10
443.489009
 20
517.924929
 30
0.0
  3
*X1
  0
LINE
  8
LC-004-005-----0
  6
CONTINUOUS
  5
28
 10
494.282449
 20
519.738293
 30
0.0
 11
496.450037
 21
521.905881
 31
0.0
  0
LINE
  8
LC-004-005-----0
  6
CONTINUOUS
  5
29
 10
484.073108
 20
518.014233
 30
0.0
 11
489.214525
 21
523.155651
 31
0.0
  0
LINE
  8
LC-004-005-----0
  6
CONTINUOUS
  5
2A
 10
476.786975
 20
519.213382
 30
0.0
 11
481.979014
 21
524.405421
 31
0.0
  0
LINE
  8
LC-004-005-----0
  6
CONTINUOUS
  5
2B
 10
469.551463
 20
520.463152
 30
0.0
 11
474.743503
 21
525.655191
 31
0.0
  0
LINE
  8
LC-004-005-----0
  6
CONTINUOUS
  5
2C
 10
462.315952
 20
521.712922
 30
0.0
 11
467.507992
 21
526.904961
 31
0.0
  0
LINE
  8
LC-004-005-----0
  6
CONTINUOUS
  5
2D
 10
455.080441
 20
522.962692
 30
0.0
 11
460.27248
 21
528.154731
 31
0.0
  0
LINE
  8
LC-004-005-----0
  6
CONTINUOUS
  5
2E
 10
464.373506
 20
532.255757
 30
0.0
 11
465.989009
 21
533.87126
 31
0.0
  0
LINE
  8
LC-004-005-----0
  6
CONTINUOUS
  5
2F
 10
469.873506
 20
537.755757
 30
0.0
 11
471.883891
 21
539.766142
 31
0.0
  0
LINE
  8
LC-004-005-----0
  6
CONTINUOUS
  5
30
 10
450.388225
 20
526.755757
 30
0.0
 11
464.388225
 21
540.755757
 31
0.0
  0
LINE
  8
LC-004-005-----0
  6
CONTINUOUS
  5
31
 10
443.489009
 20
528.341823
 30
0.0
 11
445.902944
 21
530.755757
 31
0.0
  0
LINE
  8
LC-004-005-----0
  6
CONTINUOUS
  5
32
 10
451.489009
 20
536.341823
 30
0.0
 11
455.902944
 21
540.755757
 31
0.0
  0
ENDBLK
  8
0
  5
33
  0
BLOCK
  8
0
  5
35
  2
*X2
 70
    65
 10
329.50317
 20
699.255757
 30
0.0
  3
*X2
  0
LINE
  8
LC-004-005-----0
  6
CONTINUOUS
  5
36
 10
440.454676
 20
699.255757
 30
0.0
 11
441.539009
 21
700.340091
 31
0.0
  0
LINE
  8
LC-004-005-----0
  6
CONTINUOUS
  5
37
 10
443.954676
 20
702.755757
 30
0.0
 11
447.489009
 21
706.290091
 31
0.0
  0
LINE
  8
LC-004-005-----0
  6
CONTINUOUS
  5
38
 10
436.212035
 20
699.255757
 30
0.0
 11
444.162035
 21
707.205757
 31
0.0
  0
LINE
  8
LC-004-005-----0
  6
CONTINUOUS
  5
39
 10
431.969394
 20
699.255757
 30
0.0
 11
440.789009
 21
708.075373
 31
0.0
  0
LINE
  8
LC-004-005-----0
  6
CONTINUOUS
  5
3A
 10
427.726753
 20
699.255757
 30
0.0
 11
432.176753
 21
703.705757
 31
0.0
  0
LINE
  8
LC-004-005-----0
  6
CONTINUOUS
  5
3B
 10
434.489009
 20
706.018013
 30
0.0
 11
440.789009
 21
712.318013
 31
0.0
  0
LINE
  8
LC-004-005-----0
  6
CONTINUOUS
  5
3C
 10
444.050204
 20
715.579208
 30
0.0
 11
444.789009
 21
716.318013
 31
0.0
  0
LINE
  8
LC-004-005-----0
  6
CONTINUOUS
  5
3D
 10
423.484113
 20
699.255757
 30
0.0
 11
427.934113
 21
703.705757
 31
0.0
  0
LINE
  8
LC-004-005-----0
  6
CONTINUOUS
  5
3E
 10
434.489009
 20
710.260654
 30
0.0
 11
442.234113
 21
718.005757
 31
0.0
  0
LINE
  8
LC-004-005-----0
  6
CONTINUOUS
  5
3F
 10
420.899547
 20
700.913832
 30
0.0
 11
424.32758
 21
704.341865
 31
0.0
  0
LINE
  8
LC-004-005-----0
  6
CONTINUOUS
  5
40
 10
434.489009
 20
714.503295
 30
0.0
 11
437.991472
 21
718.005757
 31
0.0
  0
LINE
  8
LC-004-005-----0
  6
CONTINUOUS
  5
41
 10
419.590346
 20
703.847272
 30
0.0
 11
422.990798
 21
707.247724
 31
0.0
  0
LINE
  8
LC-004-005-----0
  6
CONTINUOUS
  5
42
 10
418.281145
 20
706.780712
 30
0.0
 11
421.654017
 21
710.153584
 31
0.0
  0
LINE
  8
LC-004-005-----0
  6
CONTINUOUS
  5
43
 10
416.971945
 20
709.714152
 30
0.0
 11
420.317236
 21
713.059443
 31
0.0
  0
LINE
  8
LC-004-005-----0
  6
CONTINUOUS
  5
44
 10
415.662744
 20
712.647592
 30
0.0
 11
418.980454
 21
715.965303
 31
0.0
  0
LINE
  8
LC-004-005-----0
  6
CONTINUOUS
  5
45
 10
414.353543
 20
715.581032
 30
0.0
 11
417.643673
 21
718.871162
 31
0.0
  0
LINE
  8
LC-004-005-----0
  6
CONTINUOUS
  5
46
 10
413.044342
 20
718.514472
 30
0.0
 11
416.306892
 21
721.777021
 31
0.0
  0
LINE
  8
LC-004-005-----0
  6
CONTINUOUS
  5
47
 10
411.735142
 20
721.447912
 30
0.0
 11
414.97011
 21
724.682881
 31
0.0
  0
LINE
  8
LC-004-005-----0
  6
CONTINUOUS
  5
48
 10
410.425941
 20
724.381352
 30
0.0
 11
413.633329
 21
727.58874
 31
0.0
  0
LINE
  8
LC-004-005-----0
  6
CONTINUOUS
  5
49
 10
409.11674
 20
727.314792
 30
0.0
 11
412.296548
 21
730.494599
 31
0.0
  0
LINE
  8
LC-004-005-----0
  6
CONTINUOUS
  5
4A
 10
407.807539
 20
730.248232
 30
0.0
 11
410.959767
 21
733.400459
 31
0.0
  0
LINE
  8
LC-004-005-----0
  6
CONTINUOUS
  5
4B
 10
406.498339
 20
733.181672
 30
0.0
 11
409.622985
 21
736.306318
 31
0.0
  0
LINE
  8
LC-004-005-----0
  6
CONTINUOUS
  5
4C
 10
405.189138
 20
736.115112
 30
0.0
 11
408.286204
 21
739.212177
 31
0.0
  0
LINE
  8
LC-004-005-----0
  6
CONTINUOUS
  5
4D
 10
403.879937
 20
739.048551
 30
0.0
 11
406.949423
 21
742.118037
 31
0.0
  0
LINE
  8
LC-004-005-----0
  6
CONTINUOUS
  5
4E
 10
400.794502
 20
740.205757
 30
0.0
 11
404.794502
 21
744.205757
 31
0.0
  0
LINE
  8
LC-004-005-----0
  6
CONTINUOUS
  5
4F
 10
396.551862
 20
740.205757
 30
0.0
 11
400.551862
 21
744.205757
 31
0.0
  0
LINE
  8
LC-004-005-----0
  6
CONTINUOUS
  5
50
 10
392.309221
 20
740.205757
 30
0.0
 11
396.309221
 21
744.205757
 31
0.0
  0
LINE
  8
LC-004-005-----0
  6
CONTINUOUS
  5
51
 10
388.06658
 20
740.205757
 30
0.0
 11
392.06658
 21
744.205757
 31
0.0
  0
LINE
  8
LC-004-005-----0
  6
CONTINUOUS
  5
52
 10
383.82394
 20
740.205757
 30
0.0
 11
387.82394
 21
744.205757
 31
0.0
  0
LINE
  8
LC-004-005-----0
  6
CONTINUOUS
  5
53
 10
379.581299
 20
740.205757
 30
0.0
 11
383.581299
 21
744.205757
 31
0.0
  0
LINE
  8
LC-004-005-----0
  6
CONTINUOUS
  5
54
 10
375.338658
 20
740.205757
 30
0.0
 11
379.338658
 21
744.205757
 31
0.0
  0
LINE
  8
LC-004-005-----0
  6
CONTINUOUS
  5
55
 10
371.096018
 20
740.205757
 30
0.0
 11
375.096018
 21
744.205757
 31
0.0
  0
LINE
  8
LC-004-005-----0
  6
CONTINUOUS
  5
56
 10
366.853377
 20
740.205757
 30
0.0
 11
370.853377
 21
744.205757
 31
0.0
  0
LINE
  8
LC-004-005-----0
  6
CONTINUOUS
  5
57
 10
362.610736
 20
740.205757
 30
0.0
 11
366.610736
 21
744.205757
 31
0.0
  0
LINE
  8
LC-004-005-----0
  6
CONTINUOUS
  5
58
 10
358.368096
 20
740.205757
 30
0.0
 11
362.368096
 21
744.205757
 31
0.0
  0
LINE
  8
LC-004-005-----0
  6
CONTINUOUS
  5
59
 10
354.125455
 20
740.205757
 30
0.0
 11
358.485095
 21
744.565397
 31
0.0
  0
LINE
  8
LC-004-005-----0
  6
CONTINUOUS
  5
5A
 10
352.861964
 20
747.427548
 30
0.0
 11
356.154163
 21
750.719747
 31
0.0
  0
LINE
  8
LC-004-005-----0
  6
CONTINUOUS
  5
5B
 10
337.154892
 20
740.205757
 30
0.0
 11
340.50317
 21
743.554035
 31
0.0
  0
LINE
  8
LC-004-005-----0
  6
CONTINUOUS
  5
5C
 10
345.204892
 20
748.255757
 30
0.0
 11
349.204892
 21
752.255757
 31
0.0
  0
LINE
  8
LC-004-005-----0
  6
CONTINUOUS
  5
5D
 10
332.912251
 20
740.205757
 30
0.0
 11
344.962251
 21
752.255757
 31
0.0
  0
LINE
  8
LC-004-005-----0
  6
CONTINUOUS
  5
5E
 10
329.50317
 20
741.039316
 30
0.0
 11
332.669611
 21
744.205757
 31
0.0
  0
LINE
  8
LC-004-005-----0
  6
CONTINUOUS
  5
5F
 10
335.25317
 20
746.789316
 30
0.0
 11
340.719611
 21
752.255757
 31
0.0
  0
ENDBLK
  8
0
  5
60
  0
BLOCK
  8
0
  5
62
  2
*X3
 70
    65
 10
329.50317
 20
524.205757
 30
0.0
  3
*X3
  0
LINE
  8
LC-004-005-----0
  6
CONTINUOUS
  5
63
 10
443.595584
 20
524.205757
 30
0.0
 11
444.789009
 21
525.399182
 31
0.0
  0
LINE
  8
LC-004-005-----0
  6
CONTINUOUS
  5
64
 10
439.352944
 20
524.205757
 30
0.0
 11
442.390898
 21
527.243711
 31
0.0
  0
LINE
  8
LC-004-005-----0
  6
CONTINUOUS
  5
65
 10
435.110303
 20
524.205757
 30
0.0
 11
440.489009
 21
529.584464
 31
0.0
  0
LINE
  8
LC-004-005-----0
  6
CONTINUOUS
  5
66
 10
445.660303
 20
534.755757
 30
0.0
 11
447.489009
 21
536.584464
 31
0.0
  0
LINE
  8
LC-004-005-----0
  6
CONTINUOUS
  5
67
 10
434.489009
 20
527.827104
 30
0.0
 11
440.489009
 21
533.827104
 31
0.0
  0
LINE
  8
LC-004-005-----0
  6
CONTINUOUS
  5
68
 10
441.417662
 20
534.755757
 30
0.0
 11
445.867662
 21
539.205757
 31
0.0
  0
LINE
  8
LC-004-005-----0
  6
CONTINUOUS
  5
69
 10
434.489009
 20
532.069745
 30
0.0
 11
441.625022
 21
539.205757
 31
0.0
  0
LINE
  8
LC-004-005-----0
  6
CONTINUOUS
  5
6A
 10
434.489009
 20
536.312386
 30
0.0
 11
440.836962
 21
542.660338
 31
0.0
  0
LINE
  8
LC-004-005-----0
  6
CONTINUOUS
  5
6B
 10
432.18974
 20
538.255757
 30
0.0
 11
436.63974
 21
542.705757
 31
0.0
  0
LINE
  8
LC-004-005-----0
  6
CONTINUOUS
  5
6C
 10
427.9471
 20
538.255757
 30
0.0
 11
432.3971
 21
542.705757
 31
0.0
  0
LINE
  8
LC-004-005-----0
  6
CONTINUOUS
  5
6D
 10
423.704459
 20
538.255757
 30
0.0
 11
428.154459
 21
542.705757
 31
0.0
  0
LINE
  8
LC-004-005-----0
  6
CONTINUOUS
  5
6E
 10
419.461818
 20
538.255757
 30
0.0
 11
423.911818
 21
542.705757
 31
0.0
  0
LINE
  8
LC-004-005-----0
  6
CONTINUOUS
  5
6F
 10
415.219178
 20
538.255757
 30
0.0
 11
419.669178
 21
542.705757
 31
0.0
  0
LINE
  8
LC-004-005-----0
  6
CONTINUOUS
  5
70
 10
410.976537
 20
538.255757
 30
0.0
 11
415.426537
 21
542.705757
 31
0.0
  0
LINE
  8
LC-004-005-----0
  6
CONTINUOUS
  5
71
 10
402.133896
 20
533.655757
 30
0.0
 11
411.183896
 21
542.705757
 31
0.0
  0
LINE
  8
LC-004-005-----0
  6
CONTINUOUS
  5
72
 10
397.891255
 20
533.655757
 30
0.0
 11
401.891255
 21
537.655757
 31
0.0
  0
LINE
  8
LC-004-005-----0
  6
CONTINUOUS
  5
73
 10
403.7236
 20
539.488102
 30
0.0
 11
406.941255
 21
542.705757
 31
0.0
  0
LINE
  8
LC-004-005-----0
  6
CONTINUOUS
  5
74
 10
393.648615
 20
533.655757
 30
0.0
 11
397.648615
 21
537.655757
 31
0.0
  0
LINE
  8
LC-004-005-----0
  6
CONTINUOUS
  5
75
 10
389.405974
 20
533.655757
 30
0.0
 11
393.405974
 21
537.655757
 31
0.0
  0
LINE
  8
LC-004-005-----0
  6
CONTINUOUS
  5
76
 10
385.163333
 20
533.655757
 30
0.0
 11
389.163333
 21
537.655757
 31
0.0
  0
LINE
  8
LC-004-005-----0
  6
CONTINUOUS
  5
77
 10
380.920693
 20
533.655757
 30
0.0
 11
384.920693
 21
537.655757
 31
0.0
  0
LINE
  8
LC-004-005-----0
  6
CONTINUOUS
  5
78
 10
376.678052
 20
533.655757
 30
0.0
 11
380.678052
 21
537.655757
 31
0.0
  0
LINE
  8
LC-004-005-----0
  6
CONTINUOUS
  5
79
 10
372.435411
 20
533.655757
 30
0.0
 11
376.435411
 21
537.655757
 31
0.0
  0
LINE
  8
LC-004-005-----0
  6
CONTINUOUS
  5
7A
 10
368.192771
 20
533.655757
 30
0.0
 11
372.192771
 21
537.655757
 31
0.0
  0
LINE
  8
LC-004-005-----0
  6
CONTINUOUS
  5
7B
 10
363.95013
 20
533.655757
 30
0.0
 11
367.95013
 21
537.655757
 31
0.0
  0
LINE
  8
LC-004-005-----0
  6
CONTINUOUS
  5
7C
 10
351.657489
 20
525.605757
 30
0.0
 11
358.25317
 21
532.201438
 31
0.0
  0
LINE
  8
LC-004-005-----0
  6
CONTINUOUS
  5
7D
 10
359.707489
 20
533.655757
 30
0.0
 11
363.707489
 21
537.655757
 31
0.0
  0
LINE
  8
LC-004-005-----0
  6
CONTINUOUS
  5
7E
 10
347.414849
 20
525.605757
 30
0.0
 11
352.136489
 21
530.327397
 31
0.0
  0
LINE
  8
LC-004-005-----0
  6
CONTINUOUS
  5
7F
 10
353.23153
 20
531.422438
 30
0.0
 11
359.464849
 21
537.655757
 31
0.0
  0
LINE
  8
LC-004-005-----0
  6
CONTINUOUS
  5
80
 10
343.172208
 20
525.605757
 30
0.0
 11
347.622208
 21
530.055757
 31
0.0
  0
LINE
  8
LC-004-005-----0
  6
CONTINUOUS
  5
81
 10
353.50317
 20
535.936719
 30
0.0
 11
355.222208
 21
537.655757
 31
0.0
  0
LINE
  8
LC-004-005-----0
  6
CONTINUOUS
  5
82
 10
339.505884
 20
526.182074
 30
0.0
 11
343.379567
 21
530.055757
 31
0.0
  0
LINE
  8
LC-004-005-----0
  6
CONTINUOUS
  5
83
 10
337.075354
 20
527.994185
 30
0.0
 11
340.689605
 21
531.608436
 31
0.0
  0
LINE
  8
LC-004-005-----0
  6
CONTINUOUS
  5
84
 10
335.25317
 20
530.414641
 30
0.0
 11
340.50317
 21
535.664641
 31
0.0
  0
LINE
  8
LC-004-005-----0
  6
CONTINUOUS
  5
85
 10
334.251645
 20
533.655757
 30
0.0
 11
338.251645
 21
537.655757
 31
0.0
  0
LINE
  8
LC-004-005-----0
  6
CONTINUOUS
  5
86
 10
330.009004
 20
533.655757
 30
0.0
 11
334.009004
 21
537.655757
 31
0.0
  0
LINE
  8
LC-004-005-----0
  6
CONTINUOUS
  5
87
 10
329.50317
 20
537.392563
 30
0.0
 11
329.766364
 21
537.655757
 31
0.0
  0
ENDBLK
  8
0
  5
88
  0
BLOCK
  8
0
  5
8A
  2
*X4
 70
    65
 10
341.624465
 20
531.772026
 30
0.0
  3
*X4
  0
LINE
  8
LC-004-005-----0
  6
CONTINUOUS
  5
8B
 10
352.170618
 20
531.775741
 30
0.0
 11
352.765506
 21
532.370628
 31
0.0
  0
LINE
  8
LC-004-005-----0
  6
CONTINUOUS
  5
8C
 10
350.765235
 20
531.784571
 30
0.0
 11
352.774448
 21
533.793784
 31
0.0
  0
LINE
  8
LC-004-005-----0
  6
CONTINUOUS
  5
8D
 10
349.359852
 20
531.793401
 30
0.0
 11
352.78339
 21
535.21694
 31
0.0
  0
LINE
  8
LC-004-005-----0
  6
CONTINUOUS
  5
8E
 10
347.954469
 20
531.802232
 30
0.0
 11
351.615373
 21
535.463136
 31
0.0
  0
LINE
  8
LC-004-005-----0
  6
CONTINUOUS
  5
8F
 10
346.549085
 20
531.811062
 30
0.0
 11
351.143443
 21
536.40542
 31
0.0
  0
LINE
  8
LC-004-005-----0
  6
CONTINUOUS
  5
90
 10
345.143702
 20
531.819893
 30
0.0
 11
349.916545
 21
536.592736
 31
0.0
  0
LINE
  8
LC-004-005-----0
  6
CONTINUOUS
  5
91
 10
343.738319
 20
531.828723
 30
0.0
 11
347.414337
 21
535.504741
 31
0.0
  0
LINE
  8
LC-004-005-----0
  6
CONTINUOUS
  5
92
 10
342.332936
 20
531.837553
 30
0.0
 11
347.5525
 21
537.057117
 31
0.0
  0
LINE
  8
LC-004-005-----0
  6
CONTINUOUS
  5
93
 10
341.628899
 20
532.54773
 30
0.0
 11
345.325628
 21
536.244459
 31
0.0
  0
LINE
  8
LC-004-005-----0
  6
CONTINUOUS
  5
94
 10
341.637841
 20
533.970885
 30
0.0
 11
343.183074
 21
535.516118
 31
0.0
  0
LINE
  8
LC-004-005-----0
  6
CONTINUOUS
  5
95
 10
341.646783
 20
535.394041
 30
0.0
 11
341.777691
 21
535.524949
 31
0.0
  0
ENDBLK
  8
0
  5
96
  0
BLOCK
  8
0
  5
98
  2
*D5
 70
    65
 10
0.0
 20
0.0
 30
0.0
  3
*D5
  0
LINE
  8
LC-006-003-MTH-0
  6
CONTINUOUS
  5
9A
 10
329.50317
 20
537.655757
 30
0.0
 11
277.2
 21
537.655757
 31
0.0
  0
LINE
  8
LC-006-003-MTH-0
  6
CONTINUOUS
  5
9B
 10
329.50317
 20
740.205757
 30
0.0
 11
277.2
 21
740.205757
 31
0.0
  0
LINE
  8
LC-007-003-MTG-0
  6
CONTINUOUS
  5
9D
 10
294.0
 20
537.655757
 30
0.0
 11
294.0
 21
740.205757
 31
0.0
  0
LINE
  8
LC-005-003-----0
  6
CONTINUOUS
  5
9F
 10
290.345267
 20
565.416214
 30
0.0
 11
294.0
 21
537.655757
 31
0.0
  0
LINE
  8
LC-005-003-----0
  6
CONTINUOUS
  5
A0
 10
294.0
 20
537.655757
 30
0.0
 11
297.654733
 21
565.416214
 31
0.0
  0
LINE
  8
LC-005-003-----0
  6
CONTINUOUS
  5
A1
 10
297.654733
 20
565.416214
 30
0.0
 11
290.345267
 21
565.416214
 31
0.0
  0
LINE
  8
LC-005-003-----0
  6
CONTINUOUS
  5
A2
 10
291.295497
 20
565.478495
 30
0.0
 11
294.0
 21
544.935757
 31
0.0
  0
LINE
  8
LC-005-003-----0
  6
CONTINUOUS
  5
A3
 10
294.0
 20
544.935757
 30
0.0
 11
296.704503
 21
565.478495
 31
0.0
  0
LINE
  8
LC-005-003-----0
  6
CONTINUOUS
  5
A4
 10
292.245728
 20
565.540776
 30
0.0
 11
294.0
 21
552.215757
 31
0.0
  0
LINE
  8
LC-005-003-----0
  6
CONTINUOUS
  5
A5
 10
294.0
 20
552.215757
 30
0.0
 11
295.754272
 21
565.540776
 31
0.0
  0
LINE
  8
LC-005-003-----0
  6
CONTINUOUS
  5
A6
 10
293.195959
 20
565.603058
 30
0.0
 11
294.0
 21
559.495757
 31
0.0
  0
LINE
  8
LC-005-003-----0
  6
CONTINUOUS
  5
A7
 10
294.0
 20
559.495757
 30
0.0
 11
294.804041
 21
565.603058
 31
0.0
  0
LINE
  8
LC-005-003-----0
  6
CONTINUOUS
  5
A8
 10
297.654733
 20
712.445301
 30
0.0
 11
294.0
 21
740.205757
 31
0.0
  0
LINE
  8
LC-005-003-----0
  6
CONTINUOUS
  5
A9
 10
294.0
 20
740.205757
 30
0.0
 11
290.345267
 21
712.445301
 31
0.0
  0
LINE
  8
LC-005-003-----0
  6
CONTINUOUS
  5
AA
 10
290.345267
 20
712.445301
 30
0.0
 11
297.654733
 21
712.445301
 31
0.0
  0
LINE
  8
LC-005-003-----0
  6
CONTINUOUS
  5
AB
 10
296.704503
 20
712.38302
 30
0.0
 11
294.0
 21
732.925757
 31
0.0
  0
LINE
  8
LC-005-003-----0
  6
CONTINUOUS
  5
AC
 10
294.0
 20
732.925757
 30
0.0
 11
291.295497
 21
712.38302
 31
0.0
  0
LINE
  8
LC-005-003-----0
  6
CONTINUOUS
  5
AD
 10
295.754272
 20
712.320738
 30
0.0
 11
294.0
 21
725.645757
 31
0.0
  0
LINE
  8
LC-005-003-----0
  6
CONTINUOUS
  5
AE
 10
294.0
 20
725.645757
 30
0.0
 11
292.245728
 21
712.320738
 31
0.0
  0
LINE
  8
LC-005-003-----0
  6
CONTINUOUS
  5
AF
 10
294.804041
 20
712.258457
 30
0.0
 11
294.0
 21
718.365757
 31
0.0
  0
LINE
  8
LC-005-003-----0
  6
CONTINUOUS
  5
B0
 10
294.0
 20
718.365757
 30
0.0
 11
293.195959
 21
712.258457
 31
0.0
  0
TEXT
  8
LC-005-003-----0
  6
CONTINUOUS
 62
     8
  5
B1
 10
286.172446
 20
594.072767
 30
0.0
 40
28.0
  1
DN200
 50
90.0
 41
0.9
 51
15.0
  7
LC-TXTSTYLE-150-400-0-0-A0
 72
     1
 11
286.172446
 21
643.278917
 31
0.0
  0
ENDBLK
  8
0
  5
B2
  0
BLOCK
  8
0
  5
B4
  2
BLK2
 70
    64
 10
0.0
 20
0.0
 30
0.0
  3
BLK2
  0
ENDBLK
  8
0
  5
B5
  0
BLOCK
  8
0
  5
B7
  2
BLK3
 70
    64
 10
0.0
 20
0.0
 30
0.0
  3
BLK3
  0
ENDBLK
  8
0
  5
B8
  0
BLOCK
  8
0
  5
BA
  2
*X8
 70
    65
 10
454.489009
 20
695.755757
 30
0.0
  3
*X8
  0
LINE
  8
LC-004-005-----0
  6
CONTINUOUS
  5
BB
 10
455.339452
 20
695.755757
 30
0.0
 11
457.489009
 21
697.905315
 31
0.0
  0
LINE
  8
LC-004-005-----0
  6
CONTINUOUS
  5
BC
 10
469.339452
 20
709.755757
 30
0.0
 11
470.989009
 21
711.405315
 31
0.0
  0
LINE
  8
LC-004-005-----0
  6
CONTINUOUS
  5
BD
 10
454.489009
 20
709.047451
 30
0.0
 11
458.197316
 21
712.755757
 31
0.0
  0
ENDBLK
  8
0
  5
BE
  0
BLOCK
  8
0
  5
C0
  2
BLK4
 70
    64
 10
0.0
 20
0.0
 30
0.0
  3
BLK4
  0
ENDBLK
  8
0
  5
C1
  0
BLOCK
  8
0
  5
C3
  2
BLK5
 70
    64
 10
0.0
 20
0.0
 30
0.0
  3
BLK5
  0
ENDBLK
  8
0
  5
C4
  0
BLOCK
  8
0
  5
C6
  2
BLK6
 70
    64
 10
0.0
 20
0.0
 30
0.0
  3
BLK6
  0
ENDBLK
  8
0
  5
C7
  0
BLOCK
  8
0
  5
C9
  2
BLK7
 70
    64
 10
0.0
 20
0.0
 30
0.0
  3
BLK7
  0
ENDBLK
  8
0
  5
CA
  0
BLOCK
  8
0
  5
CC
  2
*X13
 70
    65
 10
442.489009
 20
530.755757
 30
0.0
  3
*X13
  0
LINE
  8
LC-004-005-----0
  6
CONTINUOUS
  5
CD
 10
466.624605
 20
693.030516
 30
0.0
 11
463.399364
 21
696.255757
 31
0.0
  0
LINE
  8
LC-004-005-----0
  6
CONTINUOUS
  5
CE
 10
451.489009
 20
708.166112
 30
0.0
 11
448.899364
 21
710.755757
 31
0.0
  0
LINE
  8
LC-004-005-----0
  6
CONTINUOUS
  5
CF
 10
460.257228
 20
685.255757
 30
0.0
 11
458.757228
 21
686.755757
 31
0.0
  0
LINE
  8
LC-004-005-----0
  6
CONTINUOUS
  5
D0
 10
451.489009
 20
694.023976
 30
0.0
 11
442.757228
 21
702.755757
 31
0.0
  0
LINE
  8
LC-004-005-----0
  6
CONTINUOUS
  5
D1
 10
471.835872
 20
532.255757
 30
0.0
 11
466.489009
 21
537.60262
 31
0.0
  0
LINE
  8
LC-004-005-----0
  6
CONTINUOUS
  5
D2
 10
462.335872
 20
541.755757
 30
0.0
 11
460.835872
 21
543.255757
 31
0.0
  0
LINE
  8
LC-004-005-----0
  6
CONTINUOUS
  5
D3
 10
451.489009
 20
538.460484
 30
0.0
 11
446.693736
 21
543.255757
 31
0.0
  0
LINE
  8
LC-004-005-----0
  6
CONTINUOUS
  5
D4
 10
445.051601
 20
530.755757
 30
0.0
 11
442.489009
 21
533.318349
 31
0.0
  0
ENDBLK
  8
0
  5
D5
  0
BLOCK
  8
0
  5
D7
  2
BLK8
 70
    64
 10
0.0
 20
0.0
 30
0.0
  3
BLK8
  0
ENDBLK
  8
0
  5
D8
  0
BLOCK
  8
0
  5
DA
  2
*X15
 70
    65
 10
449.461014
 20
720.949289
 30
0.0
  3
*X15
  0
LINE
  8
LC-004-005-----0
  6
CONTINUOUS
  5
DB
 10
449.461014
 20
721.507635
 30
0.0
 11
450.019361
 21
720.949289
 31
0.0
  0
LINE
  8
LC-004-005-----0
  6
CONTINUOUS
  5
DC
 10
449.461014
 20
722.921847
 30
0.0
 11
451.433575
 21
720.949289
 31
0.0
  0
LINE
  8
LC-004-005-----0
  6
CONTINUOUS
  5
DD
 10
450.847787
 20
722.949289
 30
0.0
 11
452.84779
 21
720.949289
 31
0.0
  0
LINE
  8
LC-004-005-----0
  6
CONTINUOUS
  5
DE
 10
452.262001
 20
722.949289
 30
0.0
 11
454.262004
 21
720.949289
 31
0.0
  0
LINE
  8
LC-004-005-----0
  6
CONTINUOUS
  5
DF
 10
453.676216
 20
722.949289
 30
0.0
 11
454.461014
 21
722.164492
 31
0.0
  0
ENDBLK
  8
0
  5
E0
  0
BLOCK
  8
0
  5
E2
  2
*X16
 70
    65
 10
341.624465
 20
740.626957
 30
0.0
  3
*X16
  0
LINE
  8
LC-004-005-----0
  6
CONTINUOUS
  5
E3
 10
350.633914
 20
740.956857
 30
0.0
 11
351.143149
 21
741.466092
 31
0.0
  0
LINE
  8
LC-004-005-----0
  6
CONTINUOUS
  5
E4
 10
352.078345
 20
742.401288
 30
0.0
 11
352.780507
 21
743.10345
 31
0.0
  0
LINE
  8
LC-004-005-----0
  6
CONTINUOUS
  5
E5
 10
349.648272
 20
741.385428
 30
0.0
 11
352.771676
 21
744.508833
 31
0.0
  0
LINE
  8
LC-004-005-----0
  6
CONTINUOUS
  5
E6
 10
347.514105
 20
740.665476
 30
0.0
 11
347.562474
 21
740.713844
 31
0.0
  0
LINE
  8
LC-004-005-----0
  6
CONTINUOUS
  5
E7
 10
348.662629
 20
741.813999
 30
0.0
 11
352.762846
 21
745.914216
 31
0.0
  0
LINE
  8
LC-004-005-----0
  6
CONTINUOUS
  5
E8
 10
346.528463
 20
741.094047
 30
0.0
 11
347.422157
 21
741.987741
 31
0.0
  0
LINE
  8
LC-004-005-----0
  6
CONTINUOUS
  5
E9
 10
347.676986
 20
742.24257
 30
0.0
 11
351.516078
 21
746.081662
 31
0.0
  0
LINE
  8
LC-004-005-----0
  6
CONTINUOUS
  5
EA
 10
345.54282
 20
741.522618
 30
0.0
 11
350.092922
 21
746.07272
 31
0.0
  0
LINE
  8
LC-004-005-----0
  6
CONTINUOUS
  5
EB
 10
344.557178
 20
741.951189
 30
0.0
 11
348.669767
 21
746.063778
 31
0.0
  0
LINE
  8
LC-004-005-----0
  6
CONTINUOUS
  5
EC
 10
343.539411
 20
742.347636
 30
0.0
 11
347.246611
 21
746.054835
 31
0.0
  0
LINE
  8
LC-004-005-----0
  6
CONTINUOUS
  5
ED
 10
342.116255
 20
742.338693
 30
0.0
 11
345.823455
 21
746.045893
 31
0.0
  0
LINE
  8
LC-004-005-----0
  6
CONTINUOUS
  5
EE
 10
341.641688
 20
743.27834
 30
0.0
 11
344.4003
 21
746.036951
 31
0.0
  0
LINE
  8
LC-004-005-----0
  6
CONTINUOUS
  5
EF
 10
341.632858
 20
744.683723
 30
0.0
 11
342.977144
 21
746.028009
 31
0.0
  0
ENDBLK
  8
0
  5
F0
  0
BLOCK
  8
0
  5
F2
  2
*D17
 70
    65
 10
0.0
 20
0.0
 30
0.0
  3
*D17
  0
LINE
  8
LC-006-003-MTH-0
  6
CONTINUOUS
  5
F3
 10
447.461014
 20
727.750456
 30
0.0
 11
447.461014
 21
816.8
 31
0.0
  0
LINE
  8
LC-006-003-MTH-0
  6
CONTINUOUS
  5
F4
 10
505.961014
 20
734.449289
 30
0.0
 11
505.961014
 21
816.8
 31
0.0
  0
LINE
  8
LC-005-003-----0
  6
CONTINUOUS
  5
F5
 10
419.700558
 20
796.345267
 30
0.0
 11
447.461014
 21
800.0
 31
0.0
  0
LINE
  8
LC-005-003-----0
  6
CONTINUOUS
  5
F6
 10
447.461014
 20
800.0
 30
0.0
 11
419.700558
 21
803.654733
 31
0.0
  0
LINE
  8
LC-005-003-----0
  6
CONTINUOUS
  5
F7
 10
419.700558
 20
803.654733
 30
0.0
 11
419.700558
 21
796.345267
 31
0.0
  0
LINE
  8
LC-005-003-----0
  6
CONTINUOUS
  5
F8
 10
419.638277
 20
797.295497
 30
0.0
 11
440.181014
 21
800.0
 31
0.0
  0
LINE
  8
LC-005-003-----0
  6
CONTINUOUS
  5
F9
 10
440.181014
 20
800.0
 30
0.0
 11
419.638277
 21
802.704503
 31
0.0
  0
LINE
  8
LC-005-003-----0
  6
CONTINUOUS
  5
FA
 10
419.575995
 20
798.245728
 30
0.0
 11
432.901014
 21
800.0
 31
0.0
  0
LINE
  8
LC-005-003-----0
  6
CONTINUOUS
  5
FB
 10
432.901014
 20
800.0
 30
0.0
 11
419.575995
 21
801.754272
 31
0.0
  0
LINE
  8
LC-005-003-----0
  6
CONTINUOUS
  5
FC
 10
419.513714
 20
799.195959
 30
0.0
 11
425.621014
 21
800.0
 31
0.0
  0
LINE
  8
LC-005-003-----0
  6
CONTINUOUS
  5
FD
 10
425.621014
 20
800.0
 30
0.0
 11
419.513714
 21
800.804041
 31
0.0
  0
LINE
  8
LC-005-003-----0
  6
CONTINUOUS
  5
FE
 10
533.72147
 20
803.654733
 30
0.0
 11
505.961014
 21
800.0
 31
0.0
  0
LINE
  8
LC-005-003-----0
  6
CONTINUOUS
  5
FF
 10
505.961014
 20
800.0
 30
0.0
 11
533.72147
 21
796.345267
 31
0.0
  0
LINE
  8
LC-005-003-----0
  6
CONTINUOUS
  5
100
 10
533.72147
 20
796.345267
 30
0.0
 11
533.72147
 21
803.654733
 31
0.0
  0
LINE
  8
LC-005-003-----0
  6
CONTINUOUS
  5
101
 10
533.783752
 20
802.704503
 30
0.0
 11
513.241014
 21
800.0
 31
0.0
  0
LINE
  8
LC-005-003-----0
  6
CONTINUOUS
  5
102
 10
513.241014
 20
800.0
 30
0.0
 11
533.783752
 21
797.295497
 31
0.0
  0
LINE
  8
LC-005-003-----0
  6
CONTINUOUS
  5
103
 10
533.846033
 20
801.754272
 30
0.0
 11
520.521014
 21
800.0
 31
0.0
  0
LINE
  8
LC-005-003-----0
  6
CONTINUOUS
  5
104
 10
520.521014
 20
800.0
 30
0.0
 11
533.846033
 21
798.245728
 31
0.0
  0
LINE
  8
LC-005-003-----0
  6
CONTINUOUS
  5
105
 10
533.908315
 20
800.804041
 30
0.0
 11
527.801014
 21
800.0
 31
0.0
  0
LINE
  8
LC-005-003-----0
  6
CONTINUOUS
  5
106
 10
527.801014
 20
800.0
 30
0.0
 11
533.908315
 21
799.195959
 31
0.0
  0
LINE
  8
LC-007-003-MTG-0
  6
CONTINUOUS
  5
107
 10
408.261014
 20
800.0
 30
0.0
 11
615.728714
 21
800.0
 31
0.0
  0
TEXT
  8
LC-005-003-----0
  6
CONTINUOUS
 62
     8
  5
108
 10
548.389174
 20
807.827554
 30
0.0
 40
28.0
  1
58,5
 41
0.9
 51
15.0
  7
LC-TXTSTYLE-150-400-0-0-A0
  0
ENDBLK
  8
0
  5
109
  0
BLOCK
  8
0
  5
10B
  2
*D18
 70
    65
 10
0.0
 20
0.0
 30
0.0
  3
*D18
  0
LINE
  8
LC-006-003-MTH-0
  6
CONTINUOUS
  5
10C
 10
329.50317
 20
744.205757
 30
0.0
 11
329.50317
 21
840.0
 31
0.0
  0
LINE
  8
LC-006-003-MTH-0
  6
CONTINUOUS
  5
10D
 10
505.961014
 20
734.449289
 30
0.0
 11
505.961014
 21
840.0
 31
0.0
  0
LINE
  8
LC-007-003-MTG-0
  6
CONTINUOUS
  5
10E
 10
329.50317
 20
823.2
 30
0.0
 11
505.961014
 21
823.2
 31
0.0
  0
LINE
  8
LC-005-003-----0
  6
CONTINUOUS
  5
10F
 10
357.263626
 20
826.854733
 30
0.0
 11
329.50317
 21
823.2
 31
0.0
  0
LINE
  8
LC-005-003-----0
  6
CONTINUOUS
  5
110
 10
329.50317
 20
823.2
 30
0.0
 11
357.263626
 21
819.545267
 31
0.0
  0
LINE
  8
LC-005-003-----0
  6
CONTINUOUS
  5
111
 10
357.263626
 20
819.545267
 30
0.0
 11
357.263626
 21
826.854733
 31
0.0
  0
LINE
  8
LC-005-003-----0
  6
CONTINUOUS
  5
112
 10
357.325907
 20
825.904503
 30
0.0
 11
336.78317
 21
823.2
 31
0.0
  0
LINE
  8
LC-005-003-----0
  6
CONTINUOUS
  5
113
 10
336.78317
 20
823.2
 30
0.0
 11
357.325907
 21
820.495497
 31
0.0
  0
LINE
  8
LC-005-003-----0
  6
CONTINUOUS
  5
114
 10
357.388189
 20
824.954272
 30
0.0
 11
344.06317
 21
823.2
 31
0.0
  0
LINE
  8
LC-005-003-----0
  6
CONTINUOUS
  5
115
 10
344.06317
 20
823.2
 30
0.0
 11
357.388189
 21
821.445728
 31
0.0
  0
LINE
  8
LC-005-003-----0
  6
CONTINUOUS
  5
116
 10
357.45047
 20
824.004041
 30
0.0
 11
351.34317
 21
823.2
 31
0.0
  0
LINE
  8
LC-005-003-----0
  6
CONTINUOUS
  5
117
 10
351.34317
 20
823.2
 30
0.0
 11
357.45047
 21
822.395959
 31
0.0
  0
LINE
  8
LC-005-003-----0
  6
CONTINUOUS
  5
118
 10
478.200558
 20
819.545267
 30
0.0
 11
505.961014
 21
823.2
 31
0.0
  0
LINE
  8
LC-005-003-----0
  6
CONTINUOUS
  5
119
 10
505.961014
 20
823.2
 30
0.0
 11
478.200558
 21
826.854733
 31
0.0
  0
LINE
  8
LC-005-003-----0
  6
CONTINUOUS
  5
11A
 10
478.200558
 20
826.854733
 30
0.0
 11
478.200558
 21
819.545267
 31
0.0
  0
LINE
  8
LC-005-003-----0
  6
CONTINUOUS
  5
11B
 10
478.138277
 20
820.495497
 30
0.0
 11
498.681014
 21
823.2
 31
0.0
  0
LINE
  8
LC-005-003-----0
  6
CONTINUOUS
  5
11C
 10
498.681014
 20
823.2
 30
0.0
 11
478.138277
 21
825.904503
 31
0.0
  0
LINE
  8
LC-005-003-----0
  6
CONTINUOUS
  5
11D
 10
478.075995
 20
821.445728
 30
0.0
 11
491.401014
 21
823.2
 31
0.0
  0
LINE
  8
LC-005-003-----0
  6
CONTINUOUS
  5
11E
 10
491.401014
 20
823.2
 30
0.0
 11
478.075995
 21
824.954272
 31
0.0
  0
LINE
  8
LC-005-003-----0
  6
CONTINUOUS
  5
11F
 10
478.013714
 20
822.395959
 30
0.0
 11
484.121014
 21
823.2
 31
0.0
  0
LINE
  8
LC-005-003-----0
  6
CONTINUOUS
  5
120
 10
484.121014
 20
823.2
 30
0.0
 11
478.013714
 21
824.004041
 31
0.0
  0
TEXT
  8
LC-005-003-----0
  6
CONTINUOUS
 62
     8
  5
121
 10
395.676952
 20
831.027554
 30
0.0
 40
28.0
  1
177
 41
0.9
 51
15.0
  7
LC-TXTSTYLE-150-400-0-0-A0
 72
     1
 11
422.080252
 21
831.027554
 31
0.0
  0
ENDBLK
  8
0
  5
122
  0
BLOCK
  8
0
  5
124
  2
*D19
 70
    65
 10
0.0
 20
0.0
 30
0.0
  3
*D19
  0
LINE
  8
LC-006-003-MTH-0
  6
CONTINUOUS
  5
125
 10
482.556876
 20
518.216762
 30
0.0
 11
683.2
 21
518.216762
 31
0.0
  0
LINE
  8
LC-006-003-MTH-0
  6
CONTINUOUS
  5
126
 10
505.961014
 20
734.449289
 30
0.0
 11
683.2
 21
734.449289
 31
0.0
  0
LINE
  8
LC-007-003-MTG-0
  6
CONTINUOUS
  5
127
 10
666.4
 20
518.216762
 30
0.0
 11
666.4
 21
734.449289
 31
0.0
  0
LINE
  8
LC-005-003-----0
  6
CONTINUOUS
  5
128
 10
662.745267
 20
545.977218
 30
0.0
 11
666.4
 21
518.216762
 31
0.0
  0
LINE
  8
LC-005-003-----0
  6
CONTINUOUS
  5
129
 10
666.4
 20
518.216762
 30
0.0
 11
670.054733
 21
545.977218
 31
0.0
  0
LINE
  8
LC-005-003-----0
  6
CONTINUOUS
  5
12A
 10
670.054733
 20
545.977218
 30
0.0
 11
662.745267
 21
545.977218
 31
0.0
  0
LINE
  8
LC-005-003-----0
  6
CONTINUOUS
  5
12B
 10
663.695497
 20
546.0395
 30
0.0
 11
666.4
 21
525.496762
 31
0.0
  0
LINE
  8
LC-005-003-----0
  6
CONTINUOUS
  5
12C
 10
666.4
 20
525.496762
 30
0.0
 11
669.104503
 21
546.0395
 31
0.0
  0
LINE
  8
LC-005-003-----0
  6
CONTINUOUS
  5
12D
 10
664.645728
 20
546.101781
 30
0.0
 11
666.4
 21
532.776762
 31
0.0
  0
LINE
  8
LC-005-003-----0
  6
CONTINUOUS
  5
12E
 10
666.4
 20
532.776762
 30
0.0
 11
668.154272
 21
546.101781
 31
0.0
  0
LINE
  8
LC-005-003-----0
  6
CONTINUOUS
  5
12F
 10
665.595959
 20
546.164063
 30
0.0
 11
666.4
 21
540.056762
 31
0.0
  0
LINE
  8
LC-005-003-----0
  6
CONTINUOUS
  5
130
 10
666.4
 20
540.056762
 30
0.0
 11
667.204041
 21
546.164063
 31
0.0
  0
LINE
  8
LC-005-003-----0
  6
CONTINUOUS
  5
131
 10
670.054733
 20
706.688833
 30
0.0
 11
666.4
 21
734.449289
 31
0.0
  0
LINE
  8
LC-005-003-----0
  6
CONTINUOUS
  5
132
 10
666.4
 20
734.449289
 30
0.0
 11
662.745267
 21
706.688833
 31
0.0
  0
LINE
  8
LC-005-003-----0
  6
CONTINUOUS
  5
133
 10
662.745267
 20
706.688833
 30
0.0
 11
670.054733
 21
706.688833
 31
0.0
  0
LINE
  8
LC-005-003-----0
  6
CONTINUOUS
  5
134
 10
669.104503
 20
706.626552
 30
0.0
 11
666.4
 21
727.169289
 31
0.0
  0
LINE
  8
LC-005-003-----0
  6
CONTINUOUS
  5
135
 10
666.4
 20
727.169289
 30
0.0
 11
663.695497
 21
706.626552
 31
0.0
  0
LINE
  8
LC-005-003-----0
  6
CONTINUOUS
  5
136
 10
668.154272
 20
706.56427
 30
0.0
 11
666.4
 21
719.889289
 31
0.0
  0
LINE
  8
LC-005-003-----0
  6
CONTINUOUS
  5
137
 10
666.4
 20
719.889289
 30
0.0
 11
664.645728
 21
706.56427
 31
0.0
  0
LINE
  8
LC-005-003-----0
  6
CONTINUOUS
  5
138
 10
667.204041
 20
706.501989
 30
0.0
 11
666.4
 21
712.609289
 31
0.0
  0
LINE
  8
LC-005-003-----0
  6
CONTINUOUS
  5
139
 10
666.4
 20
712.609289
 30
0.0
 11
665.595959
 21
706.501989
 31
0.0
  0
TEXT
  8
LC-005-003-----0
  6
CONTINUOUS
 62
     8
  5
13A
 10
658.572446
 20
604.277886
 30
0.0
 40
28.0
  1
216
 50
90.0
 41
0.9
 51
15.0
  7
LC-TXTSTYLE-150-400-0-0-A0
 72
     1
 11
658.572446
 21
630.681186
 31
0.0
  0
ENDBLK
  8
0
  5
13B
  0
BLOCK
  8
0
  5
13D
  2
*D20
 70
    65
 10
0.0
 20
0.0
 30
0.0
  3
*D20
  0
LINE
  8
LC-006-003-MTH-0
  6
CONTINUOUS
  5
13E
 10
329.50317
 20
744.205757
 30
0.0
 11
329.50317
 21
879.2
 31
0.0
  0
LINE
  8
LC-006-003-MTH-0
  6
CONTINUOUS
  5
13F
 10
620.270607
 20
643.512863
 30
0.0
 11
620.270607
 21
879.2
 31
0.0
  0
LINE
  8
LC-007-003-MTG-0
  6
CONTINUOUS
  5
140
 10
329.50317
 20
862.4
 30
0.0
 11
620.270607
 21
862.4
 31
0.0
  0
LINE
  8
LC-005-003-----0
  6
CONTINUOUS
  5
141
 10
357.263626
 20
866.054733
 30
0.0
 11
329.50317
 21
862.4
 31
0.0
  0
LINE
  8
LC-005-003-----0
  6
CONTINUOUS
  5
142
 10
329.50317
 20
862.4
 30
0.0
 11
357.263626
 21
858.745267
 31
0.0
  0
LINE
  8
LC-005-003-----0
  6
CONTINUOUS
  5
143
 10
357.263626
 20
858.745267
 30
0.0
 11
357.263626
 21
866.054733
 31
0.0
  0
LINE
  8
LC-005-003-----0
  6
CONTINUOUS
  5
144
 10
357.325907
 20
865.104503
 30
0.0
 11
336.78317
 21
862.4
 31
0.0
  0
LINE
  8
LC-005-003-----0
  6
CONTINUOUS
  5
145
 10
336.78317
 20
862.4
 30
0.0
 11
357.325907
 21
859.695497
 31
0.0
  0
LINE
  8
LC-005-003-----0
  6
CONTINUOUS
  5
146
 10
357.388189
 20
864.154272
 30
0.0
 11
344.06317
 21
862.4
 31
0.0
  0
LINE
  8
LC-005-003-----0
  6
CONTINUOUS
  5
147
 10
344.06317
 20
862.4
 30
0.0
 11
357.388189
 21
860.645728
 31
0.0
  0
LINE
  8
LC-005-003-----0
  6
CONTINUOUS
  5
148
 10
357.45047
 20
863.204041
 30
0.0
 11
351.34317
 21
862.4
 31
0.0
  0
LINE
  8
LC-005-003-----0
  6
CONTINUOUS
  5
149
 10
351.34317
 20
862.4
 30
0.0
 11
357.45047
 21
861.595959
 31
0.0
  0
LINE
  8
LC-005-003-----0
  6
CONTINUOUS
  5
14A
 10
592.510151
 20
858.745267
 30
0.0
 11
620.270607
 21
862.4
 31
0.0
  0
LINE
  8
LC-005-003-----0
  6
CONTINUOUS
  5
14B
 10
620.270607
 20
862.4
 30
0.0
 11
592.510151
 21
866.054733
 31
0.0
  0
LINE
  8
LC-005-003-----0
  6
CONTINUOUS
  5
14C
 10
592.510151
 20
866.054733
 30
0.0
 11
592.510151
 21
858.745267
 31
0.0
  0
LINE
  8
LC-005-003-----0
  6
CONTINUOUS
  5
14D
 10
592.447869
 20
859.695497
 30
0.0
 11
612.990607
 21
862.4
 31
0.0
  0
LINE
  8
LC-005-003-----0
  6
CONTINUOUS
  5
14E
 10
612.990607
 20
862.4
 30
0.0
 11
592.447869
 21
865.104503
 31
0.0
  0
LINE
  8
LC-005-003-----0
  6
CONTINUOUS
  5
14F
 10
592.385588
 20
860.645728
 30
0.0
 11
605.710607
 21
862.4
 31
0.0
  0
LINE
  8
LC-005-003-----0
  6
CONTINUOUS
  5
150
 10
605.710607
 20
862.4
 30
0.0
 11
592.385588
 21
864.154272
 31
0.0
  0
LINE
  8
LC-005-003-----0
  6
CONTINUOUS
  5
151
 10
592.323307
 20
861.595959
 30
0.0
 11
598.430607
 21
862.4
 31
0.0
  0
LINE
  8
LC-005-003-----0
  6
CONTINUOUS
  5
152
 10
598.430607
 20
862.4
 30
0.0
 11
592.323307
 21
863.204041
 31
0.0
  0
TEXT
  8
LC-005-003-----0
  6
CONTINUOUS
 62
     8
  5
153
 10
452.831748
 20
870.227554
 30
0.0
 40
28.0
  1
290
 41
0.9
 51
15.0
  7
LC-TXTSTYLE-150-400-0-0-A0
 72
     1
 11
479.235048
 21
870.227554
 31
0.0
  0
ENDBLK
  8
0
  5
154
  0
ENDSEC
  0
SECTION
  2
ENTITIES
  0
VIEWPORT
  8
LC-000
  5
2C1
 67
     1
 68
     1
 10
420.0
 20
297.0
 30
0.0
 40
840.0
 41
594.0
 69
     1
1001
ACAD
1000
MVIEW
1002
{
1070
    16
1010
0.0
1020
0.0
1030
0.0
1010
0.0
1020
0.0
1030
1.0
1040
0.0
1040
594.0
1040
420.0
1040
297.0
1040
50.0
1040
0.0
1040
0.0
1070
     0
1070
   100
1070
     1
1070
     1
1070
     0
1070
     0
1070
     0
1070
     0
1040
0.0
1040
0.0
1040
0.0
1040
1.0
1040
1.0
1040
0.0
1040
0.0
1070
     0
1002
{
1002
}
1002
}
  0
VIEWPORT
  8
0
  5
2C2
 67
     1
 68
     1
 10
0.0
 20
0.0
 30
0.0
 40
0.0
 41
0.0
 69
     1
1001
ACAD
1000
MVIEW
1002
{
1070
    16
1010
0.0
1020
0.0
1030
0.0
1010
0.0
1020
0.0
1030
1.0
1040
0.0
1040
594.0
1040
0.0
1040
0.0
1040
50.0
1040
0.0
1040
0.0
1070
     0
1070
   100
1070
     0
1070
     1
1070
     0
1070
     0
1070
     0
1070
     0
1040
0.0
1040
0.0
1040
0.0
1040
0.5
1040
0.5
1040
0.5
1040
0.5
1070
     0
1002
{
1002
}
1002
}
  0
INSERT
  8
LC-002-000-----0
  5
156
  2
BLK1
 10
0.0
 20
0.0
 30
0.0
  0
INSERT
  8
LC-004-005-----0
  6
CONTINUOUS
  5
157
  2
*X1
 10
443.489009
 20
517.924929
 30
0.0
  0
INSERT
  8
LC-004-005-----0
  6
CONTINUOUS
  5
158
  2
*X2
 10
329.50317
 20
699.255757
 30
0.0
  0
INSERT
  8
LC-004-005-----0
  6
CONTINUOUS
  5
159
  2
*X3
 10
329.50317
 20
524.205757
 30
0.0
  0
INSERT
  8
LC-004-005-----0
  6
CONTINUOUS
  5
15A
  2
*X4
 10
341.624465
 20
531.772026
 30
0.0
  0
DIMENSION
  8
LC-005-003-----0
  6
CONTINUOUS
  5
15B
  2
*D5
 10
294.0
 20
638.930757
 30
0.0
 11
294.0
 21
638.930757
 31
0.0
  1
DN200
 13
329.50317
 23
740.205757
 33
0.0
 14
329.50317
 24
537.655757
 34
0.0
 50
90.0
  3
LC-DIM-L-0140-02-02
  0
INSERT
  8
LC-002-000-----0
  5
15C
  2
BLK2
 10
0.0
 20
0.0
 30
0.0
  0
INSERT
  8
LC-002-000-----0
  5
15D
  2
BLK3
 10
0.0
 20
0.0
 30
0.0
  0
INSERT
  8
LC-004-005-----0
  6
CONTINUOUS
  5
15E
  2
*X8
 10
454.489009
 20
695.755757
 30
0.0
  0
INSERT
  8
LC-002-000-----0
  5
15F
  2
BLK4
 10
0.0
 20
0.0
 30
0.0
  0
INSERT
  8
LC-002-000-----0
  5
160
  2
BLK5
 10
0.0
 20
0.0
 30
0.0
  0
INSERT
  8
LC-002-000-----0
  5
161
  2
BLK6
 10
0.0
 20
0.0
 30
0.0
  0
INSERT
  8
LC-002-000-----0
  5
162
  2
BLK7
 10
0.0
 20
0.0
 30
0.0
  0
INSERT
  8
LC-004-005-----0
  6
CONTINUOUS
  5
163
  2
*X13
 10
442.489009
 20
530.755757
 30
0.0
  0
INSERT
  8
LC-002-000-----0
  5
164
  2
BLK8
 10
0.0
 20
0.0
 30
0.0
  0
INSERT
  8
LC-004-005-----0
  6
CONTINUOUS
  5
165
  2
*X15
 10
449.461014
 20
720.949289
 30
0.0
  0
INSERT
  8
LC-004-005-----0
  6
CONTINUOUS
  5
166
  2
*X16
 10
341.624465
 20
740.626957
 30
0.0
  0
DIMENSION
  8
LC-005-003-----0
  6
CONTINUOUS
  5
167
  2
*D17
 10
476.711014
 20
800.0
 30
0.0
 11
476.711014
 21
800.0
 31
0.0
 13
447.461014
 23
727.750456
 33
0.0
 14
505.961014
 24
734.449289
 34
0.0
  3
LC-DIM-L-0140-02-02
  0
DIMENSION
  8
LC-005-003-----0
  6
CONTINUOUS
  5
168
  2
*D18
 10
417.732092
 20
823.2
 30
0.0
 11
417.732092
 21
823.2
 31
0.0
  1
177
 13
329.50317
 23
744.205757
 33
0.0
 14
505.961014
 24
734.449289
 34
0.0
  3
LC-DIM-L-0140-02-02
  0
DIMENSION
  8
LC-005-003-----0
  6
CONTINUOUS
  5
169
  2
*D19
 10
666.4
 20
626.333026
 30
0.0
 11
666.4
 21
626.333026
 31
0.0
  1
216
 13
505.961014
 23
734.449289
 33
0.0
 14
482.556876
 24
518.216762
 34
0.0
 50
90.0
  3
LC-DIM-L-0140-02-02
  0
DIMENSION
  8
LC-005-003-----0
  6
CONTINUOUS
  5
16A
  2
*D20
 10
474.886888
 20
862.4
 30
0.0
 11
474.886888
 21
862.4
 31
0.0
  1
290
 13
329.50317
 23
744.205757
 33
0.0
 14
620.270607
 24
643.512863
 34
0.0
  3
LC-DIM-L-0140-02-02
  0
LINE
  8
LC-001-002-----0
  6
CONTINUOUS
  5
16C
 10
352.761745
 20
531.772026
 30
0.0
 11
341.624465
 21
531.772026
 31
0.0
  0
LINE
  8
LC-001-002-----0
  6
CONTINUOUS
  5
16D
 10
341.640369
 20
534.373205
 30
0.0
 11
341.624025
 21
531.772026
 31
0.0
  0
LINE
  8
LC-001-002-----0
  6
CONTINUOUS
  5
16E
 10
352.777649
 20
534.303226
 30
0.0
 11
352.761745
 21
531.772026
 31
0.0
  0
LINE
  8
LC-001-002-----0
  6
CONTINUOUS
  5
16F
 10
343.643905
 20
535.513223
 30
0.0
 11
341.647611
 21
535.525766
 31
0.0
  0
LINE
  8
LC-001-002-----0
  6
CONTINUOUS
  5
170
 10
351.536466
 20
536.997635
 30
0.0
 11
351.115809
 21
535.466275
 31
0.0
  0
LINE
  8
LC-001-002-----0
  6
CONTINUOUS
  5
171
 10
505.961014
 20
697.868397
 30
0.0
 11
505.961014
 21
734.449289
 31
0.0
  0
LINE
  8
LC-001-002-----0
  6
CONTINUOUS
  5
172
 10
505.961014
 20
651.698275
 30
0.0
 11
505.961014
 21
686.245625
 31
0.0
  0
ARC
  8
LC-001-002-----0
  6
CONTINUOUS
  5
173
 10
350.898515
 20
610.304052
 30
0.0
 40
140.0
 50
334.642363
 51
9.104492
  0
LINE
  8
LC-001-002-----0
  6
CONTINUOUS
  5
174
 10
443.489009
 20
530.755757
 30
0.0
 11
451.489009
 21
530.755757
 31
0.0
  0
LINE
  8
LC-001-002-----0
  6
CONTINUOUS
  5
175
 10
443.489009
 20
527.157681
 30
0.0
 11
443.489009
 21
530.755757
 31
0.0
  0
ARC
  8
LC-001-002-----0
  6
DASHDOT
 62
     2
  5
177
 10
389.087493
 20
576.627008
 30
0.0
 40
140.0
 50
354.642363
 51
29.104492
  0
ARC
  8
LC-003-002-RND-0
  6
DASHDOT
  5
179
 10
504.279443
 20
657.586408
 30
0.0
 40
2.3
 50
188.0
 51
218.0
  0
LINE
  8
LC-001-002-----0
  6
DASHDOT
 62
     2
  5
17A
 10
501.740829
 20
659.123401
 30
0.0
 11
502.001827
 21
657.266309
 31
0.0
  0
ARC
  8
LC-003-002-RND-0
  6
DASHDOT
  5
17B
 10
499.394353
 20
662.214769
 30
0.0
 40
1.3
 50
218.0
 51
263.0
  0
ARC
  8
LC-003-002-RND-0
  6
DASHDOT
  5
17C
 10
499.760293
 20
658.845055
 30
0.0
 40
2.0
 50
8.0
 51
83.0
  0
LINE
  8
LC-001-002-----0
  6
DASHDOT
 62
     2
  5
17D
 10
502.467018
 20
656.170386
 30
0.0
 11
511.410266
 21
644.723551
 31
0.0
  0
LINE
  8
LC-001-002-----0
  6
CONTINUOUS
  5
17E
 10
444.989009
 20
526.755757
 30
0.0
 11
443.489009
 21
527.157681
 31
0.0
  0
LINE
  8
LC-001-002-----0
  6
CONTINUOUS
  5
17F
 10
450.489009
 20
526.755757
 30
0.0
 11
444.989009
 21
526.755757
 31
0.0
  0
LINE
  8
LC-001-002-----0
  6
CONTINUOUS
  5
180
 10
450.489009
 20
526.755757
 30
0.0
 11
450.489009
 21
523.755757
 31
0.0
  0
LINE
  8
LC-001-002-----0
  6
CONTINUOUS
  5
181
 10
347.800514
 20
537.021109
 30
0.0
 11
347.379857
 21
535.489749
 31
0.0
  0
LINE
  8
LC-001-002-----0
  6
CONTINUOUS
  5
182
 10
471.832147
 20
540.755757
 30
0.0
 11
471.989009
 21
537.755757
 31
0.0
  0
LINE
  8
LC-001-002-----0
  6
CONTINUOUS
  5
183
 10
455.489009
 20
695.755757
 30
0.0
 11
472.489009
 21
695.755757
 31
0.0
  0
LINE
  8
LC-001-002-----0
  6
CONTINUOUS
  5
184
 10
472.489009
 20
695.755757
 30
0.0
 11
472.489009
 21
720.755757
 31
0.0
  0
LINE
  8
LC-001-002-----0
  6
CONTINUOUS
  5
185
 10
463.489009
 20
690.755757
 30
0.0
 11
457.989009
 21
690.755757
 31
0.0
  0
LINE
  8
LC-001-002-----0
  6
DASHDOT
 62
     2
  5
186
 10
533.752181
 20
551.124695
 30
0.0
 11
476.51151
 21
685.975264
 31
0.0
  0
ARC
  8
LC-003-002-RND-0
  6
CONTINUOUS
 62
     1
  5
187
 10
351.373744
 20
537.042334
 30
0.0
 40
0.16875
 50
344.64
 51
113.500066
  0
LINE
  8
LC-001-002-----0
  6
CONTINUOUS
  5
188
 10
476.918195
 20
536.798676
 30
0.0
 11
478.116551
 21
536.86148
 31
0.0
  0
LINE
  8
LC-001-002-----0
  6
CONTINUOUS
  5
189
 10
478.116551
 20
536.86148
 30
0.0
 11
470.449526
 21
683.157027
 31
0.0
  0
LINE
  8
LC-001-002-----0
  6
DASHDOT
 62
     2
  5
18A
 10
532.647575
 20
550.655817
 30
0.0
 11
533.752181
 21
551.124695
 31
0.0
  0
LINE
  8
LC-001-002-----0
  6
CONTINUOUS
  5
18B
 10
450.489009
 20
720.755757
 30
0.0
 11
450.489009
 21
714.755757
 31
0.0
  0
LINE
  8
LC-001-002-----0
  6
DASHDOT
 62
     2
  5
18C
 10
329.50317
 20
638.930757
 30
0.0
 11
403.50317
 21
638.930757
 31
0.0
  0
ARC
  8
LC-003-002-RND-0
  6
CONTINUOUS
 62
     1
  5
18D
 10
485.961014
 20
537.924929
 30
0.0
 40
20.0
 50
305.773147
 51
360.0
  0
ARC
  8
LC-003-002-RND-0
  6
CONTINUOUS
 62
     1
  5
18E
 10
485.961014
 20
537.924929
 30
0.0
 40
20.0
 50
260.200151
 51
305.773147
  0
ARC
  8
LC-003-002-RND-0
  6
DASHDOT
  5
18F
 10
531.866113
 20
552.496827
 30
0.0
 40
2.0
 50
203.0
 51
293.0
  0
LINE
  8
LC-001-002-----0
  6
CONTINUOUS
  5
190
 10
329.50317
 20
740.205757
 30
0.0
 11
329.50317
 21
537.655757
 31
0.0
  0
LINE
  8
LC-001-002-----0
  6
CONTINUOUS
  5
191
 10
340.50317
 20
740.205757
 30
0.0
 11
340.50317
 21
537.655757
 31
0.0
  0
ARC
  8
LC-003-002-RND-0
  6
CONTINUOUS
 62
     1
  5
192
 10
347.637792
 20
537.065808
 30
0.0
 40
0.16875
 50
344.64
 51
113.500066
  0
LINE
  8
LC-001-002-----0
  6
CONTINUOUS
  5
193
 10
353.50317
 20
740.205757
 30
0.0
 11
353.50317
 21
537.655757
 31
0.0
  0
LINE
  8
LC-001-002-----0
  6
CONTINUOUS
  5
194
 10
341.647611
 20
535.525766
 30
0.0
 11
341.640369
 21
534.373205
 31
0.0
  0
LINE
  8
LC-001-002-----0
  6
CONTINUOUS
  5
195
 10
351.115809
 20
535.466275
 30
0.0
 11
352.784891
 21
535.455788
 31
0.0
  0
LINE
  8
LC-001-002-----0
  6
CONTINUOUS
  5
196
 10
352.784891
 20
535.455788
 30
0.0
 11
352.777649
 21
534.303226
 31
0.0
  0
LINE
  8
LC-001-002-----0
  6
CONTINUOUS
  5
197
 10
343.643905
 20
535.513223
 30
0.0
 11
347.570503
 21
537.220561
 31
0.0
  0
LINE
  8
LC-001-002-----0
  6
CONTINUOUS
  5
198
 10
347.379857
 20
535.489749
 30
0.0
 11
351.306455
 21
537.197087
 31
0.0
  0
LINE
  8
LC-001-002-----0
  6
CONTINUOUS
  5
199
 10
447.489009
 20
539.755757
 30
0.0
 11
447.489009
 21
539.755757
 31
0.0
  0
LINE
  8
LC-001-002-----0
  6
CONTINUOUS
  5
19A
 10
441.539009
 20
700.255757
 30
0.0
 11
441.539009
 21
700.255757
 31
0.0
  0
LINE
  8
LC-001-002-----0
  6
CONTINUOUS
  5
19B
 10
444.789009
 20
524.205757
 30
0.0
 11
434.489009
 21
524.205757
 31
0.0
  0
LINE
  8
LC-001-002-----0
  6
CONTINUOUS
  5
19C
 10
451.489009
 20
690.255757
 30
0.0
 11
451.489009
 21
690.255757
 31
0.0
  0
ARC
  8
LC-003-002-RND-0
  6
CONTINUOUS
 62
     1
  5
19D
 10
453.989009
 20
690.255757
 30
0.0
 40
2.5
 50
180.0
 51
270.0
  0
ARC
  8
LC-003-002-RND-0
  6
CONTINUOUS
 62
     1
  5
19E
 10
453.989009
 20
538.255757
 30
0.0
 40
2.5
 50
90.0
 51
180.0
  0
LINE
  8
LC-001-002-----0
  6
CONTINUOUS
  5
19F
 10
444.789009
 20
524.205757
 30
0.0
 11
444.789009
 21
525.955757
 31
0.0
  0
LINE
  8
LC-001-002-----0
  6
CONTINUOUS
  5
1A0
 10
434.489009
 20
524.205757
 30
0.0
 11
434.489009
 21
536.755757
 31
0.0
  0
LINE
  8
LC-001-002-----0
  6
CONTINUOUS
  5
1A1
 10
444.789009
 20
716.005757
 30
0.0
 11
440.789009
 21
713.696356
 31
0.0
  0
LINE
  8
LC-001-002-----0
  6
CONTINUOUS
  5
1A2
 10
403.363474
 20
740.205757
 30
0.0
 11
421.374204
 21
699.850298
 31
0.0
  0
LINE
  8
LC-001-002-----0
  6
CONTINUOUS
  5
1A3
 10
351.00317
 20
748.255757
 30
0.0
 11
343.00317
 21
748.255757
 31
0.0
  0
ARC
  8
LC-003-002-RND-0
  6
CONTINUOUS
 62
     1
  5
1A4
 10
351.00317
 20
745.755757
 30
0.0
 40
2.5
 50
360.0
 51
90.0
  0
LINE
  8
LC-001-002-----0
  6
CONTINUOUS
  5
1A5
 10
340.50317
 20
745.755757
 30
0.0
 11
340.50317
 21
740.205757
 31
0.0
  0
LINE
  8
LC-001-002-----0
  6
CONTINUOUS
  5
1A6
 10
340.50317
 20
740.205757
 30
0.0
 11
329.50317
 21
740.205757
 31
0.0
  0
LINE
  8
LC-008-007-KH--0
  6
DASHDOT
  5
1A8
 10
1415.951819
 20
-9032647.619525
 30
0.0
 11
1415.951819
 21
9033859.873525
 31
0.0
  0
LINE
  8
LC-001-002-----0
  6
CONTINUOUS
  5
1A9
 10
444.989009
 20
526.755757
 30
0.0
 11
450.489009
 21
526.755757
 31
0.0
  0
LINE
  8
LC-001-002-----0
  6
CONTINUOUS
  5
1AA
 10
335.25317
 20
744.205757
 30
0.0
 11
329.50317
 21
744.205757
 31
0.0
  0
ARC
  8
LC-003-002-RND-0
  6
CONTINUOUS
 62
     1
  5
1AB
 10
343.00317
 20
745.755757
 30
0.0
 40
2.5
 50
90.0
 51
180.0
  0
LINE
  8
LC-001-002-----0
  6
CONTINUOUS
  5
1AC
 10
329.50317
 20
744.205757
 30
0.0
 11
329.50317
 21
740.205757
 31
0.0
  0
LINE
  8
LC-001-002-----0
  6
CONTINUOUS
  5
1AD
 10
358.25317
 20
748.255757
 30
0.0
 11
358.25317
 21
745.205757
 31
0.0
  0
LINE
  8
LC-001-002-----0
  6
CONTINUOUS
  5
1AE
 10
353.50317
 20
745.755757
 30
0.0
 11
353.50317
 21
740.205757
 31
0.0
  0
LINE
  8
LC-001-002-----0
  6
CONTINUOUS
  5
1AF
 10
447.489009
 20
703.755757
 30
0.0
 11
446.489009
 21
702.755757
 31
0.0
  0
LINE
  8
LC-001-002-----0
  6
CONTINUOUS
  5
1B0
 10
453.989009
 20
687.755757
 30
0.0
 11
463.489009
 21
687.755757
 31
0.0
  0
LINE
  8
LC-001-002-----0
  6
CONTINUOUS
  5
1B1
 10
505.961014
 20
720.755757
 30
0.0
 11
457.961013
 21
720.755757
 31
0.0
  0
LINE
  8
LC-001-002-----0
  6
DASHDOT
 62
     2
  5
1B2
 10
468.883584
 20
695.755757
 30
0.0
 11
528.462179
 21
555.397384
 31
0.0
  0
LINE
  8
LC-001-002-----0
  6
DASHDOT
 62
     2
  5
1B3
 10
484.753835
 20
678.842227
 30
0.0
 11
498.369939
 21
661.414409
 31
0.0
  0
ARC
  8
LC-001-002-----0
  6
DASHDOT
 62
     2
  5
1B4
 10
389.087493
 20
576.627008
 30
0.0
 40
140.0
 50
46.895508
 51
53.189036
  0
ARC
  8
LC-003-002-RND-0
  6
DASHDOT
  5
1B5
 10
529.054839
 20
555.024887
 30
0.0
 40
0.7
 50
147.849905
 51
203.0
  0
ARC
  8
LC-003-002-RND-0
  6
DASHDOT
  5
1B6
 10
529.19202
 20
554.701709
 30
0.0
 40
0.7
 50
203.0
 51
258.150095
  0
LINE
  8
LC-001-002-----0
  6
DASHDOT
 62
     2
  5
1B7
 10
528.547666
 20
554.428197
 30
0.0
 11
528.410485
 21
554.751375
 31
0.0
  0
LINE
  8
LC-001-002-----0
  6
DASHDOT
 62
     2
  5
1B8
 10
472.233193
 20
689.656086
 30
0.0
 11
471.4051
 21
691.606951
 31
0.0
  0
LINE
  8
LC-001-002-----0
  6
DASHDOT
 62
     2
  5
1B9
 10
472.233193
 20
689.656086
 30
0.0
 11
471.4051
 21
691.606951
 31
0.0
  0
ARC
  8
LC-003-002-RND-0
  6
DASHDOT
  5
1BA
 10
474.350355
 20
690.554768
 30
0.0
 40
2.3
 50
203.0
 51
233.189036
  0
ARC
  8
LC-003-002-RND-0
  6
CONTINUOUS
 62
     1
  5
1BB
 10
468.649114
 20
694.582143
 30
0.0
 40
1.3
 50
115.474014
 51
183.0
  0
LINE
  8
LC-001-002-----0
  6
DASHDOT
 62
     2
  5
1BC
 10
470.565453
 20
693.585035
 30
0.0
 11
469.644037
 21
695.755757
 31
0.0
  0
LINE
  8
LC-001-002-----0
  6
DASHDOT
 62
     2
  5
1BD
 10
465.489009
 20
704.255757
 30
0.0
 11
465.489009
 21
699.255757
 31
0.0
  0
ARC
  8
LC-003-002-RND-0
  6
DASHDOT
  5
1BE
 10
469.9211
 20
693.311523
 30
0.0
 40
0.7
 50
327.849905
 51
23.0
  0
CIRCLE
  8
LC-001-002-----0
  6
CONTINUOUS
  5
1BF
 10
465.489009
 20
701.755757
 30
0.0
 40
2.5
  0
LINE
  8
LC-001-002-----0
  6
CONTINUOUS
  5
1C0
 10
470.989009
 20
715.755757
 30
0.0
 11
454.489009
 21
715.755757
 31
0.0
  0
LINE
  8
LC-001-002-----0
  6
CONTINUOUS
  5
1C1
 10
454.489009
 20
715.755757
 30
0.0
 11
454.489009
 21
695.755757
 31
0.0
  0
LINE
  8
LC-001-002-----0
  6
CONTINUOUS
  5
1C2
 10
454.489009
 20
695.755757
 30
0.0
 11
465.489009
 21
695.755757
 31
0.0
  0
LINE
  8
LC-001-002-----0
  6
CONTINUOUS
  5
1C3
 10
470.989009
 20
701.255757
 30
0.0
 11
470.989009
 21
715.755757
 31
0.0
  0
LINE
  8
LC-001-002-----0
  6
CONTINUOUS
  5
1C4
 10
457.489009
 20
695.755757
 30
0.0
 11
457.489009
 21
709.755757
 31
0.0
  0
LINE
  8
LC-001-002-----0
  6
CONTINUOUS
  5
1C5
 10
470.989009
 20
712.755757
 30
0.0
 11
454.489009
 21
712.755757
 31
0.0
  0
ARC
  8
LC-003-002-RND-0
  6
CONTINUOUS
 62
     1
  5
1C6
 10
465.489009
 20
701.255757
 30
0.0
 40
5.5
 50
270.0
 51
0.0
  0
LINE
  8
LC-001-002-----0
  6
CONTINUOUS
  5
1C7
 10
470.989009
 20
709.755757
 30
0.0
 11
457.489009
 21
709.755757
 31
0.0
  0
LINE
  8
LC-001-002-----0
  6
DASHDOT
 62
     2
  5
1C8
 10
470.51376
 20
692.939026
 30
0.0
 11
470.904491
 21
692.018521
 31
0.0
  0
LINE
  8
LC-001-002-----0
  6
CONTINUOUS
  5
1C9
 10
474.816264
 20
538.691264
 30
0.0
 11
474.685424
 21
541.187837
 31
0.0
  0
LINE
  8
LC-001-002-----0
  6
CONTINUOUS
  5
1CA
 10
474.355771
 20
541.745806
 30
0.0
 11
474.337396
 21
542.096412
 31
0.0
  0
ARC
  8
LC-003-002-RND-0
  6
CONTINUOUS
 62
     1
  5
1CB
 10
476.813523
 20
538.795935
 30
0.0
 40
2.0
 50
183.0
 51
273.0
  0
LINE
  8
LC-001-002-----0
  6
CONTINUOUS
  5
1CC
 10
474.60692
 20
542.685782
 30
0.0
 11
474.479022
 21
545.126231
 31
0.0
  0
ARC
  8
LC-003-002-RND-0
  6
CONTINUOUS
 62
     1
  5
1CD
 10
466.765714
 20
692.304909
 30
0.0
 40
0.7
 50
307.849905
 51
3.0
  0
ARC
  8
LC-003-002-RND-0
  6
DASHDOT
  5
1CE
 10
470.760747
 20
691.333439
 30
0.0
 40
0.7
 50
23.0
 51
78.150095
  0
LINE
  8
LC-001-002-----0
  6
DASHDOT
 62
     2
  5
1CF
 10
529.048276
 20
554.016627
 30
0.0
 11
530.025103
 21
551.715365
 31
0.0
  0
LINE
  8
LC-001-002-----0
  6
CONTINUOUS
  5
1D0
 10
454.489009
 20
720.755757
 30
0.0
 11
450.489009
 21
720.755757
 31
0.0
  0
ARC
  8
LC-003-002-RND-0
  6
CONTINUOUS
 62
     1
  5
1D1
 10
359.25317
 20
745.205757
 30
0.0
 40
1.0
 50
180.0
 51
270.0
  0
LINE
  8
LC-001-002-----0
  6
CONTINUOUS
  5
1D2
 10
403.363474
 20
740.205757
 30
0.0
 11
353.50317
 21
740.205757
 31
0.0
  0
LINE
  8
LC-001-002-----0
  6
CONTINUOUS
  5
1D3
 10
432.989009
 20
703.705757
 30
0.0
 11
425.260812
 21
703.705757
 31
0.0
  0
LINE
  8
LC-001-002-----0
  6
DASHDOT
 62
     2
  5
1D4
 10
474.85617
 20
699.567772
 30
0.0
 11
472.489009
 21
700.524168
 31
0.0
  0
ARC
  8
LC-003-002-RND-0
  6
DASHDOT
  5
1D5
 10
474.593946
 20
698.918744
 30
0.0
 40
0.7
 50
12.849905
 51
68.0
  0
ARC
  8
LC-003-002-RND-0
  6
CONTINUOUS
 62
     1
  5
1D6
 10
432.989009
 20
705.205757
 30
0.0
 40
1.5
 50
270.0
 51
360.0
  0
LINE
  8
LC-001-002-----0
  6
CONTINUOUS
  5
1D7
 10
424.346635
 20
704.300444
 30
0.0
 11
405.989009
 21
744.205757
 31
0.0
  0
LINE
  8
LC-001-002-----0
  6
DASHDOT
 62
     2
  5
1D8
 10
475.276415
 20
699.074422
 30
0.0
 11
476.203599
 21
698.699816
 31
0.0
  0
LINE
  8
LC-001-002-----0
  6
CONTINUOUS
  5
1D9
 10
440.539009
 20
699.255757
 30
0.0
 11
422.288318
 21
699.255757
 31
0.0
  0
ARC
  8
LC-003-002-RND-0
  6
DASHDOT
  5
1DA
 10
476.586383
 20
698.113747
 30
0.0
 40
0.7
 50
68.0
 51
123.150095
  0
LINE
  8
LC-001-002-----0
  6
DASHDOT
 62
     2
  5
1DB
 10
478.813627
 20
697.968856
 30
0.0
 11
476.848607
 21
698.762776
 31
0.0
  0
ARC
  8
LC-003-002-RND-0
  6
DASHDOT
  5
1DC
 10
479.675222
 20
700.101379
 30
0.0
 40
2.3
 50
248.0
 51
278.189036
  0
ARC
  8
LC-001-002-----0
  6
DASHDOT
 62
     2
  5
1DD
 10
499.944366
 20
559.25234
 30
0.0
 40
140.0
 50
91.895508
 51
98.189036
  0
LINE
  8
LC-001-002-----0
  6
DASHDOT
 62
     2
  5
1DE
 10
620.270607
 20
643.512863
 30
0.0
 11
484.441588
 21
698.391349
 31
0.0
  0
LINE
  8
LC-001-002-----0
  6
DASHDOT
 62
     2
  5
1DF
 10
472.489009
 20
699.769193
 30
0.0
 11
613.508763
 21
642.793515
 31
0.0
  0
LINE
  8
LC-001-002-----0
  6
CONTINUOUS
  5
1E0
 10
466.989097
 20
688.042504
 30
0.0
 11
474.479022
 21
545.126231
 31
0.0
  0
LINE
  8
LC-001-002-----0
  6
DASHDOT
 62
     2
  5
1E1
 10
495.313611
 20
699.175734
 30
0.0
 11
517.264978
 21
696.480445
 31
0.0
  0
ARC
  8
LC-003-002-RND-0
  6
DASHDOT
  5
1E2
 10
517.423408
 20
697.770755
 30
0.0
 40
1.3
 50
263.0
 51
308.0
  0
ARC
  8
LC-003-002-RND-0
  6
DASHDOT
  5
1E3
 10
520.064915
 20
695.646766
 30
0.0
 40
2.0
 50
53.0
 51
128.0
  0
LINE
  8
LC-001-002-----0
  6
DASHDOT
 62
     2
  5
1E4
 10
521.268545
 20
697.244037
 30
0.0
 11
522.76626
 21
696.115428
 31
0.0
  0
ARC
  8
LC-003-002-RND-0
  6
DASHDOT
  5
1E5
 10
524.150435
 20
697.952289
 30
0.0
 40
2.3
 50
233.0
 51
263.0
  0
LINE
  8
LC-001-002-----0
  6
DASHDOT
 62
     2
  5
1E6
 10
523.870135
 20
695.669433
 30
0.0
 11
538.288101
 21
693.89913
 31
0.0
  0
ARC
  8
LC-001-002-----0
  6
DASHDOT
 62
     2
  5
1E7
 10
499.944366
 20
559.25234
 30
0.0
 40
140.0
 50
39.642363
 51
74.104492
  0
ARC
  8
LC-003-002-RND-0
  6
CONTINUOUS
 62
     1
  5
1E8
 10
466.87818
 20
690.158941
 30
0.0
 40
0.7
 50
3.0
 51
58.150095
  0
LINE
  8
LC-001-002-----0
  6
CONTINUOUS
  5
1E9
 10
467.688138
 20
688.079139
 30
0.0
 11
467.57722
 21
690.195576
 31
0.0
  0
LINE
  8
LC-001-002-----0
  6
DASHDOT
 62
     2
  5
1EA
 10
619.821079
 20
642.400243
 30
0.0
 11
620.270607
 21
643.512863
 31
0.0
  0
LINE
  8
LC-001-002-----0
  6
CONTINUOUS
  5
1EB
 10
475.755135
 20
673.635124
 30
0.0
 11
482.589422
 21
652.60135
 31
0.0
  0
ARC
  8
LC-003-002-RND-0
  6
CONTINUOUS
 62
     1
  5
1EC
 10
475.054811
 20
541.782441
 30
0.0
 40
0.7
 50
183.0
 51
238.150095
  0
ARC
  8
LC-003-002-RND-0
  6
CONTINUOUS
 62
     1
  5
1ED
 10
475.036437
 20
542.133047
 30
0.0
 40
0.7
 50
127.849905
 51
183.0
  0
ARC
  8
LC-003-002-RND-0
  6
DASHDOT
  5
1EE
 10
617.966711
 20
643.149456
 30
0.0
 40
2.0
 50
248.0
 51
338.0
  0
LINE
  8
LC-001-002-----0
  6
CONTINUOUS
  5
1EF
 10
467.195231
 20
691.752174
 30
0.0
 11
467.247567
 21
690.753545
 31
0.0
  0
LINE
  8
LC-001-002-----0
  6
DASHDOT
 62
     2
  5
1F0
 10
614.899539
 20
642.231605
 30
0.0
 11
617.217498
 21
641.295088
 31
0.0
  0
LINE
  8
LC-001-002-----0
  6
CONTINUOUS
  5
1F1
 10
467.464755
 20
692.341544
 30
0.0
 11
467.350896
 21
694.514106
 31
0.0
  0
ARC
  8
LC-003-002-RND-0
  6
DASHDOT
  5
1F2
 10
614.516755
 20
642.817673
 30
0.0
 40
0.7
 50
248.0
 51
303.150095
  0
ARC
  8
LC-003-002-RND-0
  6
DASHDOT
  5
1F3
 10
614.191232
 20
642.949193
 30
0.0
 40
0.7
 50
192.849905
 51
248.0
  0
LINE
  8
LC-001-002-----0
  6
DASHDOT
 62
     2
  5
1F4
 10
462.989009
 20
701.755757
 30
0.0
 11
467.989009
 21
701.755757
 31
0.0
  0
ARC
  8
LC-001-002-----0
  6
CONTINUOUS
  5
1F5
 10
350.898515
 20
610.304052
 30
0.0
 40
140.0
 50
26.895508
 51
33.189036
  0
LINE
  8
LC-001-002-----0
  6
CONTINUOUS
  5
1F6
 10
440.789009
 20
707.205757
 30
0.0
 11
440.789009
 21
713.696356
 31
0.0
  0
LINE
  8
LC-001-002-----0
  6
CONTINUOUS
  5
1F7
 10
441.539009
 20
700.255757
 30
0.0
 11
441.539009
 21
702.755757
 31
0.0
  0
LINE
  8
LC-001-002-----0
  6
CONTINUOUS
  5
1F8
 10
457.961012
 20
717.949301
 30
0.0
 11
457.961014
 21
729.949301
 31
0.0
  0
LINE
  8
LC-001-002-----0
  6
CONTINUOUS
  5
1F9
 10
454.961013
 20
723.449302
 30
0.0
 11
454.961012
 21
717.949302
 31
0.0
  0
ARC
  8
LC-003-002-RND-0
  6
CONTINUOUS
 62
     1
  5
1FA
 10
469.984986
 20
688.199511
 30
0.0
 40
2.3
 50
183.0
 51
213.189036
  0
LINE
  8
LC-001-002-----0
  6
CONTINUOUS
  5
1FB
 10
484.973452
 20
649.295594
 30
0.0
 11
484.583547
 21
647.461232
 31
0.0
  0
ARC
  8
LC-003-002-RND-0
  6
CONTINUOUS
 62
     1
  5
1FC
 10
483.017157
 20
649.711417
 30
0.0
 40
2.0
 50
348.0
 51
63.0
  0
LINE
  8
LC-001-002-----0
  6
CONTINUOUS
  5
1FD
 10
454.961012
 20
717.949302
 30
0.0
 11
457.961012
 21
717.949301
 31
0.0
  0
LINE
  8
LC-001-002-----0
  6
CONTINUOUS
  5
1FE
 10
448.961014
 20
723.449289
 30
0.0
 11
454.961013
 21
723.449289
 31
0.0
  0
LINE
  8
LC-004-005-----0
  6
CONTINUOUS
  5
1FF
 10
447.461014
 20
723.507815
 30
0.0
 11
448.961014
 21
722.007815
 31
0.0
  0
LINE
  8
LC-001-002-----0
  6
CONTINUOUS
  5
200
 10
484.645856
 20
646.272296
 30
0.0
 11
489.134712
 21
632.457019
 31
0.0
  0
LINE
  8
LC-004-005-----0
  6
CONTINUOUS
  5
201
 10
447.461014
 20
727.750456
 30
0.0
 11
451.762181
 21
723.449289
 31
0.0
  0
LINE
  8
LC-004-005-----0
  6
CONTINUOUS
  5
202
 10
455.961014
 20
719.250456
 30
0.0
 11
456.762181
 21
718.449289
 31
0.0
  0
ARC
  8
LC-003-002-RND-0
  6
CONTINUOUS
 62
     1
  5
203
 10
483.825796
 20
653.003072
 30
0.0
 40
1.3
 50
198.0
 51
243.0
  0
LINE
  8
LC-001-002-----0
  6
CONTINUOUS
  5
204
 10
483.925138
 20
651.49343
 30
0.0
 11
483.235608
 21
651.844764
 31
0.0
  0
ARC
  8
LC-003-002-RND-0
  6
CONTINUOUS
 62
     1
  5
205
 10
486.833286
 20
646.983036
 30
0.0
 40
2.3
 50
168.0
 51
198.0
  0
LINE
  8
LC-004-005-----0
  6
CONTINUOUS
  5
206
 10
447.917533
 20
731.536578
 30
0.0
 11
457.961014
 21
721.493097
 31
0.0
  0
LINE
  8
LC-004-005-----0
  6
CONTINUOUS
  5
207
 10
449.933398
 20
733.763354
 30
0.0
 11
457.961014
 21
725.735737
 31
0.0
  0
LINE
  8
LC-004-005-----0
  6
CONTINUOUS
  5
208
 10
453.490103
 20
734.449289
 30
0.0
 11
457.990103
 21
729.949289
 31
0.0
  0
LINE
  8
LC-004-005-----0
  6
CONTINUOUS
  5
209
 10
457.732744
 20
734.449289
 30
0.0
 11
462.232744
 21
729.949289
 31
0.0
  0
LINE
  8
LC-004-005-----0
  6
CONTINUOUS
  5
20A
 10
461.975384
 20
734.449289
 30
0.0
 11
466.475384
 21
729.949289
 31
0.0
  0
LINE
  8
LC-004-005-----0
  6
CONTINUOUS
  5
20B
 10
466.218025
 20
734.449289
 30
0.0
 11
470.718025
 21
729.949289
 31
0.0
  0
LINE
  8
LC-004-005-----0
  6
CONTINUOUS
  5
20C
 10
469.461014
 20
735.448941
 30
0.0
 11
472.461014
 21
732.448941
 31
0.0
  0
LINE
  8
LC-004-005-----0
  6
CONTINUOUS
  5
20D
 10
469.565455
 20
739.587141
 30
0.0
 11
473.203306
 21
735.949289
 31
0.0
  0
LINE
  8
LC-004-005-----0
  6
CONTINUOUS
  5
20E
 10
472.445947
 20
740.949289
 30
0.0
 11
477.445947
 21
735.949289
 31
0.0
  0
LINE
  8
LC-004-005-----0
  6
CONTINUOUS
  5
20F
 10
476.688588
 20
740.949289
 30
0.0
 11
481.688588
 21
735.949289
 31
0.0
  0
LINE
  8
LC-004-005-----0
  6
CONTINUOUS
  5
210
 10
480.931229
 20
740.949289
 30
0.0
 11
485.931229
 21
735.949289
 31
0.0
  0
LINE
  8
LC-004-005-----0
  6
CONTINUOUS
  5
211
 10
488.461014
 20
733.419504
 30
0.0
 11
491.931229
 21
729.949289
 31
0.0
  0
LINE
  8
LC-004-005-----0
  6
CONTINUOUS
  5
212
 10
485.173869
 20
740.949289
 30
0.0
 11
491.461014
 21
734.662144
 31
0.0
  0
LINE
  8
LC-004-005-----0
  6
CONTINUOUS
  5
213
 10
491.673869
 20
734.449289
 30
0.0
 11
496.173869
 21
729.949289
 31
0.0
  0
LINE
  8
LC-004-005-----0
  6
CONTINUOUS
  5
214
 10
489.41651
 20
740.949289
 30
0.0
 11
491.461014
 21
738.904785
 31
0.0
  0
LINE
  8
LC-004-005-----0
  6
CONTINUOUS
  5
215
 10
495.91651
 20
734.449289
 30
0.0
 11
500.41651
 21
729.949289
 31
0.0
  0
LINE
  8
LC-004-005-----0
  6
CONTINUOUS
  5
216
 10
500.159151
 20
734.449289
 30
0.0
 11
503.839694
 21
730.768746
 31
0.0
  0
LINE
  8
LC-004-005-----0
  6
CONTINUOUS
  5
217
 10
504.401791
 20
734.449289
 30
0.0
 11
505.961014
 21
732.890066
 31
0.0
  0
LINE
  8
LC-001-002-----0
  6
CONTINUOUS
  5
218
 10
447.489009
 20
706.205757
 30
0.0
 11
447.489009
 21
702.755757
 31
0.0
  0
LINE
  8
LC-001-002-----0
  6
CONTINUOUS
  5
219
 10
446.489009
 20
702.755757
 30
0.0
 11
441.539009
 21
702.755757
 31
0.0
  0
LINE
  8
LC-001-002-----0
  6
CONTINUOUS
  5
21A
 10
446.489009
 20
707.205757
 30
0.0
 11
440.789009
 21
707.205757
 31
0.0
  0
ARC
  8
LC-003-002-RND-0
  6
CONTINUOUS
 62
     1
  5
21B
 10
354.25317
 20
748.255757
 30
0.0
 40
4.0
 50
360.0
 51
90.0
  0
LINE
  8
LC-001-002-----0
  6
CONTINUOUS
  5
21C
 10
457.989009
 20
690.755757
 30
0.0
 11
457.989009
 21
695.755757
 31
0.0
  0
LINE
  8
LC-001-002-----0
  6
CONTINUOUS
  5
21D
 10
450.489009
 20
523.755757
 30
0.0
 11
482.556876
 21
518.216762
 31
0.0
  0
LINE
  8
LC-001-002-----0
  6
CONTINUOUS
  5
21E
 10
442.489009
 20
710.755757
 30
0.0
 11
449.489009
 21
710.755757
 31
0.0
  0
LINE
  8
LC-001-002-----0
  6
CONTINUOUS
  5
21F
 10
451.489009
 20
708.755757
 30
0.0
 11
451.489009
 21
689.755757
 31
0.0
  0
LINE
  8
LC-001-002-----0
  6
CONTINUOUS
  5
220
 10
442.489009
 20
710.755757
 30
0.0
 11
442.489009
 21
707.205757
 31
0.0
  0
LINE
  8
LC-001-002-----0
  6
CONTINUOUS
  5
221
 10
447.489009
 20
706.755757
 30
0.0
 11
447.489009
 21
702.755757
 31
0.0
  0
LINE
  8
LC-001-002-----0
  6
CONTINUOUS
  5
222
 10
447.489009
 20
702.755757
 30
0.0
 11
442.489009
 21
702.755757
 31
0.0
  0
LINE
  8
LC-001-002-----0
  6
CONTINUOUS
  5
223
 10
442.489009
 20
702.755757
 30
0.0
 11
442.489009
 21
698.755757
 31
0.0
  0
LINE
  8
LC-001-002-----0
  6
CONTINUOUS
  5
224
 10
442.489009
 20
698.755757
 30
0.0
 11
451.489009
 21
685.255757
 31
0.0
  0
LINE
  8
LC-001-002-----0
  6
CONTINUOUS
  5
225
 10
454.489009
 20
686.755757
 30
0.0
 11
463.489009
 21
686.755757
 31
0.0
  0
LINE
  8
LC-001-002-----0
  6
CONTINUOUS
  5
226
 10
463.489009
 20
686.755757
 30
0.0
 11
463.489009
 21
690.755757
 31
0.0
  0
LINE
  8
LC-001-002-----0
  6
CONTINUOUS
  5
227
 10
463.489009
 20
690.755757
 30
0.0
 11
457.989009
 21
690.755757
 31
0.0
  0
LINE
  8
LC-001-002-----0
  6
CONTINUOUS
  5
228
 10
457.989009
 20
690.755757
 30
0.0
 11
457.989009
 21
696.255757
 31
0.0
  0
LINE
  8
LC-001-002-----0
  6
CONTINUOUS
  5
229
 10
457.989009
 20
696.255757
 30
0.0
 11
466.489009
 21
696.255757
 31
0.0
  0
LINE
  8
LC-001-002-----0
  6
CONTINUOUS
  5
22A
 10
467.050571
 20
685.255757
 30
0.0
 11
451.489009
 21
685.255757
 31
0.0
  0
ARC
  8
LC-003-002-RND-0
  6
CONTINUOUS
 62
     1
  5
22B
 10
449.489009
 20
708.755757
 30
0.0
 40
2.0
 50
0.0
 51
90.0
  0
ARC
  8
LC-003-002-RND-0
  6
CONTINUOUS
 62
     1
  5
22C
 10
454.489009
 20
689.755757
 30
0.0
 40
3.0
 50
180.0
 51
270.0
  0
LINE
  8
LC-001-002-----0
  6
CONTINUOUS
  5
22D
 10
442.489009
 20
530.755757
 30
0.0
 11
449.489009
 21
530.755757
 31
0.0
  0
ARC
  8
LC-003-002-RND-0
  6
CONTINUOUS
 62
     1
  5
22E
 10
449.489009
 20
532.755757
 30
0.0
 40
2.0
 50
270.0
 51
0.0
  0
LINE
  8
LC-001-002-----0
  6
CONTINUOUS
  5
22F
 10
451.489009
 20
532.755757
 30
0.0
 11
451.489009
 21
541.755757
 31
0.0
  0
LINE
  8
LC-001-002-----0
  6
CONTINUOUS
  5
230
 10
442.489009
 20
534.755757
 30
0.0
 11
447.489009
 21
534.755757
 31
0.0
  0
LINE
  8
LC-001-002-----0
  6
CONTINUOUS
  5
231
 10
447.489009
 20
534.755757
 30
0.0
 11
447.489009
 21
538.205757
 31
0.0
  0
LINE
  8
LC-001-002-----0
  6
CONTINUOUS
  5
232
 10
442.489009
 20
530.755757
 30
0.0
 11
442.489009
 21
534.755757
 31
0.0
  0
LINE
  8
LC-001-002-----0
  6
CONTINUOUS
  5
233
 10
442.489009
 20
539.205757
 30
0.0
 11
442.489009
 21
542.255757
 31
0.0
  0
LINE
  8
LC-001-002-----0
  6
CONTINUOUS
  5
234
 10
471.989009
 20
541.755757
 30
0.0
 11
471.989009
 21
537.755757
 31
0.0
  0
LINE
  8
LC-001-002-----0
  6
CONTINUOUS
  5
235
 10
471.989009
 20
537.755757
 30
0.0
 11
466.489009
 21
537.755757
 31
0.0
  0
LINE
  8
LC-001-002-----0
  6
CONTINUOUS
  5
236
 10
466.489009
 20
537.755757
 30
0.0
 11
466.489009
 21
532.255757
 31
0.0
  0
LINE
  8
LC-001-002-----0
  6
CONTINUOUS
  5
237
 10
466.489009
 20
532.255757
 30
0.0
 11
474.989009
 21
532.255757
 31
0.0
  0
LINE
  8
LC-001-002-----0
  6
CONTINUOUS
  5
238
 10
443.489009
 20
543.255757
 30
0.0
 11
474.427448
 21
543.255757
 31
0.0
  0
LINE
  8
LC-001-002-----0
  6
CONTINUOUS
  5
239
 10
451.489009
 20
541.755757
 30
0.0
 11
471.989009
 21
541.755757
 31
0.0
  0
LINE
  8
LC-001-002-----0
  6
CONTINUOUS
  5
23A
 10
442.489009
 20
698.755757
 30
0.0
 11
442.489009
 21
542.255757
 31
0.0
  0
LINE
  8
LC-001-002-----0
  6
CONTINUOUS
  5
23B
 10
451.489009
 20
685.255757
 30
0.0
 11
442.480807
 21
543.255757
 31
0.0
  0
ARC
  8
LC-003-002-RND-0
  6
CONTINUOUS
 62
     1
  5
23C
 10
443.489009
 20
542.255757
 30
0.0
 40
1.0
 50
90.0
 51
180.0
  0
LINE
  8
LC-001-002-----0
  6
CONTINUOUS
  5
23D
 10
474.989009
 20
532.255757
 30
0.0
 11
466.489009
 21
696.255757
 31
0.0
  0
LINE
  8
LC-001-002-----0
  6
CONTINUOUS
  5
23E
 10
448.489009
 20
690.255757
 30
0.0
 11
451.489009
 21
690.255757
 31
0.0
  0
LINE
  8
LC-001-002-----0
  6
CONTINUOUS
  5
23F
 10
335.25317
 20
748.255757
 30
0.0
 11
335.25317
 21
744.205757
 31
0.0
  0
ARC
  8
LC-003-002-RND-0
  6
CONTINUOUS
 62
     1
  5
240
 10
339.25317
 20
748.255757
 30
0.0
 40
4.0
 50
90.0
 51
180.0
  0
LINE
  8
LC-001-002-----0
  6
CONTINUOUS
  5
241
 10
354.25317
 20
752.255757
 30
0.0
 11
339.25317
 21
752.255757
 31
0.0
  0
LINE
  8
LC-001-002-----0
  6
CONTINUOUS
  5
242
 10
354.25317
 20
525.605757
 30
0.0
 11
339.25317
 21
525.605757
 31
0.0
  0
ARC
  8
LC-003-002-RND-0
  6
CONTINUOUS
 62
     1
  5
243
 10
339.25317
 20
529.605757
 30
0.0
 40
4.0
 50
180.0
 51
270.0
  0
LINE
  8
LC-001-002-----0
  6
CONTINUOUS
  5
244
 10
335.25317
 20
529.605757
 30
0.0
 11
335.25317
 21
533.655757
 31
0.0
  0
ARC
  8
LC-003-002-RND-0
  6
CONTINUOUS
 62
     1
  5
245
 10
354.25317
 20
529.605757
 30
0.0
 40
4.0
 50
270.0
 51
360.0
  0
LINE
  8
LC-001-002-----0
  6
CONTINUOUS
  5
246
 10
405.264501
 20
533.655757
 30
0.0
 11
359.25317
 21
533.655757
 31
0.0
  0
LINE
  8
LC-001-002-----0
  6
CONTINUOUS
  5
247
 10
454.489009
 20
695.755757
 30
0.0
 11
454.489009
 21
720.755757
 31
0.0
  0
LINE
  8
LC-001-002-----0
  6
CONTINUOUS
  5
248
 10
454.489009
 20
695.755757
 30
0.0
 11
455.489009
 21
695.755757
 31
0.0
  0
LINE
  8
LC-001-002-----0
  6
CONTINUOUS
  5
249
 10
447.489009
 20
534.755757
 30
0.0
 11
440.489009
 21
534.755757
 31
0.0
  0
LINE
  8
LC-001-002-----0
  6
CONTINUOUS
  5
24A
 10
457.489009
 20
528.635513
 30
0.0
 11
497.652564
 21
521.698172
 31
0.0
  0
LINE
  8
LC-001-002-----0
  6
CONTINUOUS
  5
24B
 10
446.489009
 20
539.205757
 30
0.0
 11
441.539009
 21
539.205757
 31
0.0
  0
LINE
  8
LC-001-002-----0
  6
CONTINUOUS
  5
24C
 10
447.489009
 20
535.755757
 30
0.0
 11
447.489009
 21
538.205757
 31
0.0
  0
LINE
  8
LC-001-002-----0
  6
CONTINUOUS
  5
24D
 10
453.989009
 20
540.755757
 30
0.0
 11
471.832147
 21
540.755757
 31
0.0
  0
LINE
  8
LC-001-002-----0
  6
CONTINUOUS
  5
24E
 10
448.489009
 20
694.255757
 30
0.0
 11
451.489009
 21
694.255757
 31
0.0
  0
LINE
  8
LC-001-002-----0
  6
CONTINUOUS
  5
24F
 10
441.539009
 20
541.705757
 30
0.0
 11
441.539009
 21
539.205757
 31
0.0
  0
LINE
  8
LC-001-002-----0
  6
CONTINUOUS
  5
250
 10
440.489009
 20
534.755757
 30
0.0
 11
440.489009
 21
528.438364
 31
0.0
  0
LINE
  8
LC-001-002-----0
  6
CONTINUOUS
  5
251
 10
471.989009
 20
537.755757
 30
0.0
 11
465.989009
 21
537.755757
 31
0.0
  0
LINE
  8
LC-001-002-----0
  6
CONTINUOUS
  5
252
 10
465.989009
 20
537.755757
 30
0.0
 11
465.989009
 21
532.255757
 31
0.0
  0
LINE
  8
LC-001-002-----0
  6
CONTINUOUS
  5
253
 10
465.989009
 20
532.255757
 30
0.0
 11
457.489009
 21
532.255757
 31
0.0
  0
LINE
  8
LC-001-002-----0
  6
CONTINUOUS
  5
254
 10
450.489009
 20
714.755757
 30
0.0
 11
444.989009
 21
714.755757
 31
0.0
  0
LINE
  8
LC-001-002-----0
  6
CONTINUOUS
  5
255
 10
443.489009
 20
714.353834
 30
0.0
 11
443.489009
 21
710.755757
 31
0.0
  0
LINE
  8
LC-001-002-----0
  6
CONTINUOUS
  5
256
 10
443.489009
 20
710.755757
 30
0.0
 11
451.489009
 21
710.755757
 31
0.0
  0
LINE
  8
LC-001-002-----0
  6
CONTINUOUS
  5
257
 10
444.989009
 20
714.755757
 30
0.0
 11
443.489009
 21
714.353834
 31
0.0
  0
LINE
  8
LC-001-002-----0
  6
CONTINUOUS
  5
258
 10
457.489009
 20
528.635513
 30
0.0
 11
457.489009
 21
532.255757
 31
0.0
  0
LINE
  8
LC-001-002-----0
  6
CONTINUOUS
  5
259
 10
451.489009
 20
710.755757
 30
0.0
 11
451.489009
 21
694.255757
 31
0.0
  0
LINE
  8
LC-001-002-----0
  6
CONTINUOUS
  5
25A
 10
448.489009
 20
694.255757
 30
0.0
 11
448.489009
 21
690.255757
 31
0.0
  0
LINE
  8
LC-001-002-----0
  6
CONTINUOUS
  5
25B
 10
451.489009
 20
538.255757
 30
0.0
 11
451.489009
 21
530.755757
 31
0.0
  0
LINE
  8
LC-001-002-----0
  6
CONTINUOUS
  5
25C
 10
440.539009
 20
542.705757
 30
0.0
 11
404.99757
 21
542.705757
 31
0.0
  0
LINE
  8
LC-001-002-----0
  6
CONTINUOUS
  5
25D
 10
407.763288
 20
537.567308
 30
0.0
 11
406.21473
 21
534.344207
 31
0.0
  0
ARC
  8
LC-003-002-RND-0
  6
CONTINUOUS
 62
     1
  5
25E
 10
432.989009
 20
536.755757
 30
0.0
 40
1.5
 50
360.0
 51
90.0
  0
LINE
  8
LC-001-002-----0
  6
CONTINUOUS
  5
25F
 10
432.989009
 20
538.255757
 30
0.0
 11
408.713518
 21
538.255757
 31
0.0
  0
LINE
  8
LC-001-002-----0
  6
CONTINUOUS
  5
260
 10
403.50317
 20
537.655757
 30
0.0
 11
353.50317
 21
537.655757
 31
0.0
  0
ARC
  8
LC-003-002-RND-0
  6
CONTINUOUS
 62
     1
  5
261
 10
359.25317
 20
532.655757
 30
0.0
 40
1.0
 50
90.0
 51
180.0
  0
LINE
  8
LC-001-002-----0
  6
CONTINUOUS
  5
262
 10
447.489009
 20
538.205757
 30
0.0
 11
446.489009
 21
539.205757
 31
0.0
  0
LINE
  8
LC-001-002-----0
  6
CONTINUOUS
  5
263
 10
353.50317
 20
532.555757
 30
0.0
 11
353.50317
 21
537.655757
 31
0.0
  0
LINE
  8
LC-001-002-----0
  6
CONTINUOUS
  5
264
 10
358.25317
 20
529.605757
 30
0.0
 11
358.25317
 21
532.655757
 31
0.0
  0
LINE
  8
LC-001-002-----0
  6
CONTINUOUS
  5
265
 10
329.50317
 20
533.655757
 30
0.0
 11
329.50317
 21
537.655757
 31
0.0
  0
ARC
  8
LC-003-002-RND-0
  6
CONTINUOUS
 62
     1
  5
266
 10
343.00317
 20
532.555757
 30
0.0
 40
2.5
 50
180.0
 51
270.0
  0
LINE
  8
LC-001-002-----0
  6
CONTINUOUS
  5
267
 10
335.25317
 20
533.655757
 30
0.0
 11
329.50317
 21
533.655757
 31
0.0
  0
LINE
  8
LC-001-002-----0
  6
CONTINUOUS
  5
268
 10
340.50317
 20
537.655757
 30
0.0
 11
329.50317
 21
537.655757
 31
0.0
  0
LINE
  8
LC-001-002-----0
  6
CONTINUOUS
  5
269
 10
340.50317
 20
532.555757
 30
0.0
 11
340.50317
 21
537.655757
 31
0.0
  0
ARC
  8
LC-003-002-RND-0
  6
CONTINUOUS
 62
     1
  5
26A
 10
351.00317
 20
532.555757
 30
0.0
 40
2.5
 50
270.0
 51
360.0
  0
LINE
  8
LC-001-002-----0
  6
CONTINUOUS
  5
26B
 10
351.00317
 20
530.055757
 30
0.0
 11
343.00317
 21
530.055757
 31
0.0
  0
LINE
  8
LC-001-002-----0
  6
CONTINUOUS
  5
26C
 10
404.003947
 20
541.818518
 30
0.0
 11
403.50317
 21
537.655757
 31
0.0
  0
LINE
  8
LC-001-002-----0
  6
CONTINUOUS
  5
26D
 10
444.789009
 20
525.955757
 30
0.0
 11
440.489009
 21
528.438364
 31
0.0
  0
LINE
  8
LC-001-002-----0
  6
CONTINUOUS
  5
26E
 10
405.989009
 20
744.205757
 30
0.0
 11
359.25317
 21
744.205757
 31
0.0
  0
ARC
  8
LC-003-002-RND-0
  6
CONTINUOUS
 62
     1
  5
26F
 10
446.489009
 20
535.755757
 30
0.0
 40
1.0
 50
270.0
 51
360.0
  0
LINE
  8
LC-001-002-----0
  6
CONTINUOUS
  5
270
 10
404.003947
 20
541.818518
 30
0.0
 11
421.662853
 21
697.925503
 31
0.0
  0
ARC
  8
LC-003-002-RND-0
  6
CONTINUOUS
 62
     1
  5
271
 10
404.99757
 20
541.705757
 30
0.0
 40
1.0
 50
90.0
 51
173.525544
  0
LINE
  8
LC-001-002-----0
  6
CONTINUOUS
  5
272
 10
403.50317
 20
537.655757
 30
0.0
 11
403.50317
 21
738.655757
 31
0.0
  0
ARC
  8
LC-003-002-RND-0
  6
CONTINUOUS
 62
     1
  5
273
 10
408.713518
 20
537.255757
 30
0.0
 40
1.0
 50
90.0
 51
161.847294
  0
LINE
  8
LC-001-002-----0
  6
CONTINUOUS
  5
274
 10
448.961014
 20
723.449289
 30
0.0
 11
448.961014
 21
720.449289
 31
0.0
  0
LINE
  8
LC-001-002-----0
  6
CONTINUOUS
  5
275
 10
448.961014
 20
720.449289
 30
0.0
 11
447.461014
 21
720.449289
 31
0.0
  0
ARC
  8
LC-003-002-RND-0
  6
CONTINUOUS
 62
     1
  5
276
 10
405.264501
 20
534.655757
 30
0.0
 40
1.0
 50
270.0
 51
341.847294
  0
LINE
  8
LC-001-002-----0
  6
CONTINUOUS
  5
277
 10
444.789009
 20
718.005757
 30
0.0
 11
434.489009
 21
718.005757
 31
0.0
  0
LINE
  8
LC-001-002-----0
  6
CONTINUOUS
  5
278
 10
444.789009
 20
718.005757
 30
0.0
 11
444.789009
 21
716.005757
 31
0.0
  0
LINE
  8
LC-001-002-----0
  6
CONTINUOUS
  5
279
 10
434.489009
 20
718.005757
 30
0.0
 11
434.489009
 21
705.205757
 31
0.0
  0
LINE
  8
LC-001-002-----0
  6
CONTINUOUS
  5
27A
 10
457.961014
 20
718.449289
 30
0.0
 11
457.961014
 21
729.949289
 31
0.0
  0
LINE
  8
LC-001-002-----0
  6
CONTINUOUS
  5
27B
 10
457.961014
 20
729.949289
 30
0.0
 11
469.461014
 21
729.949289
 31
0.0
  0
LINE
  8
LC-001-002-----0
  6
CONTINUOUS
  5
27C
 10
469.461014
 20
729.949289
 30
0.0
 11
488.461014
 21
729.949289
 31
0.0
  0
LINE
  8
LC-001-002-----0
  6
CONTINUOUS
  5
27D
 10
472.461014
 20
729.949289
 30
0.0
 11
472.461014
 21
735.949289
 31
0.0
  0
LINE
  8
LC-001-002-----0
  6
CONTINUOUS
  5
27E
 10
472.461014
 20
735.949289
 30
0.0
 11
488.461014
 21
735.949289
 31
0.0
  0
LINE
  8
LC-001-002-----0
  6
CONTINUOUS
  5
27F
 10
488.461014
 20
735.949289
 30
0.0
 11
488.461014
 21
729.949289
 31
0.0
  0
ARC
  8
LC-003-002-RND-0
  6
CONTINUOUS
 62
     1
  5
280
 10
446.489009
 20
706.205757
 30
0.0
 40
1.0
 50
360.0
 51
90.0
  0
ARC
  8
LC-003-002-RND-0
  6
CONTINUOUS
 62
     1
  5
281
 10
440.539009
 20
700.255757
 30
0.0
 40
1.0
 50
270.0
 51
0.0
  0
ARC
  8
LC-003-002-RND-0
  6
CONTINUOUS
 62
     1
  5
282
 10
422.288318
 20
700.255757
 30
0.0
 40
1.0
 50
203.919892
 51
270.0
  0
ARC
  8
LC-003-002-RND-0
  6
CONTINUOUS
 62
     1
  5
283
 10
425.260812
 20
704.705757
 30
0.0
 40
1.0
 50
203.910774
 51
270.0
  0
LINE
  8
LC-001-002-----0
  6
CONTINUOUS
  5
284
 10
505.961014
 20
729.949289
 30
0.0
 11
488.461014
 21
729.949289
 31
0.0
  0
ARC
  8
LC-003-002-RND-0
  6
CONTINUOUS
 62
     1
  5
285
 10
440.539009
 20
541.705757
 30
0.0
 40
1.0
 50
0.0
 51
90.0
  0
LINE
  8
LC-001-002-----0
  6
CONTINUOUS
  5
286
 10
469.461014
 20
734.449289
 30
0.0
 11
452.461014
 21
734.449289
 31
0.0
  0
ARC
  8
LC-001-002-----0
  6
CONTINUOUS
  5
287
 10
452.461014
 20
729.449289
 30
0.0
 40
5.0
 50
90.0
 51
179.999848
  0
LINE
  8
LC-001-002-----0
  6
CONTINUOUS
  5
288
 10
447.461014
 20
720.449289
 30
0.0
 11
447.461014
 21
729.449289
 31
0.0
  0
LINE
  8
LC-001-002-----0
  6
CONTINUOUS
  5
289
 10
505.961014
 20
734.449289
 30
0.0
 11
491.461014
 21
734.449289
 31
0.0
  0
LINE
  8
LC-001-002-----0
  6
CONTINUOUS
  5
28A
 10
469.461014
 20
734.449289
 30
0.0
 11
469.461014
 21
738.949289
 31
0.0
  0
ARC
  8
LC-001-002-----0
  6
CONTINUOUS
  5
28B
 10
471.461014
 20
738.949289
 30
0.0
 40
2.0
 50
89.999981
 51
180.0
  0
LINE
  8
LC-001-002-----0
  6
CONTINUOUS
  5
28C
 10
491.461014
 20
738.949289
 30
0.0
 11
491.461014
 21
734.449289
 31
0.0
  0
ARC
  8
LC-001-002-----0
  6
CONTINUOUS
  5
28D
 10
489.461014
 20
738.949289
 30
0.0
 40
2.0
 50
0.0
 51
89.999981
  0
LINE
  8
LC-001-002-----0
  6
CONTINUOUS
  5
28E
 10
471.461014
 20
740.949289
 30
0.0
 11
489.461014
 21
740.949289
 31
0.0
  0
LINE
  8
LC-001-002-----0
  6
CONTINUOUS
  5
28F
 10
449.461014
 20
720.949289
 30
0.0
 11
449.461014
 21
722.949289
 31
0.0
  0
LINE
  8
LC-001-002-----0
  6
CONTINUOUS
  5
290
 10
449.461014
 20
722.949289
 30
0.0
 11
454.461014
 21
722.949289
 31
0.0
  0
LINE
  8
LC-001-002-----0
  6
CONTINUOUS
  5
291
 10
454.461014
 20
722.949289
 30
0.0
 11
454.461014
 21
720.949289
 31
0.0
  0
LINE
  8
LC-001-002-----0
  6
CONTINUOUS
  5
292
 10
454.461014
 20
720.949289
 30
0.0
 11
449.461014
 21
720.949289
 31
0.0
  0
LINE
  8
LC-001-002-----0
  6
DASHDOT
 62
     2
  5
293
 10
489.461014
 20
740.949289
 30
0.0
 11
489.461014
 21
761.949289
 31
0.0
  0
LINE
  8
LC-001-002-----0
  6
CONTINUOUS
  5
294
 10
479.961014
 20
740.949289
 30
0.0
 11
479.961014
 21
751.133658
 31
0.0
  0
ARC
  8
LC-001-002-----0
  6
CONTINUOUS
  5
295
 10
484.961014
 20
757.065942
 30
0.0
 40
2.0
 50
0.0
 51
79.660109
  0
ARC
  8
LC-001-002-----0
  6
CONTINUOUS
  5
296
 10
484.961014
 20
755.332637
 30
0.0
 40
2.0
 50
280.339949
 51
0.0
  0
ARC
  8
LC-001-002-----0
  6
CONTINUOUS
  5
297
 10
477.961014
 20
718.699289
 30
0.0
 40
41.0
 50
79.660109
 51
100.339891
  0
ARC
  8
LC-001-002-----0
  6
CONTINUOUS
  5
298
 10
470.961014
 20
757.065942
 30
0.0
 40
2.0
 50
100.339872
 51
180.0
  0
ARC
  8
LC-001-002-----0
  6
CONTINUOUS
  5
299
 10
477.961014
 20
793.699289
 30
0.0
 40
41.0
 50
259.660109
 51
280.339949
  0
ARC
  8
LC-001-002-----0
  6
CONTINUOUS
  5
29A
 10
470.961014
 20
755.332637
 30
0.0
 40
2.0
 50
180.0
 51
259.659957
  0
ARC
  8
LC-001-002-----0
  6
CONTINUOUS
  5
29B
 10
470.961014
 20
757.229521
 30
0.0
 40
2.0
 50
106.726782
 51
180.0
  0
ARC
  8
LC-001-002-----0
  6
CONTINUOUS
  5
29C
 10
470.961014
 20
755.169058
 30
0.0
 40
2.0
 50
180.0
 51
253.273047
  0
LINE
  8
LC-001-002-----0
  6
CONTINUOUS
  5
29D
 10
468.961014
 20
755.169058
 30
0.0
 11
468.961014
 21
757.229521
 31
0.0
  0
LINE
  8
LC-001-002-----0
  6
CONTINUOUS
  5
29E
 10
498.961218
 20
734.449457
 30
0.0
 11
498.961229
 21
751.133826
 31
0.0
  0
ARC
  8
LC-001-002-----0
  6
CONTINUOUS
  5
29F
 10
500.961208
 20
718.699456
 30
0.0
 40
41.0
 50
79.660072
 51
100.339835
  0
ARC
  8
LC-001-002-----0
  6
CONTINUOUS
  5
2A0
 10
493.961233
 20
757.066112
 30
0.0
 40
2.0
 50
100.339835
 51
179.999963
  0
ARC
  8
LC-001-002-----0
  6
CONTINUOUS
  5
2A1
 10
493.961232
 20
755.332808
 30
0.0
 40
2.0
 50
179.999963
 51
259.659995
  0
ARC
  8
LC-001-002-----0
  6
CONTINUOUS
  5
2A2
 10
500.961257
 20
793.699456
 30
0.0
 40
41.0
 50
259.65992
 51
280.339853
  0
ARC
  8
LC-001-002-----0
  6
CONTINUOUS
  5
2A3
 10
507.961233
 20
757.066103
 30
0.0
 40
2.0
 50
359.999963
 51
79.659997
  0
ARC
  8
LC-001-002-----0
  6
CONTINUOUS
  5
2A4
 10
489.461014
 20
695.670443
 30
0.0
 40
66.278846
 50
73.273199
 51
106.726782
  0
ARC
  8
LC-001-002-----0
  6
CONTINUOUS
  5
2A5
 10
507.961014
 20
757.229521
 30
0.0
 40
2.0
 50
0.0
 51
73.273199
  0
ARC
  8
LC-001-002-----0
  6
CONTINUOUS
  5
2A6
 10
507.961232
 20
755.332799
 30
0.0
 40
2.0
 50
280.339912
 51
359.999963
  0
ARC
  8
LC-001-002-----0
  6
CONTINUOUS
  5
2A7
 10
489.461014
 20
816.728136
 30
0.0
 40
66.278846
 50
253.273047
 51
286.726801
  0
ARC
  8
LC-001-002-----0
  6
CONTINUOUS
  5
2A8
 10
507.961014
 20
755.169058
 30
0.0
 40
2.0
 50
286.72686
 51
0.0
  0
LINE
  8
LC-001-002-----0
  6
CONTINUOUS
  5
2A9
 10
509.961014
 20
755.169058
 30
0.0
 11
509.961014
 21
757.229521
 31
0.0
  0
ARC
  8
LC-001-002-----0
  6
CONTINUOUS
  5
2AA
 10
487.961014
 20
757.699289
 30
0.0
 40
1.0
 50
90.0
 51
179.999848
  0
ARC
  8
LC-001-002-----0
  6
CONTINUOUS
  5
2AB
 10
487.961014
 20
754.699289
 30
0.0
 40
1.0
 50
179.999848
 51
270.0
  0
LINE
  8
LC-001-002-----0
  6
CONTINUOUS
  5
2AC
 10
486.961014
 20
757.699289
 30
0.0
 11
486.961014
 21
754.699289
 31
0.0
  0
LINE
  8
LC-001-002-----0
  6
CONTINUOUS
  5
2AD
 10
490.961014
 20
758.699289
 30
0.0
 11
487.961014
 21
758.699289
 31
0.0
  0
ARC
  8
LC-001-002-----0
  6
CONTINUOUS
  5
2AE
 10
490.961014
 20
757.699289
 30
0.0
 40
1.0
 50
0.0
 51
90.0
  0
LINE
  8
LC-001-002-----0
  6
CONTINUOUS
  5
2AF
 10
487.961014
 20
753.699289
 30
0.0
 11
490.961014
 21
753.699289
 31
0.0
  0
ARC
  8
LC-001-002-----0
  6
CONTINUOUS
  5
2B0
 10
490.961014
 20
754.699289
 30
0.0
 40
1.0
 50
270.0
 51
0.0
  0
LINE
  8
LC-001-002-----0
  6
CONTINUOUS
  5
2B1
 10
491.961014
 20
754.699289
 30
0.0
 11
491.961014
 21
757.699289
 31
0.0
  0
LINE
  8
LC-001-002-----0
  6
CONTINUOUS
  5
2B2
 10
352.761745
 20
746.089489
 30
0.0
 11
341.624465
 21
746.089489
 31
0.0
  0
LINE
  8
LC-001-002-----0
  6
CONTINUOUS
  5
2B3
 10
341.640369
 20
743.48831
 30
0.0
 11
341.624025
 21
746.089489
 31
0.0
  0
LINE
  8
LC-001-002-----0
  6
CONTINUOUS
  5
2B4
 10
352.777649
 20
743.558289
 30
0.0
 11
352.761745
 21
746.089489
 31
0.0
  0
LINE
  8
LC-001-002-----0
  6
CONTINUOUS
  5
2B5
 10
343.643905
 20
742.348292
 30
0.0
 11
341.647611
 21
742.335749
 31
0.0
  0
LINE
  8
LC-001-002-----0
  6
CONTINUOUS
  5
2B6
 10
351.536466
 20
740.86388
 30
0.0
 11
351.115809
 21
742.39524
 31
0.0
  0
LINE
  8
LC-001-002-----0
  6
CONTINUOUS
  5
2B7
 10
347.800514
 20
740.840406
 30
0.0
 11
347.379857
 21
742.371766
 31
0.0
  0
ARC
  8
LC-003-002-RND-0
  6
CONTINUOUS
 62
     1
  5
2B8
 10
351.373744
 20
740.819181
 30
0.0
 40
0.16875
 50
246.499934
 51
15.36
  0
ARC
  8
LC-003-002-RND-0
  6
CONTINUOUS
 62
     1
  5
2B9
 10
347.637792
 20
740.795707
 30
0.0
 40
0.16875
 50
246.499934
 51
15.36
  0
LINE
  8
LC-001-002-----0
  6
CONTINUOUS
  5
2BA
 10
341.647611
 20
742.335749
 30
0.0
 11
341.640369
 21
743.48831
 31
0.0
  0
LINE
  8
LC-001-002-----0
  6
CONTINUOUS
  5
2BB
 10
351.115809
 20
742.39524
 30
0.0
 11
352.784891
 21
742.405727
 31
0.0
  0
LINE
  8
LC-001-002-----0
  6
CONTINUOUS
  5
2BC
 10
352.784891
 20
742.405727
 30
0.0
 11
352.777649
 21
743.558289
 31
0.0
  0
LINE
  8
LC-001-002-----0
  6
CONTINUOUS
  5
2BD
 10
343.643905
 20
742.348292
 30
0.0
 11
347.570503
 21
740.640954
 31
0.0
  0
LINE
  8
LC-001-002-----0
  6
CONTINUOUS
  5
2BE
 10
347.379857
 20
742.371766
 30
0.0
 11
351.306455
 21
740.664427
 31
0.0
  0
LINE
  8
LC-001-002-----0
  6
CONTINUOUS
  5
2BF
 10
505.961014
 20
537.924929
 30
0.0
 11
505.961014
 21
608.406806
 31
0.0
  0
ENDSEC
  0
EOF
