  0
SECTION
  2
HEADER
  9
$ACADVER
  1
AC1015
  9
$ACADMAINTVER
 70
     6
  9
$DWGCODEPAGE
  3
ANSI_1252
  9
$INSBASE
 10
19.384664
 20
11.753976
 30
0.0
  9
$EXTMIN
 10
19.384664
 20
11.753976
 30
0.0
  9
$EXTMAX
 10
859.384664
 20
605.753976
 30
0.0
  9
$LIMMIN
 10
19.384664
 20
11.753976
  9
$LIMMAX
 10
859.384664
 20
605.753976
  9
$ORTHOMODE
 70
     0
  9
$REGENMODE
 70
     1
  9
$FILLMODE
 70
     1
  9
$QTEXTMODE
 70
     0
  9
$MIRRTEXT
 70
     1
  9
$LTSCALE
 40
2.0
  9
$ATTMODE
 70
     1
  9
$TEXTSIZE
 40
2.5
  9
$TRACEWID
 40
1.0
  9
$TEXTSTYLE
  7
Standard
  9
$CLAYER
  8
0
  9
$CELTYPE
  6
ByLayer
  9
$CECOLOR
 62
     7
  9
$CELTSCALE
 40
1.0
  9
$DISPSILH
 70
     0
  9
$DIMSCALE
 40
2.0
  9
$DIMASZ
 40
3.5
  9
$DIMEXO
 40
0.625
  9
$DIMDLI
 40
3.75
  9
$DIMRND
 40
0.0
  9
$DIMDLE
 40
0.0
  9
$DIMEXE
 40
1.25
  9
$DIMTP
 40
0.0
  9
$DIMTM
 40
0.0
  9
$DIMTXT
 40
3.5
  9
$DIMCEN
 40
2.5
  9
$DIMTSZ
 40
0.0
  9
$DIMTOL
 70
     0
  9
$DIMLIM
 70
     0
  9
$DIMTIH
 70
     0
  9
$DIMTOH
 70
     0
  9
$DIMSE1
 70
     0
  9
$DIMSE2
 70
     0
  9
$DIMTAD
 70
     1
  9
$DIMZIN
 70
     8
  9
$DIMBLK
  1

  9
$DIMASO
 70
     1
  9
$DIMSHO
 70
     1
  9
$DIMPOST
  1

  9
$DIMAPOST
  1

  9
$DIMALT
 70
     0
  9
$DIMALTD
 70
     3
  9
$DIMALTF
 40
0.03937
  9
$DIMLFAC
 40
1.0
  9
$DIMTOFL
 70
     1
  9
$DIMTVP
 40
0.0
  9
$DIMTIX
 70
     0
  9
$DIMSOXD
 70
     0
  9
$DIMSAH
 70
     0
  9
$DIMBLK1
  1

  9
$DIMBLK2
  1

  9
$DIMSTYLE
  2
ISO-25
  9
$DIMCLRD
 70
     0
  9
$DIMCLRE
 70
     0
  9
$DIMCLRT
 70
     0
  9
$DIMTFAC
 40
1.0
  9
$DIMGAP
 40
0.625
  9
$DIMJUST
 70
     0
  9
$DIMSD1
 70
     0
  9
$DIMSD2
 70
     0
  9
$DIMTOLJ
 70
     0
  9
$DIMTZIN
 70
     8
  9
$DIMALTZ
 70
     0
  9
$DIMALTTZ
 70
     0
  9
$DIMUPT
 70
     0
  9
$DIMDEC
 70
     2
  9
$DIMTDEC
 70
     2
  9
$DIMALTU
 70
     2
  9
$DIMALTTD
 70
     3
  9
$DIMTXSTY
  7
Standard
  9
$DIMAUNIT
 70
     0
  9
$DIMADEC
 70
     0
  9
$DIMALTRND
 40
0.0
  9
$DIMAZIN
 70
     0
  9
$DIMDSEP
 70
    44
  9
$DIMATFIT
 70
     3
  9
$DIMFRAC
 70
     0
  9
$DIMLDRBLK
  1

  9
$DIMLUNIT
 70
     2
  9
$DIMLWD
 70
    -2
  9
$DIMLWE
 70
    -2
  9
$DIMTMOVE
 70
     0
  9
$LUNITS
 70
     2
  9
$LUPREC
 70
     4
  9
$SKETCHINC
 40
1.0
  9
$FILLETRAD
 40
10.0
  9
$AUNITS
 70
     0
  9
$AUPREC
 70
     0
  9
$MENU
  1
.
  9
$ELEVATION
 40
0.0
  9
$PELEVATION
 40
0.0
  9
$THICKNESS
 40
0.0
  9
$LIMCHECK
 70
     0
  9
$CHAMFERA
 40
10.0
  9
$CHAMFERB
 40
10.0
  9
$CHAMFERC
 40
20.0
  9
$CHAMFERD
 40
0.0
  9
$SKPOLY
 70
     0
  9
$TDCREATE
 40
2455565.394467732
  9
$TDUCREATE
 40
2455565.352801065
  9
$TDUPDATE
 40
2455565.394467743
  9
$TDUUPDATE
 40
2455565.352801077
  9
$TDINDWG
 40
0.0000000116
  9
$TDUSRTIMER
 40
0.0000000116
  9
$USRTIMER
 70
     1
  9
$ANGBASE
 50
0.0
  9
$ANGDIR
 70
     0
  9
$PDMODE
 70
     0
  9
$PDSIZE
 40
0.0
  9
$PLINEWID
 40
0.0
  9
$SPLFRAME
 70
     0
  9
$SPLINETYPE
 70
     6
  9
$SPLINESEGS
 70
     8
  9
$HANDSEED
  5
79C
  9
$SURFTAB1
 70
     6
  9
$SURFTAB2
 70
     6
  9
$SURFTYPE
 70
     6
  9
$SURFU
 70
     6
  9
$SURFV
 70
     6
  9
$UCSBASE
  2

  9
$UCSNAME
  2

  9
$UCSORG
 10
0.0
 20
0.0
 30
0.0
  9
$UCSXDIR
 10
1.0
 20
0.0
 30
0.0
  9
$UCSYDIR
 10
0.0
 20
1.0
 30
0.0
  9
$UCSORTHOREF
  2

  9
$UCSORTHOVIEW
 70
     0
  9
$UCSORGTOP
 10
0.0
 20
0.0
 30
0.0
  9
$UCSORGBOTTOM
 10
0.0
 20
0.0
 30
0.0
  9
$UCSORGLEFT
 10
0.0
 20
0.0
 30
0.0
  9
$UCSORGRIGHT
 10
0.0
 20
0.0
 30
0.0
  9
$UCSORGFRONT
 10
0.0
 20
0.0
 30
0.0
  9
$UCSORGBACK
 10
0.0
 20
0.0
 30
0.0
  9
$PUCSBASE
  2

  9
$PUCSNAME
  2

  9
$PUCSORG
 10
0.0
 20
0.0
 30
0.0
  9
$PUCSXDIR
 10
1.0
 20
0.0
 30
0.0
  9
$PUCSYDIR
 10
0.0
 20
1.0
 30
0.0
  9
$PUCSORTHOREF
  2

  9
$PUCSORTHOVIEW
 70
     0
  9
$PUCSORGTOP
 10
0.0
 20
0.0
 30
0.0
  9
$PUCSORGBOTTOM
 10
0.0
 20
0.0
 30
0.0
  9
$PUCSORGLEFT
 10
0.0
 20
0.0
 30
0.0
  9
$PUCSORGRIGHT
 10
0.0
 20
0.0
 30
0.0
  9
$PUCSORGFRONT
 10
0.0
 20
0.0
 30
0.0
  9
$PUCSORGBACK
 10
0.0
 20
0.0
 30
0.0
  9
$USERI1
 70
     0
  9
$USERI2
 70
     0
  9
$USERI3
 70
     0
  9
$USERI4
 70
     0
  9
$USERI5
 70
     0
  9
$USERR1
 40
0.0
  9
$USERR2
 40
0.0
  9
$USERR3
 40
0.0
  9
$USERR4
 40
0.0
  9
$USERR5
 40
0.0
  9
$WORLDVIEW
 70
     1
  9
$SHADEDGE
 70
     3
  9
$SHADEDIF
 70
    70
  9
$TILEMODE
 70
     1
  9
$MAXACTVP
 70
    64
  9
$PINSBASE
 10
0.0
 20
0.0
 30
0.0
  9
$PLIMCHECK
 70
     0
  9
$PEXTMIN
 10
19.384664
 20
11.753976
 30
0.0
  9
$PEXTMAX
 10
859.384664
 20
605.753976
 30
0.0
  9
$PLIMMIN
 10
19.384664
 20
11.753976
  9
$PLIMMAX
 10
859.384664
 20
605.753976
  9
$UNITMODE
 70
     0
  9
$VISRETAIN
 70
     1
  9
$PLINEGEN
 70
     0
  9
$PSLTSCALE
 70
     1
  9
$TREEDEPTH
 70
  3020
  9
$CMLSTYLE
  2
Standard
  9
$CMLJUST
 70
     0
  9
$CMLSCALE
 40
20.0
  9
$PROXYGRAPHICS
 70
     1
  9
$MEASUREMENT
 70
     1
  9
$CELWEIGHT
370
    -1
  9
$ENDCAPS
280
     0
  9
$JOINSTYLE
280
     0
  9
$LWDISPLAY
290
     0
  9
$INSUNITS
 70
     4
  9
$HYPERLINKBASE
  1

  9
$STYLESHEET
  1

  9
$XEDIT
290
     1
  9
$CEPSNTYPE
380
     0
  9
$PSTYLEMODE
290
     1
  9
$FINGERPRINTGUID
  2
{FAEB1C30-E019-11D5-929B-00C0DF256EC4}
  9
$VERSIONGUID
  2
{FAEB1C32-E019-11D5-929B-00C0DF256EC4}
  9
$EXTNAMES
290
     1
  9
$PSVPSCALE
 40
0.0
  9
$OLESTARTUP
290
     0
  0
ENDSEC
  0
SECTION
  2
CLASSES
  0
CLASS
  1
ACDBDICTIONARYWDFLT
  2
AcDbDictionaryWithDefault
  3
ObjectDBX Classes
 90
        0
280
     0
281
     0
  0
CLASS
  1
ACDBPLACEHOLDER
  2
AcDbPlaceHolder
  3
ObjectDBX Classes
 90
        0
280
     0
281
     0
  0
CLASS
  1
LAYOUT
  2
AcDbLayout
  3
ObjectDBX Classes
 90
        0
280
     0
281
     0
  0
ENDSEC
  0
SECTION
  2
TABLES
  0
TABLE
  2
VPORT
  5
8
330
0
100
AcDbSymbolTable
 70
     2
  0
VPORT
  5
29
330
8
100
AcDbSymbolTableRecord
100
AcDbViewportTableRecord
  2
*ACTIVE
 70
     0
 10
0.0
 20
0.0
 11
1.0
 21
1.0
 12
439.384664
 22
308.753976
 13
0.0
 23
0.0
 14
1.0
 24
1.0
 15
0.0
 25
0.0
 16
0.0
 26
0.0
 36
1.0
 17
0.0
 27
0.0
 37
0.0
 40
594.0
 41
1.414141
 42
50.0
 43
0.0
 44
0.0
 50
0.0
 51
0.0
 71
    16
 72
   100
 73
     1
 74
     0
 75
     0
 76
     0
 77
     0
 78
     0
281
     0
 65
     0
110
0.0
120
0.0
130
0.0
111
1.0
121
0.0
131
0.0
112
0.0
122
1.0
132
0.0
 79
     0
146
0.0
  0
ENDTAB
  0
TABLE
  2
LTYPE
  5
5
330
0
100
AcDbSymbolTable
 70
     3
  0
LTYPE
  5
14
330
5
100
AcDbSymbolTableRecord
100
AcDbLinetypeTableRecord
  2
ByBlock
 70
     0
  3

 72
    65
 73
     0
 40
0.0
  0
LTYPE
  5
15
330
5
100
AcDbSymbolTableRecord
100
AcDbLinetypeTableRecord
  2
ByLayer
 70
     0
  3

 72
    65
 73
     0
 40
0.0
  0
LTYPE
  5
16
330
5
100
AcDbSymbolTableRecord
100
AcDbLinetypeTableRecord
  2
Continuous
 70
     0
  3
Solid line
 72
    65
 73
     0
 40
0.0
  0
LTYPE
  5
2A
330
5
100
AcDbSymbolTableRecord
100
AcDbLinetypeTableRecord
  2
DASHED
 70
     0
  3
__ __ __ __ __
 72
    65
 73
     2
 40
6.25
 49
5.0
 74
     4
 75
     0
340
0
 46
1.0
 50
0.0
 44
0.0
 45
0.0
 49
-1.25
 74
     4
 75
     0
340
0
 46
1.0
 50
0.0
 44
0.0
 45
0.0
  0
LTYPE
  5
543
330
5
100
AcDbSymbolTableRecord
100
AcDbLinetypeTableRecord
  2
DASHDOT
 70
     0
  3
__ . __ . __ . __ . __
 72
    65
 73
     4
 40
7.5
 49
5.0
 74
     4
 75
     0
340
0
 46
1.0
 50
0.0
 44
0.0
 45
0.0
 49
-1.25
 74
     4
 75
     0
340
0
 46
1.0
 50
0.0
 44
0.0
 45
0.0
 49
0.0
 74
     4
 75
     0
340
0
 46
1.0
 50
0.0
 44
0.0
 45
0.0
 49
-1.25
 74
     4
 75
     0
340
0
 46
1.0
 50
0.0
 44
0.0
 45
0.0
  0
ENDTAB
  0
TABLE
  2
LAYER
  5
2
330
0
100
AcDbSymbolTable
 70
    11
  0
LAYER
  5
10
330
2
100
AcDbSymbolTableRecord
100
AcDbLayerTableRecord
  2
0
 70
     0
 62
     7
  6
Continuous
370
    -3
390
F
  0
LAYER
  5
2B
330
2
100
AcDbSymbolTableRecord
100
AcDbLayerTableRecord
  2
LC-INFO-1-2-mm-A3-0
 70
     1
 62
     7
  6
ByBlock
370
    -3
390
F
  0
LAYER
  5
2C
330
2
100
AcDbSymbolTableRecord
100
AcDbLayerTableRecord
  2
LC-CUT-HIDDEN
 70
     0
 62
     7
  6
DASHED
370
    -3
390
F
  0
LAYER
  5
2D
330
2
100
AcDbSymbolTableRecord
100
AcDbLayerTableRecord
  2
LC-VIEWPORT
 70
     0
 62
     7
  6
ByBlock
370
    -3
390
F
  0
LAYER
  5
2E
330
2
100
AcDbSymbolTableRecord
100
AcDbLayerTableRecord
  2
LC-3D-HIDDEN
 70
     0
 62
     9
  6
DASHED
370
    -3
390
F
  0
LAYER
  5
34
330
2
100
AcDbSymbolTableRecord
100
AcDbLayerTableRecord
  2
LC-001-100-D00-0
 70
     0
 62
     1
  6
ByBlock
370
    -3
390
F
  0
LAYER
  5
544
330
2
100
AcDbSymbolTableRecord
100
AcDbLayerTableRecord
  2
LC-002-102-D00-0
 70
     0
 62
     2
  6
DASHDOT
370
    -3
390
F
  0
LAYER
  5
548
330
2
100
AcDbSymbolTableRecord
100
AcDbLayerTableRecord
  2
LC-003-002-----0
 70
     0
 62
     1
  6
ByBlock
370
    -3
390
F
  0
LAYER
  5
555
330
2
100
AcDbSymbolTableRecord
100
AcDbLayerTableRecord
  2
LC-004-005-----0
 70
     0
 62
     2
  6
ByBlock
370
    -3
390
F
  0
LAYER
  5
655
330
2
100
AcDbSymbolTableRecord
100
AcDbLayerTableRecord
  2
LC-005-003-----0
 70
     0
 62
     2
  6
ByBlock
370
    -3
390
F
  0
LAYER
  5
657
330
2
100
AcDbSymbolTableRecord
100
AcDbLayerTableRecord
  2
Defpoints
 70
     0
 62
     7
  6
Continuous
290
     0
370
    -3
390
F
  0
ENDTAB
  0
TABLE
  2
STYLE
  5
3
330
0
100
AcDbSymbolTable
 70
     4
  0
STYLE
  5
11
330
3
100
AcDbSymbolTableRecord
100
AcDbTextStyleTableRecord
  2
Standard
 70
     0
 40
0.0
 41
1.0
 50
0.0
 71
     0
 42
2.5
  3
txt
  4

  0
STYLE
  5
2F
330
3
100
AcDbSymbolTableRecord
100
AcDbTextStyleTableRecord
  2
LCTX0-400-0-0pDIN-Schrift
 70
     0
 40
0.0
 41
0.75
 50
0.0
 71
     0
 42
3.5
  3
TXT
  4

  0
STYLE
  5
30
330
3
100
AcDbSymbolTableRecord
100
AcDbTextStyleTableRecord
  2
LCTX15-400-0-0-Arial
 70
     0
 40
0.0
 41
0.8
 50
0.0
 71
     0
 42
3.5
  3

  4

1001
ACAD
1000
Arial
1071
 16777218
  0
STYLE
  5
653
330
3
100
AcDbSymbolTableRecord
100
AcDbTextStyleTableRecord
  2
LCTX15-400-0-0pDIN-Schrift
 70
     0
 40
2.5
 41
0.8
 50
15.0
 71
     0
 42
3.5
  3
STANDARD
  4

  0
ENDTAB
  0
TABLE
  2
VIEW
  5
6
330
0
100
AcDbSymbolTable
 70
     0
  0
ENDTAB
  0
TABLE
  2
UCS
  5
7
330
0
100
AcDbSymbolTable
 70
     0
  0
ENDTAB
  0
TABLE
  2
APPID
  5
9
330
0
100
AcDbSymbolTable
 70
     1
  0
APPID
  5
12
330
9
100
AcDbSymbolTableRecord
100
AcDbRegAppTableRecord
  2
ACAD
 70
     0
  0
ENDTAB
  0
TABLE
  2
DIMSTYLE
  5
A
330
0
100
AcDbSymbolTable
 70
     2
100
AcDbDimStyleTable
  0
DIMSTYLE
105
27
330
A
100
AcDbSymbolTableRecord
100
AcDbDimStyleTableRecord
  2
ISO-25
 70
     0
 41
2.5
 42
0.625
 43
3.75
 44
1.25
 73
     0
 74
     0
 77
     1
 78
     8
140
2.5
141
2.5
143
0.03937
147
0.625
171
     3
172
     1
271
     2
272
     2
274
     3
278
    44
283
     0
284
     8
340
11
  0
DIMSTYLE
105
654
102
{ACAD_REACTORS
330
656
330
664
330
671
330
67E
330
68B
330
78F
102
}
330
A
100
AcDbSymbolTableRecord
100
AcDbDimStyleTableRecord
  2
LC-DIM-L-0140-02-02
 70
     0
 40
2.0
 41
14.0
 42
0.0
 43
7.5
 44
1.8
 73
     0
 74
     0
 77
     1
 78
     8
 79
     2
140
14.0
141
0.0
146
0.71
147
1.5
176
     2
177
     2
178
     2
179
     2
271
     2
278
    44
289
     1
340
653
  0
ENDTAB
  0
TABLE
  2
BLOCK_RECORD
  5
1
330
0
100
AcDbSymbolTable
 70
    81
  0
BLOCK_RECORD
  5
1F
330
1
100
AcDbSymbolTableRecord
100
AcDbBlockTableRecord
  2
*Model_Space
340
22
  0
BLOCK_RECORD
  5
1B
330
1
100
AcDbSymbolTableRecord
100
AcDbBlockTableRecord
  2
*Paper_Space
340
1E
  0
BLOCK_RECORD
  5
23
330
1
100
AcDbSymbolTableRecord
100
AcDbBlockTableRecord
  2
*Paper_Space0
340
26
  0
BLOCK_RECORD
  5
31
330
1
100
AcDbSymbolTableRecord
100
AcDbBlockTableRecord
  2
POLY1
340
0
102
{BLKREFS
331
3D
102
}
  0
BLOCK_RECORD
  5
3E
330
1
100
AcDbSymbolTableRecord
100
AcDbBlockTableRecord
  2
POLY2
340
0
102
{BLKREFS
331
49
102
}
  0
BLOCK_RECORD
  5
4A
330
1
100
AcDbSymbolTableRecord
100
AcDbBlockTableRecord
  2
POLY3
340
0
102
{BLKREFS
331
55
102
}
  0
BLOCK_RECORD
  5
56
330
1
100
AcDbSymbolTableRecord
100
AcDbBlockTableRecord
  2
POLY4
340
0
102
{BLKREFS
331
61
102
}
  0
BLOCK_RECORD
  5
62
330
1
100
AcDbSymbolTableRecord
100
AcDbBlockTableRecord
  2
POLY5
340
0
102
{BLKREFS
331
6D
102
}
  0
BLOCK_RECORD
  5
6E
330
1
100
AcDbSymbolTableRecord
100
AcDbBlockTableRecord
  2
POLY6
340
0
102
{BLKREFS
331
79
102
}
  0
BLOCK_RECORD
  5
7A
330
1
100
AcDbSymbolTableRecord
100
AcDbBlockTableRecord
  2
POLY7
340
0
102
{BLKREFS
331
85
102
}
  0
BLOCK_RECORD
  5
86
330
1
100
AcDbSymbolTableRecord
100
AcDbBlockTableRecord
  2
POLY8
340
0
102
{BLKREFS
331
91
102
}
  0
BLOCK_RECORD
  5
92
330
1
100
AcDbSymbolTableRecord
100
AcDbBlockTableRecord
  2
POLY9
340
0
102
{BLKREFS
331
9D
102
}
  0
BLOCK_RECORD
  5
9E
330
1
100
AcDbSymbolTableRecord
100
AcDbBlockTableRecord
  2
POLY10
340
0
102
{BLKREFS
331
A9
102
}
  0
BLOCK_RECORD
  5
D5
330
1
100
AcDbSymbolTableRecord
100
AcDbBlockTableRecord
  2
KLON1
340
0
102
{BLKREFS
331
DB
102
}
  0
BLOCK_RECORD
  5
DC
330
1
100
AcDbSymbolTableRecord
100
AcDbBlockTableRecord
  2
KLON2
340
0
102
{BLKREFS
331
E2
102
}
  0
BLOCK_RECORD
  5
E3
330
1
100
AcDbSymbolTableRecord
100
AcDbBlockTableRecord
  2
POLY11
340
0
102
{BLKREFS
331
EE
102
}
  0
BLOCK_RECORD
  5
F0
330
1
100
AcDbSymbolTableRecord
100
AcDbBlockTableRecord
  2
KLON3
340
0
102
{BLKREFS
331
F6
102
}
  0
BLOCK_RECORD
  5
F7
330
1
100
AcDbSymbolTableRecord
100
AcDbBlockTableRecord
  2
KLON4
340
0
102
{BLKREFS
331
FD
102
}
  0
BLOCK_RECORD
  5
FE
330
1
100
AcDbSymbolTableRecord
100
AcDbBlockTableRecord
  2
POLY12
340
0
102
{BLKREFS
331
109
102
}
  0
BLOCK_RECORD
  5
10B
330
1
100
AcDbSymbolTableRecord
100
AcDbBlockTableRecord
  2
KLON5
340
0
102
{BLKREFS
331
111
102
}
  0
BLOCK_RECORD
  5
112
330
1
100
AcDbSymbolTableRecord
100
AcDbBlockTableRecord
  2
KLON6
340
0
102
{BLKREFS
331
118
102
}
  0
BLOCK_RECORD
  5
119
330
1
100
AcDbSymbolTableRecord
100
AcDbBlockTableRecord
  2
KLON7
340
0
102
{BLKREFS
331
11F
102
}
  0
BLOCK_RECORD
  5
120
330
1
100
AcDbSymbolTableRecord
100
AcDbBlockTableRecord
  2
KLON8
340
0
102
{BLKREFS
331
126
102
}
  0
BLOCK_RECORD
  5
127
330
1
100
AcDbSymbolTableRecord
100
AcDbBlockTableRecord
  2
POLY13
340
0
102
{BLKREFS
331
132
102
}
  0
BLOCK_RECORD
  5
134
330
1
100
AcDbSymbolTableRecord
100
AcDbBlockTableRecord
  2
KLON9
340
0
102
{BLKREFS
331
13A
102
}
  0
BLOCK_RECORD
  5
13B
330
1
100
AcDbSymbolTableRecord
100
AcDbBlockTableRecord
  2
KLON10
340
0
102
{BLKREFS
331
141
102
}
  0
BLOCK_RECORD
  5
142
330
1
100
AcDbSymbolTableRecord
100
AcDbBlockTableRecord
  2
POLY14
340
0
102
{BLKREFS
331
14D
102
}
  0
BLOCK_RECORD
  5
159
330
1
100
AcDbSymbolTableRecord
100
AcDbBlockTableRecord
  2
KLON11
340
0
102
{BLKREFS
331
15F
102
}
  0
BLOCK_RECORD
  5
161
330
1
100
AcDbSymbolTableRecord
100
AcDbBlockTableRecord
  2
KLON12
340
0
102
{BLKREFS
331
167
102
}
  0
BLOCK_RECORD
  5
169
330
1
100
AcDbSymbolTableRecord
100
AcDbBlockTableRecord
  2
KLON13
340
0
102
{BLKREFS
331
16F
102
}
  0
BLOCK_RECORD
  5
171
330
1
100
AcDbSymbolTableRecord
100
AcDbBlockTableRecord
  2
KLON14
340
0
102
{BLKREFS
331
177
102
}
  0
BLOCK_RECORD
  5
178
330
1
100
AcDbSymbolTableRecord
100
AcDbBlockTableRecord
  2
KLON15
340
0
102
{BLKREFS
331
17E
102
}
  0
BLOCK_RECORD
  5
183
330
1
100
AcDbSymbolTableRecord
100
AcDbBlockTableRecord
  2
KLON16
340
0
102
{BLKREFS
331
189
102
}
  0
BLOCK_RECORD
  5
18A
330
1
100
AcDbSymbolTableRecord
100
AcDbBlockTableRecord
  2
KLON17
340
0
102
{BLKREFS
331
190
102
}
  0
BLOCK_RECORD
  5
192
330
1
100
AcDbSymbolTableRecord
100
AcDbBlockTableRecord
  2
KLON18
340
0
102
{BLKREFS
331
198
102
}
  0
BLOCK_RECORD
  5
19A
330
1
100
AcDbSymbolTableRecord
100
AcDbBlockTableRecord
  2
KLON19
340
0
102
{BLKREFS
331
1A0
102
}
  0
BLOCK_RECORD
  5
1A2
330
1
100
AcDbSymbolTableRecord
100
AcDbBlockTableRecord
  2
KLON20
340
0
102
{BLKREFS
331
1A8
102
}
  0
BLOCK_RECORD
  5
1B5
330
1
100
AcDbSymbolTableRecord
100
AcDbBlockTableRecord
  2
POLY15
340
0
102
{BLKREFS
331
1C0
102
}
  0
BLOCK_RECORD
  5
1C1
330
1
100
AcDbSymbolTableRecord
100
AcDbBlockTableRecord
  2
POLY16
340
0
102
{BLKREFS
331
1CC
102
}
  0
BLOCK_RECORD
  5
343
330
1
100
AcDbSymbolTableRecord
100
AcDbBlockTableRecord
  2
POLY17
340
0
102
{BLKREFS
331
354
102
}
  0
BLOCK_RECORD
  5
358
330
1
100
AcDbSymbolTableRecord
100
AcDbBlockTableRecord
  2
POLY18
340
0
102
{BLKREFS
331
369
102
}
  0
BLOCK_RECORD
  5
3B6
330
1
100
AcDbSymbolTableRecord
100
AcDbBlockTableRecord
  2
POLY19
340
0
102
{BLKREFS
331
3C7
102
}
  0
BLOCK_RECORD
  5
3C8
330
1
100
AcDbSymbolTableRecord
100
AcDbBlockTableRecord
  2
POLY20
340
0
102
{BLKREFS
331
3D9
102
}
  0
BLOCK_RECORD
  5
3DD
330
1
100
AcDbSymbolTableRecord
100
AcDbBlockTableRecord
  2
POLY21
340
0
102
{BLKREFS
331
3EE
102
}
  0
BLOCK_RECORD
  5
3EF
330
1
100
AcDbSymbolTableRecord
100
AcDbBlockTableRecord
  2
POLY22
340
0
102
{BLKREFS
331
400
102
}
  0
BLOCK_RECORD
  5
43F
330
1
100
AcDbSymbolTableRecord
100
AcDbBlockTableRecord
  2
POLY23
340
0
102
{BLKREFS
331
450
102
}
  0
BLOCK_RECORD
  5
454
330
1
100
AcDbSymbolTableRecord
100
AcDbBlockTableRecord
  2
POLY24
340
0
102
{BLKREFS
331
465
102
}
  0
BLOCK_RECORD
  5
46B
330
1
100
AcDbSymbolTableRecord
100
AcDbBlockTableRecord
  2
POLY25
340
0
102
{BLKREFS
331
476
102
}
  0
BLOCK_RECORD
  5
478
330
1
100
AcDbSymbolTableRecord
100
AcDbBlockTableRecord
  2
POLY26
340
0
102
{BLKREFS
331
483
102
}
  0
BLOCK_RECORD
  5
487
330
1
100
AcDbSymbolTableRecord
100
AcDbBlockTableRecord
  2
KLON21
340
0
102
{BLKREFS
331
48F
102
}
  0
BLOCK_RECORD
  5
490
330
1
100
AcDbSymbolTableRecord
100
AcDbBlockTableRecord
  2
KLON22
340
0
102
{BLKREFS
331
496
102
}
  0
BLOCK_RECORD
  5
497
330
1
100
AcDbSymbolTableRecord
100
AcDbBlockTableRecord
  2
KLON23
340
0
102
{BLKREFS
331
4C2
102
}
  0
BLOCK_RECORD
  5
4C3
330
1
100
AcDbSymbolTableRecord
100
AcDbBlockTableRecord
  2
KLON24
340
0
102
{BLKREFS
331
4EA
102
}
  0
BLOCK_RECORD
  5
4EB
330
1
100
AcDbSymbolTableRecord
100
AcDbBlockTableRecord
  2
KLON25
340
0
102
{BLKREFS
331
4F1
102
}
  0
BLOCK_RECORD
  5
4F2
330
1
100
AcDbSymbolTableRecord
100
AcDbBlockTableRecord
  2
KLON26
340
0
102
{BLKREFS
331
4F9
102
}
  0
BLOCK_RECORD
  5
4FA
330
1
100
AcDbSymbolTableRecord
100
AcDbBlockTableRecord
  2
KLON27
340
0
102
{BLKREFS
331
506
102
}
  0
BLOCK_RECORD
  5
507
330
1
100
AcDbSymbolTableRecord
100
AcDbBlockTableRecord
  2
KLON28
340
0
102
{BLKREFS
331
510
102
}
  0
BLOCK_RECORD
  5
511
330
1
100
AcDbSymbolTableRecord
100
AcDbBlockTableRecord
  2
KLON29
340
0
102
{BLKREFS
331
517
102
}
  0
BLOCK_RECORD
  5
518
330
1
100
AcDbSymbolTableRecord
100
AcDbBlockTableRecord
  2
KLON30
340
0
102
{BLKREFS
331
51E
102
}
  0
BLOCK_RECORD
  5
51F
330
1
100
AcDbSymbolTableRecord
100
AcDbBlockTableRecord
  2
KLON31
340
0
102
{BLKREFS
331
525
102
}
  0
BLOCK_RECORD
  5
527
330
1
100
AcDbSymbolTableRecord
100
AcDbBlockTableRecord
  2
KLON32
340
0
102
{BLKREFS
331
542
102
}
  0
BLOCK_RECORD
  5
552
330
1
100
AcDbSymbolTableRecord
100
AcDbBlockTableRecord
  2
*X159
340
0
102
{BLKREFS
331
570
102
}
  0
BLOCK_RECORD
  5
571
330
1
100
AcDbSymbolTableRecord
100
AcDbBlockTableRecord
  2
*X260
340
0
102
{BLKREFS
331
58E
102
}
  0
BLOCK_RECORD
  5
58F
330
1
100
AcDbSymbolTableRecord
100
AcDbBlockTableRecord
  2
*X361
340
0
102
{BLKREFS
331
5AC
102
}
  0
BLOCK_RECORD
  5
5AD
330
1
100
AcDbSymbolTableRecord
100
AcDbBlockTableRecord
  2
*X462
340
0
102
{BLKREFS
331
5CA
102
}
  0
BLOCK_RECORD
  5
5CB
330
1
100
AcDbSymbolTableRecord
100
AcDbBlockTableRecord
  2
*X563
340
0
102
{BLKREFS
331
5E8
102
}
  0
BLOCK_RECORD
  5
5EB
330
1
100
AcDbSymbolTableRecord
100
AcDbBlockTableRecord
  2
*X664
340
0
102
{BLKREFS
331
608
102
}
  0
BLOCK_RECORD
  5
60A
330
1
100
AcDbSymbolTableRecord
100
AcDbBlockTableRecord
  2
*X765
340
0
102
{BLKREFS
331
62C
102
}
  0
BLOCK_RECORD
  5
62F
330
1
100
AcDbSymbolTableRecord
100
AcDbBlockTableRecord
  2
*X866
340
0
102
{BLKREFS
331
651
102
}
  0
BLOCK_RECORD
  5
658
330
1
100
AcDbSymbolTableRecord
100
AcDbBlockTableRecord
  2
*D67
340
0
  0
BLOCK_RECORD
  5
665
330
1
100
AcDbSymbolTableRecord
100
AcDbBlockTableRecord
  2
*D68
340
0
  0
BLOCK_RECORD
  5
672
330
1
100
AcDbSymbolTableRecord
100
AcDbBlockTableRecord
  2
*D69
340
0
  0
BLOCK_RECORD
  5
67F
330
1
100
AcDbSymbolTableRecord
100
AcDbBlockTableRecord
  2
*D70
340
0
  0
BLOCK_RECORD
  5
68C
330
1
100
AcDbSymbolTableRecord
100
AcDbBlockTableRecord
  2
*D71
340
0
  0
BLOCK_RECORD
  5
6A1
330
1
100
AcDbSymbolTableRecord
100
AcDbBlockTableRecord
  2
*X972
340
0
102
{BLKREFS
331
6BE
102
}
  0
BLOCK_RECORD
  5
6BF
330
1
100
AcDbSymbolTableRecord
100
AcDbBlockTableRecord
  2
*X1073
340
0
102
{BLKREFS
331
6DC
102
}
  0
BLOCK_RECORD
  5
6DD
330
1
100
AcDbSymbolTableRecord
100
AcDbBlockTableRecord
  2
*X1174
340
0
102
{BLKREFS
331
6FA
102
}
  0
BLOCK_RECORD
  5
6FB
330
1
100
AcDbSymbolTableRecord
100
AcDbBlockTableRecord
  2
*X1275
340
0
102
{BLKREFS
331
718
102
}
  0
BLOCK_RECORD
  5
719
330
1
100
AcDbSymbolTableRecord
100
AcDbBlockTableRecord
  2
*X1376
340
0
102
{BLKREFS
331
736
102
}
  0
BLOCK_RECORD
  5
739
330
1
100
AcDbSymbolTableRecord
100
AcDbBlockTableRecord
  2
*X1477
340
0
102
{BLKREFS
331
756
102
}
  0
BLOCK_RECORD
  5
758
330
1
100
AcDbSymbolTableRecord
100
AcDbBlockTableRecord
  2
*X1578
340
0
102
{BLKREFS
331
771
102
}
  0
BLOCK_RECORD
  5
774
330
1
100
AcDbSymbolTableRecord
100
AcDbBlockTableRecord
  2
*X1679
340
0
102
{BLKREFS
331
78D
102
}
  0
BLOCK_RECORD
  5
790
330
1
100
AcDbSymbolTableRecord
100
AcDbBlockTableRecord
  2
*D80
340
0
  0
ENDTAB
  0
ENDSEC
  0
SECTION
  2
BLOCKS
  0
BLOCK
  5
20
330
1F
100
AcDbEntity
  8
0
100
AcDbBlockBegin
  2
*Model_Space
 70
     0
 71
     0
 10
0.0
 20
0.0
 30
0.0
  3
*Model_Space
  1

  0
ENDBLK
  5
21
330
1F
100
AcDbEntity
  8
0
100
AcDbBlockEnd
  0
BLOCK
  5
1C
330
1B
100
AcDbEntity
 67
     1
  8
0
100
AcDbBlockBegin
  2
*Paper_Space
 70
     0
 71
     0
 10
0.0
 20
0.0
 30
0.0
  3
*Paper_Space
  1

  0
ENDBLK
  5
1D
330
1B
100
AcDbEntity
 67
     1
  8
0
100
AcDbBlockEnd
  0
BLOCK
  5
24
330
23
100
AcDbEntity
  8
0
100
AcDbBlockBegin
  2
*Paper_Space0
 70
     0
 71
     0
 10
0.0
 20
0.0
 30
0.0
  3
*Paper_Space0
  1

  0
ENDBLK
  5
25
330
23
100
AcDbEntity
  8
0
100
AcDbBlockEnd
  0
BLOCK
  5
32
330
31
100
AcDbEntity
  8
0
100
AcDbBlockBegin
  2
POLY1
 70
     0
 71
     0
 10
0.0
 20
0.0
 30
0.0
  3
POLY1
  1

  4
POLY1
  0
LINE
  5
35
330
31
100
AcDbEntity
  8
LC-001-100-D00-0
 62
     7
370
    50
100
AcDbLine
 10
333.897913
 20
383.326069
 30
0.0
 11
333.897913
 21
383.326069
 31
0.0
  0
LINE
  5
36
330
31
100
AcDbEntity
  8
LC-001-100-D00-0
 62
     7
370
    50
100
AcDbLine
 10
333.897913
 20
383.326069
 30
0.0
 11
333.684116
 21
383.442703
 31
0.0
  0
LINE
  5
37
330
31
100
AcDbEntity
  8
LC-001-100-D00-0
 62
     7
370
    50
100
AcDbLine
 10
333.684116
 20
383.442703
 30
0.0
 11
333.684116
 21
383.442703
 31
0.0
  0
LINE
  5
38
330
31
100
AcDbEntity
  8
LC-001-100-D00-0
 62
     7
370
    50
100
AcDbLine
 10
333.684116
 20
383.442703
 30
0.0
 11
333.320881
 21
383.640862
 31
0.0
  0
LINE
  5
39
330
31
100
AcDbEntity
  8
LC-001-100-D00-0
 62
     7
370
    50
100
AcDbLine
 10
333.320881
 20
383.640862
 30
0.0
 11
333.320881
 21
383.640862
 31
0.0
  0
LINE
  5
3A
330
31
100
AcDbEntity
  8
LC-001-100-D00-0
 62
     7
370
    50
100
AcDbLine
 10
333.320881
 20
383.640862
 30
0.0
 11
332.968102
 21
383.841274
 31
0.0
  0
LINE
  5
3B
330
31
100
AcDbEntity
  8
LC-001-100-D00-0
 62
     7
370
    50
100
AcDbLine
 10
332.968102
 20
383.841274
 30
0.0
 11
332.968102
 21
383.841274
 31
0.0
  0
LINE
  5
3C
330
31
100
AcDbEntity
  8
LC-001-100-D00-0
 62
     7
370
    50
100
AcDbLine
 10
332.968102
 20
383.841274
 30
0.0
 11
332.822966
 21
383.923725
 31
0.0
  0
ENDBLK
  5
33
330
31
100
AcDbEntity
  8
0
100
AcDbBlockEnd
  0
BLOCK
  5
3F
330
3E
100
AcDbEntity
  8
0
100
AcDbBlockBegin
  2
POLY2
 70
     0
 71
     0
 10
0.0
 20
0.0
 30
0.0
  3
POLY2
  1

  4
POLY2
  0
LINE
  5
41
330
3E
100
AcDbEntity
  8
LC-001-100-D00-0
 62
     7
370
    50
100
AcDbLine
 10
333.897913
 20
380.32607
 30
0.0
 11
333.897913
 21
380.32607
 31
0.0
  0
LINE
  5
42
330
3E
100
AcDbEntity
  8
LC-001-100-D00-0
 62
     7
370
    50
100
AcDbLine
 10
333.897913
 20
380.32607
 30
0.0
 11
333.684116
 21
380.442705
 31
0.0
  0
LINE
  5
43
330
3E
100
AcDbEntity
  8
LC-001-100-D00-0
 62
     7
370
    50
100
AcDbLine
 10
333.684116
 20
380.442705
 30
0.0
 11
333.684116
 21
380.442705
 31
0.0
  0
LINE
  5
44
330
3E
100
AcDbEntity
  8
LC-001-100-D00-0
 62
     7
370
    50
100
AcDbLine
 10
333.684116
 20
380.442705
 30
0.0
 11
333.320881
 21
380.640863
 31
0.0
  0
LINE
  5
45
330
3E
100
AcDbEntity
  8
LC-001-100-D00-0
 62
     7
370
    50
100
AcDbLine
 10
333.320881
 20
380.640863
 30
0.0
 11
333.320881
 21
380.640863
 31
0.0
  0
LINE
  5
46
330
3E
100
AcDbEntity
  8
LC-001-100-D00-0
 62
     7
370
    50
100
AcDbLine
 10
333.320881
 20
380.640863
 30
0.0
 11
332.968102
 21
380.841275
 31
0.0
  0
LINE
  5
47
330
3E
100
AcDbEntity
  8
LC-001-100-D00-0
 62
     7
370
    50
100
AcDbLine
 10
332.968102
 20
380.841275
 30
0.0
 11
332.968102
 21
380.841275
 31
0.0
  0
LINE
  5
48
330
3E
100
AcDbEntity
  8
LC-001-100-D00-0
 62
     7
370
    50
100
AcDbLine
 10
332.968102
 20
380.841275
 30
0.0
 11
332.822966
 21
380.923726
 31
0.0
  0
ENDBLK
  5
40
330
3E
100
AcDbEntity
  8
0
100
AcDbBlockEnd
  0
BLOCK
  5
4B
330
4A
100
AcDbEntity
  8
0
100
AcDbBlockBegin
  2
POLY3
 70
     0
 71
     0
 10
0.0
 20
0.0
 30
0.0
  3
POLY3
  1

  4
POLY3
  0
LINE
  5
4D
330
4A
100
AcDbEntity
  8
LC-001-100-D00-0
 62
     7
370
    50
100
AcDbLine
 10
333.387698
 20
374.606617
 30
0.0
 11
333.387698
 21
374.606617
 31
0.0
  0
LINE
  5
4E
330
4A
100
AcDbEntity
  8
LC-001-100-D00-0
 62
     7
370
    50
100
AcDbLine
 10
333.387698
 20
374.606617
 30
0.0
 11
333.345088
 21
374.629975
 31
0.0
  0
LINE
  5
4F
330
4A
100
AcDbEntity
  8
LC-001-100-D00-0
 62
     7
370
    50
100
AcDbLine
 10
333.345088
 20
374.629975
 30
0.0
 11
333.345088
 21
374.629975
 31
0.0
  0
LINE
  5
50
330
4A
100
AcDbEntity
  8
LC-001-100-D00-0
 62
     7
370
    50
100
AcDbLine
 10
333.345088
 20
374.629975
 30
0.0
 11
333.153562
 21
374.734965
 31
0.0
  0
LINE
  5
51
330
4A
100
AcDbEntity
  8
LC-001-100-D00-0
 62
     7
370
    50
100
AcDbLine
 10
333.153562
 20
374.734965
 30
0.0
 11
333.153562
 21
374.734965
 31
0.0
  0
LINE
  5
52
330
4A
100
AcDbEntity
  8
LC-001-100-D00-0
 62
     7
370
    50
100
AcDbLine
 10
333.153562
 20
374.734965
 30
0.0
 11
332.967576
 21
374.84116
 31
0.0
  0
LINE
  5
53
330
4A
100
AcDbEntity
  8
LC-001-100-D00-0
 62
     7
370
    50
100
AcDbLine
 10
332.967576
 20
374.84116
 30
0.0
 11
332.967576
 21
374.84116
 31
0.0
  0
LINE
  5
54
330
4A
100
AcDbEntity
  8
LC-001-100-D00-0
 62
     7
370
    50
100
AcDbLine
 10
332.967576
 20
374.84116
 30
0.0
 11
332.822966
 21
374.923729
 31
0.0
  0
ENDBLK
  5
4C
330
4A
100
AcDbEntity
  8
0
100
AcDbBlockEnd
  0
BLOCK
  5
57
330
56
100
AcDbEntity
  8
0
100
AcDbBlockBegin
  2
POLY4
 70
     0
 71
     0
 10
0.0
 20
0.0
 30
0.0
  3
POLY4
  1

  4
POLY4
  0
LINE
  5
59
330
56
100
AcDbEntity
  8
LC-001-100-D00-0
 62
     7
370
    50
100
AcDbLine
 10
333.897913
 20
386.326075
 30
0.0
 11
333.897913
 21
386.326075
 31
0.0
  0
LINE
  5
5A
330
56
100
AcDbEntity
  8
LC-001-100-D00-0
 62
     7
370
    50
100
AcDbLine
 10
333.897913
 20
386.326075
 30
0.0
 11
333.684115
 21
386.442706
 31
0.0
  0
LINE
  5
5B
330
56
100
AcDbEntity
  8
LC-001-100-D00-0
 62
     7
370
    50
100
AcDbLine
 10
333.684115
 20
386.442706
 30
0.0
 11
333.684115
 21
386.442706
 31
0.0
  0
LINE
  5
5C
330
56
100
AcDbEntity
  8
LC-001-100-D00-0
 62
     7
370
    50
100
AcDbLine
 10
333.684115
 20
386.442706
 30
0.0
 11
333.320877
 21
386.640858
 31
0.0
  0
LINE
  5
5D
330
56
100
AcDbEntity
  8
LC-001-100-D00-0
 62
     7
370
    50
100
AcDbLine
 10
333.320877
 20
386.640858
 30
0.0
 11
333.320877
 21
386.640858
 31
0.0
  0
LINE
  5
5E
330
56
100
AcDbEntity
  8
LC-001-100-D00-0
 62
     7
370
    50
100
AcDbLine
 10
333.320877
 20
386.640858
 30
0.0
 11
332.968102
 21
386.841277
 31
0.0
  0
LINE
  5
5F
330
56
100
AcDbEntity
  8
LC-001-100-D00-0
 62
     7
370
    50
100
AcDbLine
 10
332.968102
 20
386.841277
 30
0.0
 11
332.968102
 21
386.841277
 31
0.0
  0
LINE
  5
60
330
56
100
AcDbEntity
  8
LC-001-100-D00-0
 62
     7
370
    50
100
AcDbLine
 10
332.968102
 20
386.841277
 30
0.0
 11
332.822966
 21
386.923731
 31
0.0
  0
ENDBLK
  5
58
330
56
100
AcDbEntity
  8
0
100
AcDbBlockEnd
  0
BLOCK
  5
63
330
62
100
AcDbEntity
  8
0
100
AcDbBlockBegin
  2
POLY5
 70
     0
 71
     0
 10
0.0
 20
0.0
 30
0.0
  3
POLY5
  1

  4
POLY5
  0
LINE
  5
65
330
62
100
AcDbEntity
  8
LC-001-100-D00-0
 62
     7
370
    50
100
AcDbLine
 10
333.897913
 20
377.326072
 30
0.0
 11
333.897913
 21
377.326072
 31
0.0
  0
LINE
  5
66
330
62
100
AcDbEntity
  8
LC-001-100-D00-0
 62
     7
370
    50
100
AcDbLine
 10
333.897913
 20
377.326072
 30
0.0
 11
333.684115
 21
377.442702
 31
0.0
  0
LINE
  5
67
330
62
100
AcDbEntity
  8
LC-001-100-D00-0
 62
     7
370
    50
100
AcDbLine
 10
333.684115
 20
377.442702
 30
0.0
 11
333.684115
 21
377.442702
 31
0.0
  0
LINE
  5
68
330
62
100
AcDbEntity
  8
LC-001-100-D00-0
 62
     7
370
    50
100
AcDbLine
 10
333.684115
 20
377.442702
 30
0.0
 11
333.320877
 21
377.640855
 31
0.0
  0
LINE
  5
69
330
62
100
AcDbEntity
  8
LC-001-100-D00-0
 62
     7
370
    50
100
AcDbLine
 10
333.320877
 20
377.640855
 30
0.0
 11
333.320877
 21
377.640855
 31
0.0
  0
LINE
  5
6A
330
62
100
AcDbEntity
  8
LC-001-100-D00-0
 62
     7
370
    50
100
AcDbLine
 10
333.320877
 20
377.640855
 30
0.0
 11
332.968102
 21
377.841273
 31
0.0
  0
LINE
  5
6B
330
62
100
AcDbEntity
  8
LC-001-100-D00-0
 62
     7
370
    50
100
AcDbLine
 10
332.968102
 20
377.841273
 30
0.0
 11
332.968102
 21
377.841273
 31
0.0
  0
LINE
  5
6C
330
62
100
AcDbEntity
  8
LC-001-100-D00-0
 62
     7
370
    50
100
AcDbLine
 10
332.968102
 20
377.841273
 30
0.0
 11
332.822966
 21
377.923728
 31
0.0
  0
ENDBLK
  5
64
330
62
100
AcDbEntity
  8
0
100
AcDbBlockEnd
  0
BLOCK
  5
6F
330
6E
100
AcDbEntity
  8
0
100
AcDbBlockBegin
  2
POLY6
 70
     0
 71
     0
 10
0.0
 20
0.0
 30
0.0
  3
POLY6
  1

  4
POLY6
  0
LINE
  5
71
330
6E
100
AcDbEntity
  8
LC-001-100-D00-0
 62
     7
370
    50
100
AcDbLine
 10
327.732543
 20
384.518914
 30
0.0
 11
327.732543
 21
384.518914
 31
0.0
  0
LINE
  5
72
330
6E
100
AcDbEntity
  8
LC-001-100-D00-0
 62
     7
370
    50
100
AcDbLine
 10
327.732543
 20
384.518914
 30
0.0
 11
327.972441
 21
384.392784
 31
0.0
  0
LINE
  5
73
330
6E
100
AcDbEntity
  8
LC-001-100-D00-0
 62
     7
370
    50
100
AcDbLine
 10
327.972441
 20
384.392784
 30
0.0
 11
327.972441
 21
384.392784
 31
0.0
  0
LINE
  5
74
330
6E
100
AcDbEntity
  8
LC-001-100-D00-0
 62
     7
370
    50
100
AcDbLine
 10
327.972441
 20
384.392784
 30
0.0
 11
328.336287
 21
384.201486
 31
0.0
  0
LINE
  5
75
330
6E
100
AcDbEntity
  8
LC-001-100-D00-0
 62
     7
370
    50
100
AcDbLine
 10
328.336287
 20
384.201486
 30
0.0
 11
328.336287
 21
384.201486
 31
0.0
  0
LINE
  5
76
330
6E
100
AcDbEntity
  8
LC-001-100-D00-0
 62
     7
370
    50
100
AcDbLine
 10
328.336287
 20
384.201486
 30
0.0
 11
328.6993
 21
383.996216
 31
0.0
  0
LINE
  5
77
330
6E
100
AcDbEntity
  8
LC-001-100-D00-0
 62
     7
370
    50
100
AcDbLine
 10
328.6993
 20
383.996216
 30
0.0
 11
328.6993
 21
383.996216
 31
0.0
  0
LINE
  5
78
330
6E
100
AcDbEntity
  8
LC-001-100-D00-0
 62
     7
370
    50
100
AcDbLine
 10
328.6993
 20
383.996216
 30
0.0
 11
328.822965
 21
383.926288
 31
0.0
  0
ENDBLK
  5
70
330
6E
100
AcDbEntity
  8
0
100
AcDbBlockEnd
  0
BLOCK
  5
7B
330
7A
100
AcDbEntity
  8
0
100
AcDbBlockBegin
  2
POLY7
 70
     0
 71
     0
 10
0.0
 20
0.0
 30
0.0
  3
POLY7
  1

  4
POLY7
  0
LINE
  5
7D
330
7A
100
AcDbEntity
  8
LC-001-100-D00-0
 62
     7
370
    50
100
AcDbLine
 10
327.732543
 20
378.518917
 30
0.0
 11
327.732543
 21
378.518917
 31
0.0
  0
LINE
  5
7E
330
7A
100
AcDbEntity
  8
LC-001-100-D00-0
 62
     7
370
    50
100
AcDbLine
 10
327.732543
 20
378.518917
 30
0.0
 11
327.97244
 21
378.392783
 31
0.0
  0
LINE
  5
7F
330
7A
100
AcDbEntity
  8
LC-001-100-D00-0
 62
     7
370
    50
100
AcDbLine
 10
327.97244
 20
378.392783
 30
0.0
 11
327.97244
 21
378.392783
 31
0.0
  0
LINE
  5
80
330
7A
100
AcDbEntity
  8
LC-001-100-D00-0
 62
     7
370
    50
100
AcDbLine
 10
327.97244
 20
378.392783
 30
0.0
 11
328.336283
 21
378.201479
 31
0.0
  0
LINE
  5
81
330
7A
100
AcDbEntity
  8
LC-001-100-D00-0
 62
     7
370
    50
100
AcDbLine
 10
328.336283
 20
378.201479
 30
0.0
 11
328.336283
 21
378.201479
 31
0.0
  0
LINE
  5
82
330
7A
100
AcDbEntity
  8
LC-001-100-D00-0
 62
     7
370
    50
100
AcDbLine
 10
328.336283
 20
378.201479
 30
0.0
 11
328.6993
 21
377.996215
 31
0.0
  0
LINE
  5
83
330
7A
100
AcDbEntity
  8
LC-001-100-D00-0
 62
     7
370
    50
100
AcDbLine
 10
328.6993
 20
377.996215
 30
0.0
 11
328.6993
 21
377.996215
 31
0.0
  0
LINE
  5
84
330
7A
100
AcDbEntity
  8
LC-001-100-D00-0
 62
     7
370
    50
100
AcDbLine
 10
328.6993
 20
377.996215
 30
0.0
 11
328.822965
 21
377.926291
 31
0.0
  0
ENDBLK
  5
7C
330
7A
100
AcDbEntity
  8
0
100
AcDbBlockEnd
  0
BLOCK
  5
87
330
86
100
AcDbEntity
  8
0
100
AcDbBlockBegin
  2
POLY8
 70
     0
 71
     0
 10
0.0
 20
0.0
 30
0.0
  3
POLY8
  1

  4
POLY8
  0
LINE
  5
89
330
86
100
AcDbEntity
  8
LC-001-100-D00-0
 62
     7
370
    50
100
AcDbLine
 10
328.308011
 20
375.211336
 30
0.0
 11
328.308011
 21
375.211336
 31
0.0
  0
LINE
  5
8A
330
86
100
AcDbEntity
  8
LC-001-100-D00-0
 62
     7
370
    50
100
AcDbLine
 10
328.308011
 20
375.211336
 30
0.0
 11
328.355976
 21
375.185878
 31
0.0
  0
LINE
  5
8B
330
86
100
AcDbEntity
  8
LC-001-100-D00-0
 62
     7
370
    50
100
AcDbLine
 10
328.355976
 20
375.185878
 30
0.0
 11
328.355976
 21
375.185878
 31
0.0
  0
LINE
  5
8C
330
86
100
AcDbEntity
  8
LC-001-100-D00-0
 62
     7
370
    50
100
AcDbLine
 10
328.355976
 20
375.185878
 30
0.0
 11
328.527852
 21
375.094649
 31
0.0
  0
LINE
  5
8D
330
86
100
AcDbEntity
  8
LC-001-100-D00-0
 62
     7
370
    50
100
AcDbLine
 10
328.527852
 20
375.094649
 30
0.0
 11
328.527852
 21
375.094649
 31
0.0
  0
LINE
  5
8E
330
86
100
AcDbEntity
  8
LC-001-100-D00-0
 62
     7
370
    50
100
AcDbLine
 10
328.527852
 20
375.094649
 30
0.0
 11
328.699336
 21
374.99682
 31
0.0
  0
LINE
  5
8F
330
86
100
AcDbEntity
  8
LC-001-100-D00-0
 62
     7
370
    50
100
AcDbLine
 10
328.699336
 20
374.99682
 30
0.0
 11
328.699336
 21
374.99682
 31
0.0
  0
LINE
  5
90
330
86
100
AcDbEntity
  8
LC-001-100-D00-0
 62
     7
370
    50
100
AcDbLine
 10
328.699336
 20
374.99682
 30
0.0
 11
328.822965
 21
374.926292
 31
0.0
  0
ENDBLK
  5
88
330
86
100
AcDbEntity
  8
0
100
AcDbBlockEnd
  0
BLOCK
  5
93
330
92
100
AcDbEntity
  8
0
100
AcDbBlockBegin
  2
POLY9
 70
     0
 71
     0
 10
0.0
 20
0.0
 30
0.0
  3
POLY9
  1

  4
POLY9
  0
LINE
  5
95
330
92
100
AcDbEntity
  8
LC-001-100-D00-0
 62
     7
370
    50
100
AcDbLine
 10
327.732543
 20
387.518913
 30
0.0
 11
327.732543
 21
387.518913
 31
0.0
  0
LINE
  5
96
330
92
100
AcDbEntity
  8
LC-001-100-D00-0
 62
     7
370
    50
100
AcDbLine
 10
327.732543
 20
387.518913
 30
0.0
 11
327.972441
 21
387.392783
 31
0.0
  0
LINE
  5
97
330
92
100
AcDbEntity
  8
LC-001-100-D00-0
 62
     7
370
    50
100
AcDbLine
 10
327.972441
 20
387.392783
 30
0.0
 11
327.972441
 21
387.392783
 31
0.0
  0
LINE
  5
98
330
92
100
AcDbEntity
  8
LC-001-100-D00-0
 62
     7
370
    50
100
AcDbLine
 10
327.972441
 20
387.392783
 30
0.0
 11
328.336287
 21
387.201484
 31
0.0
  0
LINE
  5
99
330
92
100
AcDbEntity
  8
LC-001-100-D00-0
 62
     7
370
    50
100
AcDbLine
 10
328.336287
 20
387.201484
 30
0.0
 11
328.336287
 21
387.201484
 31
0.0
  0
LINE
  5
9A
330
92
100
AcDbEntity
  8
LC-001-100-D00-0
 62
     7
370
    50
100
AcDbLine
 10
328.336287
 20
387.201484
 30
0.0
 11
328.6993
 21
386.996214
 31
0.0
  0
LINE
  5
9B
330
92
100
AcDbEntity
  8
LC-001-100-D00-0
 62
     7
370
    50
100
AcDbLine
 10
328.6993
 20
386.996214
 30
0.0
 11
328.6993
 21
386.996214
 31
0.0
  0
LINE
  5
9C
330
92
100
AcDbEntity
  8
LC-001-100-D00-0
 62
     7
370
    50
100
AcDbLine
 10
328.6993
 20
386.996214
 30
0.0
 11
328.822965
 21
386.926286
 31
0.0
  0
ENDBLK
  5
94
330
92
100
AcDbEntity
  8
0
100
AcDbBlockEnd
  0
BLOCK
  5
9F
330
9E
100
AcDbEntity
  8
0
100
AcDbBlockBegin
  2
POLY10
 70
     0
 71
     0
 10
0.0
 20
0.0
 30
0.0
  3
POLY10
  1

  4
POLY10
  0
LINE
  5
A1
330
9E
100
AcDbEntity
  8
LC-001-100-D00-0
 62
     7
370
    50
100
AcDbLine
 10
327.732543
 20
381.518916
 30
0.0
 11
327.732543
 21
381.518916
 31
0.0
  0
LINE
  5
A2
330
9E
100
AcDbEntity
  8
LC-001-100-D00-0
 62
     7
370
    50
100
AcDbLine
 10
327.732543
 20
381.518916
 30
0.0
 11
327.97244
 21
381.392781
 31
0.0
  0
LINE
  5
A3
330
9E
100
AcDbEntity
  8
LC-001-100-D00-0
 62
     7
370
    50
100
AcDbLine
 10
327.97244
 20
381.392781
 30
0.0
 11
327.97244
 21
381.392781
 31
0.0
  0
LINE
  5
A4
330
9E
100
AcDbEntity
  8
LC-001-100-D00-0
 62
     7
370
    50
100
AcDbLine
 10
327.97244
 20
381.392781
 30
0.0
 11
328.336283
 21
381.201477
 31
0.0
  0
LINE
  5
A5
330
9E
100
AcDbEntity
  8
LC-001-100-D00-0
 62
     7
370
    50
100
AcDbLine
 10
328.336283
 20
381.201477
 30
0.0
 11
328.336283
 21
381.201477
 31
0.0
  0
LINE
  5
A6
330
9E
100
AcDbEntity
  8
LC-001-100-D00-0
 62
     7
370
    50
100
AcDbLine
 10
328.336283
 20
381.201477
 30
0.0
 11
328.6993
 21
380.996214
 31
0.0
  0
LINE
  5
A7
330
9E
100
AcDbEntity
  8
LC-001-100-D00-0
 62
     7
370
    50
100
AcDbLine
 10
328.6993
 20
380.996214
 30
0.0
 11
328.6993
 21
380.996214
 31
0.0
  0
LINE
  5
A8
330
9E
100
AcDbEntity
  8
LC-001-100-D00-0
 62
     7
370
    50
100
AcDbLine
 10
328.6993
 20
380.996214
 30
0.0
 11
328.822965
 21
380.926289
 31
0.0
  0
ENDBLK
  5
A0
330
9E
100
AcDbEntity
  8
0
100
AcDbBlockEnd
  0
BLOCK
  5
D6
330
D5
100
AcDbEntity
  8
0
100
AcDbBlockBegin
  2
KLON1
 70
     0
 71
     0
 10
0.0
 20
0.0
 30
0.0
  3
KLON1
  1

  4
KLON1
  0
LINE
  5
D8
330
D5
100
AcDbEntity
  8
LC-001-100-D00-0
 62
     7
370
    15
100
AcDbLine
 10
332.822966
 20
383.813441
 30
0.0
 11
333.17406
 21
383.630679
 31
0.0
  0
LINE
  5
D9
330
D5
100
AcDbEntity
  8
LC-001-100-D00-0
 62
     7
370
    15
100
AcDbLine
 10
333.17406
 20
383.630679
 30
0.0
 11
333.525153
 21
383.447908
 31
0.0
  0
LINE
  5
DA
330
D5
100
AcDbEntity
  8
LC-001-100-D00-0
 62
     7
370
    15
100
AcDbLine
 10
333.525153
 20
383.447908
 30
0.0
 11
334.072965
 21
383.162737
 31
0.0
  0
ENDBLK
  5
D7
330
D5
100
AcDbEntity
  8
0
100
AcDbBlockEnd
  0
BLOCK
  5
DD
330
DC
100
AcDbEntity
  8
0
100
AcDbBlockBegin
  2
KLON2
 70
     0
 71
     0
 10
0.0
 20
0.0
 30
0.0
  3
KLON2
  1

  4
KLON2
  0
LINE
  5
DF
330
DC
100
AcDbEntity
  8
LC-001-100-D00-0
 62
     7
370
    15
100
AcDbLine
 10
327.572966
 20
384.662733
 30
0.0
 11
327.92406
 21
384.845503
 31
0.0
  0
LINE
  5
E0
330
DC
100
AcDbEntity
  8
LC-001-100-D00-0
 62
     7
370
    15
100
AcDbLine
 10
327.92406
 20
384.845503
 30
0.0
 11
328.275154
 21
385.028273
 31
0.0
  0
LINE
  5
E1
330
DC
100
AcDbEntity
  8
LC-001-100-D00-0
 62
     7
370
    15
100
AcDbLine
 10
328.275154
 20
385.028273
 30
0.0
 11
328.822965
 21
385.313444
 31
0.0
  0
ENDBLK
  5
DE
330
DC
100
AcDbEntity
  8
0
100
AcDbBlockEnd
  0
BLOCK
  5
E4
330
E3
100
AcDbEntity
  8
0
100
AcDbBlockBegin
  2
POLY11
 70
     0
 71
     0
 10
0.0
 20
0.0
 30
0.0
  3
POLY11
  1

  4
POLY11
  0
LINE
  5
E6
330
E3
100
AcDbEntity
  8
LC-001-100-D00-0
 62
     7
370
    50
100
AcDbLine
 10
327.572966
 20
384.662733
 30
0.0
 11
327.572966
 21
384.662733
 31
0.0
  0
LINE
  5
E7
330
E3
100
AcDbEntity
  8
LC-001-100-D00-0
 62
     7
370
    50
100
AcDbLine
 10
327.572966
 20
384.662733
 30
0.0
 11
327.572972
 21
384.662
 31
0.0
  0
LINE
  5
E8
330
E3
100
AcDbEntity
  8
LC-001-100-D00-0
 62
     7
370
    50
100
AcDbLine
 10
327.572972
 20
384.662
 30
0.0
 11
327.572972
 21
384.662
 31
0.0
  0
LINE
  5
E9
330
E3
100
AcDbEntity
  8
LC-001-100-D00-0
 62
     7
370
    50
100
AcDbLine
 10
327.572972
 20
384.662
 30
0.0
 11
327.573357
 21
384.611093
 31
0.0
  0
LINE
  5
EA
330
E3
100
AcDbEntity
  8
LC-001-100-D00-0
 62
     7
370
    50
100
AcDbLine
 10
327.573357
 20
384.611093
 30
0.0
 11
327.573357
 21
384.611093
 31
0.0
  0
LINE
  5
EB
330
E3
100
AcDbEntity
  8
LC-001-100-D00-0
 62
     7
370
    50
100
AcDbLine
 10
327.573357
 20
384.611093
 30
0.0
 11
327.673201
 21
384.563709
 31
0.0
  0
LINE
  5
EC
330
E3
100
AcDbEntity
  8
LC-001-100-D00-0
 62
     7
370
    50
100
AcDbLine
 10
327.673201
 20
384.563709
 30
0.0
 11
327.673201
 21
384.563709
 31
0.0
  0
LINE
  5
ED
330
E3
100
AcDbEntity
  8
LC-001-100-D00-0
 62
     7
370
    50
100
AcDbLine
 10
327.673201
 20
384.563709
 30
0.0
 11
327.771606
 21
384.517007
 31
0.0
  0
ENDBLK
  5
E5
330
E3
100
AcDbEntity
  8
0
100
AcDbBlockEnd
  0
BLOCK
  5
F1
330
F0
100
AcDbEntity
  8
0
100
AcDbBlockBegin
  2
KLON3
 70
     0
 71
     0
 10
0.0
 20
0.0
 30
0.0
  3
KLON3
  1

  4
KLON3
  0
LINE
  5
F3
330
F0
100
AcDbEntity
  8
LC-001-100-D00-0
 62
     7
370
    15
100
AcDbLine
 10
332.822966
 20
380.813443
 30
0.0
 11
333.17406
 21
380.630673
 31
0.0
  0
LINE
  5
F4
330
F0
100
AcDbEntity
  8
LC-001-100-D00-0
 62
     7
370
    15
100
AcDbLine
 10
333.17406
 20
380.630673
 30
0.0
 11
333.525153
 21
380.44791
 31
0.0
  0
LINE
  5
F5
330
F0
100
AcDbEntity
  8
LC-001-100-D00-0
 62
     7
370
    15
100
AcDbLine
 10
333.525153
 20
380.44791
 30
0.0
 11
334.072965
 21
380.162731
 31
0.0
  0
ENDBLK
  5
F2
330
F0
100
AcDbEntity
  8
0
100
AcDbBlockEnd
  0
BLOCK
  5
F8
330
F7
100
AcDbEntity
  8
0
100
AcDbBlockBegin
  2
KLON4
 70
     0
 71
     0
 10
0.0
 20
0.0
 30
0.0
  3
KLON4
  1

  4
KLON4
  0
LINE
  5
FA
330
F7
100
AcDbEntity
  8
LC-001-100-D00-0
 62
     7
370
    15
100
AcDbLine
 10
327.572966
 20
381.662734
 30
0.0
 11
327.92406
 21
381.845505
 31
0.0
  0
LINE
  5
FB
330
F7
100
AcDbEntity
  8
LC-001-100-D00-0
 62
     7
370
    15
100
AcDbLine
 10
327.92406
 20
381.845505
 30
0.0
 11
328.275154
 21
382.028275
 31
0.0
  0
LINE
  5
FC
330
F7
100
AcDbEntity
  8
LC-001-100-D00-0
 62
     7
370
    15
100
AcDbLine
 10
328.275154
 20
382.028275
 30
0.0
 11
328.822965
 21
382.313446
 31
0.0
  0
ENDBLK
  5
F9
330
F7
100
AcDbEntity
  8
0
100
AcDbBlockEnd
  0
BLOCK
  5
FF
330
FE
100
AcDbEntity
  8
0
100
AcDbBlockBegin
  2
POLY12
 70
     0
 71
     0
 10
0.0
 20
0.0
 30
0.0
  3
POLY12
  1

  4
POLY12
  0
LINE
  5
101
330
FE
100
AcDbEntity
  8
LC-001-100-D00-0
 62
     7
370
    50
100
AcDbLine
 10
327.572966
 20
381.662734
 30
0.0
 11
327.572966
 21
381.662734
 31
0.0
  0
LINE
  5
102
330
FE
100
AcDbEntity
  8
LC-001-100-D00-0
 62
     7
370
    50
100
AcDbLine
 10
327.572966
 20
381.662734
 30
0.0
 11
327.572972
 21
381.661999
 31
0.0
  0
LINE
  5
103
330
FE
100
AcDbEntity
  8
LC-001-100-D00-0
 62
     7
370
    50
100
AcDbLine
 10
327.572972
 20
381.661999
 30
0.0
 11
327.572972
 21
381.661999
 31
0.0
  0
LINE
  5
104
330
FE
100
AcDbEntity
  8
LC-001-100-D00-0
 62
     7
370
    50
100
AcDbLine
 10
327.572972
 20
381.661999
 30
0.0
 11
327.573357
 21
381.610922
 31
0.0
  0
LINE
  5
105
330
FE
100
AcDbEntity
  8
LC-001-100-D00-0
 62
     7
370
    50
100
AcDbLine
 10
327.573357
 20
381.610922
 30
0.0
 11
327.573357
 21
381.610922
 31
0.0
  0
LINE
  5
106
330
FE
100
AcDbEntity
  8
LC-001-100-D00-0
 62
     7
370
    50
100
AcDbLine
 10
327.573357
 20
381.610922
 30
0.0
 11
327.673201
 21
381.563625
 31
0.0
  0
LINE
  5
107
330
FE
100
AcDbEntity
  8
LC-001-100-D00-0
 62
     7
370
    50
100
AcDbLine
 10
327.673201
 20
381.563625
 30
0.0
 11
327.673201
 21
381.563625
 31
0.0
  0
LINE
  5
108
330
FE
100
AcDbEntity
  8
LC-001-100-D00-0
 62
     7
370
    50
100
AcDbLine
 10
327.673201
 20
381.563625
 30
0.0
 11
327.771606
 21
381.517008
 31
0.0
  0
ENDBLK
  5
100
330
FE
100
AcDbEntity
  8
0
100
AcDbBlockEnd
  0
BLOCK
  5
10C
330
10B
100
AcDbEntity
  8
0
100
AcDbBlockBegin
  2
KLON5
 70
     0
 71
     0
 10
0.0
 20
0.0
 30
0.0
  3
KLON5
  1

  4
KLON5
  0
LINE
  5
10E
330
10B
100
AcDbEntity
  8
LC-001-100-D00-0
 62
     7
370
    15
100
AcDbLine
 10
332.822966
 20
374.813445
 30
0.0
 11
333.17406
 21
374.630675
 31
0.0
  0
LINE
  5
10F
330
10B
100
AcDbEntity
  8
LC-001-100-D00-0
 62
     7
370
    15
100
AcDbLine
 10
333.17406
 20
374.630675
 30
0.0
 11
333.525153
 21
374.447905
 31
0.0
  0
LINE
  5
110
330
10B
100
AcDbEntity
  8
LC-001-100-D00-0
 62
     7
370
    15
100
AcDbLine
 10
333.525153
 20
374.447905
 30
0.0
 11
334.072965
 21
374.162734
 31
0.0
  0
ENDBLK
  5
10D
330
10B
100
AcDbEntity
  8
0
100
AcDbBlockEnd
  0
BLOCK
  5
113
330
112
100
AcDbEntity
  8
0
100
AcDbBlockBegin
  2
KLON6
 70
     0
 71
     0
 10
0.0
 20
0.0
 30
0.0
  3
KLON6
  1

  4
KLON6
  0
LINE
  5
115
330
112
100
AcDbEntity
  8
LC-001-100-D00-0
 62
     7
370
    15
100
AcDbLine
 10
327.572966
 20
375.662737
 30
0.0
 11
327.92406
 21
375.8455
 31
0.0
  0
LINE
  5
116
330
112
100
AcDbEntity
  8
LC-001-100-D00-0
 62
     7
370
    15
100
AcDbLine
 10
327.92406
 20
375.8455
 30
0.0
 11
328.275154
 21
376.02827
 31
0.0
  0
LINE
  5
117
330
112
100
AcDbEntity
  8
LC-001-100-D00-0
 62
     7
370
    15
100
AcDbLine
 10
328.275154
 20
376.02827
 30
0.0
 11
328.822965
 21
376.313441
 31
0.0
  0
ENDBLK
  5
114
330
112
100
AcDbEntity
  8
0
100
AcDbBlockEnd
  0
BLOCK
  5
11A
330
119
100
AcDbEntity
  8
0
100
AcDbBlockBegin
  2
KLON7
 70
     0
 71
     0
 10
0.0
 20
0.0
 30
0.0
  3
KLON7
  1

  4
KLON7
  0
LINE
  5
11C
330
119
100
AcDbEntity
  8
LC-001-100-D00-0
 62
     7
370
    15
100
AcDbLine
 10
332.822966
 20
386.81344
 30
0.0
 11
333.17406
 21
386.630677
 31
0.0
  0
LINE
  5
11D
330
119
100
AcDbEntity
  8
LC-001-100-D00-0
 62
     7
370
    15
100
AcDbLine
 10
333.17406
 20
386.630677
 30
0.0
 11
333.525153
 21
386.447907
 31
0.0
  0
LINE
  5
11E
330
119
100
AcDbEntity
  8
LC-001-100-D00-0
 62
     7
370
    15
100
AcDbLine
 10
333.525153
 20
386.447907
 30
0.0
 11
334.072965
 21
386.162736
 31
0.0
  0
ENDBLK
  5
11B
330
119
100
AcDbEntity
  8
0
100
AcDbBlockEnd
  0
BLOCK
  5
121
330
120
100
AcDbEntity
  8
0
100
AcDbBlockBegin
  2
KLON8
 70
     0
 71
     0
 10
0.0
 20
0.0
 30
0.0
  3
KLON8
  1

  4
KLON8
  0
LINE
  5
123
330
120
100
AcDbEntity
  8
LC-001-100-D00-0
 62
     7
370
    15
100
AcDbLine
 10
327.572966
 20
387.662732
 30
0.0
 11
327.92406
 21
387.845502
 31
0.0
  0
LINE
  5
124
330
120
100
AcDbEntity
  8
LC-001-100-D00-0
 62
     7
370
    15
100
AcDbLine
 10
327.92406
 20
387.845502
 30
0.0
 11
328.275154
 21
388.028272
 31
0.0
  0
LINE
  5
125
330
120
100
AcDbEntity
  8
LC-001-100-D00-0
 62
     7
370
    15
100
AcDbLine
 10
328.275154
 20
388.028272
 30
0.0
 11
328.822965
 21
388.313443
 31
0.0
  0
ENDBLK
  5
122
330
120
100
AcDbEntity
  8
0
100
AcDbBlockEnd
  0
BLOCK
  5
128
330
127
100
AcDbEntity
  8
0
100
AcDbBlockBegin
  2
POLY13
 70
     0
 71
     0
 10
0.0
 20
0.0
 30
0.0
  3
POLY13
  1

  4
POLY13
  0
LINE
  5
12A
330
127
100
AcDbEntity
  8
LC-001-100-D00-0
 62
     7
370
    50
100
AcDbLine
 10
327.572966
 20
387.662732
 30
0.0
 11
327.572966
 21
387.662732
 31
0.0
  0
LINE
  5
12B
330
127
100
AcDbEntity
  8
LC-001-100-D00-0
 62
     7
370
    50
100
AcDbLine
 10
327.572966
 20
387.662732
 30
0.0
 11
327.572972
 21
387.661999
 31
0.0
  0
LINE
  5
12C
330
127
100
AcDbEntity
  8
LC-001-100-D00-0
 62
     7
370
    50
100
AcDbLine
 10
327.572972
 20
387.661999
 30
0.0
 11
327.572972
 21
387.661999
 31
0.0
  0
LINE
  5
12D
330
127
100
AcDbEntity
  8
LC-001-100-D00-0
 62
     7
370
    50
100
AcDbLine
 10
327.572972
 20
387.661999
 30
0.0
 11
327.573357
 21
387.611091
 31
0.0
  0
LINE
  5
12E
330
127
100
AcDbEntity
  8
LC-001-100-D00-0
 62
     7
370
    50
100
AcDbLine
 10
327.573357
 20
387.611091
 30
0.0
 11
327.573357
 21
387.611091
 31
0.0
  0
LINE
  5
12F
330
127
100
AcDbEntity
  8
LC-001-100-D00-0
 62
     7
370
    50
100
AcDbLine
 10
327.573357
 20
387.611091
 30
0.0
 11
327.673201
 21
387.563711
 31
0.0
  0
LINE
  5
130
330
127
100
AcDbEntity
  8
LC-001-100-D00-0
 62
     7
370
    50
100
AcDbLine
 10
327.673201
 20
387.563711
 30
0.0
 11
327.673201
 21
387.563711
 31
0.0
  0
LINE
  5
131
330
127
100
AcDbEntity
  8
LC-001-100-D00-0
 62
     7
370
    50
100
AcDbLine
 10
327.673201
 20
387.563711
 30
0.0
 11
327.771606
 21
387.517013
 31
0.0
  0
ENDBLK
  5
129
330
127
100
AcDbEntity
  8
0
100
AcDbBlockEnd
  0
BLOCK
  5
135
330
134
100
AcDbEntity
  8
0
100
AcDbBlockBegin
  2
KLON9
 70
     0
 71
     0
 10
0.0
 20
0.0
 30
0.0
  3
KLON9
  1

  4
KLON9
  0
LINE
  5
137
330
134
100
AcDbEntity
  8
LC-001-100-D00-0
 62
     7
370
    15
100
AcDbLine
 10
332.822966
 20
377.813444
 30
0.0
 11
333.17406
 21
377.630674
 31
0.0
  0
LINE
  5
138
330
134
100
AcDbEntity
  8
LC-001-100-D00-0
 62
     7
370
    15
100
AcDbLine
 10
333.17406
 20
377.630674
 30
0.0
 11
333.525153
 21
377.447904
 31
0.0
  0
LINE
  5
139
330
134
100
AcDbEntity
  8
LC-001-100-D00-0
 62
     7
370
    15
100
AcDbLine
 10
333.525153
 20
377.447904
 30
0.0
 11
334.072965
 21
377.162733
 31
0.0
  0
ENDBLK
  5
136
330
134
100
AcDbEntity
  8
0
100
AcDbBlockEnd
  0
BLOCK
  5
13C
330
13B
100
AcDbEntity
  8
0
100
AcDbBlockBegin
  2
KLON10
 70
     0
 71
     0
 10
0.0
 20
0.0
 30
0.0
  3
KLON10
  1

  4
KLON10
  0
LINE
  5
13E
330
13B
100
AcDbEntity
  8
LC-001-100-D00-0
 62
     7
370
    15
100
AcDbLine
 10
327.572966
 20
378.662736
 30
0.0
 11
327.92406
 21
378.845506
 31
0.0
  0
LINE
  5
13F
330
13B
100
AcDbEntity
  8
LC-001-100-D00-0
 62
     7
370
    15
100
AcDbLine
 10
327.92406
 20
378.845506
 30
0.0
 11
328.275154
 21
379.028269
 31
0.0
  0
LINE
  5
140
330
13B
100
AcDbEntity
  8
LC-001-100-D00-0
 62
     7
370
    15
100
AcDbLine
 10
328.275154
 20
379.028269
 30
0.0
 11
328.822965
 21
379.313447
 31
0.0
  0
ENDBLK
  5
13D
330
13B
100
AcDbEntity
  8
0
100
AcDbBlockEnd
  0
BLOCK
  5
143
330
142
100
AcDbEntity
  8
0
100
AcDbBlockBegin
  2
POLY14
 70
     0
 71
     0
 10
0.0
 20
0.0
 30
0.0
  3
POLY14
  1

  4
POLY14
  0
LINE
  5
145
330
142
100
AcDbEntity
  8
LC-001-100-D00-0
 62
     7
370
    50
100
AcDbLine
 10
327.572966
 20
378.662736
 30
0.0
 11
327.572966
 21
378.662736
 31
0.0
  0
LINE
  5
146
330
142
100
AcDbEntity
  8
LC-001-100-D00-0
 62
     7
370
    50
100
AcDbLine
 10
327.572966
 20
378.662736
 30
0.0
 11
327.572972
 21
378.662
 31
0.0
  0
LINE
  5
147
330
142
100
AcDbEntity
  8
LC-001-100-D00-0
 62
     7
370
    50
100
AcDbLine
 10
327.572972
 20
378.662
 30
0.0
 11
327.572972
 21
378.662
 31
0.0
  0
LINE
  5
148
330
142
100
AcDbEntity
  8
LC-001-100-D00-0
 62
     7
370
    50
100
AcDbLine
 10
327.572972
 20
378.662
 30
0.0
 11
327.573357
 21
378.610923
 31
0.0
  0
LINE
  5
149
330
142
100
AcDbEntity
  8
LC-001-100-D00-0
 62
     7
370
    50
100
AcDbLine
 10
327.573357
 20
378.610923
 30
0.0
 11
327.573357
 21
378.610923
 31
0.0
  0
LINE
  5
14A
330
142
100
AcDbEntity
  8
LC-001-100-D00-0
 62
     7
370
    50
100
AcDbLine
 10
327.573357
 20
378.610923
 30
0.0
 11
327.673201
 21
378.563626
 31
0.0
  0
LINE
  5
14B
330
142
100
AcDbEntity
  8
LC-001-100-D00-0
 62
     7
370
    50
100
AcDbLine
 10
327.673201
 20
378.563626
 30
0.0
 11
327.673201
 21
378.563626
 31
0.0
  0
LINE
  5
14C
330
142
100
AcDbEntity
  8
LC-001-100-D00-0
 62
     7
370
    50
100
AcDbLine
 10
327.673201
 20
378.563626
 30
0.0
 11
327.771606
 21
378.51701
 31
0.0
  0
ENDBLK
  5
144
330
142
100
AcDbEntity
  8
0
100
AcDbBlockEnd
  0
BLOCK
  5
15A
330
159
100
AcDbEntity
  8
0
100
AcDbBlockBegin
  2
KLON11
 70
     0
 71
     0
 10
0.0
 20
0.0
 30
0.0
  3
KLON11
  1

  4
KLON11
  0
LINE
  5
15C
330
159
100
AcDbEntity
  8
LC-001-100-D00-0
 62
     7
370
    15
100
AcDbLine
 10
334.072965
 20
386.162736
 30
0.0
 11
333.721871
 21
385.979966
 31
0.0
  0
LINE
  5
15D
330
159
100
AcDbEntity
  8
LC-001-100-D00-0
 62
     7
370
    15
100
AcDbLine
 10
333.721871
 20
385.979966
 30
0.0
 11
333.370777
 21
385.797196
 31
0.0
  0
LINE
  5
15E
330
159
100
AcDbEntity
  8
LC-001-100-D00-0
 62
     7
370
    15
100
AcDbLine
 10
333.370777
 20
385.797196
 30
0.0
 11
332.822966
 21
385.512025
 31
0.0
  0
ENDBLK
  5
15B
330
159
100
AcDbEntity
  8
0
100
AcDbBlockEnd
  0
BLOCK
  5
162
330
161
100
AcDbEntity
  8
0
100
AcDbBlockBegin
  2
KLON12
 70
     0
 71
     0
 10
0.0
 20
0.0
 30
0.0
  3
KLON12
  1

  4
KLON12
  0
LINE
  5
164
330
161
100
AcDbEntity
  8
LC-001-100-D00-0
 62
     7
370
    15
100
AcDbLine
 10
334.072965
 20
383.162737
 30
0.0
 11
333.721871
 21
382.979967
 31
0.0
  0
LINE
  5
165
330
161
100
AcDbEntity
  8
LC-001-100-D00-0
 62
     7
370
    15
100
AcDbLine
 10
333.721871
 20
382.979967
 30
0.0
 11
333.370777
 21
382.797197
 31
0.0
  0
LINE
  5
166
330
161
100
AcDbEntity
  8
LC-001-100-D00-0
 62
     7
370
    15
100
AcDbLine
 10
333.370777
 20
382.797197
 30
0.0
 11
332.822966
 21
382.512026
 31
0.0
  0
ENDBLK
  5
163
330
161
100
AcDbEntity
  8
0
100
AcDbBlockEnd
  0
BLOCK
  5
16A
330
169
100
AcDbEntity
  8
0
100
AcDbBlockBegin
  2
KLON13
 70
     0
 71
     0
 10
0.0
 20
0.0
 30
0.0
  3
KLON13
  1

  4
KLON13
  0
LINE
  5
16C
330
169
100
AcDbEntity
  8
LC-001-100-D00-0
 62
     7
370
    15
100
AcDbLine
 10
334.072965
 20
380.162731
 30
0.0
 11
333.721871
 21
379.979969
 31
0.0
  0
LINE
  5
16D
330
169
100
AcDbEntity
  8
LC-001-100-D00-0
 62
     7
370
    15
100
AcDbLine
 10
333.721871
 20
379.979969
 30
0.0
 11
333.370777
 21
379.797198
 31
0.0
  0
LINE
  5
16E
330
169
100
AcDbEntity
  8
LC-001-100-D00-0
 62
     7
370
    15
100
AcDbLine
 10
333.370777
 20
379.797198
 30
0.0
 11
332.822966
 21
379.512027
 31
0.0
  0
ENDBLK
  5
16B
330
169
100
AcDbEntity
  8
0
100
AcDbBlockEnd
  0
BLOCK
  5
172
330
171
100
AcDbEntity
  8
0
100
AcDbBlockBegin
  2
KLON14
 70
     0
 71
     0
 10
0.0
 20
0.0
 30
0.0
  3
KLON14
  1

  4
KLON14
  0
LINE
  5
174
330
171
100
AcDbEntity
  8
LC-001-100-D00-0
 62
     7
370
    15
100
AcDbLine
 10
334.072965
 20
377.162733
 30
0.0
 11
333.721871
 21
376.979963
 31
0.0
  0
LINE
  5
175
330
171
100
AcDbEntity
  8
LC-001-100-D00-0
 62
     7
370
    15
100
AcDbLine
 10
333.721871
 20
376.979963
 30
0.0
 11
333.370777
 21
376.7972
 31
0.0
  0
LINE
  5
176
330
171
100
AcDbEntity
  8
LC-001-100-D00-0
 62
     7
370
    15
100
AcDbLine
 10
333.370777
 20
376.7972
 30
0.0
 11
332.822966
 21
376.512029
 31
0.0
  0
ENDBLK
  5
173
330
171
100
AcDbEntity
  8
0
100
AcDbBlockEnd
  0
BLOCK
  5
179
330
178
100
AcDbEntity
  8
0
100
AcDbBlockBegin
  2
KLON15
 70
     0
 71
     0
 10
0.0
 20
0.0
 30
0.0
  3
KLON15
  1

  4
KLON15
  0
LINE
  5
17B
330
178
100
AcDbEntity
  8
LC-001-100-D00-0
 62
     7
370
    15
100
AcDbLine
 10
334.072965
 20
374.162734
 30
0.0
 11
333.721871
 21
373.979964
 31
0.0
  0
LINE
  5
17C
330
178
100
AcDbEntity
  8
LC-001-100-D00-0
 62
     7
370
    15
100
AcDbLine
 10
333.721871
 20
373.979964
 30
0.0
 11
333.370777
 21
373.797201
 31
0.0
  0
LINE
  5
17D
330
178
100
AcDbEntity
  8
LC-001-100-D00-0
 62
     7
370
    15
100
AcDbLine
 10
333.370777
 20
373.797201
 30
0.0
 11
332.822966
 21
373.512023
 31
0.0
  0
ENDBLK
  5
17A
330
178
100
AcDbEntity
  8
0
100
AcDbBlockEnd
  0
BLOCK
  5
184
330
183
100
AcDbEntity
  8
0
100
AcDbBlockBegin
  2
KLON16
 70
     0
 71
     0
 10
0.0
 20
0.0
 30
0.0
  3
KLON16
  1

  4
KLON16
  0
LINE
  5
186
330
183
100
AcDbEntity
  8
LC-001-100-D00-0
 62
     7
370
    15
100
AcDbLine
 10
328.822965
 20
375.012026
 30
0.0
 11
328.471872
 21
375.194796
 31
0.0
  0
LINE
  5
187
330
183
100
AcDbEntity
  8
LC-001-100-D00-0
 62
     7
370
    15
100
AcDbLine
 10
328.471872
 20
375.194796
 30
0.0
 11
328.120778
 21
375.377566
 31
0.0
  0
LINE
  5
188
330
183
100
AcDbEntity
  8
LC-001-100-D00-0
 62
     7
370
    15
100
AcDbLine
 10
328.120778
 20
375.377566
 30
0.0
 11
327.572966
 21
375.662737
 31
0.0
  0
ENDBLK
  5
185
330
183
100
AcDbEntity
  8
0
100
AcDbBlockEnd
  0
BLOCK
  5
18B
330
18A
100
AcDbEntity
  8
0
100
AcDbBlockBegin
  2
KLON17
 70
     0
 71
     0
 10
0.0
 20
0.0
 30
0.0
  3
KLON17
  1

  4
KLON17
  0
LINE
  5
18D
330
18A
100
AcDbEntity
  8
LC-001-100-D00-0
 62
     7
370
    15
100
AcDbLine
 10
328.822965
 20
378.012024
 30
0.0
 11
328.471872
 21
378.194795
 31
0.0
  0
LINE
  5
18E
330
18A
100
AcDbEntity
  8
LC-001-100-D00-0
 62
     7
370
    15
100
AcDbLine
 10
328.471872
 20
378.194795
 30
0.0
 11
328.120778
 21
378.377565
 31
0.0
  0
LINE
  5
18F
330
18A
100
AcDbEntity
  8
LC-001-100-D00-0
 62
     7
370
    15
100
AcDbLine
 10
328.120778
 20
378.377565
 30
0.0
 11
327.572966
 21
378.662736
 31
0.0
  0
ENDBLK
  5
18C
330
18A
100
AcDbEntity
  8
0
100
AcDbBlockEnd
  0
BLOCK
  5
193
330
192
100
AcDbEntity
  8
0
100
AcDbBlockBegin
  2
KLON18
 70
     0
 71
     0
 10
0.0
 20
0.0
 30
0.0
  3
KLON18
  1

  4
KLON18
  0
LINE
  5
195
330
192
100
AcDbEntity
  8
LC-001-100-D00-0
 62
     7
370
    15
100
AcDbLine
 10
328.822965
 20
381.012023
 30
0.0
 11
328.471872
 21
381.194793
 31
0.0
  0
LINE
  5
196
330
192
100
AcDbEntity
  8
LC-001-100-D00-0
 62
     7
370
    15
100
AcDbLine
 10
328.471872
 20
381.194793
 30
0.0
 11
328.120778
 21
381.377563
 31
0.0
  0
LINE
  5
197
330
192
100
AcDbEntity
  8
LC-001-100-D00-0
 62
     7
370
    15
100
AcDbLine
 10
328.120778
 20
381.377563
 30
0.0
 11
327.572966
 21
381.662734
 31
0.0
  0
ENDBLK
  5
194
330
192
100
AcDbEntity
  8
0
100
AcDbBlockEnd
  0
BLOCK
  5
19B
330
19A
100
AcDbEntity
  8
0
100
AcDbBlockBegin
  2
KLON19
 70
     0
 71
     0
 10
0.0
 20
0.0
 30
0.0
  3
KLON19
  1

  4
KLON19
  0
LINE
  5
19D
330
19A
100
AcDbEntity
  8
LC-001-100-D00-0
 62
     7
370
    15
100
AcDbLine
 10
328.822965
 20
384.012029
 30
0.0
 11
328.471872
 21
384.194792
 31
0.0
  0
LINE
  5
19E
330
19A
100
AcDbEntity
  8
LC-001-100-D00-0
 62
     7
370
    15
100
AcDbLine
 10
328.471872
 20
384.194792
 30
0.0
 11
328.120778
 21
384.377562
 31
0.0
  0
LINE
  5
19F
330
19A
100
AcDbEntity
  8
LC-001-100-D00-0
 62
     7
370
    15
100
AcDbLine
 10
328.120778
 20
384.377562
 30
0.0
 11
327.572966
 21
384.662733
 31
0.0
  0
ENDBLK
  5
19C
330
19A
100
AcDbEntity
  8
0
100
AcDbBlockEnd
  0
BLOCK
  5
1A3
330
1A2
100
AcDbEntity
  8
0
100
AcDbBlockBegin
  2
KLON20
 70
     0
 71
     0
 10
0.0
 20
0.0
 30
0.0
  3
KLON20
  1

  4
KLON20
  0
LINE
  5
1A5
330
1A2
100
AcDbEntity
  8
LC-001-100-D00-0
 62
     7
370
    15
100
AcDbLine
 10
328.822965
 20
387.012028
 30
0.0
 11
328.471872
 21
387.194798
 31
0.0
  0
LINE
  5
1A6
330
1A2
100
AcDbEntity
  8
LC-001-100-D00-0
 62
     7
370
    15
100
AcDbLine
 10
328.471872
 20
387.194798
 30
0.0
 11
328.120778
 21
387.377561
 31
0.0
  0
LINE
  5
1A7
330
1A2
100
AcDbEntity
  8
LC-001-100-D00-0
 62
     7
370
    15
100
AcDbLine
 10
328.120778
 20
387.377561
 30
0.0
 11
327.572966
 21
387.662732
 31
0.0
  0
ENDBLK
  5
1A4
330
1A2
100
AcDbEntity
  8
0
100
AcDbBlockEnd
  0
BLOCK
  5
1B6
330
1B5
100
AcDbEntity
  8
0
100
AcDbBlockBegin
  2
POLY15
 70
     0
 71
     0
 10
0.0
 20
0.0
 30
0.0
  3
POLY15
  1

  4
POLY15
  0
LINE
  5
1B8
330
1B5
100
AcDbEntity
  8
LC-001-100-D00-0
 62
     7
370
    50
100
AcDbLine
 10
327.912311
 20
392.317854
 30
0.0
 11
327.912311
 21
392.317854
 31
0.0
  0
LINE
  5
1B9
330
1B5
100
AcDbEntity
  8
LC-001-100-D00-0
 62
     7
370
    50
100
AcDbLine
 10
327.912311
 20
392.317854
 30
0.0
 11
327.889146
 21
392.315862
 31
0.0
  0
LINE
  5
1BA
330
1B5
100
AcDbEntity
  8
LC-001-100-D00-0
 62
     7
370
    50
100
AcDbLine
 10
327.889146
 20
392.315862
 30
0.0
 11
327.889146
 21
392.315862
 31
0.0
  0
LINE
  5
1BB
330
1B5
100
AcDbEntity
  8
LC-001-100-D00-0
 62
     7
370
    50
100
AcDbLine
 10
327.889146
 20
392.315862
 30
0.0
 11
327.857735
 21
392.313161
 31
0.0
  0
LINE
  5
1BC
330
1B5
100
AcDbEntity
  8
LC-001-100-D00-0
 62
     7
370
    50
100
AcDbLine
 10
327.857735
 20
392.313161
 30
0.0
 11
327.857735
 21
392.313161
 31
0.0
  0
LINE
  5
1BD
330
1B5
100
AcDbEntity
  8
LC-001-100-D00-0
 62
     7
370
    50
100
AcDbLine
 10
327.857735
 20
392.313161
 30
0.0
 11
327.82929
 21
392.300242
 31
0.0
  0
LINE
  5
1BE
330
1B5
100
AcDbEntity
  8
LC-001-100-D00-0
 62
     7
370
    50
100
AcDbLine
 10
327.82929
 20
392.300242
 30
0.0
 11
327.82929
 21
392.300242
 31
0.0
  0
LINE
  5
1BF
330
1B5
100
AcDbEntity
  8
LC-001-100-D00-0
 62
     7
370
    50
100
AcDbLine
 10
327.82929
 20
392.300242
 30
0.0
 11
327.821823
 21
392.296851
 31
0.0
  0
ENDBLK
  5
1B7
330
1B5
100
AcDbEntity
  8
0
100
AcDbBlockEnd
  0
BLOCK
  5
1C2
330
1C1
100
AcDbEntity
  8
0
100
AcDbBlockBegin
  2
POLY16
 70
     0
 71
     0
 10
0.0
 20
0.0
 30
0.0
  3
POLY16
  1

  4
POLY16
  0
LINE
  5
1C4
330
1C1
100
AcDbEntity
  8
LC-001-100-D00-0
 62
     7
370
    50
100
AcDbLine
 10
333.824108
 20
392.296851
 30
0.0
 11
333.824108
 21
392.296851
 31
0.0
  0
LINE
  5
1C5
330
1C1
100
AcDbEntity
  8
LC-001-100-D00-0
 62
     7
370
    50
100
AcDbLine
 10
333.824108
 20
392.296851
 30
0.0
 11
333.802434
 21
392.305263
 31
0.0
  0
LINE
  5
1C6
330
1C1
100
AcDbEntity
  8
LC-001-100-D00-0
 62
     7
370
    50
100
AcDbLine
 10
333.802434
 20
392.305263
 30
0.0
 11
333.802434
 21
392.305263
 31
0.0
  0
LINE
  5
1C7
330
1C1
100
AcDbEntity
  8
LC-001-100-D00-0
 62
     7
370
    50
100
AcDbLine
 10
333.802434
 20
392.305263
 30
0.0
 11
333.773045
 21
392.31667
 31
0.0
  0
LINE
  5
1C8
330
1C1
100
AcDbEntity
  8
LC-001-100-D00-0
 62
     7
370
    50
100
AcDbLine
 10
333.773045
 20
392.31667
 30
0.0
 11
333.773045
 21
392.31667
 31
0.0
  0
LINE
  5
1C9
330
1C1
100
AcDbEntity
  8
LC-001-100-D00-0
 62
     7
370
    50
100
AcDbLine
 10
333.773045
 20
392.31667
 30
0.0
 11
333.741819
 21
392.317608
 31
0.0
  0
LINE
  5
1CA
330
1C1
100
AcDbEntity
  8
LC-001-100-D00-0
 62
     7
370
    50
100
AcDbLine
 10
333.741819
 20
392.317608
 30
0.0
 11
333.741819
 21
392.317608
 31
0.0
  0
LINE
  5
1CB
330
1C1
100
AcDbEntity
  8
LC-001-100-D00-0
 62
     7
370
    50
100
AcDbLine
 10
333.741819
 20
392.317608
 30
0.0
 11
333.733621
 21
392.317854
 31
0.0
  0
ENDBLK
  5
1C3
330
1C1
100
AcDbEntity
  8
0
100
AcDbBlockEnd
  0
BLOCK
  5
344
330
343
100
AcDbEntity
  8
0
100
AcDbBlockBegin
  2
POLY17
 70
     0
 71
     0
 10
0.0
 20
0.0
 30
0.0
  3
POLY17
  1

  4
POLY17
  0
LINE
  5
346
330
343
100
AcDbEntity
  8
LC-001-100-D00-0
 62
     7
370
    50
100
AcDbLine
 10
354.810412
 20
378.617853
 30
0.0
 11
354.810412
 21
378.617853
 31
0.0
  0
LINE
  5
347
330
343
100
AcDbEntity
  8
LC-001-100-D00-0
 62
     7
370
    50
100
AcDbLine
 10
354.810412
 20
378.617853
 30
0.0
 11
354.812232
 21
378.729091
 31
0.0
  0
LINE
  5
348
330
343
100
AcDbEntity
  8
LC-001-100-D00-0
 62
     7
370
    50
100
AcDbLine
 10
354.812232
 20
378.729091
 30
0.0
 11
354.812232
 21
378.729091
 31
0.0
  0
LINE
  5
349
330
343
100
AcDbEntity
  8
LC-001-100-D00-0
 62
     7
370
    50
100
AcDbLine
 10
354.812232
 20
378.729091
 30
0.0
 11
354.815873
 21
378.951539
 31
0.0
  0
LINE
  5
34A
330
343
100
AcDbEntity
  8
LC-001-100-D00-0
 62
     7
370
    50
100
AcDbLine
 10
354.815873
 20
378.951539
 30
0.0
 11
354.815873
 21
378.951539
 31
0.0
  0
LINE
  5
34B
330
343
100
AcDbEntity
  8
LC-001-100-D00-0
 62
     7
370
    50
100
AcDbLine
 10
354.815873
 20
378.951539
 30
0.0
 11
354.844494
 21
379.248421
 31
0.0
  0
LINE
  5
34C
330
343
100
AcDbEntity
  8
LC-001-100-D00-0
 62
     7
370
    50
100
AcDbLine
 10
354.844494
 20
379.248421
 30
0.0
 11
354.844494
 21
379.248421
 31
0.0
  0
LINE
  5
34D
330
343
100
AcDbEntity
  8
LC-001-100-D00-0
 62
     7
370
    50
100
AcDbLine
 10
354.844494
 20
379.248421
 30
0.0
 11
354.887545
 21
379.474532
 31
0.0
  0
LINE
  5
34E
330
343
100
AcDbEntity
  8
LC-001-100-D00-0
 62
     7
370
    50
100
AcDbLine
 10
354.887545
 20
379.474532
 30
0.0
 11
354.887545
 21
379.474532
 31
0.0
  0
LINE
  5
34F
330
343
100
AcDbEntity
  8
LC-001-100-D00-0
 62
     7
370
    50
100
AcDbLine
 10
354.887545
 20
379.474532
 30
0.0
 11
354.937421
 21
379.599128
 31
0.0
  0
LINE
  5
350
330
343
100
AcDbEntity
  8
LC-001-100-D00-0
 62
     7
370
    50
100
AcDbLine
 10
354.937421
 20
379.599128
 30
0.0
 11
354.937421
 21
379.599128
 31
0.0
  0
LINE
  5
351
330
343
100
AcDbEntity
  8
LC-001-100-D00-0
 62
     7
370
    50
100
AcDbLine
 10
354.937421
 20
379.599128
 30
0.0
 11
354.972003
 21
379.612372
 31
0.0
  0
LINE
  5
352
330
343
100
AcDbEntity
  8
LC-001-100-D00-0
 62
     7
370
    50
100
AcDbLine
 10
354.972003
 20
379.612372
 30
0.0
 11
354.972003
 21
379.612372
 31
0.0
  0
LINE
  5
353
330
343
100
AcDbEntity
  8
LC-001-100-D00-0
 62
     7
370
    50
100
AcDbLine
 10
354.972003
 20
379.612372
 30
0.0
 11
354.98632
 21
379.617856
 31
0.0
  0
ENDBLK
  5
345
330
343
100
AcDbEntity
  8
0
100
AcDbBlockEnd
  0
BLOCK
  5
359
330
358
100
AcDbEntity
  8
0
100
AcDbBlockBegin
  2
POLY18
 70
     0
 71
     0
 10
0.0
 20
0.0
 30
0.0
  3
POLY18
  1

  4
POLY18
  0
LINE
  5
35B
330
358
100
AcDbEntity
  8
LC-001-100-D00-0
 62
     7
370
    50
100
AcDbLine
 10
494.659635
 20
379.617856
 30
0.0
 11
494.659635
 21
379.617856
 31
0.0
  0
LINE
  5
35C
330
358
100
AcDbEntity
  8
LC-001-100-D00-0
 62
     7
370
    50
100
AcDbLine
 10
494.659635
 20
379.617856
 30
0.0
 11
494.680298
 21
379.606572
 31
0.0
  0
LINE
  5
35D
330
358
100
AcDbEntity
  8
LC-001-100-D00-0
 62
     7
370
    50
100
AcDbLine
 10
494.680298
 20
379.606572
 30
0.0
 11
494.680298
 21
379.606572
 31
0.0
  0
LINE
  5
35E
330
358
100
AcDbEntity
  8
LC-001-100-D00-0
 62
     7
370
    50
100
AcDbLine
 10
494.680298
 20
379.606572
 30
0.0
 11
494.721632
 21
379.584003
 31
0.0
  0
LINE
  5
35F
330
358
100
AcDbEntity
  8
LC-001-100-D00-0
 62
     7
370
    50
100
AcDbLine
 10
494.721632
 20
379.584003
 30
0.0
 11
494.721632
 21
379.584003
 31
0.0
  0
LINE
  5
360
330
358
100
AcDbEntity
  8
LC-001-100-D00-0
 62
     7
370
    50
100
AcDbLine
 10
494.721632
 20
379.584003
 30
0.0
 11
494.774727
 21
379.407473
 31
0.0
  0
LINE
  5
361
330
358
100
AcDbEntity
  8
LC-001-100-D00-0
 62
     7
370
    50
100
AcDbLine
 10
494.774727
 20
379.407473
 30
0.0
 11
494.774727
 21
379.407473
 31
0.0
  0
LINE
  5
362
330
358
100
AcDbEntity
  8
LC-001-100-D00-0
 62
     7
370
    50
100
AcDbLine
 10
494.774727
 20
379.407473
 30
0.0
 11
494.813546
 21
379.148416
 31
0.0
  0
LINE
  5
363
330
358
100
AcDbEntity
  8
LC-001-100-D00-0
 62
     7
370
    50
100
AcDbLine
 10
494.813546
 20
379.148416
 30
0.0
 11
494.813546
 21
379.148416
 31
0.0
  0
LINE
  5
364
330
358
100
AcDbEntity
  8
LC-001-100-D00-0
 62
     7
370
    50
100
AcDbLine
 10
494.813546
 20
379.148416
 30
0.0
 11
494.832934
 21
378.868145
 31
0.0
  0
LINE
  5
365
330
358
100
AcDbEntity
  8
LC-001-100-D00-0
 62
     7
370
    50
100
AcDbLine
 10
494.832934
 20
378.868145
 30
0.0
 11
494.832934
 21
378.868145
 31
0.0
  0
LINE
  5
366
330
358
100
AcDbEntity
  8
LC-001-100-D00-0
 62
     7
370
    50
100
AcDbLine
 10
494.832934
 20
378.868145
 30
0.0
 11
494.834822
 21
378.686746
 31
0.0
  0
LINE
  5
367
330
358
100
AcDbEntity
  8
LC-001-100-D00-0
 62
     7
370
    50
100
AcDbLine
 10
494.834822
 20
378.686746
 30
0.0
 11
494.834822
 21
378.686746
 31
0.0
  0
LINE
  5
368
330
358
100
AcDbEntity
  8
LC-001-100-D00-0
 62
     7
370
    50
100
AcDbLine
 10
494.834822
 20
378.686746
 30
0.0
 11
494.835539
 21
378.617853
 31
0.0
  0
ENDBLK
  5
35A
330
358
100
AcDbEntity
  8
0
100
AcDbBlockEnd
  0
BLOCK
  5
3B7
330
3B6
100
AcDbEntity
  8
0
100
AcDbBlockBegin
  2
POLY19
 70
     0
 71
     0
 10
0.0
 20
0.0
 30
0.0
  3
POLY19
  1

  4
POLY19
  0
LINE
  5
3B9
330
3B6
100
AcDbEntity
  8
LC-001-100-D00-0
 62
     7
370
    50
100
AcDbLine
 10
354.98632
 20
379.617856
 30
0.0
 11
354.98632
 21
379.617856
 31
0.0
  0
LINE
  5
3BA
330
3B6
100
AcDbEntity
  8
LC-001-100-D00-0
 62
     7
370
    50
100
AcDbLine
 10
354.98632
 20
379.617856
 30
0.0
 11
355.007384
 21
379.6065
 31
0.0
  0
LINE
  5
3BB
330
3B6
100
AcDbEntity
  8
LC-001-100-D00-0
 62
     7
370
    50
100
AcDbLine
 10
355.007384
 20
379.6065
 30
0.0
 11
355.007384
 21
379.6065
 31
0.0
  0
LINE
  5
3BC
330
3B6
100
AcDbEntity
  8
LC-001-100-D00-0
 62
     7
370
    50
100
AcDbLine
 10
355.007384
 20
379.6065
 30
0.0
 11
355.049518
 21
379.583785
 31
0.0
  0
LINE
  5
3BD
330
3B6
100
AcDbEntity
  8
LC-001-100-D00-0
 62
     7
370
    50
100
AcDbLine
 10
355.049518
 20
379.583785
 30
0.0
 11
355.049518
 21
379.583785
 31
0.0
  0
LINE
  5
3BE
330
3B6
100
AcDbEntity
  8
LC-001-100-D00-0
 62
     7
370
    50
100
AcDbLine
 10
355.049518
 20
379.583785
 30
0.0
 11
355.107461
 21
379.406558
 31
0.0
  0
LINE
  5
3BF
330
3B6
100
AcDbEntity
  8
LC-001-100-D00-0
 62
     7
370
    50
100
AcDbLine
 10
355.107461
 20
379.406558
 30
0.0
 11
355.107461
 21
379.406558
 31
0.0
  0
LINE
  5
3C0
330
3B6
100
AcDbEntity
  8
LC-001-100-D00-0
 62
     7
370
    50
100
AcDbLine
 10
355.107461
 20
379.406558
 30
0.0
 11
355.151502
 21
379.146609
 31
0.0
  0
LINE
  5
3C1
330
3B6
100
AcDbEntity
  8
LC-001-100-D00-0
 62
     7
370
    50
100
AcDbLine
 10
355.151502
 20
379.146609
 30
0.0
 11
355.151502
 21
379.146609
 31
0.0
  0
LINE
  5
3C2
330
3B6
100
AcDbEntity
  8
LC-001-100-D00-0
 62
     7
370
    50
100
AcDbLine
 10
355.151502
 20
379.146609
 30
0.0
 11
355.174025
 21
378.866313
 31
0.0
  0
LINE
  5
3C3
330
3B6
100
AcDbEntity
  8
LC-001-100-D00-0
 62
     7
370
    50
100
AcDbLine
 10
355.174025
 20
378.866313
 30
0.0
 11
355.174025
 21
378.866313
 31
0.0
  0
LINE
  5
3C4
330
3B6
100
AcDbEntity
  8
LC-001-100-D00-0
 62
     7
370
    50
100
AcDbLine
 10
355.174025
 20
378.866313
 30
0.0
 11
355.176206
 21
378.685671
 31
0.0
  0
LINE
  5
3C5
330
3B6
100
AcDbEntity
  8
LC-001-100-D00-0
 62
     7
370
    50
100
AcDbLine
 10
355.176206
 20
378.685671
 30
0.0
 11
355.176206
 21
378.685671
 31
0.0
  0
LINE
  5
3C6
330
3B6
100
AcDbEntity
  8
LC-001-100-D00-0
 62
     7
370
    50
100
AcDbLine
 10
355.176206
 20
378.685671
 30
0.0
 11
355.177025
 21
378.617853
 31
0.0
  0
ENDBLK
  5
3B8
330
3B6
100
AcDbEntity
  8
0
100
AcDbBlockEnd
  0
BLOCK
  5
3C9
330
3C8
100
AcDbEntity
  8
0
100
AcDbBlockBegin
  2
POLY20
 70
     0
 71
     0
 10
0.0
 20
0.0
 30
0.0
  3
POLY20
  1

  4
POLY20
  0
LINE
  5
3CB
330
3C8
100
AcDbEntity
  8
LC-001-100-D00-0
 62
     7
370
    50
100
AcDbLine
 10
411.022982
 20
378.617853
 30
0.0
 11
411.022982
 21
378.617853
 31
0.0
  0
LINE
  5
3CC
330
3C8
100
AcDbEntity
  8
LC-001-100-D00-0
 62
     7
370
    50
100
AcDbLine
 10
411.022982
 20
378.617853
 30
0.0
 11
411.033749
 21
378.728718
 31
0.0
  0
LINE
  5
3CD
330
3C8
100
AcDbEntity
  8
LC-001-100-D00-0
 62
     7
370
    50
100
AcDbLine
 10
411.033749
 20
378.728718
 30
0.0
 11
411.033749
 21
378.728718
 31
0.0
  0
LINE
  5
3CE
330
3C8
100
AcDbEntity
  8
LC-001-100-D00-0
 62
     7
370
    50
100
AcDbLine
 10
411.033749
 20
378.728718
 30
0.0
 11
411.05528
 21
378.950412
 31
0.0
  0
LINE
  5
3CF
330
3C8
100
AcDbEntity
  8
LC-001-100-D00-0
 62
     7
370
    50
100
AcDbLine
 10
411.05528
 20
378.950412
 30
0.0
 11
411.05528
 21
378.950412
 31
0.0
  0
LINE
  5
3D0
330
3C8
100
AcDbEntity
  8
LC-001-100-D00-0
 62
     7
370
    50
100
AcDbLine
 10
411.05528
 20
378.950412
 30
0.0
 11
411.222783
 21
379.246497
 31
0.0
  0
LINE
  5
3D1
330
3C8
100
AcDbEntity
  8
LC-001-100-D00-0
 62
     7
370
    50
100
AcDbLine
 10
411.222783
 20
379.246497
 30
0.0
 11
411.222783
 21
379.246497
 31
0.0
  0
LINE
  5
3D2
330
3C8
100
AcDbEntity
  8
LC-001-100-D00-0
 62
     7
370
    50
100
AcDbLine
 10
411.222783
 20
379.246497
 30
0.0
 11
411.470289
 21
379.47285
 31
0.0
  0
LINE
  5
3D3
330
3C8
100
AcDbEntity
  8
LC-001-100-D00-0
 62
     7
370
    50
100
AcDbLine
 10
411.470289
 20
379.47285
 30
0.0
 11
411.470289
 21
379.47285
 31
0.0
  0
LINE
  5
3D4
330
3C8
100
AcDbEntity
  8
LC-001-100-D00-0
 62
     7
370
    50
100
AcDbLine
 10
411.470289
 20
379.47285
 30
0.0
 11
411.752424
 21
379.598742
 31
0.0
  0
LINE
  5
3D5
330
3C8
100
AcDbEntity
  8
LC-001-100-D00-0
 62
     7
370
    50
100
AcDbLine
 10
411.752424
 20
379.598742
 30
0.0
 11
411.752424
 21
379.598742
 31
0.0
  0
LINE
  5
3D6
330
3C8
100
AcDbEntity
  8
LC-001-100-D00-0
 62
     7
370
    50
100
AcDbLine
 10
411.752424
 20
379.598742
 30
0.0
 11
411.943503
 21
379.612241
 31
0.0
  0
LINE
  5
3D7
330
3C8
100
AcDbEntity
  8
LC-001-100-D00-0
 62
     7
370
    50
100
AcDbLine
 10
411.943503
 20
379.612241
 30
0.0
 11
411.943503
 21
379.612241
 31
0.0
  0
LINE
  5
3D8
330
3C8
100
AcDbEntity
  8
LC-001-100-D00-0
 62
     7
370
    50
100
AcDbLine
 10
411.943503
 20
379.612241
 30
0.0
 11
412.022984
 21
379.617856
 31
0.0
  0
ENDBLK
  5
3CA
330
3C8
100
AcDbEntity
  8
0
100
AcDbBlockEnd
  0
BLOCK
  5
3DE
330
3DD
100
AcDbEntity
  8
0
100
AcDbBlockBegin
  2
POLY21
 70
     0
 71
     0
 10
0.0
 20
0.0
 30
0.0
  3
POLY21
  1

  4
POLY21
  0
LINE
  5
3E0
330
3DD
100
AcDbEntity
  8
LC-001-100-D00-0
 62
     7
370
    50
100
AcDbLine
 10
494.468933
 20
378.617853
 30
0.0
 11
494.468933
 21
378.617853
 31
0.0
  0
LINE
  5
3E1
330
3DD
100
AcDbEntity
  8
LC-001-100-D00-0
 62
     7
370
    50
100
AcDbLine
 10
494.468933
 20
378.617853
 30
0.0
 11
494.47107
 21
378.728718
 31
0.0
  0
LINE
  5
3E2
330
3DD
100
AcDbEntity
  8
LC-001-100-D00-0
 62
     7
370
    50
100
AcDbLine
 10
494.47107
 20
378.728718
 30
0.0
 11
494.47107
 21
378.728718
 31
0.0
  0
LINE
  5
3E3
330
3DD
100
AcDbEntity
  8
LC-001-100-D00-0
 62
     7
370
    50
100
AcDbLine
 10
494.47107
 20
378.728718
 30
0.0
 11
494.475342
 21
378.950414
 31
0.0
  0
LINE
  5
3E4
330
3DD
100
AcDbEntity
  8
LC-001-100-D00-0
 62
     7
370
    50
100
AcDbLine
 10
494.475342
 20
378.950414
 30
0.0
 11
494.475342
 21
378.950414
 31
0.0
  0
LINE
  5
3E5
330
3DD
100
AcDbEntity
  8
LC-001-100-D00-0
 62
     7
370
    50
100
AcDbLine
 10
494.475342
 20
378.950414
 30
0.0
 11
494.508336
 21
379.246495
 31
0.0
  0
LINE
  5
3E6
330
3DD
100
AcDbEntity
  8
LC-001-100-D00-0
 62
     7
370
    50
100
AcDbLine
 10
494.508336
 20
379.246495
 30
0.0
 11
494.508336
 21
379.246495
 31
0.0
  0
LINE
  5
3E7
330
3DD
100
AcDbEntity
  8
LC-001-100-D00-0
 62
     7
370
    50
100
AcDbLine
 10
494.508336
 20
379.246495
 30
0.0
 11
494.556252
 21
379.472851
 31
0.0
  0
LINE
  5
3E8
330
3DD
100
AcDbEntity
  8
LC-001-100-D00-0
 62
     7
370
    50
100
AcDbLine
 10
494.556252
 20
379.472851
 30
0.0
 11
494.556252
 21
379.472851
 31
0.0
  0
LINE
  5
3E9
330
3DD
100
AcDbEntity
  8
LC-001-100-D00-0
 62
     7
370
    50
100
AcDbLine
 10
494.556252
 20
379.472851
 30
0.0
 11
494.60976
 21
379.598741
 31
0.0
  0
LINE
  5
3EA
330
3DD
100
AcDbEntity
  8
LC-001-100-D00-0
 62
     7
370
    50
100
AcDbLine
 10
494.60976
 20
379.598741
 30
0.0
 11
494.60976
 21
379.598741
 31
0.0
  0
LINE
  5
3EB
330
3DD
100
AcDbEntity
  8
LC-001-100-D00-0
 62
     7
370
    50
100
AcDbLine
 10
494.60976
 20
379.598741
 30
0.0
 11
494.644983
 21
379.61224
 31
0.0
  0
LINE
  5
3EC
330
3DD
100
AcDbEntity
  8
LC-001-100-D00-0
 62
     7
370
    50
100
AcDbLine
 10
494.644983
 20
379.61224
 30
0.0
 11
494.644983
 21
379.61224
 31
0.0
  0
LINE
  5
3ED
330
3DD
100
AcDbEntity
  8
LC-001-100-D00-0
 62
     7
370
    50
100
AcDbLine
 10
494.644983
 20
379.61224
 30
0.0
 11
494.659635
 21
379.617856
 31
0.0
  0
ENDBLK
  5
3DF
330
3DD
100
AcDbEntity
  8
0
100
AcDbBlockEnd
  0
BLOCK
  5
3F0
330
3EF
100
AcDbEntity
  8
0
100
AcDbBlockBegin
  2
POLY22
 70
     0
 71
     0
 10
0.0
 20
0.0
 30
0.0
  3
POLY22
  1

  4
POLY22
  0
LINE
  5
3F2
330
3EF
100
AcDbEntity
  8
LC-001-100-D00-0
 62
     7
370
    50
100
AcDbLine
 10
437.623064
 20
379.617856
 30
0.0
 11
437.623064
 21
379.617856
 31
0.0
  0
LINE
  5
3F3
330
3EF
100
AcDbEntity
  8
LC-001-100-D00-0
 62
     7
370
    50
100
AcDbLine
 10
437.623064
 20
379.617856
 30
0.0
 11
437.737049
 21
379.6065
 31
0.0
  0
LINE
  5
3F4
330
3EF
100
AcDbEntity
  8
LC-001-100-D00-0
 62
     7
370
    50
100
AcDbLine
 10
437.737049
 20
379.6065
 30
0.0
 11
437.737049
 21
379.6065
 31
0.0
  0
LINE
  5
3F5
330
3EF
100
AcDbEntity
  8
LC-001-100-D00-0
 62
     7
370
    50
100
AcDbLine
 10
437.737049
 20
379.6065
 30
0.0
 11
437.965045
 21
379.583785
 31
0.0
  0
LINE
  5
3F6
330
3EF
100
AcDbEntity
  8
LC-001-100-D00-0
 62
     7
370
    50
100
AcDbLine
 10
437.965045
 20
379.583785
 30
0.0
 11
437.965045
 21
379.583785
 31
0.0
  0
LINE
  5
3F7
330
3EF
100
AcDbEntity
  8
LC-001-100-D00-0
 62
     7
370
    50
100
AcDbLine
 10
437.965045
 20
379.583785
 30
0.0
 11
438.268058
 21
379.406558
 31
0.0
  0
LINE
  5
3F8
330
3EF
100
AcDbEntity
  8
LC-001-100-D00-0
 62
     7
370
    50
100
AcDbLine
 10
438.268058
 20
379.406558
 30
0.0
 11
438.268058
 21
379.406558
 31
0.0
  0
LINE
  5
3F9
330
3EF
100
AcDbEntity
  8
LC-001-100-D00-0
 62
     7
370
    50
100
AcDbLine
 10
438.268058
 20
379.406558
 30
0.0
 11
438.494044
 21
379.146609
 31
0.0
  0
LINE
  5
3FA
330
3EF
100
AcDbEntity
  8
LC-001-100-D00-0
 62
     7
370
    50
100
AcDbLine
 10
438.494044
 20
379.146609
 30
0.0
 11
438.494044
 21
379.146609
 31
0.0
  0
LINE
  5
3FB
330
3EF
100
AcDbEntity
  8
LC-001-100-D00-0
 62
     7
370
    50
100
AcDbLine
 10
438.494044
 20
379.146609
 30
0.0
 11
438.607947
 21
378.866313
 31
0.0
  0
LINE
  5
3FC
330
3EF
100
AcDbEntity
  8
LC-001-100-D00-0
 62
     7
370
    50
100
AcDbLine
 10
438.607947
 20
378.866313
 30
0.0
 11
438.607947
 21
378.866313
 31
0.0
  0
LINE
  5
3FD
330
3EF
100
AcDbEntity
  8
LC-001-100-D00-0
 62
     7
370
    50
100
AcDbLine
 10
438.607947
 20
378.866313
 30
0.0
 11
438.618937
 21
378.685671
 31
0.0
  0
LINE
  5
3FE
330
3EF
100
AcDbEntity
  8
LC-001-100-D00-0
 62
     7
370
    50
100
AcDbLine
 10
438.618937
 20
378.685671
 30
0.0
 11
438.618937
 21
378.685671
 31
0.0
  0
LINE
  5
3FF
330
3EF
100
AcDbEntity
  8
LC-001-100-D00-0
 62
     7
370
    50
100
AcDbLine
 10
438.618937
 20
378.685671
 30
0.0
 11
438.623063
 21
378.617853
 31
0.0
  0
ENDBLK
  5
3F1
330
3EF
100
AcDbEntity
  8
0
100
AcDbBlockEnd
  0
BLOCK
  5
440
330
43F
100
AcDbEntity
  8
0
100
AcDbBlockBegin
  2
POLY23
 70
     0
 71
     0
 10
0.0
 20
0.0
 30
0.0
  3
POLY23
  1

  4
POLY23
  0
LINE
  5
442
330
43F
100
AcDbEntity
  8
LC-001-100-D00-0
 62
     7
370
    50
100
AcDbLine
 10
436.623063
 20
378.617853
 30
0.0
 11
436.623063
 21
378.617853
 31
0.0
  0
LINE
  5
443
330
43F
100
AcDbEntity
  8
LC-001-100-D00-0
 62
     7
370
    50
100
AcDbLine
 10
436.623063
 20
378.617853
 30
0.0
 11
436.633896
 21
378.729091
 31
0.0
  0
LINE
  5
444
330
43F
100
AcDbEntity
  8
LC-001-100-D00-0
 62
     7
370
    50
100
AcDbLine
 10
436.633896
 20
378.729091
 30
0.0
 11
436.633896
 21
378.729091
 31
0.0
  0
LINE
  5
445
330
43F
100
AcDbEntity
  8
LC-001-100-D00-0
 62
     7
370
    50
100
AcDbLine
 10
436.633896
 20
378.729091
 30
0.0
 11
436.655558
 21
378.95154
 31
0.0
  0
LINE
  5
446
330
43F
100
AcDbEntity
  8
LC-001-100-D00-0
 62
     7
370
    50
100
AcDbLine
 10
436.655558
 20
378.95154
 30
0.0
 11
436.655558
 21
378.95154
 31
0.0
  0
LINE
  5
447
330
43F
100
AcDbEntity
  8
LC-001-100-D00-0
 62
     7
370
    50
100
AcDbLine
 10
436.655558
 20
378.95154
 30
0.0
 11
436.824212
 21
379.248421
 31
0.0
  0
LINE
  5
448
330
43F
100
AcDbEntity
  8
LC-001-100-D00-0
 62
     7
370
    50
100
AcDbLine
 10
436.824212
 20
379.248421
 30
0.0
 11
436.824212
 21
379.248421
 31
0.0
  0
LINE
  5
449
330
43F
100
AcDbEntity
  8
LC-001-100-D00-0
 62
     7
370
    50
100
AcDbLine
 10
436.824212
 20
379.248421
 30
0.0
 11
437.072928
 21
379.474533
 31
0.0
  0
LINE
  5
44A
330
43F
100
AcDbEntity
  8
LC-001-100-D00-0
 62
     7
370
    50
100
AcDbLine
 10
437.072928
 20
379.474533
 30
0.0
 11
437.072928
 21
379.474533
 31
0.0
  0
LINE
  5
44B
330
43F
100
AcDbEntity
  8
LC-001-100-D00-0
 62
     7
370
    50
100
AcDbLine
 10
437.072928
 20
379.474533
 30
0.0
 11
437.354751
 21
379.599128
 31
0.0
  0
LINE
  5
44C
330
43F
100
AcDbEntity
  8
LC-001-100-D00-0
 62
     7
370
    50
100
AcDbLine
 10
437.354751
 20
379.599128
 30
0.0
 11
437.354751
 21
379.599128
 31
0.0
  0
LINE
  5
44D
330
43F
100
AcDbEntity
  8
LC-001-100-D00-0
 62
     7
370
    50
100
AcDbLine
 10
437.354751
 20
379.599128
 30
0.0
 11
437.544508
 21
379.612372
 31
0.0
  0
LINE
  5
44E
330
43F
100
AcDbEntity
  8
LC-001-100-D00-0
 62
     7
370
    50
100
AcDbLine
 10
437.544508
 20
379.612372
 30
0.0
 11
437.544508
 21
379.612372
 31
0.0
  0
LINE
  5
44F
330
43F
100
AcDbEntity
  8
LC-001-100-D00-0
 62
     7
370
    50
100
AcDbLine
 10
437.544508
 20
379.612372
 30
0.0
 11
437.623064
 21
379.617856
 31
0.0
  0
ENDBLK
  5
441
330
43F
100
AcDbEntity
  8
0
100
AcDbBlockEnd
  0
BLOCK
  5
455
330
454
100
AcDbEntity
  8
0
100
AcDbBlockBegin
  2
POLY24
 70
     0
 71
     0
 10
0.0
 20
0.0
 30
0.0
  3
POLY24
  1

  4
POLY24
  0
LINE
  5
457
330
454
100
AcDbEntity
  8
LC-001-100-D00-0
 62
     7
370
    50
100
AcDbLine
 10
412.022984
 20
379.617856
 30
0.0
 11
412.022984
 21
379.617856
 31
0.0
  0
LINE
  5
458
330
454
100
AcDbEntity
  8
LC-001-100-D00-0
 62
     7
370
    50
100
AcDbLine
 10
412.022984
 20
379.617856
 30
0.0
 11
412.136657
 21
379.606572
 31
0.0
  0
LINE
  5
459
330
454
100
AcDbEntity
  8
LC-001-100-D00-0
 62
     7
370
    50
100
AcDbLine
 10
412.136657
 20
379.606572
 30
0.0
 11
412.136657
 21
379.606572
 31
0.0
  0
LINE
  5
45A
330
454
100
AcDbEntity
  8
LC-001-100-D00-0
 62
     7
370
    50
100
AcDbLine
 10
412.136657
 20
379.606572
 30
0.0
 11
412.364036
 21
379.584002
 31
0.0
  0
LINE
  5
45B
330
454
100
AcDbEntity
  8
LC-001-100-D00-0
 62
     7
370
    50
100
AcDbLine
 10
412.364036
 20
379.584002
 30
0.0
 11
412.364036
 21
379.584002
 31
0.0
  0
LINE
  5
45C
330
454
100
AcDbEntity
  8
LC-001-100-D00-0
 62
     7
370
    50
100
AcDbLine
 10
412.364036
 20
379.584002
 30
0.0
 11
412.666772
 21
379.407473
 31
0.0
  0
LINE
  5
45D
330
454
100
AcDbEntity
  8
LC-001-100-D00-0
 62
     7
370
    50
100
AcDbLine
 10
412.666772
 20
379.407473
 30
0.0
 11
412.666772
 21
379.407473
 31
0.0
  0
LINE
  5
45E
330
454
100
AcDbEntity
  8
LC-001-100-D00-0
 62
     7
370
    50
100
AcDbLine
 10
412.666772
 20
379.407473
 30
0.0
 11
412.892726
 21
379.148416
 31
0.0
  0
LINE
  5
45F
330
454
100
AcDbEntity
  8
LC-001-100-D00-0
 62
     7
370
    50
100
AcDbLine
 10
412.892726
 20
379.148416
 30
0.0
 11
412.892726
 21
379.148416
 31
0.0
  0
LINE
  5
460
330
454
100
AcDbEntity
  8
LC-001-100-D00-0
 62
     7
370
    50
100
AcDbLine
 10
412.892726
 20
379.148416
 30
0.0
 11
413.007533
 21
378.868145
 31
0.0
  0
LINE
  5
461
330
454
100
AcDbEntity
  8
LC-001-100-D00-0
 62
     7
370
    50
100
AcDbLine
 10
413.007533
 20
378.868145
 30
0.0
 11
413.007533
 21
378.868145
 31
0.0
  0
LINE
  5
462
330
454
100
AcDbEntity
  8
LC-001-100-D00-0
 62
     7
370
    50
100
AcDbLine
 10
413.007533
 20
378.868145
 30
0.0
 11
413.01873
 21
378.686746
 31
0.0
  0
LINE
  5
463
330
454
100
AcDbEntity
  8
LC-001-100-D00-0
 62
     7
370
    50
100
AcDbLine
 10
413.01873
 20
378.686746
 30
0.0
 11
413.01873
 21
378.686746
 31
0.0
  0
LINE
  5
464
330
454
100
AcDbEntity
  8
LC-001-100-D00-0
 62
     7
370
    50
100
AcDbLine
 10
413.01873
 20
378.686746
 30
0.0
 11
413.022982
 21
378.617853
 31
0.0
  0
ENDBLK
  5
456
330
454
100
AcDbEntity
  8
0
100
AcDbBlockEnd
  0
BLOCK
  5
46C
330
46B
100
AcDbEntity
  8
0
100
AcDbBlockBegin
  2
POLY25
 70
     0
 71
     0
 10
0.0
 20
0.0
 30
0.0
  3
POLY25
  1

  4
POLY25
  0
LINE
  5
46E
330
46B
100
AcDbEntity
  8
LC-001-100-D00-0
 62
     7
370
    50
100
AcDbLine
 10
470.755408
 20
392.296851
 30
0.0
 11
470.755408
 21
392.296851
 31
0.0
  0
LINE
  5
46F
330
46B
100
AcDbEntity
  8
LC-001-100-D00-0
 62
     7
370
    50
100
AcDbLine
 10
470.755408
 20
392.296851
 30
0.0
 11
470.766245
 21
392.305263
 31
0.0
  0
LINE
  5
470
330
46B
100
AcDbEntity
  8
LC-001-100-D00-0
 62
     7
370
    50
100
AcDbLine
 10
470.766245
 20
392.305263
 30
0.0
 11
470.766245
 21
392.305263
 31
0.0
  0
LINE
  5
471
330
46B
100
AcDbEntity
  8
LC-001-100-D00-0
 62
     7
370
    50
100
AcDbLine
 10
470.766245
 20
392.305263
 30
0.0
 11
470.780937
 21
392.316669
 31
0.0
  0
LINE
  5
472
330
46B
100
AcDbEntity
  8
LC-001-100-D00-0
 62
     7
370
    50
100
AcDbLine
 10
470.780937
 20
392.316669
 30
0.0
 11
470.780937
 21
392.316669
 31
0.0
  0
LINE
  5
473
330
46B
100
AcDbEntity
  8
LC-001-100-D00-0
 62
     7
370
    50
100
AcDbLine
 10
470.780937
 20
392.316669
 30
0.0
 11
470.796553
 21
392.317608
 31
0.0
  0
LINE
  5
474
330
46B
100
AcDbEntity
  8
LC-001-100-D00-0
 62
     7
370
    50
100
AcDbLine
 10
470.796553
 20
392.317608
 30
0.0
 11
470.796553
 21
392.317608
 31
0.0
  0
LINE
  5
475
330
46B
100
AcDbEntity
  8
LC-001-100-D00-0
 62
     7
370
    50
100
AcDbLine
 10
470.796553
 20
392.317608
 30
0.0
 11
470.800652
 21
392.317854
 31
0.0
  0
ENDBLK
  5
46D
330
46B
100
AcDbEntity
  8
0
100
AcDbBlockEnd
  0
BLOCK
  5
479
330
478
100
AcDbEntity
  8
0
100
AcDbBlockBegin
  2
POLY26
 70
     0
 71
     0
 10
0.0
 20
0.0
 30
0.0
  3
POLY26
  1

  4
POLY26
  0
LINE
  5
47B
330
478
100
AcDbEntity
  8
LC-001-100-D00-0
 62
     7
370
    50
100
AcDbLine
 10
469.934626
 20
392.317854
 30
0.0
 11
469.934626
 21
392.317854
 31
0.0
  0
LINE
  5
47C
330
478
100
AcDbEntity
  8
LC-001-100-D00-0
 62
     7
370
    50
100
AcDbLine
 10
469.934626
 20
392.317854
 30
0.0
 11
469.923043
 21
392.315862
 31
0.0
  0
LINE
  5
47D
330
478
100
AcDbEntity
  8
LC-001-100-D00-0
 62
     7
370
    50
100
AcDbLine
 10
469.923043
 20
392.315862
 30
0.0
 11
469.923043
 21
392.315862
 31
0.0
  0
LINE
  5
47E
330
478
100
AcDbEntity
  8
LC-001-100-D00-0
 62
     7
370
    50
100
AcDbLine
 10
469.923043
 20
392.315862
 30
0.0
 11
469.907336
 21
392.31316
 31
0.0
  0
LINE
  5
47F
330
478
100
AcDbEntity
  8
LC-001-100-D00-0
 62
     7
370
    50
100
AcDbLine
 10
469.907336
 20
392.31316
 30
0.0
 11
469.907336
 21
392.31316
 31
0.0
  0
LINE
  5
480
330
478
100
AcDbEntity
  8
LC-001-100-D00-0
 62
     7
370
    50
100
AcDbLine
 10
469.907336
 20
392.31316
 30
0.0
 11
469.893116
 21
392.300242
 31
0.0
  0
LINE
  5
481
330
478
100
AcDbEntity
  8
LC-001-100-D00-0
 62
     7
370
    50
100
AcDbLine
 10
469.893116
 20
392.300242
 30
0.0
 11
469.893116
 21
392.300242
 31
0.0
  0
LINE
  5
482
330
478
100
AcDbEntity
  8
LC-001-100-D00-0
 62
     7
370
    50
100
AcDbLine
 10
469.893116
 20
392.300242
 30
0.0
 11
469.889382
 21
392.296851
 31
0.0
  0
ENDBLK
  5
47A
330
478
100
AcDbEntity
  8
0
100
AcDbBlockEnd
  0
BLOCK
  5
488
330
487
100
AcDbEntity
  8
0
100
AcDbBlockBegin
  2
KLON21
 70
     0
 71
     0
 10
0.0
 20
0.0
 30
0.0
  3
KLON21
  1

  4
KLON21
  0
LINE
  5
48A
330
487
100
AcDbEntity
  8
LC-001-100-D00-0
 62
     7
370
    25
100
AcDbLine
 10
361.083702
 20
281.973977
 30
0.0
 11
362.072966
 21
282.963242
 31
0.0
  0
LINE
  5
48B
330
487
100
AcDbEntity
  8
LC-001-100-D00-0
 62
     7
370
    25
100
AcDbLine
 10
354.072966
 20
283.943498
 30
0.0
 11
356.603446
 21
286.473977
 31
0.0
  0
LINE
  5
48C
330
487
100
AcDbEntity
  8
LC-001-100-D00-0
 62
     7
370
    25
100
AcDbLine
 10
347.318216
 20
286.169003
 30
0.0
 11
349.839154
 21
288.689942
 31
0.0
  0
LINE
  5
48D
330
487
100
AcDbEntity
  8
LC-001-100-D00-0
 62
     7
370
    25
100
AcDbLine
 10
344.822966
 20
292.65401
 30
0.0
 11
346.142933
 21
293.973977
 31
0.0
  0
LINE
  5
48E
330
487
100
AcDbEntity
  8
LC-001-100-D00-0
 62
     7
370
    25
100
AcDbLine
 10
347.572966
 20
295.40401
 30
0.0
 11
349.822966
 21
297.65401
 31
0.0
  0
ENDBLK
  5
489
330
487
100
AcDbEntity
  8
0
100
AcDbBlockEnd
  0
BLOCK
  5
491
330
490
100
AcDbEntity
  8
0
100
AcDbBlockBegin
  2
KLON22
 70
     0
 71
     0
 10
0.0
 20
0.0
 30
0.0
  3
KLON22
  1

  4
KLON22
  0
LINE
  5
493
330
490
100
AcDbEntity
  8
LC-001-100-D00-0
 62
     7
370
    25
100
AcDbLine
 10
497.8543
 20
284.040734
 30
0.0
 11
504.75621
 21
290.942643
 31
0.0
  0
LINE
  5
494
330
490
100
AcDbEntity
  8
LC-001-100-D00-0
 62
     7
370
    25
100
AcDbLine
 10
487.572966
 20
282.739656
 30
0.0
 11
491.307288
 21
286.473977
 31
0.0
  0
LINE
  5
495
330
490
100
AcDbEntity
  8
LC-001-100-D00-0
 62
     7
370
    25
100
AcDbLine
 10
499.822966
 20
294.989656
 30
0.0
 11
502.072966
 21
297.239656
 31
0.0
  0
ENDBLK
  5
492
330
490
100
AcDbEntity
  8
0
100
AcDbBlockEnd
  0
BLOCK
  5
498
330
497
100
AcDbEntity
  8
0
100
AcDbBlockBegin
  2
KLON23
 70
     0
 71
     0
 10
0.0
 20
0.0
 30
0.0
  3
KLON23
  1

  4
KLON23
  0
LINE
  5
49A
330
497
100
AcDbEntity
  8
LC-001-100-D00-0
 62
     7
370
    25
100
AcDbLine
 10
598.855823
 20
382.973977
 30
0.0
 11
595.855823
 21
385.973977
 31
0.0
  0
LINE
  5
49B
330
497
100
AcDbEntity
  8
LC-001-100-D00-0
 62
     7
370
    25
100
AcDbLine
 10
589.875567
 20
382.973977
 30
0.0
 11
586.875567
 21
385.973977
 31
0.0
  0
LINE
  5
49C
330
497
100
AcDbEntity
  8
LC-001-100-D00-0
 62
     7
370
    25
100
AcDbLine
 10
580.895311
 20
382.973977
 30
0.0
 11
577.895311
 21
385.973977
 31
0.0
  0
LINE
  5
49D
330
497
100
AcDbEntity
  8
LC-001-100-D00-0
 62
     7
370
    25
100
AcDbLine
 10
571.915055
 20
382.973977
 30
0.0
 11
568.915055
 21
385.973977
 31
0.0
  0
LINE
  5
49E
330
497
100
AcDbEntity
  8
LC-001-100-D00-0
 62
     7
370
    25
100
AcDbLine
 10
562.934799
 20
382.973977
 30
0.0
 11
559.934799
 21
385.973977
 31
0.0
  0
LINE
  5
49F
330
497
100
AcDbEntity
  8
LC-001-100-D00-0
 62
     7
370
    25
100
AcDbLine
 10
553.954543
 20
382.973977
 30
0.0
 11
551.325867
 21
385.602653
 31
0.0
  0
LINE
  5
4A0
330
497
100
AcDbEntity
  8
LC-001-100-D00-0
 62
     7
370
    25
100
AcDbLine
 10
547.012357
 20
380.935907
 30
0.0
 11
544.741957
 21
383.206306
 31
0.0
  0
LINE
  5
4A1
330
497
100
AcDbEntity
  8
LC-001-100-D00-0
 62
     7
370
    25
100
AcDbLine
 10
540.428448
 20
378.53956
 30
0.0
 11
538.158048
 21
380.809959
 31
0.0
  0
LINE
  5
4A2
330
497
100
AcDbEntity
  8
LC-001-100-D00-0
 62
     7
370
    25
100
AcDbLine
 10
533.844539
 20
376.143213
 30
0.0
 11
531.574139
 21
378.413612
 31
0.0
  0
LINE
  5
4A3
330
497
100
AcDbEntity
  8
LC-001-100-D00-0
 62
     7
370
    25
100
AcDbLine
 10
526.213518
 20
374.793977
 30
0.0
 11
523.713518
 21
377.293977
 31
0.0
  0
LINE
  5
4A4
330
497
100
AcDbEntity
  8
LC-001-100-D00-0
 62
     7
370
    25
100
AcDbLine
 10
524.797966
 20
367.229273
 30
0.0
 11
521.572966
 21
370.454273
 31
0.0
  0
LINE
  5
4A5
330
497
100
AcDbEntity
  8
LC-001-100-D00-0
 62
     7
370
    25
100
AcDbLine
 10
516.072966
 20
375.954273
 30
0.0
 11
514.733262
 21
377.293977
 31
0.0
  0
LINE
  5
4A6
330
497
100
AcDbEntity
  8
LC-001-100-D00-0
 62
     7
370
    25
100
AcDbLine
 10
524.253006
 20
358.793977
 30
0.0
 11
521.253006
 21
361.793977
 31
0.0
  0
LINE
  5
4A7
330
497
100
AcDbEntity
  8
LC-001-100-D00-0
 62
     7
370
    25
100
AcDbLine
 10
516.072966
 20
366.974017
 30
0.0
 11
507.322966
 21
375.724017
 31
0.0
  0
LINE
  5
4A8
330
497
100
AcDbEntity
  8
LC-001-100-D00-0
 62
     7
370
    25
100
AcDbLine
 10
519.27275
 20
354.793977
 30
0.0
 11
515.822966
 21
358.243761
 31
0.0
  0
LINE
  5
4A9
330
497
100
AcDbEntity
  8
LC-001-100-D00-0
 62
     7
370
    25
100
AcDbLine
 10
515.27275
 20
358.793977
 30
0.0
 11
507.322966
 21
366.743761
 31
0.0
  0
LINE
  5
4AA
330
497
100
AcDbEntity
  8
LC-001-100-D00-0
 62
     7
370
    25
100
AcDbLine
 10
508.672494
 20
356.413977
 30
0.0
 11
505.92773
 21
359.158741
 31
0.0
  0
LINE
  5
4AB
330
497
100
AcDbEntity
  8
LC-001-100-D00-0
 62
     7
370
    25
100
AcDbLine
 10
504.822966
 20
351.283248
 30
0.0
 11
502.322966
 21
353.783248
 31
0.0
  0
LINE
  5
4AC
330
497
100
AcDbEntity
  8
LC-001-100-D00-0
 62
     7
370
    25
100
AcDbLine
 10
504.822966
 20
342.302992
 30
0.0
 11
501.863381
 21
345.262578
 31
0.0
  0
LINE
  5
4AD
330
497
100
AcDbEntity
  8
LC-001-100-D00-0
 62
     7
370
    25
100
AcDbLine
 10
504.822966
 20
333.322736
 30
0.0
 11
502.322966
 21
335.822736
 31
0.0
  0
LINE
  5
4AE
330
497
100
AcDbEntity
  8
LC-001-100-D00-0
 62
     7
370
    25
100
AcDbLine
 10
498.059756
 20
340.085947
 30
0.0
 11
495.322966
 21
342.822736
 31
0.0
  0
LINE
  5
4AF
330
497
100
AcDbEntity
  8
LC-001-100-D00-0
 62
     7
370
    25
100
AcDbLine
 10
504.822966
 20
324.34248
 30
0.0
 11
502.322966
 21
326.84248
 31
0.0
  0
LINE
  5
4B0
330
497
100
AcDbEntity
  8
LC-001-100-D00-0
 62
     7
370
    25
100
AcDbLine
 10
497.872966
 20
331.29248
 30
0.0
 11
495.322966
 21
333.84248
 31
0.0
  0
LINE
  5
4B1
330
497
100
AcDbEntity
  8
LC-001-100-D00-0
 62
     7
370
    25
100
AcDbLine
 10
504.822966
 20
315.362224
 30
0.0
 11
502.322966
 21
317.862224
 31
0.0
  0
LINE
  5
4B2
330
497
100
AcDbEntity
  8
LC-001-100-D00-0
 62
     7
370
    25
100
AcDbLine
 10
493.581213
 20
326.603977
 30
0.0
 11
490.10521
 21
330.07998
 31
0.0
  0
LINE
  5
4B3
330
497
100
AcDbEntity
  8
LC-001-100-D00-0
 62
     7
370
    25
100
AcDbLine
 10
504.822966
 20
306.381968
 30
0.0
 11
502.322966
 21
308.881968
 31
0.0
  0
LINE
  5
4B4
330
497
100
AcDbEntity
  8
LC-001-100-D00-0
 62
     7
370
    25
100
AcDbLine
 10
492.572966
 20
318.631968
 30
0.0
 11
489.322966
 21
321.881968
 31
0.0
  0
LINE
  5
4B5
330
497
100
AcDbEntity
  8
LC-001-100-D00-0
 62
     7
370
    25
100
AcDbLine
 10
504.822966
 20
297.401712
 30
0.0
 11
502.322966
 21
299.901712
 31
0.0
  0
LINE
  5
4B6
330
497
100
AcDbEntity
  8
LC-001-100-D00-0
 62
     7
370
    25
100
AcDbLine
 10
492.572966
 20
309.651712
 30
0.0
 11
489.322966
 21
312.901712
 31
0.0
  0
LINE
  5
4B7
330
497
100
AcDbEntity
  8
LC-001-100-D00-0
 62
     7
370
    25
100
AcDbLine
 10
492.572966
 20
300.671455
 30
0.0
 11
489.322966
 21
303.921455
 31
0.0
  0
LINE
  5
4B8
330
497
100
AcDbEntity
  8
LC-001-100-D00-0
 62
     7
370
    25
100
AcDbLine
 10
490.290189
 20
293.973977
 30
0.0
 11
485.193322
 21
299.070843
 31
0.0
  0
LINE
  5
4B9
330
497
100
AcDbEntity
  8
LC-001-100-D00-0
 62
     7
370
    25
100
AcDbLine
 10
487.322966
 20
287.960943
 30
0.0
 11
484.322966
 21
290.960943
 31
0.0
  0
LINE
  5
4BA
330
497
100
AcDbEntity
  8
LC-001-100-D00-0
 62
     7
370
    25
100
AcDbLine
 10
487.322966
 20
278.980687
 30
0.0
 11
484.322966
 21
281.980687
 31
0.0
  0
LINE
  5
4BB
330
497
100
AcDbEntity
  8
LC-001-100-D00-0
 62
     7
370
    25
100
AcDbLine
 10
487.322966
 20
270.000431
 30
0.0
 11
484.322966
 21
273.000431
 31
0.0
  0
LINE
  5
4BC
330
497
100
AcDbEntity
  8
LC-001-100-D00-0
 62
     7
370
    25
100
AcDbLine
 10
487.322966
 20
261.020175
 30
0.0
 11
484.322966
 21
264.020175
 31
0.0
  0
LINE
  5
4BD
330
497
100
AcDbEntity
  8
LC-001-100-D00-0
 62
     7
370
    25
100
AcDbLine
 10
487.322966
 20
252.039919
 30
0.0
 11
484.322966
 21
255.039919
 31
0.0
  0
LINE
  5
4BE
330
497
100
AcDbEntity
  8
LC-001-100-D00-0
 62
     7
370
    25
100
AcDbLine
 10
487.322966
 20
243.059663
 30
0.0
 11
484.322966
 21
246.059663
 31
0.0
  0
LINE
  5
4BF
330
497
100
AcDbEntity
  8
LC-001-100-D00-0
 62
     7
370
    25
100
AcDbLine
 10
487.322966
 20
234.079406
 30
0.0
 11
484.322966
 21
237.079406
 31
0.0
  0
LINE
  5
4C0
330
497
100
AcDbEntity
  8
LC-001-100-D00-0
 62
     7
370
    25
100
AcDbLine
 10
487.322966
 20
225.09915
 30
0.0
 11
484.322966
 21
228.09915
 31
0.0
  0
LINE
  5
4C1
330
497
100
AcDbEntity
  8
LC-001-100-D00-0
 62
     7
370
    25
100
AcDbLine
 10
485.467884
 20
217.973977
 30
0.0
 11
484.322966
 21
219.118894
 31
0.0
  0
ENDBLK
  5
499
330
497
100
AcDbEntity
  8
0
100
AcDbBlockEnd
  0
BLOCK
  5
4C4
330
4C3
100
AcDbEntity
  8
0
100
AcDbBlockBegin
  2
KLON24
 70
     0
 71
     0
 10
0.0
 20
0.0
 30
0.0
  3
KLON24
  1

  4
KLON24
  0
LINE
  5
4C6
330
4C3
100
AcDbEntity
  8
LC-001-100-D00-0
 62
     7
370
    25
100
AcDbLine
 10
342.322966
 20
370.09915
 30
0.0
 11
335.12814
 21
377.293977
 31
0.0
  0
LINE
  5
4C7
330
4C3
100
AcDbEntity
  8
LC-001-100-D00-0
 62
     7
370
    25
100
AcDbLine
 10
342.322966
 20
361.118894
 30
0.0
 11
333.572966
 21
369.868894
 31
0.0
  0
LINE
  5
4C8
330
4C3
100
AcDbEntity
  8
LC-001-100-D00-0
 62
     7
370
    25
100
AcDbLine
 10
328.072966
 20
375.368894
 30
0.0
 11
326.147884
 21
377.293977
 31
0.0
  0
LINE
  5
4C9
330
4C3
100
AcDbEntity
  8
LC-001-100-D00-0
 62
     7
370
    25
100
AcDbLine
 10
354.322966
 20
340.138638
 30
0.0
 11
349.357627
 21
345.103977
 31
0.0
  0
LINE
  5
4CA
330
4C3
100
AcDbEntity
  8
LC-001-100-D00-0
 62
     7
370
    25
100
AcDbLine
 10
347.322966
 20
347.138638
 30
0.0
 11
344.822966
 21
349.638638
 31
0.0
  0
LINE
  5
4CB
330
4C3
100
AcDbEntity
  8
LC-001-100-D00-0
 62
     7
370
    25
100
AcDbLine
 10
335.667627
 20
358.793977
 30
0.0
 11
332.667627
 21
361.793977
 31
0.0
  0
LINE
  5
4CC
330
4C3
100
AcDbEntity
  8
LC-001-100-D00-0
 62
     7
370
    25
100
AcDbLine
 10
328.072966
 20
366.388638
 30
0.0
 11
324.847966
 21
369.613638
 31
0.0
  0
LINE
  5
4CD
330
4C3
100
AcDbEntity
  8
LC-001-100-D00-0
 62
     7
370
    25
100
AcDbLine
 10
319.667627
 20
374.793977
 30
0.0
 11
314.889865
 21
379.57174
 31
0.0
  0
LINE
  5
4CE
330
4C3
100
AcDbEntity
  8
LC-001-100-D00-0
 62
     7
370
    25
100
AcDbLine
 10
360.322966
 20
325.158382
 30
0.0
 11
355.377371
 21
330.103977
 31
0.0
  0
LINE
  5
4CF
330
4C3
100
AcDbEntity
  8
LC-001-100-D00-0
 62
     7
370
    25
100
AcDbLine
 10
354.322966
 20
331.158382
 30
0.0
 11
351.772966
 21
333.708382
 31
0.0
  0
LINE
  5
4D0
330
4C3
100
AcDbEntity
  8
LC-001-100-D00-0
 62
     7
370
    25
100
AcDbLine
 10
347.322966
 20
338.158382
 30
0.0
 11
344.822966
 21
340.658382
 31
0.0
  0
LINE
  5
4D1
330
4C3
100
AcDbEntity
  8
LC-001-100-D00-0
 62
     7
370
    25
100
AcDbLine
 10
330.687371
 20
354.793977
 30
0.0
 11
327.822966
 21
357.658382
 31
0.0
  0
LINE
  5
4D2
330
4C3
100
AcDbEntity
  8
LC-001-100-D00-0
 62
     7
370
    25
100
AcDbLine
 10
326.687371
 20
358.793977
 30
0.0
 11
324.847966
 21
360.633382
 31
0.0
  0
LINE
  5
4D3
330
4C3
100
AcDbEntity
  8
LC-001-100-D00-0
 62
     7
370
    25
100
AcDbLine
 10
305.639513
 20
379.841835
 30
0.0
 11
300.770626
 21
384.710722
 31
0.0
  0
LINE
  5
4D4
330
4C3
100
AcDbEntity
  8
LC-001-100-D00-0
 62
     7
370
    25
100
AcDbLine
 10
360.322966
 20
316.178126
 30
0.0
 11
357.072966
 21
319.428126
 31
0.0
  0
LINE
  5
4D5
330
4C3
100
AcDbEntity
  8
LC-001-100-D00-0
 62
     7
370
    25
100
AcDbLine
 10
347.322966
 20
329.178126
 30
0.0
 11
344.822966
 21
331.678126
 31
0.0
  0
LINE
  5
4D6
330
4C3
100
AcDbEntity
  8
LC-001-100-D00-0
 62
     7
370
    25
100
AcDbLine
 10
293.527115
 20
382.973977
 30
0.0
 11
290.527115
 21
385.973977
 31
0.0
  0
LINE
  5
4D7
330
4C3
100
AcDbEntity
  8
LC-001-100-D00-0
 62
     7
370
    25
100
AcDbLine
 10
360.322966
 20
307.19787
 30
0.0
 11
357.072966
 21
310.44787
 31
0.0
  0
LINE
  5
4D8
330
4C3
100
AcDbEntity
  8
LC-001-100-D00-0
 62
     7
370
    25
100
AcDbLine
 10
347.322966
 20
320.19787
 30
0.0
 11
344.822966
 21
322.69787
 31
0.0
  0
LINE
  5
4D9
330
4C3
100
AcDbEntity
  8
LC-001-100-D00-0
 62
     7
370
    25
100
AcDbLine
 10
284.546859
 20
382.973977
 30
0.0
 11
281.546859
 21
385.973977
 31
0.0
  0
LINE
  5
4DA
330
4C3
100
AcDbEntity
  8
LC-001-100-D00-0
 62
     7
370
    25
100
AcDbLine
 10
365.322966
 20
293.217614
 30
0.0
 11
357.072966
 21
301.467614
 31
0.0
  0
LINE
  5
4DB
330
4C3
100
AcDbEntity
  8
LC-001-100-D00-0
 62
     7
370
    25
100
AcDbLine
 10
347.322966
 20
311.217614
 30
0.0
 11
344.822966
 21
313.717614
 31
0.0
  0
LINE
  5
4DC
330
4C3
100
AcDbEntity
  8
LC-001-100-D00-0
 62
     7
370
    25
100
AcDbLine
 10
275.566603
 20
382.973977
 30
0.0
 11
272.566603
 21
385.973977
 31
0.0
  0
LINE
  5
4DD
330
4C3
100
AcDbEntity
  8
LC-001-100-D00-0
 62
     7
370
    25
100
AcDbLine
 10
365.322966
 20
284.237358
 30
0.0
 11
362.322966
 21
287.237358
 31
0.0
  0
LINE
  5
4DE
330
4C3
100
AcDbEntity
  8
LC-001-100-D00-0
 62
     7
370
    25
100
AcDbLine
 10
347.322966
 20
302.237358
 30
0.0
 11
344.822966
 21
304.737358
 31
0.0
  0
LINE
  5
4DF
330
4C3
100
AcDbEntity
  8
LC-001-100-D00-0
 62
     7
370
    25
100
AcDbLine
 10
266.586347
 20
382.973977
 30
0.0
 11
263.586347
 21
385.973977
 31
0.0
  0
LINE
  5
4E0
330
4C3
100
AcDbEntity
  8
LC-001-100-D00-0
 62
     7
370
    25
100
AcDbLine
 10
365.322966
 20
275.257101
 30
0.0
 11
362.322966
 21
278.257101
 31
0.0
  0
LINE
  5
4E1
330
4C3
100
AcDbEntity
  8
LC-001-100-D00-0
 62
     7
370
    25
100
AcDbLine
 10
346.606091
 20
293.973977
 30
0.0
 11
344.822966
 21
295.757101
 31
0.0
  0
LINE
  5
4E2
330
4C3
100
AcDbEntity
  8
LC-001-100-D00-0
 62
     7
370
    25
100
AcDbLine
 10
257.606091
 20
382.973977
 30
0.0
 11
254.606091
 21
385.973977
 31
0.0
  0
LINE
  5
4E3
330
4C3
100
AcDbEntity
  8
LC-001-100-D00-0
 62
     7
370
    25
100
AcDbLine
 10
365.322966
 20
266.276845
 30
0.0
 11
362.322966
 21
269.276845
 31
0.0
  0
LINE
  5
4E4
330
4C3
100
AcDbEntity
  8
LC-001-100-D00-0
 62
     7
370
    25
100
AcDbLine
 10
248.625835
 20
382.973977
 30
0.0
 11
247.822966
 21
383.776845
 31
0.0
  0
LINE
  5
4E5
330
4C3
100
AcDbEntity
  8
LC-001-100-D00-0
 62
     7
370
    25
100
AcDbLine
 10
365.322966
 20
257.296589
 30
0.0
 11
362.322966
 21
260.296589
 31
0.0
  0
LINE
  5
4E6
330
4C3
100
AcDbEntity
  8
LC-001-100-D00-0
 62
     7
370
    25
100
AcDbLine
 10
365.322966
 20
248.316333
 30
0.0
 11
362.322966
 21
251.316333
 31
0.0
  0
LINE
  5
4E7
330
4C3
100
AcDbEntity
  8
LC-001-100-D00-0
 62
     7
370
    25
100
AcDbLine
 10
365.322966
 20
239.336077
 30
0.0
 11
362.322966
 21
242.336077
 31
0.0
  0
LINE
  5
4E8
330
4C3
100
AcDbEntity
  8
LC-001-100-D00-0
 62
     7
370
    25
100
AcDbLine
 10
365.322966
 20
230.355821
 30
0.0
 11
362.322966
 21
233.355821
 31
0.0
  0
LINE
  5
4E9
330
4C3
100
AcDbEntity
  8
LC-001-100-D00-0
 62
     7
370
    25
100
AcDbLine
 10
365.322966
 20
221.375565
 30
0.0
 11
362.322966
 21
224.375565
 31
0.0
  0
ENDBLK
  5
4C5
330
4C3
100
AcDbEntity
  8
0
100
AcDbBlockEnd
  0
BLOCK
  5
4EC
330
4EB
100
AcDbEntity
  8
0
100
AcDbBlockBegin
  2
KLON25
 70
     0
 71
     0
 10
0.0
 20
0.0
 30
0.0
  3
KLON25
  1

  4
KLON25
  0
LINE
  5
4EE
330
4EB
100
AcDbEntity
  8
LC-001-100-D00-0
 62
     7
370
    25
100
AcDbLine
 10
493.555751
 20
342.603977
 30
0.0
 11
493.572966
 21
342.621193
 31
0.0
  0
LINE
  5
4EF
330
4EB
100
AcDbEntity
  8
LC-001-100-D00-0
 62
     7
370
    25
100
AcDbLine
 10
498.055751
 20
347.103977
 30
0.0
 11
501.072966
 21
350.121193
 31
0.0
  0
LINE
  5
4F0
330
4EB
100
AcDbEntity
  8
LC-001-100-D00-0
 62
     7
370
    25
100
AcDbLine
 10
490.286891
 20
348.315373
 30
0.0
 11
492.575495
 21
350.603977
 31
0.0
  0
ENDBLK
  5
4ED
330
4EB
100
AcDbEntity
  8
0
100
AcDbBlockEnd
  0
BLOCK
  5
4F3
330
4F2
100
AcDbEntity
  8
0
100
AcDbBlockBegin
  2
KLON26
 70
     0
 71
     0
 10
0.0
 20
0.0
 30
0.0
  3
KLON26
  1

  4
KLON26
  0
LINE
  5
4F5
330
4F2
100
AcDbEntity
  8
LC-001-100-D00-0
 62
     7
370
    25
100
AcDbLine
 10
358.851909
 20
342.603977
 30
0.0
 11
359.937293
 21
343.689362
 31
0.0
  0
LINE
  5
4F6
330
4F2
100
AcDbEntity
  8
LC-001-100-D00-0
 62
     7
370
    25
100
AcDbLine
 10
354.371653
 20
347.103977
 30
0.0
 11
357.871653
 21
350.603977
 31
0.0
  0
LINE
  5
4F7
330
4F2
100
AcDbEntity
  8
LC-001-100-D00-0
 62
     7
370
    25
100
AcDbLine
 10
347.572966
 20
349.285547
 30
0.0
 11
347.891397
 21
349.603977
 31
0.0
  0
LINE
  5
4F8
330
4F2
100
AcDbEntity
  8
LC-001-100-D00-0
 62
     7
370
    25
100
AcDbLine
 10
348.572966
 20
350.285547
 30
0.0
 11
348.891397
 21
350.603977
 31
0.0
  0
ENDBLK
  5
4F4
330
4F2
100
AcDbEntity
  8
0
100
AcDbBlockEnd
  0
BLOCK
  5
4FB
330
4FA
100
AcDbEntity
  8
0
100
AcDbBlockBegin
  2
KLON27
 70
     0
 71
     0
 10
0.0
 20
0.0
 30
0.0
  3
KLON27
  1

  4
KLON27
  0
LINE
  5
4FD
330
4FA
100
AcDbEntity
  8
LC-001-100-D00-0
 62
     7
370
    25
100
AcDbLine
 10
547.780197
 20
389.148322
 30
0.0
 11
547.387021
 21
389.541499
 31
0.0
  0
LINE
  5
4FE
330
4FA
100
AcDbEntity
  8
LC-001-100-D00-0
 62
     7
370
    25
100
AcDbLine
 10
539.753129
 20
388.195135
 30
0.0
 11
539.298191
 21
388.650073
 31
0.0
  0
LINE
  5
4FF
330
4FA
100
AcDbEntity
  8
LC-001-100-D00-0
 62
     7
370
    25
100
AcDbLine
 10
531.626967
 20
387.341041
 30
0.0
 11
531.172029
 21
387.795979
 31
0.0
  0
LINE
  5
500
330
4FA
100
AcDbEntity
  8
LC-001-100-D00-0
 62
     7
370
    25
100
AcDbLine
 10
523.169898
 20
386.817853
 30
0.0
 11
522.669898
 21
387.317853
 31
0.0
  0
LINE
  5
501
330
4FA
100
AcDbEntity
  8
LC-001-100-D00-0
 62
     7
370
    25
100
AcDbLine
 10
514.189642
 20
386.817853
 30
0.0
 11
513.689642
 21
387.317853
 31
0.0
  0
LINE
  5
502
330
4FA
100
AcDbEntity
  8
LC-001-100-D00-0
 62
     7
370
    25
100
AcDbLine
 10
505.652285
 20
386.374954
 30
0.0
 11
505.293858
 21
386.733381
 31
0.0
  0
LINE
  5
503
330
4FA
100
AcDbEntity
  8
LC-001-100-D00-0
 62
     7
370
    25
100
AcDbLine
 10
504.572966
 20
378.474017
 30
0.0
 11
504.072966
 21
378.974017
 31
0.0
  0
LINE
  5
504
330
4FA
100
AcDbEntity
  8
LC-001-100-D00-0
 62
     7
370
    25
100
AcDbLine
 10
504.572966
 20
369.493761
 30
0.0
 11
504.072966
 21
369.993761
 31
0.0
  0
LINE
  5
505
330
4FA
100
AcDbEntity
  8
LC-001-100-D00-0
 62
     7
370
    25
100
AcDbLine
 10
500.749434
 20
364.337036
 30
0.0
 11
500.392268
 21
364.694203
 31
0.0
  0
ENDBLK
  5
4FC
330
4FA
100
AcDbEntity
  8
0
100
AcDbBlockEnd
  0
BLOCK
  5
508
330
507
100
AcDbEntity
  8
0
100
AcDbBlockBegin
  2
KLON28
 70
     0
 71
     0
 10
0.0
 20
0.0
 30
0.0
  3
KLON28
  1

  4
KLON28
  0
LINE
  5
50A
330
507
100
AcDbEntity
  8
LC-001-100-D00-0
 62
     7
370
    25
100
AcDbLine
 10
345.523785
 20
384.858844
 30
0.0
 11
344.596029
 21
385.7866
 31
0.0
  0
LINE
  5
50B
330
507
100
AcDbEntity
  8
LC-001-100-D00-0
 62
     7
370
    25
100
AcDbLine
 10
344.041713
 20
386.340916
 30
0.0
 11
343.113958
 21
387.268671
 31
0.0
  0
LINE
  5
50C
330
507
100
AcDbEntity
  8
LC-001-100-D00-0
 62
     7
370
    25
100
AcDbLine
 10
345.572966
 20
375.829406
 30
0.0
 11
345.072966
 21
376.329406
 31
0.0
  0
LINE
  5
50D
330
507
100
AcDbEntity
  8
LC-001-100-D00-0
 62
     7
370
    25
100
AcDbLine
 10
349.822966
 20
362.59915
 30
0.0
 11
349.322966
 21
363.09915
 31
0.0
  0
LINE
  5
50E
330
507
100
AcDbEntity
  8
LC-001-100-D00-0
 62
     7
370
    25
100
AcDbLine
 10
347.904264
 20
364.517853
 30
0.0
 11
347.39646
 21
365.025657
 31
0.0
  0
LINE
  5
50F
330
507
100
AcDbEntity
  8
LC-001-100-D00-0
 62
     7
370
    25
100
AcDbLine
 10
345.58077
 20
366.841346
 30
0.0
 11
345.072966
 21
367.34915
 31
0.0
  0
ENDBLK
  5
509
330
507
100
AcDbEntity
  8
0
100
AcDbBlockEnd
  0
BLOCK
  5
512
330
511
100
AcDbEntity
  8
0
100
AcDbBlockBegin
  2
KLON29
 70
     0
 71
     0
 10
0.0
 20
0.0
 30
0.0
  3
KLON29
  1

  4
KLON29
  0
LINE
  5
514
330
511
100
AcDbEntity
  8
LC-001-100-D00-0
 62
     7
370
    25
100
AcDbLine
 10
324.867168
 20
387.554948
 30
0.0
 11
324.513615
 21
387.908502
 31
0.0
  0
LINE
  5
515
330
511
100
AcDbEntity
  8
LC-001-100-D00-0
 62
     7
370
    25
100
AcDbLine
 10
315.875536
 20
387.566324
 30
0.0
 11
315.313735
 21
388.128126
 31
0.0
  0
LINE
  5
516
330
511
100
AcDbEntity
  8
LC-001-100-D00-0
 62
     7
370
    25
100
AcDbLine
 10
305.840562
 20
388.621043
 30
0.0
 11
305.27876
 21
389.182844
 31
0.0
  0
ENDBLK
  5
513
330
511
100
AcDbEntity
  8
0
100
AcDbBlockEnd
  0
BLOCK
  5
519
330
518
100
AcDbEntity
  8
0
100
AcDbBlockBegin
  2
KLON30
 70
     0
 71
     0
 10
0.0
 20
0.0
 30
0.0
  3
KLON30
  1

  4
KLON30
  0
LINE
  5
51B
330
518
100
AcDbEntity
  8
LC-001-100-D00-0
 62
     7
370
    25
100
AcDbLine
 10
357.993159
 20
282.586909
 30
0.0
 11
357.28969
 21
283.290378
 31
0.0
  0
LINE
  5
51C
330
518
100
AcDbEntity
  8
LC-001-100-D00-0
 62
     7
370
    25
100
AcDbLine
 10
357.993159
 20
273.606652
 30
0.0
 11
357.28969
 21
274.310122
 31
0.0
  0
LINE
  5
51D
330
518
100
AcDbEntity
  8
LC-001-100-D00-0
 62
     7
370
    25
100
AcDbLine
 10
357.993159
 20
264.626396
 30
0.0
 11
357.28969
 21
265.329866
 31
0.0
  0
ENDBLK
  5
51A
330
518
100
AcDbEntity
  8
0
100
AcDbBlockEnd
  0
BLOCK
  5
520
330
51F
100
AcDbEntity
  8
0
100
AcDbBlockBegin
  2
KLON31
 70
     0
 71
     0
 10
0.0
 20
0.0
 30
0.0
  3
KLON31
  1

  4
KLON31
  0
LINE
  5
522
330
51F
100
AcDbEntity
  8
LC-001-100-D00-0
 62
     7
370
    25
100
AcDbLine
 10
350.231628
 20
281.368184
 30
0.0
 11
349.528158
 21
282.071653
 31
0.0
  0
LINE
  5
523
330
51F
100
AcDbEntity
  8
LC-001-100-D00-0
 62
     7
370
    25
100
AcDbLine
 10
350.231628
 20
272.387928
 30
0.0
 11
349.528158
 21
273.091397
 31
0.0
  0
LINE
  5
524
330
51F
100
AcDbEntity
  8
LC-001-100-D00-0
 62
     7
370
    25
100
AcDbLine
 10
349.665322
 20
263.973977
 30
0.0
 11
349.528158
 21
264.111141
 31
0.0
  0
ENDBLK
  5
521
330
51F
100
AcDbEntity
  8
0
100
AcDbBlockEnd
  0
BLOCK
  5
528
330
527
100
AcDbEntity
  8
0
100
AcDbBlockBegin
  2
KLON32
 70
     0
 71
     0
 10
0.0
 20
0.0
 30
0.0
  3
KLON32
  1

  4
KLON32
  0
LINE
  5
52A
330
527
100
AcDbEntity
  8
LC-001-100-D00-0
 62
     7
370
    25
100
AcDbLine
 10
352.688824
 20
93.973977
 30
0.0
 11
356.735816
 21
98.020969
 31
0.0
  0
LINE
  5
52B
330
527
100
AcDbEntity
  8
LC-001-100-D00-0
 62
     7
370
    25
100
AcDbLine
 10
350.785502
 20
101.050911
 30
0.0
 11
356.735816
 21
107.001225
 31
0.0
  0
LINE
  5
52C
330
527
100
AcDbEntity
  8
LC-001-100-D00-0
 62
     7
370
    25
100
AcDbLine
 10
350.785502
 20
110.031167
 30
0.0
 11
356.735816
 21
115.981481
 31
0.0
  0
LINE
  5
52D
330
527
100
AcDbEntity
  8
LC-001-100-D00-0
 62
     7
370
    25
100
AcDbLine
 10
350.785502
 20
119.011423
 30
0.0
 11
356.735816
 21
124.961737
 31
0.0
  0
LINE
  5
52E
330
527
100
AcDbEntity
  8
LC-001-100-D00-0
 62
     7
370
    25
100
AcDbLine
 10
350.785502
 20
127.991679
 30
0.0
 11
356.735816
 21
133.941993
 31
0.0
  0
LINE
  5
52F
330
527
100
AcDbEntity
  8
LC-001-100-D00-0
 62
     7
370
    25
100
AcDbLine
 10
350.785502
 20
136.971935
 30
0.0
 11
356.735816
 21
142.922249
 31
0.0
  0
LINE
  5
530
330
527
100
AcDbEntity
  8
LC-001-100-D00-0
 62
     7
370
    25
100
AcDbLine
 10
350.785502
 20
145.952191
 30
0.0
 11
356.735816
 21
151.902505
 31
0.0
  0
LINE
  5
531
330
527
100
AcDbEntity
  8
LC-001-100-D00-0
 62
     7
370
    25
100
AcDbLine
 10
350.785502
 20
154.932448
 30
0.0
 11
356.735816
 21
160.882762
 31
0.0
  0
LINE
  5
532
330
527
100
AcDbEntity
  8
LC-001-100-D00-0
 62
     7
370
    25
100
AcDbLine
 10
350.785502
 20
163.912704
 30
0.0
 11
356.735816
 21
169.863018
 31
0.0
  0
LINE
  5
533
330
527
100
AcDbEntity
  8
LC-001-100-D00-0
 62
     7
370
    25
100
AcDbLine
 10
350.785502
 20
172.89296
 30
0.0
 11
356.735816
 21
178.843274
 31
0.0
  0
LINE
  5
534
330
527
100
AcDbEntity
  8
LC-001-100-D00-0
 62
     7
370
    25
100
AcDbLine
 10
350.785502
 20
181.873216
 30
0.0
 11
356.735816
 21
187.82353
 31
0.0
  0
LINE
  5
535
330
527
100
AcDbEntity
  8
LC-001-100-D00-0
 62
     7
370
    25
100
AcDbLine
 10
350.785502
 20
190.853472
 30
0.0
 11
356.735816
 21
196.803786
 31
0.0
  0
LINE
  5
536
330
527
100
AcDbEntity
  8
LC-001-100-D00-0
 62
     7
370
    25
100
AcDbLine
 10
350.785502
 20
199.833728
 30
0.0
 11
356.735816
 21
205.784042
 31
0.0
  0
LINE
  5
537
330
527
100
AcDbEntity
  8
LC-001-100-D00-0
 62
     7
370
    25
100
AcDbLine
 10
350.785502
 20
208.813984
 30
0.0
 11
356.735816
 21
214.764298
 31
0.0
  0
LINE
  5
538
330
527
100
AcDbEntity
  8
LC-001-100-D00-0
 62
     7
370
    25
100
AcDbLine
 10
350.785502
 20
217.79424
 30
0.0
 11
356.735816
 21
223.744554
 31
0.0
  0
LINE
  5
539
330
527
100
AcDbEntity
  8
LC-001-100-D00-0
 62
     7
370
    25
100
AcDbLine
 10
350.785502
 20
226.774497
 30
0.0
 11
356.735816
 21
232.724811
 31
0.0
  0
LINE
  5
53A
330
527
100
AcDbEntity
  8
LC-001-100-D00-0
 62
     7
370
    25
100
AcDbLine
 10
350.785502
 20
235.754753
 30
0.0
 11
356.735816
 21
241.705067
 31
0.0
  0
LINE
  5
53B
330
527
100
AcDbEntity
  8
LC-001-100-D00-0
 62
     7
370
    25
100
AcDbLine
 10
350.785502
 20
244.735009
 30
0.0
 11
356.735816
 21
250.685323
 31
0.0
  0
LINE
  5
53C
330
527
100
AcDbEntity
  8
LC-001-100-D00-0
 62
     7
370
    25
100
AcDbLine
 10
350.785502
 20
253.715265
 30
0.0
 11
356.735816
 21
259.665579
 31
0.0
  0
LINE
  5
53D
330
527
100
AcDbEntity
  8
LC-001-100-D00-0
 62
     7
370
    25
100
AcDbLine
 10
350.785502
 20
262.695521
 30
0.0
 11
356.735816
 21
268.645835
 31
0.0
  0
LINE
  5
53E
330
527
100
AcDbEntity
  8
LC-001-100-D00-0
 62
     7
370
    25
100
AcDbLine
 10
350.785502
 20
271.675777
 30
0.0
 11
356.735816
 21
277.626091
 31
0.0
  0
LINE
  5
53F
330
527
100
AcDbEntity
  8
LC-001-100-D00-0
 62
     7
370
    25
100
AcDbLine
 10
350.785502
 20
280.656033
 30
0.0
 11
356.735816
 21
286.606347
 31
0.0
  0
LINE
  5
540
330
527
100
AcDbEntity
  8
LC-001-100-D00-0
 62
     7
370
    25
100
AcDbLine
 10
350.785502
 20
289.636289
 30
0.0
 11
357.822966
 21
296.673754
 31
0.0
  0
LINE
  5
541
330
527
100
AcDbEntity
  8
LC-001-100-D00-0
 62
     7
370
    25
100
AcDbLine
 10
349.822966
 20
297.65401
 30
0.0
 11
357.388085
 21
305.219129
 31
0.0
  0
ENDBLK
  5
529
330
527
100
AcDbEntity
  8
0
100
AcDbBlockEnd
  0
BLOCK
  5
553
330
552
100
AcDbEntity
  8
0
100
AcDbBlockBegin
  2
*X159
 70
     1
 71
     0
 10
0.0
 20
0.0
 30
0.0
  3
*X159
  1

  4
*X1
  0
LINE
  5
556
330
552
100
AcDbEntity
  8
LC-004-005-----0
 62
     7
370
    25
100
AcDbLine
 10
184.589964
 20
385.973976
 30
0.0
 11
184.822959
 21
386.20697
 31
0.0
  0
LINE
  5
557
330
552
100
AcDbEntity
  8
LC-004-005-----0
 62
     7
370
    25
100
AcDbLine
 10
184.024279
 20
385.973976
 30
0.0
 11
184.822959
 21
386.772655
 31
0.0
  0
LINE
  5
558
330
552
100
AcDbEntity
  8
LC-004-005-----0
 62
     7
370
    25
100
AcDbLine
 10
183.458593
 20
385.973976
 30
0.0
 11
184.822959
 21
387.338341
 31
0.0
  0
LINE
  5
559
330
552
100
AcDbEntity
  8
LC-004-005-----0
 62
     7
370
    25
100
AcDbLine
 10
182.892908
 20
385.973976
 30
0.0
 11
184.822959
 21
387.904026
 31
0.0
  0
LINE
  5
55A
330
552
100
AcDbEntity
  8
LC-004-005-----0
 62
     7
370
    25
100
AcDbLine
 10
182.327223
 20
385.973976
 30
0.0
 11
184.822959
 21
388.469712
 31
0.0
  0
LINE
  5
55B
330
552
100
AcDbEntity
  8
LC-004-005-----0
 62
     7
370
    25
100
AcDbLine
 10
181.761537
 20
385.973976
 30
0.0
 11
184.822959
 21
389.035397
 31
0.0
  0
LINE
  5
55C
330
552
100
AcDbEntity
  8
LC-004-005-----0
 62
     7
370
    25
100
AcDbLine
 10
181.195852
 20
385.973976
 30
0.0
 11
184.822959
 21
389.601083
 31
0.0
  0
LINE
  5
55D
330
552
100
AcDbEntity
  8
LC-004-005-----0
 62
     7
370
    25
100
AcDbLine
 10
180.630166
 20
385.973976
 30
0.0
 11
184.822959
 21
390.166768
 31
0.0
  0
LINE
  5
55E
330
552
100
AcDbEntity
  8
LC-004-005-----0
 62
     7
370
    25
100
AcDbLine
 10
180.064481
 20
385.973976
 30
0.0
 11
184.764481
 21
390.673976
 31
0.0
  0
LINE
  5
55F
330
552
100
AcDbEntity
  8
LC-004-005-----0
 62
     7
370
    25
100
AcDbLine
 10
179.498796
 20
385.973976
 30
0.0
 11
184.198796
 21
390.673976
 31
0.0
  0
LINE
  5
560
330
552
100
AcDbEntity
  8
LC-004-005-----0
 62
     7
370
    25
100
AcDbLine
 10
178.93311
 20
385.973976
 30
0.0
 11
183.63311
 21
390.673976
 31
0.0
  0
LINE
  5
561
330
552
100
AcDbEntity
  8
LC-004-005-----0
 62
     7
370
    25
100
AcDbLine
 10
178.367425
 20
385.973976
 30
0.0
 11
183.067425
 21
390.673976
 31
0.0
  0
LINE
  5
562
330
552
100
AcDbEntity
  8
LC-004-005-----0
 62
     7
370
    25
100
AcDbLine
 10
177.801739
 20
385.973976
 30
0.0
 11
182.501739
 21
390.673976
 31
0.0
  0
LINE
  5
563
330
552
100
AcDbEntity
  8
LC-004-005-----0
 62
     7
370
    25
100
AcDbLine
 10
177.236054
 20
385.973976
 30
0.0
 11
181.936054
 21
390.673976
 31
0.0
  0
LINE
  5
564
330
552
100
AcDbEntity
  8
LC-004-005-----0
 62
     7
370
    25
100
AcDbLine
 10
176.670368
 20
385.973976
 30
0.0
 11
181.370368
 21
390.673976
 31
0.0
  0
LINE
  5
565
330
552
100
AcDbEntity
  8
LC-004-005-----0
 62
     7
370
    25
100
AcDbLine
 10
176.104683
 20
385.973976
 30
0.0
 11
180.804683
 21
390.673976
 31
0.0
  0
LINE
  5
566
330
552
100
AcDbEntity
  8
LC-004-005-----0
 62
     7
370
    25
100
AcDbLine
 10
175.538998
 20
385.973976
 30
0.0
 11
180.238998
 21
390.673976
 31
0.0
  0
LINE
  5
567
330
552
100
AcDbEntity
  8
LC-004-005-----0
 62
     7
370
    25
100
AcDbLine
 10
174.973312
 20
385.973976
 30
0.0
 11
179.673312
 21
390.673976
 31
0.0
  0
LINE
  5
568
330
552
100
AcDbEntity
  8
LC-004-005-----0
 62
     7
370
    25
100
AcDbLine
 10
174.822959
 20
386.389308
 30
0.0
 11
179.107627
 21
390.673976
 31
0.0
  0
LINE
  5
569
330
552
100
AcDbEntity
  8
LC-004-005-----0
 62
     7
370
    25
100
AcDbLine
 10
174.822959
 20
386.954993
 30
0.0
 11
178.541941
 21
390.673976
 31
0.0
  0
LINE
  5
56A
330
552
100
AcDbEntity
  8
LC-004-005-----0
 62
     7
370
    25
100
AcDbLine
 10
174.822959
 20
387.520678
 30
0.0
 11
177.976256
 21
390.673976
 31
0.0
  0
LINE
  5
56B
330
552
100
AcDbEntity
  8
LC-004-005-----0
 62
     7
370
    25
100
AcDbLine
 10
174.822959
 20
388.086364
 30
0.0
 11
177.41057
 21
390.673976
 31
0.0
  0
LINE
  5
56C
330
552
100
AcDbEntity
  8
LC-004-005-----0
 62
     7
370
    25
100
AcDbLine
 10
174.822959
 20
388.652049
 30
0.0
 11
176.844885
 21
390.673976
 31
0.0
  0
LINE
  5
56D
330
552
100
AcDbEntity
  8
LC-004-005-----0
 62
     7
370
    25
100
AcDbLine
 10
174.822959
 20
389.217735
 30
0.0
 11
176.2792
 21
390.673976
 31
0.0
  0
LINE
  5
56E
330
552
100
AcDbEntity
  8
LC-004-005-----0
 62
     7
370
    25
100
AcDbLine
 10
174.822959
 20
389.78342
 30
0.0
 11
175.713514
 21
390.673976
 31
0.0
  0
LINE
  5
56F
330
552
100
AcDbEntity
  8
LC-004-005-----0
 62
     7
370
    25
100
AcDbLine
 10
174.822959
 20
390.349106
 30
0.0
 11
175.147829
 21
390.673976
 31
0.0
  0
ENDBLK
  5
554
330
552
100
AcDbEntity
  8
0
100
AcDbBlockEnd
  0
BLOCK
  5
572
330
571
100
AcDbEntity
  8
0
100
AcDbBlockBegin
  2
*X260
 70
     1
 71
     0
 10
0.0
 20
0.0
 30
0.0
  3
*X260
  1

  4
*X2
  0
LINE
  5
574
330
571
100
AcDbEntity
  8
LC-004-005-----0
 62
     7
370
    25
100
AcDbLine
 10
204.388954
 20
385.973976
 30
0.0
 11
204.822959
 21
386.40798
 31
0.0
  0
LINE
  5
575
330
571
100
AcDbEntity
  8
LC-004-005-----0
 62
     7
370
    25
100
AcDbLine
 10
203.823269
 20
385.973976
 30
0.0
 11
204.822959
 21
386.973666
 31
0.0
  0
LINE
  5
576
330
571
100
AcDbEntity
  8
LC-004-005-----0
 62
     7
370
    25
100
AcDbLine
 10
203.257583
 20
385.973976
 30
0.0
 11
204.822959
 21
387.539351
 31
0.0
  0
LINE
  5
577
330
571
100
AcDbEntity
  8
LC-004-005-----0
 62
     7
370
    25
100
AcDbLine
 10
202.691898
 20
385.973976
 30
0.0
 11
204.822959
 21
388.105036
 31
0.0
  0
LINE
  5
578
330
571
100
AcDbEntity
  8
LC-004-005-----0
 62
     7
370
    25
100
AcDbLine
 10
202.126213
 20
385.973976
 30
0.0
 11
204.822959
 21
388.670722
 31
0.0
  0
LINE
  5
579
330
571
100
AcDbEntity
  8
LC-004-005-----0
 62
     7
370
    25
100
AcDbLine
 10
201.560527
 20
385.973976
 30
0.0
 11
204.822959
 21
389.236407
 31
0.0
  0
LINE
  5
57A
330
571
100
AcDbEntity
  8
LC-004-005-----0
 62
     7
370
    25
100
AcDbLine
 10
200.994842
 20
385.973976
 30
0.0
 11
204.822959
 21
389.802093
 31
0.0
  0
LINE
  5
57B
330
571
100
AcDbEntity
  8
LC-004-005-----0
 62
     7
370
    25
100
AcDbLine
 10
200.429156
 20
385.973976
 30
0.0
 11
204.822959
 21
390.367778
 31
0.0
  0
LINE
  5
57C
330
571
100
AcDbEntity
  8
LC-004-005-----0
 62
     7
370
    25
100
AcDbLine
 10
199.863471
 20
385.973976
 30
0.0
 11
204.563471
 21
390.673976
 31
0.0
  0
LINE
  5
57D
330
571
100
AcDbEntity
  8
LC-004-005-----0
 62
     7
370
    25
100
AcDbLine
 10
199.297785
 20
385.973976
 30
0.0
 11
203.997785
 21
390.673976
 31
0.0
  0
LINE
  5
57E
330
571
100
AcDbEntity
  8
LC-004-005-----0
 62
     7
370
    25
100
AcDbLine
 10
198.7321
 20
385.973976
 30
0.0
 11
203.4321
 21
390.673976
 31
0.0
  0
LINE
  5
57F
330
571
100
AcDbEntity
  8
LC-004-005-----0
 62
     7
370
    25
100
AcDbLine
 10
198.166415
 20
385.973976
 30
0.0
 11
202.866415
 21
390.673976
 31
0.0
  0
LINE
  5
580
330
571
100
AcDbEntity
  8
LC-004-005-----0
 62
     7
370
    25
100
AcDbLine
 10
197.600729
 20
385.973976
 30
0.0
 11
202.300729
 21
390.673976
 31
0.0
  0
LINE
  5
581
330
571
100
AcDbEntity
  8
LC-004-005-----0
 62
     7
370
    25
100
AcDbLine
 10
197.035044
 20
385.973976
 30
0.0
 11
201.735044
 21
390.673976
 31
0.0
  0
LINE
  5
582
330
571
100
AcDbEntity
  8
LC-004-005-----0
 62
     7
370
    25
100
AcDbLine
 10
196.469358
 20
385.973976
 30
0.0
 11
201.169358
 21
390.673976
 31
0.0
  0
LINE
  5
583
330
571
100
AcDbEntity
  8
LC-004-005-----0
 62
     7
370
    25
100
AcDbLine
 10
195.903673
 20
385.973976
 30
0.0
 11
200.603673
 21
390.673976
 31
0.0
  0
LINE
  5
584
330
571
100
AcDbEntity
  8
LC-004-005-----0
 62
     7
370
    25
100
AcDbLine
 10
195.337987
 20
385.973976
 30
0.0
 11
200.037987
 21
390.673976
 31
0.0
  0
LINE
  5
585
330
571
100
AcDbEntity
  8
LC-004-005-----0
 62
     7
370
    25
100
AcDbLine
 10
194.822959
 20
386.024632
 30
0.0
 11
199.472302
 21
390.673976
 31
0.0
  0
LINE
  5
586
330
571
100
AcDbEntity
  8
LC-004-005-----0
 62
     7
370
    25
100
AcDbLine
 10
194.822959
 20
386.590318
 30
0.0
 11
198.906617
 21
390.673976
 31
0.0
  0
LINE
  5
587
330
571
100
AcDbEntity
  8
LC-004-005-----0
 62
     7
370
    25
100
AcDbLine
 10
194.822959
 20
387.156003
 30
0.0
 11
198.340931
 21
390.673976
 31
0.0
  0
LINE
  5
588
330
571
100
AcDbEntity
  8
LC-004-005-----0
 62
     7
370
    25
100
AcDbLine
 10
194.822959
 20
387.721689
 30
0.0
 11
197.775246
 21
390.673976
 31
0.0
  0
LINE
  5
589
330
571
100
AcDbEntity
  8
LC-004-005-----0
 62
     7
370
    25
100
AcDbLine
 10
194.822959
 20
388.287374
 30
0.0
 11
197.20956
 21
390.673976
 31
0.0
  0
LINE
  5
58A
330
571
100
AcDbEntity
  8
LC-004-005-----0
 62
     7
370
    25
100
AcDbLine
 10
194.822959
 20
388.853059
 30
0.0
 11
196.643875
 21
390.673976
 31
0.0
  0
LINE
  5
58B
330
571
100
AcDbEntity
  8
LC-004-005-----0
 62
     7
370
    25
100
AcDbLine
 10
194.822959
 20
389.418745
 30
0.0
 11
196.078189
 21
390.673976
 31
0.0
  0
LINE
  5
58C
330
571
100
AcDbEntity
  8
LC-004-005-----0
 62
     7
370
    25
100
AcDbLine
 10
194.822959
 20
389.98443
 30
0.0
 11
195.512504
 21
390.673976
 31
0.0
  0
LINE
  5
58D
330
571
100
AcDbEntity
  8
LC-004-005-----0
 62
     7
370
    25
100
AcDbLine
 10
194.822959
 20
390.550116
 30
0.0
 11
194.946819
 21
390.673976
 31
0.0
  0
ENDBLK
  5
573
330
571
100
AcDbEntity
  8
0
100
AcDbBlockEnd
  0
BLOCK
  5
590
330
58F
100
AcDbEntity
  8
0
100
AcDbBlockBegin
  2
*X361
 70
     1
 71
     0
 10
0.0
 20
0.0
 30
0.0
  3
*X361
  1

  4
*X3
  0
LINE
  5
592
330
58F
100
AcDbEntity
  8
LC-004-005-----0
 62
     7
370
    25
100
AcDbLine
 10
224.753629
 20
385.973976
 30
0.0
 11
224.822959
 21
386.043305
 31
0.0
  0
LINE
  5
593
330
58F
100
AcDbEntity
  8
LC-004-005-----0
 62
     7
370
    25
100
AcDbLine
 10
224.187944
 20
385.973976
 30
0.0
 11
224.822959
 21
386.60899
 31
0.0
  0
LINE
  5
594
330
58F
100
AcDbEntity
  8
LC-004-005-----0
 62
     7
370
    25
100
AcDbLine
 10
223.622259
 20
385.973976
 30
0.0
 11
224.822959
 21
387.174676
 31
0.0
  0
LINE
  5
595
330
58F
100
AcDbEntity
  8
LC-004-005-----0
 62
     7
370
    25
100
AcDbLine
 10
223.056573
 20
385.973976
 30
0.0
 11
224.822959
 21
387.740361
 31
0.0
  0
LINE
  5
596
330
58F
100
AcDbEntity
  8
LC-004-005-----0
 62
     7
370
    25
100
AcDbLine
 10
222.490888
 20
385.973976
 30
0.0
 11
224.822959
 21
388.306046
 31
0.0
  0
LINE
  5
597
330
58F
100
AcDbEntity
  8
LC-004-005-----0
 62
     7
370
    25
100
AcDbLine
 10
221.925202
 20
385.973976
 30
0.0
 11
224.822959
 21
388.871732
 31
0.0
  0
LINE
  5
598
330
58F
100
AcDbEntity
  8
LC-004-005-----0
 62
     7
370
    25
100
AcDbLine
 10
221.359517
 20
385.973976
 30
0.0
 11
224.822959
 21
389.437417
 31
0.0
  0
LINE
  5
599
330
58F
100
AcDbEntity
  8
LC-004-005-----0
 62
     7
370
    25
100
AcDbLine
 10
220.793832
 20
385.973976
 30
0.0
 11
224.822959
 21
390.003103
 31
0.0
  0
LINE
  5
59A
330
58F
100
AcDbEntity
  8
LC-004-005-----0
 62
     7
370
    25
100
AcDbLine
 10
220.228146
 20
385.973976
 30
0.0
 11
224.822959
 21
390.568788
 31
0.0
  0
LINE
  5
59B
330
58F
100
AcDbEntity
  8
LC-004-005-----0
 62
     7
370
    25
100
AcDbLine
 10
219.662461
 20
385.973976
 30
0.0
 11
224.362461
 21
390.673976
 31
0.0
  0
LINE
  5
59C
330
58F
100
AcDbEntity
  8
LC-004-005-----0
 62
     7
370
    25
100
AcDbLine
 10
219.096775
 20
385.973976
 30
0.0
 11
223.796775
 21
390.673976
 31
0.0
  0
LINE
  5
59D
330
58F
100
AcDbEntity
  8
LC-004-005-----0
 62
     7
370
    25
100
AcDbLine
 10
218.53109
 20
385.973976
 30
0.0
 11
223.23109
 21
390.673976
 31
0.0
  0
LINE
  5
59E
330
58F
100
AcDbEntity
  8
LC-004-005-----0
 62
     7
370
    25
100
AcDbLine
 10
217.965404
 20
385.973976
 30
0.0
 11
222.665404
 21
390.673976
 31
0.0
  0
LINE
  5
59F
330
58F
100
AcDbEntity
  8
LC-004-005-----0
 62
     7
370
    25
100
AcDbLine
 10
217.399719
 20
385.973976
 30
0.0
 11
222.099719
 21
390.673976
 31
0.0
  0
LINE
  5
5A0
330
58F
100
AcDbEntity
  8
LC-004-005-----0
 62
     7
370
    25
100
AcDbLine
 10
216.834034
 20
385.973976
 30
0.0
 11
221.534034
 21
390.673976
 31
0.0
  0
LINE
  5
5A1
330
58F
100
AcDbEntity
  8
LC-004-005-----0
 62
     7
370
    25
100
AcDbLine
 10
216.268348
 20
385.973976
 30
0.0
 11
220.968348
 21
390.673976
 31
0.0
  0
LINE
  5
5A2
330
58F
100
AcDbEntity
  8
LC-004-005-----0
 62
     7
370
    25
100
AcDbLine
 10
215.702663
 20
385.973976
 30
0.0
 11
220.402663
 21
390.673976
 31
0.0
  0
LINE
  5
5A3
330
58F
100
AcDbEntity
  8
LC-004-005-----0
 62
     7
370
    25
100
AcDbLine
 10
215.136977
 20
385.973976
 30
0.0
 11
219.836977
 21
390.673976
 31
0.0
  0
LINE
  5
5A4
330
58F
100
AcDbEntity
  8
LC-004-005-----0
 62
     7
370
    25
100
AcDbLine
 10
214.822959
 20
386.225642
 30
0.0
 11
219.271292
 21
390.673976
 31
0.0
  0
LINE
  5
5A5
330
58F
100
AcDbEntity
  8
LC-004-005-----0
 62
     7
370
    25
100
AcDbLine
 10
214.822959
 20
386.791328
 30
0.0
 11
218.705606
 21
390.673976
 31
0.0
  0
LINE
  5
5A6
330
58F
100
AcDbEntity
  8
LC-004-005-----0
 62
     7
370
    25
100
AcDbLine
 10
214.822959
 20
387.357013
 30
0.0
 11
218.139921
 21
390.673976
 31
0.0
  0
LINE
  5
5A7
330
58F
100
AcDbEntity
  8
LC-004-005-----0
 62
     7
370
    25
100
AcDbLine
 10
214.822959
 20
387.922699
 30
0.0
 11
217.574236
 21
390.673976
 31
0.0
  0
LINE
  5
5A8
330
58F
100
AcDbEntity
  8
LC-004-005-----0
 62
     7
370
    25
100
AcDbLine
 10
214.822959
 20
388.488384
 30
0.0
 11
217.00855
 21
390.673976
 31
0.0
  0
LINE
  5
5A9
330
58F
100
AcDbEntity
  8
LC-004-005-----0
 62
     7
370
    25
100
AcDbLine
 10
214.822959
 20
389.05407
 30
0.0
 11
216.442865
 21
390.673976
 31
0.0
  0
LINE
  5
5AA
330
58F
100
AcDbEntity
  8
LC-004-005-----0
 62
     7
370
    25
100
AcDbLine
 10
214.822959
 20
389.619755
 30
0.0
 11
215.877179
 21
390.673976
 31
0.0
  0
LINE
  5
5AB
330
58F
100
AcDbEntity
  8
LC-004-005-----0
 62
     7
370
    25
100
AcDbLine
 10
214.822959
 20
390.18544
 30
0.0
 11
215.311494
 21
390.673976
 31
0.0
  0
ENDBLK
  5
591
330
58F
100
AcDbEntity
  8
0
100
AcDbBlockEnd
  0
BLOCK
  5
5AE
330
5AD
100
AcDbEntity
  8
0
100
AcDbBlockBegin
  2
*X462
 70
     1
 71
     0
 10
0.0
 20
0.0
 30
0.0
  3
*X462
  1

  4
*X4
  0
LINE
  5
5B0
330
5AD
100
AcDbEntity
  8
LC-004-005-----0
 62
     7
370
    25
100
AcDbLine
 10
244.552619
 20
385.973976
 30
0.0
 11
244.822959
 21
386.244315
 31
0.0
  0
LINE
  5
5B1
330
5AD
100
AcDbEntity
  8
LC-004-005-----0
 62
     7
370
    25
100
AcDbLine
 10
243.986934
 20
385.973976
 30
0.0
 11
244.822959
 21
386.81
 31
0.0
  0
LINE
  5
5B2
330
5AD
100
AcDbEntity
  8
LC-004-005-----0
 62
     7
370
    25
100
AcDbLine
 10
243.421249
 20
385.973976
 30
0.0
 11
244.822959
 21
387.375686
 31
0.0
  0
LINE
  5
5B3
330
5AD
100
AcDbEntity
  8
LC-004-005-----0
 62
     7
370
    25
100
AcDbLine
 10
242.855563
 20
385.973976
 30
0.0
 11
244.822959
 21
387.941371
 31
0.0
  0
LINE
  5
5B4
330
5AD
100
AcDbEntity
  8
LC-004-005-----0
 62
     7
370
    25
100
AcDbLine
 10
242.289878
 20
385.973976
 30
0.0
 11
244.822959
 21
388.507057
 31
0.0
  0
LINE
  5
5B5
330
5AD
100
AcDbEntity
  8
LC-004-005-----0
 62
     7
370
    25
100
AcDbLine
 10
241.724192
 20
385.973976
 30
0.0
 11
244.822959
 21
389.072742
 31
0.0
  0
LINE
  5
5B6
330
5AD
100
AcDbEntity
  8
LC-004-005-----0
 62
     7
370
    25
100
AcDbLine
 10
241.158507
 20
385.973976
 30
0.0
 11
244.822959
 21
389.638427
 31
0.0
  0
LINE
  5
5B7
330
5AD
100
AcDbEntity
  8
LC-004-005-----0
 62
     7
370
    25
100
AcDbLine
 10
240.592821
 20
385.973976
 30
0.0
 11
244.822959
 21
390.204113
 31
0.0
  0
LINE
  5
5B8
330
5AD
100
AcDbEntity
  8
LC-004-005-----0
 62
     7
370
    25
100
AcDbLine
 10
240.027136
 20
385.973976
 30
0.0
 11
244.727136
 21
390.673976
 31
0.0
  0
LINE
  5
5B9
330
5AD
100
AcDbEntity
  8
LC-004-005-----0
 62
     7
370
    25
100
AcDbLine
 10
239.461451
 20
385.973976
 30
0.0
 11
244.161451
 21
390.673976
 31
0.0
  0
LINE
  5
5BA
330
5AD
100
AcDbEntity
  8
LC-004-005-----0
 62
     7
370
    25
100
AcDbLine
 10
238.895765
 20
385.973976
 30
0.0
 11
243.595765
 21
390.673976
 31
0.0
  0
LINE
  5
5BB
330
5AD
100
AcDbEntity
  8
LC-004-005-----0
 62
     7
370
    25
100
AcDbLine
 10
238.33008
 20
385.973976
 30
0.0
 11
243.03008
 21
390.673976
 31
0.0
  0
LINE
  5
5BC
330
5AD
100
AcDbEntity
  8
LC-004-005-----0
 62
     7
370
    25
100
AcDbLine
 10
237.764394
 20
385.973976
 30
0.0
 11
242.464394
 21
390.673976
 31
0.0
  0
LINE
  5
5BD
330
5AD
100
AcDbEntity
  8
LC-004-005-----0
 62
     7
370
    25
100
AcDbLine
 10
237.198709
 20
385.973976
 30
0.0
 11
241.898709
 21
390.673976
 31
0.0
  0
LINE
  5
5BE
330
5AD
100
AcDbEntity
  8
LC-004-005-----0
 62
     7
370
    25
100
AcDbLine
 10
236.633023
 20
385.973976
 30
0.0
 11
241.333023
 21
390.673976
 31
0.0
  0
LINE
  5
5BF
330
5AD
100
AcDbEntity
  8
LC-004-005-----0
 62
     7
370
    25
100
AcDbLine
 10
236.067338
 20
385.973976
 30
0.0
 11
240.767338
 21
390.673976
 31
0.0
  0
LINE
  5
5C0
330
5AD
100
AcDbEntity
  8
LC-004-005-----0
 62
     7
370
    25
100
AcDbLine
 10
235.501653
 20
385.973976
 30
0.0
 11
240.201653
 21
390.673976
 31
0.0
  0
LINE
  5
5C1
330
5AD
100
AcDbEntity
  8
LC-004-005-----0
 62
     7
370
    25
100
AcDbLine
 10
234.935967
 20
385.973976
 30
0.0
 11
239.635967
 21
390.673976
 31
0.0
  0
LINE
  5
5C2
330
5AD
100
AcDbEntity
  8
LC-004-005-----0
 62
     7
370
    25
100
AcDbLine
 10
234.822959
 20
386.426653
 30
0.0
 11
239.070282
 21
390.673976
 31
0.0
  0
LINE
  5
5C3
330
5AD
100
AcDbEntity
  8
LC-004-005-----0
 62
     7
370
    25
100
AcDbLine
 10
234.822959
 20
386.992338
 30
0.0
 11
238.504596
 21
390.673976
 31
0.0
  0
LINE
  5
5C4
330
5AD
100
AcDbEntity
  8
LC-004-005-----0
 62
     7
370
    25
100
AcDbLine
 10
234.822959
 20
387.558023
 30
0.0
 11
237.938911
 21
390.673976
 31
0.0
  0
LINE
  5
5C5
330
5AD
100
AcDbEntity
  8
LC-004-005-----0
 62
     7
370
    25
100
AcDbLine
 10
234.822959
 20
388.123709
 30
0.0
 11
237.373225
 21
390.673976
 31
0.0
  0
LINE
  5
5C6
330
5AD
100
AcDbEntity
  8
LC-004-005-----0
 62
     7
370
    25
100
AcDbLine
 10
234.822959
 20
388.689394
 30
0.0
 11
236.80754
 21
390.673976
 31
0.0
  0
LINE
  5
5C7
330
5AD
100
AcDbEntity
  8
LC-004-005-----0
 62
     7
370
    25
100
AcDbLine
 10
234.822959
 20
389.25508
 30
0.0
 11
236.241855
 21
390.673976
 31
0.0
  0
LINE
  5
5C8
330
5AD
100
AcDbEntity
  8
LC-004-005-----0
 62
     7
370
    25
100
AcDbLine
 10
234.822959
 20
389.820765
 30
0.0
 11
235.676169
 21
390.673976
 31
0.0
  0
LINE
  5
5C9
330
5AD
100
AcDbEntity
  8
LC-004-005-----0
 62
     7
370
    25
100
AcDbLine
 10
234.822959
 20
390.386451
 30
0.0
 11
235.110484
 21
390.673976
 31
0.0
  0
ENDBLK
  5
5AF
330
5AD
100
AcDbEntity
  8
0
100
AcDbBlockEnd
  0
BLOCK
  5
5CC
330
5CB
100
AcDbEntity
  8
0
100
AcDbBlockBegin
  2
*X563
 70
     1
 71
     0
 10
0.0
 20
0.0
 30
0.0
  3
*X563
  1

  4
*X5
  0
LINE
  5
5CE
330
5CB
100
AcDbEntity
  8
LC-004-005-----0
 62
     7
370
    25
100
AcDbLine
 10
264.351609
 20
385.973976
 30
0.0
 11
264.822959
 21
386.445325
 31
0.0
  0
LINE
  5
5CF
330
5CB
100
AcDbEntity
  8
LC-004-005-----0
 62
     7
370
    25
100
AcDbLine
 10
263.785924
 20
385.973976
 30
0.0
 11
264.822959
 21
387.01101
 31
0.0
  0
LINE
  5
5D0
330
5CB
100
AcDbEntity
  8
LC-004-005-----0
 62
     7
370
    25
100
AcDbLine
 10
263.220238
 20
385.973976
 30
0.0
 11
264.822959
 21
387.576696
 31
0.0
  0
LINE
  5
5D1
330
5CB
100
AcDbEntity
  8
LC-004-005-----0
 62
     7
370
    25
100
AcDbLine
 10
262.654553
 20
385.973976
 30
0.0
 11
264.822959
 21
388.142381
 31
0.0
  0
LINE
  5
5D2
330
5CB
100
AcDbEntity
  8
LC-004-005-----0
 62
     7
370
    25
100
AcDbLine
 10
262.088868
 20
385.973976
 30
0.0
 11
264.822959
 21
388.708067
 31
0.0
  0
LINE
  5
5D3
330
5CB
100
AcDbEntity
  8
LC-004-005-----0
 62
     7
370
    25
100
AcDbLine
 10
261.523182
 20
385.973976
 30
0.0
 11
264.822959
 21
389.273752
 31
0.0
  0
LINE
  5
5D4
330
5CB
100
AcDbEntity
  8
LC-004-005-----0
 62
     7
370
    25
100
AcDbLine
 10
260.957497
 20
385.973976
 30
0.0
 11
264.822959
 21
389.839438
 31
0.0
  0
LINE
  5
5D5
330
5CB
100
AcDbEntity
  8
LC-004-005-----0
 62
     7
370
    25
100
AcDbLine
 10
260.391811
 20
385.973976
 30
0.0
 11
264.822959
 21
390.405123
 31
0.0
  0
LINE
  5
5D6
330
5CB
100
AcDbEntity
  8
LC-004-005-----0
 62
     7
370
    25
100
AcDbLine
 10
259.826126
 20
385.973976
 30
0.0
 11
264.526126
 21
390.673976
 31
0.0
  0
LINE
  5
5D7
330
5CB
100
AcDbEntity
  8
LC-004-005-----0
 62
     7
370
    25
100
AcDbLine
 10
259.26044
 20
385.973976
 30
0.0
 11
263.96044
 21
390.673976
 31
0.0
  0
LINE
  5
5D8
330
5CB
100
AcDbEntity
  8
LC-004-005-----0
 62
     7
370
    25
100
AcDbLine
 10
258.694755
 20
385.973976
 30
0.0
 11
263.394755
 21
390.673976
 31
0.0
  0
LINE
  5
5D9
330
5CB
100
AcDbEntity
  8
LC-004-005-----0
 62
     7
370
    25
100
AcDbLine
 10
258.12907
 20
385.973976
 30
0.0
 11
262.82907
 21
390.673976
 31
0.0
  0
LINE
  5
5DA
330
5CB
100
AcDbEntity
  8
LC-004-005-----0
 62
     7
370
    25
100
AcDbLine
 10
257.563384
 20
385.973976
 30
0.0
 11
262.263384
 21
390.673976
 31
0.0
  0
LINE
  5
5DB
330
5CB
100
AcDbEntity
  8
LC-004-005-----0
 62
     7
370
    25
100
AcDbLine
 10
256.997699
 20
385.973976
 30
0.0
 11
261.697699
 21
390.673976
 31
0.0
  0
LINE
  5
5DC
330
5CB
100
AcDbEntity
  8
LC-004-005-----0
 62
     7
370
    25
100
AcDbLine
 10
256.432013
 20
385.973976
 30
0.0
 11
261.132013
 21
390.673976
 31
0.0
  0
LINE
  5
5DD
330
5CB
100
AcDbEntity
  8
LC-004-005-----0
 62
     7
370
    25
100
AcDbLine
 10
255.866328
 20
385.973976
 30
0.0
 11
260.566328
 21
390.673976
 31
0.0
  0
LINE
  5
5DE
330
5CB
100
AcDbEntity
  8
LC-004-005-----0
 62
     7
370
    25
100
AcDbLine
 10
255.300642
 20
385.973976
 30
0.0
 11
260.000642
 21
390.673976
 31
0.0
  0
LINE
  5
5DF
330
5CB
100
AcDbEntity
  8
LC-004-005-----0
 62
     7
370
    25
100
AcDbLine
 10
254.822959
 20
386.061977
 30
0.0
 11
259.434957
 21
390.673976
 31
0.0
  0
LINE
  5
5E0
330
5CB
100
AcDbEntity
  8
LC-004-005-----0
 62
     7
370
    25
100
AcDbLine
 10
254.822959
 20
386.627663
 30
0.0
 11
258.869272
 21
390.673976
 31
0.0
  0
LINE
  5
5E1
330
5CB
100
AcDbEntity
  8
LC-004-005-----0
 62
     7
370
    25
100
AcDbLine
 10
254.822959
 20
387.193348
 30
0.0
 11
258.303586
 21
390.673976
 31
0.0
  0
LINE
  5
5E2
330
5CB
100
AcDbEntity
  8
LC-004-005-----0
 62
     7
370
    25
100
AcDbLine
 10
254.822959
 20
387.759034
 30
0.0
 11
257.737901
 21
390.673976
 31
0.0
  0
LINE
  5
5E3
330
5CB
100
AcDbEntity
  8
LC-004-005-----0
 62
     7
370
    25
100
AcDbLine
 10
254.822959
 20
388.324719
 30
0.0
 11
257.172215
 21
390.673976
 31
0.0
  0
LINE
  5
5E4
330
5CB
100
AcDbEntity
  8
LC-004-005-----0
 62
     7
370
    25
100
AcDbLine
 10
254.822959
 20
388.890404
 30
0.0
 11
256.60653
 21
390.673976
 31
0.0
  0
LINE
  5
5E5
330
5CB
100
AcDbEntity
  8
LC-004-005-----0
 62
     7
370
    25
100
AcDbLine
 10
254.822959
 20
389.45609
 30
0.0
 11
256.040844
 21
390.673976
 31
0.0
  0
LINE
  5
5E6
330
5CB
100
AcDbEntity
  8
LC-004-005-----0
 62
     7
370
    25
100
AcDbLine
 10
254.822959
 20
390.021775
 30
0.0
 11
255.475159
 21
390.673976
 31
0.0
  0
LINE
  5
5E7
330
5CB
100
AcDbEntity
  8
LC-004-005-----0
 62
     7
370
    25
100
AcDbLine
 10
254.822959
 20
390.587461
 30
0.0
 11
254.909474
 21
390.673976
 31
0.0
  0
ENDBLK
  5
5CD
330
5CB
100
AcDbEntity
  8
0
100
AcDbBlockEnd
  0
BLOCK
  5
5EC
330
5EB
100
AcDbEntity
  8
0
100
AcDbBlockBegin
  2
*X664
 70
     1
 71
     0
 10
0.0
 20
0.0
 30
0.0
  3
*X664
  1

  4
*X6
  0
LINE
  5
5EE
330
5EB
100
AcDbEntity
  8
LC-004-005-----0
 62
     7
370
    25
100
AcDbLine
 10
284.716285
 20
385.973976
 30
0.0
 11
284.822959
 21
386.08065
 31
0.0
  0
LINE
  5
5EF
330
5EB
100
AcDbEntity
  8
LC-004-005-----0
 62
     7
370
    25
100
AcDbLine
 10
284.150599
 20
385.973976
 30
0.0
 11
284.822959
 21
386.646335
 31
0.0
  0
LINE
  5
5F0
330
5EB
100
AcDbEntity
  8
LC-004-005-----0
 62
     7
370
    25
100
AcDbLine
 10
283.584914
 20
385.973976
 30
0.0
 11
284.822959
 21
387.212021
 31
0.0
  0
LINE
  5
5F1
330
5EB
100
AcDbEntity
  8
LC-004-005-----0
 62
     7
370
    25
100
AcDbLine
 10
283.019228
 20
385.973976
 30
0.0
 11
284.822959
 21
387.777706
 31
0.0
  0
LINE
  5
5F2
330
5EB
100
AcDbEntity
  8
LC-004-005-----0
 62
     7
370
    25
100
AcDbLine
 10
282.453543
 20
385.973976
 30
0.0
 11
284.822959
 21
388.343391
 31
0.0
  0
LINE
  5
5F3
330
5EB
100
AcDbEntity
  8
LC-004-005-----0
 62
     7
370
    25
100
AcDbLine
 10
281.887857
 20
385.973976
 30
0.0
 11
284.822959
 21
388.909077
 31
0.0
  0
LINE
  5
5F4
330
5EB
100
AcDbEntity
  8
LC-004-005-----0
 62
     7
370
    25
100
AcDbLine
 10
281.322172
 20
385.973976
 30
0.0
 11
284.822959
 21
389.474762
 31
0.0
  0
LINE
  5
5F5
330
5EB
100
AcDbEntity
  8
LC-004-005-----0
 62
     7
370
    25
100
AcDbLine
 10
280.756487
 20
385.973976
 30
0.0
 11
284.822959
 21
390.040448
 31
0.0
  0
LINE
  5
5F6
330
5EB
100
AcDbEntity
  8
LC-004-005-----0
 62
     7
370
    25
100
AcDbLine
 10
280.190801
 20
385.973976
 30
0.0
 11
284.822959
 21
390.606133
 31
0.0
  0
LINE
  5
5F7
330
5EB
100
AcDbEntity
  8
LC-004-005-----0
 62
     7
370
    25
100
AcDbLine
 10
279.625116
 20
385.973976
 30
0.0
 11
284.325116
 21
390.673976
 31
0.0
  0
LINE
  5
5F8
330
5EB
100
AcDbEntity
  8
LC-004-005-----0
 62
     7
370
    25
100
AcDbLine
 10
279.05943
 20
385.973976
 30
0.0
 11
283.75943
 21
390.673976
 31
0.0
  0
LINE
  5
5F9
330
5EB
100
AcDbEntity
  8
LC-004-005-----0
 62
     7
370
    25
100
AcDbLine
 10
278.493745
 20
385.973976
 30
0.0
 11
283.193745
 21
390.673976
 31
0.0
  0
LINE
  5
5FA
330
5EB
100
AcDbEntity
  8
LC-004-005-----0
 62
     7
370
    25
100
AcDbLine
 10
277.928059
 20
385.973976
 30
0.0
 11
282.628059
 21
390.673976
 31
0.0
  0
LINE
  5
5FB
330
5EB
100
AcDbEntity
  8
LC-004-005-----0
 62
     7
370
    25
100
AcDbLine
 10
277.362374
 20
385.973976
 30
0.0
 11
282.062374
 21
390.673976
 31
0.0
  0
LINE
  5
5FC
330
5EB
100
AcDbEntity
  8
LC-004-005-----0
 62
     7
370
    25
100
AcDbLine
 10
276.796689
 20
385.973976
 30
0.0
 11
281.496689
 21
390.673976
 31
0.0
  0
LINE
  5
5FD
330
5EB
100
AcDbEntity
  8
LC-004-005-----0
 62
     7
370
    25
100
AcDbLine
 10
276.231003
 20
385.973976
 30
0.0
 11
280.931003
 21
390.673976
 31
0.0
  0
LINE
  5
5FE
330
5EB
100
AcDbEntity
  8
LC-004-005-----0
 62
     7
370
    25
100
AcDbLine
 10
275.665318
 20
385.973976
 30
0.0
 11
280.365318
 21
390.673976
 31
0.0
  0
LINE
  5
5FF
330
5EB
100
AcDbEntity
  8
LC-004-005-----0
 62
     7
370
    25
100
AcDbLine
 10
275.099632
 20
385.973976
 30
0.0
 11
279.799632
 21
390.673976
 31
0.0
  0
LINE
  5
600
330
5EB
100
AcDbEntity
  8
LC-004-005-----0
 62
     7
370
    25
100
AcDbLine
 10
274.822959
 20
386.262987
 30
0.0
 11
279.233947
 21
390.673976
 31
0.0
  0
LINE
  5
601
330
5EB
100
AcDbEntity
  8
LC-004-005-----0
 62
     7
370
    25
100
AcDbLine
 10
274.822959
 20
386.828673
 30
0.0
 11
278.668261
 21
390.673976
 31
0.0
  0
LINE
  5
602
330
5EB
100
AcDbEntity
  8
LC-004-005-----0
 62
     7
370
    25
100
AcDbLine
 10
274.822959
 20
387.394358
 30
0.0
 11
278.102576
 21
390.673976
 31
0.0
  0
LINE
  5
603
330
5EB
100
AcDbEntity
  8
LC-004-005-----0
 62
     7
370
    25
100
AcDbLine
 10
274.822959
 20
387.960044
 30
0.0
 11
277.536891
 21
390.673976
 31
0.0
  0
LINE
  5
604
330
5EB
100
AcDbEntity
  8
LC-004-005-----0
 62
     7
370
    25
100
AcDbLine
 10
274.822959
 20
388.525729
 30
0.0
 11
276.971205
 21
390.673976
 31
0.0
  0
LINE
  5
605
330
5EB
100
AcDbEntity
  8
LC-004-005-----0
 62
     7
370
    25
100
AcDbLine
 10
274.822959
 20
389.091415
 30
0.0
 11
276.40552
 21
390.673976
 31
0.0
  0
LINE
  5
606
330
5EB
100
AcDbEntity
  8
LC-004-005-----0
 62
     7
370
    25
100
AcDbLine
 10
274.822959
 20
389.6571
 30
0.0
 11
275.839834
 21
390.673976
 31
0.0
  0
LINE
  5
607
330
5EB
100
AcDbEntity
  8
LC-004-005-----0
 62
     7
370
    25
100
AcDbLine
 10
274.822959
 20
390.222785
 30
0.0
 11
275.274149
 21
390.673976
 31
0.0
  0
ENDBLK
  5
5ED
330
5EB
100
AcDbEntity
  8
0
100
AcDbBlockEnd
  0
BLOCK
  5
60B
330
60A
100
AcDbEntity
  8
0
100
AcDbBlockBegin
  2
*X765
 70
     1
 71
     0
 10
0.0
 20
0.0
 30
0.0
  3
*X765
  1

  4
*X7
  0
LINE
  5
60D
330
60A
100
AcDbEntity
  8
LC-004-005-----0
 62
     7
370
    25
100
AcDbLine
 10
304.663538
 20
383.293812
 30
0.0
 11
304.822959
 21
383.453233
 31
0.0
  0
LINE
  5
60E
330
60A
100
AcDbEntity
  8
LC-004-005-----0
 62
     7
370
    25
100
AcDbLine
 10
304.248804
 20
383.444763
 30
0.0
 11
304.822959
 21
384.018918
 31
0.0
  0
LINE
  5
60F
330
60A
100
AcDbEntity
  8
LC-004-005-----0
 62
     7
370
    25
100
AcDbLine
 10
303.834069
 20
383.595714
 30
0.0
 11
304.822959
 21
384.584604
 31
0.0
  0
LINE
  5
610
330
60A
100
AcDbEntity
  8
LC-004-005-----0
 62
     7
370
    25
100
AcDbLine
 10
303.419335
 20
383.746665
 30
0.0
 11
304.822959
 21
385.150289
 31
0.0
  0
LINE
  5
611
330
60A
100
AcDbEntity
  8
LC-004-005-----0
 62
     7
370
    25
100
AcDbLine
 10
303.0046
 20
383.897616
 30
0.0
 11
304.822959
 21
385.715974
 31
0.0
  0
LINE
  5
612
330
60A
100
AcDbEntity
  8
LC-004-005-----0
 62
     7
370
    25
100
AcDbLine
 10
302.589866
 20
384.048567
 30
0.0
 11
304.822959
 21
386.28166
 31
0.0
  0
LINE
  5
613
330
60A
100
AcDbEntity
  8
LC-004-005-----0
 62
     7
370
    25
100
AcDbLine
 10
302.175132
 20
384.199518
 30
0.0
 11
304.822959
 21
386.847345
 31
0.0
  0
LINE
  5
614
330
60A
100
AcDbEntity
  8
LC-004-005-----0
 62
     7
370
    25
100
AcDbLine
 10
301.760397
 20
384.350469
 30
0.0
 11
304.822959
 21
387.413031
 31
0.0
  0
LINE
  5
615
330
60A
100
AcDbEntity
  8
LC-004-005-----0
 62
     7
370
    25
100
AcDbLine
 10
301.345663
 20
384.50142
 30
0.0
 11
304.822959
 21
387.978716
 31
0.0
  0
LINE
  5
616
330
60A
100
AcDbEntity
  8
LC-004-005-----0
 62
     7
370
    25
100
AcDbLine
 10
300.930928
 20
384.652371
 30
0.0
 11
304.521897
 21
388.24334
 31
0.0
  0
LINE
  5
617
330
60A
100
AcDbEntity
  8
LC-004-005-----0
 62
     7
370
    25
100
AcDbLine
 10
300.516194
 20
384.803322
 30
0.0
 11
304.010013
 21
388.297141
 31
0.0
  0
LINE
  5
618
330
60A
100
AcDbEntity
  8
LC-004-005-----0
 62
     7
370
    25
100
AcDbLine
 10
300.101459
 20
384.954273
 30
0.0
 11
303.498129
 21
388.350942
 31
0.0
  0
LINE
  5
619
330
60A
100
AcDbEntity
  8
LC-004-005-----0
 62
     7
370
    25
100
AcDbLine
 10
299.686725
 20
385.105224
 30
0.0
 11
302.986244
 21
388.404743
 31
0.0
  0
LINE
  5
61A
330
60A
100
AcDbEntity
  8
LC-004-005-----0
 62
     7
370
    25
100
AcDbLine
 10
299.27199
 20
385.256175
 30
0.0
 11
302.478934
 21
388.463119
 31
0.0
  0
LINE
  5
61B
330
60A
100
AcDbEntity
  8
LC-004-005-----0
 62
     7
370
    25
100
AcDbLine
 10
298.857256
 20
385.407126
 30
0.0
 11
302.024702
 21
388.574572
 31
0.0
  0
LINE
  5
61C
330
60A
100
AcDbEntity
  8
LC-004-005-----0
 62
     7
370
    25
100
AcDbLine
 10
298.442522
 20
385.558077
 30
0.0
 11
301.624111
 21
388.739667
 31
0.0
  0
LINE
  5
61D
330
60A
100
AcDbEntity
  8
LC-004-005-----0
 62
     7
370
    25
100
AcDbLine
 10
298.027787
 20
385.709028
 30
0.0
 11
301.268056
 21
388.949297
 31
0.0
  0
LINE
  5
61E
330
60A
100
AcDbEntity
  8
LC-004-005-----0
 62
     7
370
    25
100
AcDbLine
 10
297.613053
 20
385.859979
 30
0.0
 11
300.951915
 21
389.198841
 31
0.0
  0
LINE
  5
61F
330
60A
100
AcDbEntity
  8
LC-004-005-----0
 62
     7
370
    25
100
AcDbLine
 10
297.161364
 20
385.973976
 30
0.0
 11
300.6738
 21
389.486412
 31
0.0
  0
LINE
  5
620
330
60A
100
AcDbEntity
  8
LC-004-005-----0
 62
     7
370
    25
100
AcDbLine
 10
296.595678
 20
385.973976
 30
0.0
 11
300.397996
 21
389.776294
 31
0.0
  0
LINE
  5
621
330
60A
100
AcDbEntity
  8
LC-004-005-----0
 62
     7
370
    25
100
AcDbLine
 10
296.029993
 20
385.973976
 30
0.0
 11
299.983264
 21
389.927246
 31
0.0
  0
LINE
  5
622
330
60A
100
AcDbEntity
  8
LC-004-005-----0
 62
     7
370
    25
100
AcDbLine
 10
295.464308
 20
385.973976
 30
0.0
 11
299.568531
 21
390.078199
 31
0.0
  0
LINE
  5
623
330
60A
100
AcDbEntity
  8
LC-004-005-----0
 62
     7
370
    25
100
AcDbLine
 10
294.898622
 20
385.973976
 30
0.0
 11
299.153799
 21
390.229152
 31
0.0
  0
LINE
  5
624
330
60A
100
AcDbEntity
  8
LC-004-005-----0
 62
     7
370
    25
100
AcDbLine
 10
294.822959
 20
386.463998
 30
0.0
 11
298.739066
 21
390.380105
 31
0.0
  0
LINE
  5
625
330
60A
100
AcDbEntity
  8
LC-004-005-----0
 62
     7
370
    25
100
AcDbLine
 10
294.822959
 20
387.029683
 30
0.0
 11
298.324333
 21
390.531058
 31
0.0
  0
LINE
  5
626
330
60A
100
AcDbEntity
  8
LC-004-005-----0
 62
     7
370
    25
100
AcDbLine
 10
294.822959
 20
387.595368
 30
0.0
 11
297.901556
 21
390.673966
 31
0.0
  0
LINE
  5
627
330
60A
100
AcDbEntity
  8
LC-004-005-----0
 62
     7
370
    25
100
AcDbLine
 10
294.822959
 20
388.161054
 30
0.0
 11
297.335871
 21
390.673966
 31
0.0
  0
LINE
  5
628
330
60A
100
AcDbEntity
  8
LC-004-005-----0
 62
     7
370
    25
100
AcDbLine
 10
294.822959
 20
388.726739
 30
0.0
 11
296.770185
 21
390.673966
 31
0.0
  0
LINE
  5
629
330
60A
100
AcDbEntity
  8
LC-004-005-----0
 62
     7
370
    25
100
AcDbLine
 10
294.822959
 20
389.292425
 30
0.0
 11
296.2045
 21
390.673966
 31
0.0
  0
LINE
  5
62A
330
60A
100
AcDbEntity
  8
LC-004-005-----0
 62
     7
370
    25
100
AcDbLine
 10
294.822959
 20
389.85811
 30
0.0
 11
295.638814
 21
390.673966
 31
0.0
  0
LINE
  5
62B
330
60A
100
AcDbEntity
  8
LC-004-005-----0
 62
     7
370
    25
100
AcDbLine
 10
294.822959
 20
390.423795
 30
0.0
 11
295.073129
 21
390.673966
 31
0.0
  0
ENDBLK
  5
60C
330
60A
100
AcDbEntity
  8
0
100
AcDbBlockEnd
  0
BLOCK
  5
630
330
62F
100
AcDbEntity
  8
0
100
AcDbBlockBegin
  2
*X866
 70
     1
 71
     0
 10
0.0
 20
0.0
 30
0.0
  3
*X866
  1

  4
*X8
  0
LINE
  5
632
330
62F
100
AcDbEntity
  8
LC-004-005-----0
 62
     7
370
    25
100
AcDbLine
 10
324.68523
 20
377.293975
 30
0.0
 11
324.822959
 21
377.431703
 31
0.0
  0
LINE
  5
633
330
62F
100
AcDbEntity
  8
LC-004-005-----0
 62
     7
370
    25
100
AcDbLine
 10
324.119545
 20
377.293975
 30
0.0
 11
324.822959
 21
377.997389
 31
0.0
  0
LINE
  5
634
330
62F
100
AcDbEntity
  8
LC-004-005-----0
 62
     7
370
    25
100
AcDbLine
 10
323.553859
 20
377.293975
 30
0.0
 11
324.822959
 21
378.563074
 31
0.0
  0
LINE
  5
635
330
62F
100
AcDbEntity
  8
LC-004-005-----0
 62
     7
370
    25
100
AcDbLine
 10
322.988174
 20
377.293975
 30
0.0
 11
324.822959
 21
379.128759
 31
0.0
  0
LINE
  5
636
330
62F
100
AcDbEntity
  8
LC-004-005-----0
 62
     7
370
    25
100
AcDbLine
 10
322.422488
 20
377.293975
 30
0.0
 11
324.822959
 21
379.694445
 31
0.0
  0
LINE
  5
637
330
62F
100
AcDbEntity
  8
LC-004-005-----0
 62
     7
370
    25
100
AcDbLine
 10
321.856803
 20
377.293975
 30
0.0
 11
324.822959
 21
380.26013
 31
0.0
  0
LINE
  5
638
330
62F
100
AcDbEntity
  8
LC-004-005-----0
 62
     7
370
    25
100
AcDbLine
 10
321.291118
 20
377.293975
 30
0.0
 11
324.822959
 21
380.825816
 31
0.0
  0
LINE
  5
639
330
62F
100
AcDbEntity
  8
LC-004-005-----0
 62
     7
370
    25
100
AcDbLine
 10
320.838182
 20
377.406724
 30
0.0
 11
324.822959
 21
381.391501
 31
0.0
  0
LINE
  5
63A
330
62F
100
AcDbEntity
  8
LC-004-005-----0
 62
     7
370
    25
100
AcDbLine
 10
320.423447
 20
377.557675
 30
0.0
 11
324.789746
 21
381.923974
 31
0.0
  0
LINE
  5
63B
330
62F
100
AcDbEntity
  8
LC-004-005-----0
 62
     7
370
    25
100
AcDbLine
 10
320.008713
 20
377.708626
 30
0.0
 11
324.224061
 21
381.923974
 31
0.0
  0
LINE
  5
63C
330
62F
100
AcDbEntity
  8
LC-004-005-----0
 62
     7
370
    25
100
AcDbLine
 10
319.593978
 20
377.859577
 30
0.0
 11
323.658375
 21
381.923974
 31
0.0
  0
LINE
  5
63D
330
62F
100
AcDbEntity
  8
LC-004-005-----0
 62
     7
370
    25
100
AcDbLine
 10
319.179244
 20
378.010528
 30
0.0
 11
323.09269
 21
381.923974
 31
0.0
  0
LINE
  5
63E
330
62F
100
AcDbEntity
  8
LC-004-005-----0
 62
     7
370
    25
100
AcDbLine
 10
318.764509
 20
378.161479
 30
0.0
 11
322.527004
 21
381.923974
 31
0.0
  0
LINE
  5
63F
330
62F
100
AcDbEntity
  8
LC-004-005-----0
 62
     7
370
    25
100
AcDbLine
 10
318.349775
 20
378.31243
 30
0.0
 11
321.964092
 21
381.926747
 31
0.0
  0
LINE
  5
640
330
62F
100
AcDbEntity
  8
LC-004-005-----0
 62
     7
370
    25
100
AcDbLine
 10
317.935041
 20
378.463381
 30
0.0
 11
321.549359
 21
382.0777
 31
0.0
  0
LINE
  5
641
330
62F
100
AcDbEntity
  8
LC-004-005-----0
 62
     7
370
    25
100
AcDbLine
 10
317.520306
 20
378.614332
 30
0.0
 11
321.134627
 21
382.228652
 31
0.0
  0
LINE
  5
642
330
62F
100
AcDbEntity
  8
LC-004-005-----0
 62
     7
370
    25
100
AcDbLine
 10
317.105572
 20
378.765283
 30
0.0
 11
320.719894
 21
382.379605
 31
0.0
  0
LINE
  5
643
330
62F
100
AcDbEntity
  8
LC-004-005-----0
 62
     7
370
    25
100
AcDbLine
 10
316.690837
 20
378.916234
 30
0.0
 11
320.305161
 21
382.530558
 31
0.0
  0
LINE
  5
644
330
62F
100
AcDbEntity
  8
LC-004-005-----0
 62
     7
370
    25
100
AcDbLine
 10
316.276103
 20
379.067185
 30
0.0
 11
319.890429
 21
382.681511
 31
0.0
  0
LINE
  5
645
330
62F
100
AcDbEntity
  8
LC-004-005-----0
 62
     7
370
    25
100
AcDbLine
 10
315.861368
 20
379.218136
 30
0.0
 11
319.475696
 21
382.832464
 31
0.0
  0
LINE
  5
646
330
62F
100
AcDbEntity
  8
LC-004-005-----0
 62
     7
370
    25
100
AcDbLine
 10
315.446634
 20
379.369087
 30
0.0
 11
319.060964
 21
382.983417
 31
0.0
  0
LINE
  5
647
330
62F
100
AcDbEntity
  8
LC-004-005-----0
 62
     7
370
    25
100
AcDbLine
 10
315.031899
 20
379.520038
 30
0.0
 11
318.646231
 21
383.134369
 31
0.0
  0
LINE
  5
648
330
62F
100
AcDbEntity
  8
LC-004-005-----0
 62
     7
370
    25
100
AcDbLine
 10
314.822959
 20
379.876783
 30
0.0
 11
318.231498
 21
383.285322
 31
0.0
  0
LINE
  5
649
330
62F
100
AcDbEntity
  8
LC-004-005-----0
 62
     7
370
    25
100
AcDbLine
 10
314.822959
 20
380.442468
 30
0.0
 11
317.816766
 21
383.436275
 31
0.0
  0
LINE
  5
64A
330
62F
100
AcDbEntity
  8
LC-004-005-----0
 62
     7
370
    25
100
AcDbLine
 10
314.822959
 20
381.008153
 30
0.0
 11
317.402033
 21
383.587228
 31
0.0
  0
LINE
  5
64B
330
62F
100
AcDbEntity
  8
LC-004-005-----0
 62
     7
370
    25
100
AcDbLine
 10
314.822959
 20
381.573839
 30
0.0
 11
316.987301
 21
383.738181
 31
0.0
  0
LINE
  5
64C
330
62F
100
AcDbEntity
  8
LC-004-005-----0
 62
     7
370
    25
100
AcDbLine
 10
314.822959
 20
382.139524
 30
0.0
 11
316.572568
 21
383.889133
 31
0.0
  0
LINE
  5
64D
330
62F
100
AcDbEntity
  8
LC-004-005-----0
 62
     7
370
    25
100
AcDbLine
 10
314.822959
 20
382.70521
 30
0.0
 11
316.157835
 21
384.040086
 31
0.0
  0
LINE
  5
64E
330
62F
100
AcDbEntity
  8
LC-004-005-----0
 62
     7
370
    25
100
AcDbLine
 10
314.822959
 20
383.270895
 30
0.0
 11
315.743103
 21
384.191039
 31
0.0
  0
LINE
  5
64F
330
62F
100
AcDbEntity
  8
LC-004-005-----0
 62
     7
370
    25
100
AcDbLine
 10
314.822959
 20
383.836581
 30
0.0
 11
315.32837
 21
384.341992
 31
0.0
  0
LINE
  5
650
330
62F
100
AcDbEntity
  8
LC-004-005-----0
 62
     7
370
    25
100
AcDbLine
 10
314.822959
 20
384.402266
 30
0.0
 11
314.913637
 21
384.492945
 31
0.0
  0
ENDBLK
  5
631
330
62F
100
AcDbEntity
  8
0
100
AcDbBlockEnd
  0
BLOCK
  5
662
330
658
100
AcDbEntity
  8
0
100
AcDbBlockBegin
  2
*D67
 70
     1
 71
     0
 10
0.0
 20
0.0
 30
0.0
  3
*D67
  1

  0
LINE
  5
659
330
658
100
AcDbEntity
  8
LC-005-003-----0
 62
     2
370
    -2
100
AcDbLine
 10
247.822958
 20
382.97397
 30
0.0
 11
247.822958
 21
489.748321
 31
0.0
  0
LINE
  5
65A
330
658
100
AcDbEntity
  8
LC-005-003-----0
 62
     2
370
    -2
100
AcDbLine
 10
601.82296
 20
382.97397
 30
0.0
 11
601.82296
 21
489.748321
 31
0.0
  0
LINE
  5
65B
330
658
100
AcDbEntity
  8
LC-005-003-----0
 62
     2
370
    -2
100
AcDbLine
 10
275.822958
 20
486.148321
 30
0.0
 11
573.82296
 21
486.148321
 31
0.0
  0
SOLID
  5
65C
330
658
100
AcDbEntity
  8
LC-005-003-----0
 62
     2
100
AcDbTrace
 10
275.822958
 20
490.814988
 30
0.0
 11
275.822958
 21
481.481654
 31
0.0
 12
247.822958
 22
486.148321
 32
0.0
 13
247.822958
 23
486.148321
 33
0.0
  0
SOLID
  5
65D
330
658
100
AcDbEntity
  8
LC-005-003-----0
 62
     2
100
AcDbTrace
 10
573.82296
 20
481.481654
 30
0.0
 11
573.82296
 21
490.814988
 31
0.0
 12
601.82296
 22
486.148321
 32
0.0
 13
601.82296
 23
486.148321
 33
0.0
  0
MTEXT
  5
65E
330
658
100
AcDbEntity
  8
LC-005-003-----0
 62
     2
100
AcDbMText
 10
422.8617
 20
516.948321
 30
0.0
 40
28.0
 41
0.0
 71
     5
 72
     1
  1
%%c\A1;354
  7
LCTX15-400-0-0pDIN-Schrift
 73
     1
 44
1.0
  0
POINT
  5
65F
330
658
100
AcDbEntity
  8
Defpoints
 62
     0
100
AcDbPoint
 10
247.822958
 20
382.97397
 30
0.0
  0
POINT
  5
660
330
658
100
AcDbEntity
  8
Defpoints
 62
     0
100
AcDbPoint
 10
601.82296
 20
382.97397
 30
0.0
  0
POINT
  5
661
330
658
100
AcDbEntity
  8
Defpoints
 62
     0
100
AcDbPoint
 10
601.82296
 20
486.148321
 30
0.0
  0
ENDBLK
  5
663
330
658
100
AcDbEntity
  8
0
100
AcDbBlockEnd
  0
BLOCK
  5
66F
330
665
100
AcDbEntity
  8
0
100
AcDbBlockBegin
  2
*D68
 70
     1
 71
     0
 10
0.0
 20
0.0
 30
0.0
  3
*D68
  1

  0
LINE
  5
666
330
665
100
AcDbEntity
  8
LC-005-003-----0
 62
     2
370
    -2
100
AcDbLine
 10
174.822959
 20
385.973976
 30
0.0
 11
174.822959
 21
548.49
 31
0.0
  0
LINE
  5
667
330
665
100
AcDbEntity
  8
LC-005-003-----0
 62
     2
370
    -2
100
AcDbLine
 10
674.822959
 20
385.973976
 30
0.0
 11
674.822959
 21
548.49
 31
0.0
  0
LINE
  5
668
330
665
100
AcDbEntity
  8
LC-005-003-----0
 62
     2
370
    -2
100
AcDbLine
 10
202.822959
 20
544.89
 30
0.0
 11
646.822959
 21
544.89
 31
0.0
  0
SOLID
  5
669
330
665
100
AcDbEntity
  8
LC-005-003-----0
 62
     2
100
AcDbTrace
 10
202.822959
 20
549.556667
 30
0.0
 11
202.822959
 21
540.223333
 31
0.0
 12
174.822959
 22
544.89
 32
0.0
 13
174.822959
 23
544.89
 33
0.0
  0
SOLID
  5
66A
330
665
100
AcDbEntity
  8
LC-005-003-----0
 62
     2
100
AcDbTrace
 10
646.822959
 20
540.223333
 30
0.0
 11
646.822959
 21
549.556667
 31
0.0
 12
674.822959
 22
544.89
 32
0.0
 13
674.822959
 23
544.89
 33
0.0
  0
MTEXT
  5
66B
330
665
100
AcDbEntity
  8
LC-005-003-----0
 62
     2
100
AcDbMText
 10
422.8617
 20
575.69
 30
0.0
 40
28.0
 41
0.0
 71
     5
 72
     1
  1
\A1;500
  7
LCTX15-400-0-0pDIN-Schrift
 73
     1
 44
1.0
  0
POINT
  5
66C
330
665
100
AcDbEntity
  8
Defpoints
 62
     0
100
AcDbPoint
 10
174.822959
 20
385.973976
 30
0.0
  0
POINT
  5
66D
330
665
100
AcDbEntity
  8
Defpoints
 62
     0
100
AcDbPoint
 10
674.822959
 20
385.973976
 30
0.0
  0
POINT
  5
66E
330
665
100
AcDbEntity
  8
Defpoints
 62
     0
100
AcDbPoint
 10
674.822959
 20
544.89
 30
0.0
  0
ENDBLK
  5
670
330
665
100
AcDbEntity
  8
0
100
AcDbBlockEnd
  0
BLOCK
  5
67C
330
672
100
AcDbEntity
  8
0
100
AcDbBlockBegin
  2
*D69
 70
     1
 71
     0
 10
0.0
 20
0.0
 30
0.0
  3
*D69
  1

  0
LINE
  5
673
330
672
100
AcDbEntity
  8
LC-005-003-----0
 62
     2
370
    -2
100
AcDbLine
 10
174.822959
 20
385.973976
 30
0.0
 11
233.1326
 21
385.973976
 31
0.0
  0
LINE
  5
674
330
672
100
AcDbEntity
  8
LC-005-003-----0
 62
     2
370
    -2
100
AcDbLine
 10
355.604247
 20
283.973968
 30
0.0
 11
225.9326
 21
283.973968
 31
0.0
  0
LINE
  5
675
330
672
100
AcDbEntity
  8
LC-005-003-----0
 62
     2
370
    -2
100
AcDbLine
 10
229.5326
 20
357.973976
 30
0.0
 11
229.5326
 21
311.973968
 31
0.0
  0
SOLID
  5
676
330
672
100
AcDbEntity
  8
LC-005-003-----0
 62
     2
100
AcDbTrace
 10
234.199267
 20
357.973976
 30
0.0
 11
224.865933
 21
357.973976
 31
0.0
 12
229.5326
 22
385.973976
 32
0.0
 13
229.5326
 23
385.973976
 33
0.0
  0
SOLID
  5
677
330
672
100
AcDbEntity
  8
LC-005-003-----0
 62
     2
100
AcDbTrace
 10
224.865933
 20
311.973968
 30
0.0
 11
234.199267
 21
311.973968
 31
0.0
 12
229.5326
 22
283.973968
 32
0.0
 13
229.5326
 23
283.973968
 33
0.0
  0
MTEXT
  5
678
330
672
100
AcDbEntity
  8
LC-005-003-----0
 62
     2
100
AcDbMText
 10
198.7326
 20
333.649966
 30
0.0
 40
28.0
 41
0.0
 71
     5
 72
     1
  1
\A1;102
  7
LCTX15-400-0-0pDIN-Schrift
 11
6.123031769111886E-17
 21
1.0
 31
0.0
 73
     1
 44
1.0
  0
POINT
  5
679
330
672
100
AcDbEntity
  8
Defpoints
 62
     0
100
AcDbPoint
 10
174.822959
 20
385.973976
 30
0.0
  0
POINT
  5
67A
330
672
100
AcDbEntity
  8
Defpoints
 62
     0
100
AcDbPoint
 10
355.604247
 20
283.973968
 30
0.0
  0
POINT
  5
67B
330
672
100
AcDbEntity
  8
Defpoints
 62
     0
100
AcDbPoint
 10
229.5326
 20
283.973968
 30
0.0
  0
ENDBLK
  5
67D
330
672
100
AcDbEntity
  8
0
100
AcDbBlockEnd
  0
BLOCK
  5
689
330
67F
100
AcDbEntity
  8
0
100
AcDbBlockBegin
  2
*D70
 70
     1
 71
     0
 10
0.0
 20
0.0
 30
0.0
  3
*D70
  1

  0
LINE
  5
680
330
67F
100
AcDbEntity
  8
LC-005-003-----0
 62
     2
370
    -2
100
AcDbLine
 10
352.822966
 20
283.973977
 30
0.0
 11
281.392663
 21
283.973977
 31
0.0
  0
LINE
  5
681
330
67F
100
AcDbEntity
  8
LC-005-003-----0
 62
     2
370
    -2
100
AcDbLine
 10
371.028739
 20
217.973978
 30
0.0
 11
281.392663
 21
217.973978
 31
0.0
  0
LINE
  5
682
330
67F
100
AcDbEntity
  8
LC-005-003-----0
 62
     2
370
    -2
100
AcDbLine
 10
284.992663
 20
255.973977
 30
0.0
 11
284.992663
 21
245.973978
 31
0.0
  0
SOLID
  5
683
330
67F
100
AcDbEntity
  8
LC-005-003-----0
 62
     2
100
AcDbTrace
 10
289.65933
 20
255.973977
 30
0.0
 11
280.325996
 21
255.973977
 31
0.0
 12
284.992663
 22
283.973977
 32
0.0
 13
284.992663
 23
283.973977
 33
0.0
  0
SOLID
  5
684
330
67F
100
AcDbEntity
  8
LC-005-003-----0
 62
     2
100
AcDbTrace
 10
280.325996
 20
245.973978
 30
0.0
 11
289.65933
 21
245.973978
 31
0.0
 12
284.992663
 22
217.973978
 32
0.0
 13
284.992663
 23
217.973978
 33
0.0
  0
MTEXT
  5
685
330
67F
100
AcDbEntity
  8
LC-005-003-----0
 62
     2
100
AcDbMText
 10
254.192663
 20
250.722225
 30
0.0
 40
28.0
 41
0.0
 71
     5
 72
     1
  1
\A1;66
  7
LCTX15-400-0-0pDIN-Schrift
 11
6.123031769111886E-17
 21
1.0
 31
0.0
 73
     1
 44
1.0
  0
POINT
  5
686
330
67F
100
AcDbEntity
  8
Defpoints
 62
     0
100
AcDbPoint
 10
352.822966
 20
283.973977
 30
0.0
  0
POINT
  5
687
330
67F
100
AcDbEntity
  8
Defpoints
 62
     0
100
AcDbPoint
 10
371.028739
 20
217.973978
 30
0.0
  0
POINT
  5
688
330
67F
100
AcDbEntity
  8
Defpoints
 62
     0
100
AcDbPoint
 10
284.992663
 20
217.973978
 30
0.0
  0
ENDBLK
  5
68A
330
67F
100
AcDbEntity
  8
0
100
AcDbBlockEnd
  0
BLOCK
  5
696
330
68C
100
AcDbEntity
  8
0
100
AcDbBlockBegin
  2
*D71
 70
     1
 71
     0
 10
0.0
 20
0.0
 30
0.0
  3
*D71
  1

  0
LINE
  5
68D
330
68C
100
AcDbEntity
  8
LC-005-003-----0
 62
     2
370
    -2
100
AcDbLine
 10
344.82296
 20
293.973968
 30
0.0
 11
344.82296
 21
110.915976
 31
0.0
  0
LINE
  5
68E
330
68C
100
AcDbEntity
  8
LC-005-003-----0
 62
     2
370
    -2
100
AcDbLine
 10
504.822957
 20
293.973968
 30
0.0
 11
504.822957
 21
110.915976
 31
0.0
  0
LINE
  5
68F
330
68C
100
AcDbEntity
  8
LC-005-003-----0
 62
     2
370
    -2
100
AcDbLine
 10
372.82296
 20
114.515976
 30
0.0
 11
476.822957
 21
114.515976
 31
0.0
  0
SOLID
  5
690
330
68C
100
AcDbEntity
  8
LC-005-003-----0
 62
     2
100
AcDbTrace
 10
372.82296
 20
119.182642
 30
0.0
 11
372.82296
 21
109.849309
 31
0.0
 12
344.82296
 22
114.515976
 32
0.0
 13
344.82296
 23
114.515976
 33
0.0
  0
SOLID
  5
691
330
68C
100
AcDbEntity
  8
LC-005-003-----0
 62
     2
100
AcDbTrace
 10
476.822957
 20
109.849309
 30
0.0
 11
476.822957
 21
119.182642
 31
0.0
 12
504.822957
 22
114.515976
 32
0.0
 13
504.822957
 23
114.515976
 33
0.0
  0
MTEXT
  5
692
330
68C
100
AcDbEntity
  8
LC-005-003-----0
 62
     2
100
AcDbMText
 10
412.290988
 20
145.315976
 30
0.0
 40
28.0
 41
0.0
 71
     5
 72
     1
  1
%%c\A1;160
  7
LCTX15-400-0-0pDIN-Schrift
 73
     1
 44
1.0
  0
POINT
  5
693
330
68C
100
AcDbEntity
  8
Defpoints
 62
     0
100
AcDbPoint
 10
344.82296
 20
293.973968
 30
0.0
  0
POINT
  5
694
330
68C
100
AcDbEntity
  8
Defpoints
 62
     0
100
AcDbPoint
 10
504.822957
 20
293.973968
 30
0.0
  0
POINT
  5
695
330
68C
100
AcDbEntity
  8
Defpoints
 62
     0
100
AcDbPoint
 10
504.822957
 20
114.515976
 30
0.0
  0
ENDBLK
  5
697
330
68C
100
AcDbEntity
  8
0
100
AcDbBlockEnd
  0
BLOCK
  5
6A2
330
6A1
100
AcDbEntity
  8
0
100
AcDbBlockBegin
  2
*X972
 70
     1
 71
     0
 10
0.0
 20
0.0
 30
0.0
  3
*X972
  1

  4
*X9
  0
LINE
  5
6A4
330
6A1
100
AcDbEntity
  8
LC-004-005-----0
 62
     7
370
    25
100
AcDbLine
 10
674.473542
 20
385.973976
 30
0.0
 11
674.822974
 21
386.323407
 31
0.0
  0
LINE
  5
6A5
330
6A1
100
AcDbEntity
  8
LC-004-005-----0
 62
     7
370
    25
100
AcDbLine
 10
673.907857
 20
385.973976
 30
0.0
 11
674.822974
 21
386.889093
 31
0.0
  0
LINE
  5
6A6
330
6A1
100
AcDbEntity
  8
LC-004-005-----0
 62
     7
370
    25
100
AcDbLine
 10
673.342171
 20
385.973976
 30
0.0
 11
674.822974
 21
387.454778
 31
0.0
  0
LINE
  5
6A7
330
6A1
100
AcDbEntity
  8
LC-004-005-----0
 62
     7
370
    25
100
AcDbLine
 10
672.776486
 20
385.973976
 30
0.0
 11
674.822974
 21
388.020464
 31
0.0
  0
LINE
  5
6A8
330
6A1
100
AcDbEntity
  8
LC-004-005-----0
 62
     7
370
    25
100
AcDbLine
 10
672.210801
 20
385.973976
 30
0.0
 11
674.822974
 21
388.586149
 31
0.0
  0
LINE
  5
6A9
330
6A1
100
AcDbEntity
  8
LC-004-005-----0
 62
     7
370
    25
100
AcDbLine
 10
671.645115
 20
385.973976
 30
0.0
 11
674.822974
 21
389.151835
 31
0.0
  0
LINE
  5
6AA
330
6A1
100
AcDbEntity
  8
LC-004-005-----0
 62
     7
370
    25
100
AcDbLine
 10
671.07943
 20
385.973976
 30
0.0
 11
674.822974
 21
389.71752
 31
0.0
  0
LINE
  5
6AB
330
6A1
100
AcDbEntity
  8
LC-004-005-----0
 62
     7
370
    25
100
AcDbLine
 10
670.513744
 20
385.973976
 30
0.0
 11
674.822974
 21
390.283205
 31
0.0
  0
LINE
  5
6AC
330
6A1
100
AcDbEntity
  8
LC-004-005-----0
 62
     7
370
    25
100
AcDbLine
 10
669.948059
 20
385.973976
 30
0.0
 11
674.648059
 21
390.673976
 31
0.0
  0
LINE
  5
6AD
330
6A1
100
AcDbEntity
  8
LC-004-005-----0
 62
     7
370
    25
100
AcDbLine
 10
669.382374
 20
385.973976
 30
0.0
 11
674.082374
 21
390.673976
 31
0.0
  0
LINE
  5
6AE
330
6A1
100
AcDbEntity
  8
LC-004-005-----0
 62
     7
370
    25
100
AcDbLine
 10
668.816688
 20
385.973976
 30
0.0
 11
673.516688
 21
390.673976
 31
0.0
  0
LINE
  5
6AF
330
6A1
100
AcDbEntity
  8
LC-004-005-----0
 62
     7
370
    25
100
AcDbLine
 10
668.251003
 20
385.973976
 30
0.0
 11
672.951003
 21
390.673976
 31
0.0
  0
LINE
  5
6B0
330
6A1
100
AcDbEntity
  8
LC-004-005-----0
 62
     7
370
    25
100
AcDbLine
 10
667.685317
 20
385.973976
 30
0.0
 11
672.385317
 21
390.673976
 31
0.0
  0
LINE
  5
6B1
330
6A1
100
AcDbEntity
  8
LC-004-005-----0
 62
     7
370
    25
100
AcDbLine
 10
667.119632
 20
385.973976
 30
0.0
 11
671.819632
 21
390.673976
 31
0.0
  0
LINE
  5
6B2
330
6A1
100
AcDbEntity
  8
LC-004-005-----0
 62
     7
370
    25
100
AcDbLine
 10
666.553946
 20
385.973976
 30
0.0
 11
671.253946
 21
390.673976
 31
0.0
  0
LINE
  5
6B3
330
6A1
100
AcDbEntity
  8
LC-004-005-----0
 62
     7
370
    25
100
AcDbLine
 10
665.988261
 20
385.973976
 30
0.0
 11
670.688261
 21
390.673976
 31
0.0
  0
LINE
  5
6B4
330
6A1
100
AcDbEntity
  8
LC-004-005-----0
 62
     7
370
    25
100
AcDbLine
 10
665.422576
 20
385.973976
 30
0.0
 11
670.122576
 21
390.673976
 31
0.0
  0
LINE
  5
6B5
330
6A1
100
AcDbEntity
  8
LC-004-005-----0
 62
     7
370
    25
100
AcDbLine
 10
664.85689
 20
385.973976
 30
0.0
 11
669.55689
 21
390.673976
 31
0.0
  0
LINE
  5
6B6
330
6A1
100
AcDbEntity
  8
LC-004-005-----0
 62
     7
370
    25
100
AcDbLine
 10
664.822974
 20
386.505745
 30
0.0
 11
668.991205
 21
390.673976
 31
0.0
  0
LINE
  5
6B7
330
6A1
100
AcDbEntity
  8
LC-004-005-----0
 62
     7
370
    25
100
AcDbLine
 10
664.822974
 20
387.071431
 30
0.0
 11
668.425519
 21
390.673976
 31
0.0
  0
LINE
  5
6B8
330
6A1
100
AcDbEntity
  8
LC-004-005-----0
 62
     7
370
    25
100
AcDbLine
 10
664.822974
 20
387.637116
 30
0.0
 11
667.859834
 21
390.673976
 31
0.0
  0
LINE
  5
6B9
330
6A1
100
AcDbEntity
  8
LC-004-005-----0
 62
     7
370
    25
100
AcDbLine
 10
664.822974
 20
388.202801
 30
0.0
 11
667.294148
 21
390.673976
 31
0.0
  0
LINE
  5
6BA
330
6A1
100
AcDbEntity
  8
LC-004-005-----0
 62
     7
370
    25
100
AcDbLine
 10
664.822974
 20
388.768487
 30
0.0
 11
666.728463
 21
390.673976
 31
0.0
  0
LINE
  5
6BB
330
6A1
100
AcDbEntity
  8
LC-004-005-----0
 62
     7
370
    25
100
AcDbLine
 10
664.822974
 20
389.334172
 30
0.0
 11
666.162778
 21
390.673976
 31
0.0
  0
LINE
  5
6BC
330
6A1
100
AcDbEntity
  8
LC-004-005-----0
 62
     7
370
    25
100
AcDbLine
 10
664.822974
 20
389.899858
 30
0.0
 11
665.597092
 21
390.673976
 31
0.0
  0
LINE
  5
6BD
330
6A1
100
AcDbEntity
  8
LC-004-005-----0
 62
     7
370
    25
100
AcDbLine
 10
664.822974
 20
390.465543
 30
0.0
 11
665.031407
 21
390.673976
 31
0.0
  0
ENDBLK
  5
6A3
330
6A1
100
AcDbEntity
  8
0
100
AcDbBlockEnd
  0
BLOCK
  5
6C0
330
6BF
100
AcDbEntity
  8
0
100
AcDbBlockBegin
  2
*X1073
 70
     1
 71
     0
 10
0.0
 20
0.0
 30
0.0
  3
*X1073
  1

  4
*X10
  0
LINE
  5
6C2
330
6BF
100
AcDbEntity
  8
LC-004-005-----0
 62
     7
370
    25
100
AcDbLine
 10
654.674552
 20
385.973976
 30
0.0
 11
654.822974
 21
386.122397
 31
0.0
  0
LINE
  5
6C3
330
6BF
100
AcDbEntity
  8
LC-004-005-----0
 62
     7
370
    25
100
AcDbLine
 10
654.108867
 20
385.973976
 30
0.0
 11
654.822974
 21
386.688083
 31
0.0
  0
LINE
  5
6C4
330
6BF
100
AcDbEntity
  8
LC-004-005-----0
 62
     7
370
    25
100
AcDbLine
 10
653.543182
 20
385.973976
 30
0.0
 11
654.822974
 21
387.253768
 31
0.0
  0
LINE
  5
6C5
330
6BF
100
AcDbEntity
  8
LC-004-005-----0
 62
     7
370
    25
100
AcDbLine
 10
652.977496
 20
385.973976
 30
0.0
 11
654.822974
 21
387.819454
 31
0.0
  0
LINE
  5
6C6
330
6BF
100
AcDbEntity
  8
LC-004-005-----0
 62
     7
370
    25
100
AcDbLine
 10
652.411811
 20
385.973976
 30
0.0
 11
654.822974
 21
388.385139
 31
0.0
  0
LINE
  5
6C7
330
6BF
100
AcDbEntity
  8
LC-004-005-----0
 62
     7
370
    25
100
AcDbLine
 10
651.846125
 20
385.973976
 30
0.0
 11
654.822974
 21
388.950824
 31
0.0
  0
LINE
  5
6C8
330
6BF
100
AcDbEntity
  8
LC-004-005-----0
 62
     7
370
    25
100
AcDbLine
 10
651.28044
 20
385.973976
 30
0.0
 11
654.822974
 21
389.51651
 31
0.0
  0
LINE
  5
6C9
330
6BF
100
AcDbEntity
  8
LC-004-005-----0
 62
     7
370
    25
100
AcDbLine
 10
650.714754
 20
385.973976
 30
0.0
 11
654.822974
 21
390.082195
 31
0.0
  0
LINE
  5
6CA
330
6BF
100
AcDbEntity
  8
LC-004-005-----0
 62
     7
370
    25
100
AcDbLine
 10
650.149069
 20
385.973976
 30
0.0
 11
654.822974
 21
390.647881
 31
0.0
  0
LINE
  5
6CB
330
6BF
100
AcDbEntity
  8
LC-004-005-----0
 62
     7
370
    25
100
AcDbLine
 10
649.583384
 20
385.973976
 30
0.0
 11
654.283384
 21
390.673976
 31
0.0
  0
LINE
  5
6CC
330
6BF
100
AcDbEntity
  8
LC-004-005-----0
 62
     7
370
    25
100
AcDbLine
 10
649.017698
 20
385.973976
 30
0.0
 11
653.717698
 21
390.673976
 31
0.0
  0
LINE
  5
6CD
330
6BF
100
AcDbEntity
  8
LC-004-005-----0
 62
     7
370
    25
100
AcDbLine
 10
648.452013
 20
385.973976
 30
0.0
 11
653.152013
 21
390.673976
 31
0.0
  0
LINE
  5
6CE
330
6BF
100
AcDbEntity
  8
LC-004-005-----0
 62
     7
370
    25
100
AcDbLine
 10
647.886327
 20
385.973976
 30
0.0
 11
652.586327
 21
390.673976
 31
0.0
  0
LINE
  5
6CF
330
6BF
100
AcDbEntity
  8
LC-004-005-----0
 62
     7
370
    25
100
AcDbLine
 10
647.320642
 20
385.973976
 30
0.0
 11
652.020642
 21
390.673976
 31
0.0
  0
LINE
  5
6D0
330
6BF
100
AcDbEntity
  8
LC-004-005-----0
 62
     7
370
    25
100
AcDbLine
 10
646.754957
 20
385.973976
 30
0.0
 11
651.454957
 21
390.673976
 31
0.0
  0
LINE
  5
6D1
330
6BF
100
AcDbEntity
  8
LC-004-005-----0
 62
     7
370
    25
100
AcDbLine
 10
646.189271
 20
385.973976
 30
0.0
 11
650.889271
 21
390.673976
 31
0.0
  0
LINE
  5
6D2
330
6BF
100
AcDbEntity
  8
LC-004-005-----0
 62
     7
370
    25
100
AcDbLine
 10
645.623586
 20
385.973976
 30
0.0
 11
650.323586
 21
390.673976
 31
0.0
  0
LINE
  5
6D3
330
6BF
100
AcDbEntity
  8
LC-004-005-----0
 62
     7
370
    25
100
AcDbLine
 10
645.0579
 20
385.973976
 30
0.0
 11
649.7579
 21
390.673976
 31
0.0
  0
LINE
  5
6D4
330
6BF
100
AcDbEntity
  8
LC-004-005-----0
 62
     7
370
    25
100
AcDbLine
 10
644.822974
 20
386.304735
 30
0.0
 11
649.192215
 21
390.673976
 31
0.0
  0
LINE
  5
6D5
330
6BF
100
AcDbEntity
  8
LC-004-005-----0
 62
     7
370
    25
100
AcDbLine
 10
644.822974
 20
386.87042
 30
0.0
 11
648.626529
 21
390.673976
 31
0.0
  0
LINE
  5
6D6
330
6BF
100
AcDbEntity
  8
LC-004-005-----0
 62
     7
370
    25
100
AcDbLine
 10
644.822974
 20
387.436106
 30
0.0
 11
648.060844
 21
390.673976
 31
0.0
  0
LINE
  5
6D7
330
6BF
100
AcDbEntity
  8
LC-004-005-----0
 62
     7
370
    25
100
AcDbLine
 10
644.822974
 20
388.001791
 30
0.0
 11
647.495159
 21
390.673976
 31
0.0
  0
LINE
  5
6D8
330
6BF
100
AcDbEntity
  8
LC-004-005-----0
 62
     7
370
    25
100
AcDbLine
 10
644.822974
 20
388.567477
 30
0.0
 11
646.929473
 21
390.673976
 31
0.0
  0
LINE
  5
6D9
330
6BF
100
AcDbEntity
  8
LC-004-005-----0
 62
     7
370
    25
100
AcDbLine
 10
644.822974
 20
389.133162
 30
0.0
 11
646.363788
 21
390.673976
 31
0.0
  0
LINE
  5
6DA
330
6BF
100
AcDbEntity
  8
LC-004-005-----0
 62
     7
370
    25
100
AcDbLine
 10
644.822974
 20
389.698848
 30
0.0
 11
645.798102
 21
390.673976
 31
0.0
  0
LINE
  5
6DB
330
6BF
100
AcDbEntity
  8
LC-004-005-----0
 62
     7
370
    25
100
AcDbLine
 10
644.822974
 20
390.264533
 30
0.0
 11
645.232417
 21
390.673976
 31
0.0
  0
ENDBLK
  5
6C1
330
6BF
100
AcDbEntity
  8
0
100
AcDbBlockEnd
  0
BLOCK
  5
6DE
330
6DD
100
AcDbEntity
  8
0
100
AcDbBlockBegin
  2
*X1174
 70
     1
 71
     0
 10
0.0
 20
0.0
 30
0.0
  3
*X1174
  1

  4
*X11
  0
LINE
  5
6E0
330
6DD
100
AcDbEntity
  8
LC-004-005-----0
 62
     7
370
    25
100
AcDbLine
 10
634.309877
 20
385.973976
 30
0.0
 11
634.822974
 21
386.487073
 31
0.0
  0
LINE
  5
6E1
330
6DD
100
AcDbEntity
  8
LC-004-005-----0
 62
     7
370
    25
100
AcDbLine
 10
633.744192
 20
385.973976
 30
0.0
 11
634.822974
 21
387.052758
 31
0.0
  0
LINE
  5
6E2
330
6DD
100
AcDbEntity
  8
LC-004-005-----0
 62
     7
370
    25
100
AcDbLine
 10
633.178506
 20
385.973976
 30
0.0
 11
634.822974
 21
387.618443
 31
0.0
  0
LINE
  5
6E3
330
6DD
100
AcDbEntity
  8
LC-004-005-----0
 62
     7
370
    25
100
AcDbLine
 10
632.612821
 20
385.973976
 30
0.0
 11
634.822974
 21
388.184129
 31
0.0
  0
LINE
  5
6E4
330
6DD
100
AcDbEntity
  8
LC-004-005-----0
 62
     7
370
    25
100
AcDbLine
 10
632.047135
 20
385.973976
 30
0.0
 11
634.822974
 21
388.749814
 31
0.0
  0
LINE
  5
6E5
330
6DD
100
AcDbEntity
  8
LC-004-005-----0
 62
     7
370
    25
100
AcDbLine
 10
631.48145
 20
385.973976
 30
0.0
 11
634.822974
 21
389.3155
 31
0.0
  0
LINE
  5
6E6
330
6DD
100
AcDbEntity
  8
LC-004-005-----0
 62
     7
370
    25
100
AcDbLine
 10
630.915765
 20
385.973976
 30
0.0
 11
634.822974
 21
389.881185
 31
0.0
  0
LINE
  5
6E7
330
6DD
100
AcDbEntity
  8
LC-004-005-----0
 62
     7
370
    25
100
AcDbLine
 10
630.350079
 20
385.973976
 30
0.0
 11
634.822974
 21
390.446871
 31
0.0
  0
LINE
  5
6E8
330
6DD
100
AcDbEntity
  8
LC-004-005-----0
 62
     7
370
    25
100
AcDbLine
 10
629.784394
 20
385.973976
 30
0.0
 11
634.484394
 21
390.673976
 31
0.0
  0
LINE
  5
6E9
330
6DD
100
AcDbEntity
  8
LC-004-005-----0
 62
     7
370
    25
100
AcDbLine
 10
629.218708
 20
385.973976
 30
0.0
 11
633.918708
 21
390.673976
 31
0.0
  0
LINE
  5
6EA
330
6DD
100
AcDbEntity
  8
LC-004-005-----0
 62
     7
370
    25
100
AcDbLine
 10
628.653023
 20
385.973976
 30
0.0
 11
633.353023
 21
390.673976
 31
0.0
  0
LINE
  5
6EB
330
6DD
100
AcDbEntity
  8
LC-004-005-----0
 62
     7
370
    25
100
AcDbLine
 10
628.087337
 20
385.973976
 30
0.0
 11
632.787337
 21
390.673976
 31
0.0
  0
LINE
  5
6EC
330
6DD
100
AcDbEntity
  8
LC-004-005-----0
 62
     7
370
    25
100
AcDbLine
 10
627.521652
 20
385.973976
 30
0.0
 11
632.221652
 21
390.673976
 31
0.0
  0
LINE
  5
6ED
330
6DD
100
AcDbEntity
  8
LC-004-005-----0
 62
     7
370
    25
100
AcDbLine
 10
626.955967
 20
385.973976
 30
0.0
 11
631.655967
 21
390.673976
 31
0.0
  0
LINE
  5
6EE
330
6DD
100
AcDbEntity
  8
LC-004-005-----0
 62
     7
370
    25
100
AcDbLine
 10
626.390281
 20
385.973976
 30
0.0
 11
631.090281
 21
390.673976
 31
0.0
  0
LINE
  5
6EF
330
6DD
100
AcDbEntity
  8
LC-004-005-----0
 62
     7
370
    25
100
AcDbLine
 10
625.824596
 20
385.973976
 30
0.0
 11
630.524596
 21
390.673976
 31
0.0
  0
LINE
  5
6F0
330
6DD
100
AcDbEntity
  8
LC-004-005-----0
 62
     7
370
    25
100
AcDbLine
 10
625.25891
 20
385.973976
 30
0.0
 11
629.95891
 21
390.673976
 31
0.0
  0
LINE
  5
6F1
330
6DD
100
AcDbEntity
  8
LC-004-005-----0
 62
     7
370
    25
100
AcDbLine
 10
624.822974
 20
386.103725
 30
0.0
 11
629.393225
 21
390.673976
 31
0.0
  0
LINE
  5
6F2
330
6DD
100
AcDbEntity
  8
LC-004-005-----0
 62
     7
370
    25
100
AcDbLine
 10
624.822974
 20
386.66941
 30
0.0
 11
628.82754
 21
390.673976
 31
0.0
  0
LINE
  5
6F3
330
6DD
100
AcDbEntity
  8
LC-004-005-----0
 62
     7
370
    25
100
AcDbLine
 10
624.822974
 20
387.235096
 30
0.0
 11
628.261854
 21
390.673976
 31
0.0
  0
LINE
  5
6F4
330
6DD
100
AcDbEntity
  8
LC-004-005-----0
 62
     7
370
    25
100
AcDbLine
 10
624.822974
 20
387.800781
 30
0.0
 11
627.696169
 21
390.673976
 31
0.0
  0
LINE
  5
6F5
330
6DD
100
AcDbEntity
  8
LC-004-005-----0
 62
     7
370
    25
100
AcDbLine
 10
624.822974
 20
388.366467
 30
0.0
 11
627.130483
 21
390.673976
 31
0.0
  0
LINE
  5
6F6
330
6DD
100
AcDbEntity
  8
LC-004-005-----0
 62
     7
370
    25
100
AcDbLine
 10
624.822974
 20
388.932152
 30
0.0
 11
626.564798
 21
390.673976
 31
0.0
  0
LINE
  5
6F7
330
6DD
100
AcDbEntity
  8
LC-004-005-----0
 62
     7
370
    25
100
AcDbLine
 10
624.822974
 20
389.497837
 30
0.0
 11
625.999112
 21
390.673976
 31
0.0
  0
LINE
  5
6F8
330
6DD
100
AcDbEntity
  8
LC-004-005-----0
 62
     7
370
    25
100
AcDbLine
 10
624.822974
 20
390.063523
 30
0.0
 11
625.433427
 21
390.673976
 31
0.0
  0
LINE
  5
6F9
330
6DD
100
AcDbEntity
  8
LC-004-005-----0
 62
     7
370
    25
100
AcDbLine
 10
624.822974
 20
390.629208
 30
0.0
 11
624.867742
 21
390.673976
 31
0.0
  0
ENDBLK
  5
6DF
330
6DD
100
AcDbEntity
  8
0
100
AcDbBlockEnd
  0
BLOCK
  5
6FC
330
6FB
100
AcDbEntity
  8
0
100
AcDbBlockBegin
  2
*X1275
 70
     1
 71
     0
 10
0.0
 20
0.0
 30
0.0
  3
*X1275
  1

  4
*X12
  0
LINE
  5
6FE
330
6FB
100
AcDbEntity
  8
LC-004-005-----0
 62
     7
370
    25
100
AcDbLine
 10
614.510887
 20
385.973976
 30
0.0
 11
614.822974
 21
386.286063
 31
0.0
  0
LINE
  5
6FF
330
6FB
100
AcDbEntity
  8
LC-004-005-----0
 62
     7
370
    25
100
AcDbLine
 10
613.945202
 20
385.973976
 30
0.0
 11
614.822974
 21
386.851748
 31
0.0
  0
LINE
  5
700
330
6FB
100
AcDbEntity
  8
LC-004-005-----0
 62
     7
370
    25
100
AcDbLine
 10
613.379516
 20
385.973976
 30
0.0
 11
614.822974
 21
387.417433
 31
0.0
  0
LINE
  5
701
330
6FB
100
AcDbEntity
  8
LC-004-005-----0
 62
     7
370
    25
100
AcDbLine
 10
612.813831
 20
385.973976
 30
0.0
 11
614.822974
 21
387.983119
 31
0.0
  0
LINE
  5
702
330
6FB
100
AcDbEntity
  8
LC-004-005-----0
 62
     7
370
    25
100
AcDbLine
 10
612.248146
 20
385.973976
 30
0.0
 11
614.822974
 21
388.548804
 31
0.0
  0
LINE
  5
703
330
6FB
100
AcDbEntity
  8
LC-004-005-----0
 62
     7
370
    25
100
AcDbLine
 10
611.68246
 20
385.973976
 30
0.0
 11
614.822974
 21
389.11449
 31
0.0
  0
LINE
  5
704
330
6FB
100
AcDbEntity
  8
LC-004-005-----0
 62
     7
370
    25
100
AcDbLine
 10
611.116775
 20
385.973976
 30
0.0
 11
614.822974
 21
389.680175
 31
0.0
  0
LINE
  5
705
330
6FB
100
AcDbEntity
  8
LC-004-005-----0
 62
     7
370
    25
100
AcDbLine
 10
610.551089
 20
385.973976
 30
0.0
 11
614.822974
 21
390.24586
 31
0.0
  0
LINE
  5
706
330
6FB
100
AcDbEntity
  8
LC-004-005-----0
 62
     7
370
    25
100
AcDbLine
 10
609.985404
 20
385.973976
 30
0.0
 11
614.685404
 21
390.673976
 31
0.0
  0
LINE
  5
707
330
6FB
100
AcDbEntity
  8
LC-004-005-----0
 62
     7
370
    25
100
AcDbLine
 10
609.419718
 20
385.973976
 30
0.0
 11
614.119718
 21
390.673976
 31
0.0
  0
LINE
  5
708
330
6FB
100
AcDbEntity
  8
LC-004-005-----0
 62
     7
370
    25
100
AcDbLine
 10
608.854033
 20
385.973976
 30
0.0
 11
613.554033
 21
390.673976
 31
0.0
  0
LINE
  5
709
330
6FB
100
AcDbEntity
  8
LC-004-005-----0
 62
     7
370
    25
100
AcDbLine
 10
608.288348
 20
385.973976
 30
0.0
 11
612.988348
 21
390.673976
 31
0.0
  0
LINE
  5
70A
330
6FB
100
AcDbEntity
  8
LC-004-005-----0
 62
     7
370
    25
100
AcDbLine
 10
607.722662
 20
385.973976
 30
0.0
 11
612.422662
 21
390.673976
 31
0.0
  0
LINE
  5
70B
330
6FB
100
AcDbEntity
  8
LC-004-005-----0
 62
     7
370
    25
100
AcDbLine
 10
607.156977
 20
385.973976
 30
0.0
 11
611.856977
 21
390.673976
 31
0.0
  0
LINE
  5
70C
330
6FB
100
AcDbEntity
  8
LC-004-005-----0
 62
     7
370
    25
100
AcDbLine
 10
606.591291
 20
385.973976
 30
0.0
 11
611.291291
 21
390.673976
 31
0.0
  0
LINE
  5
70D
330
6FB
100
AcDbEntity
  8
LC-004-005-----0
 62
     7
370
    25
100
AcDbLine
 10
606.025606
 20
385.973976
 30
0.0
 11
610.725606
 21
390.673976
 31
0.0
  0
LINE
  5
70E
330
6FB
100
AcDbEntity
  8
LC-004-005-----0
 62
     7
370
    25
100
AcDbLine
 10
605.45992
 20
385.973976
 30
0.0
 11
610.15992
 21
390.673976
 31
0.0
  0
LINE
  5
70F
330
6FB
100
AcDbEntity
  8
LC-004-005-----0
 62
     7
370
    25
100
AcDbLine
 10
604.894235
 20
385.973976
 30
0.0
 11
609.594235
 21
390.673976
 31
0.0
  0
LINE
  5
710
330
6FB
100
AcDbEntity
  8
LC-004-005-----0
 62
     7
370
    25
100
AcDbLine
 10
604.822974
 20
386.4684
 30
0.0
 11
609.02855
 21
390.673976
 31
0.0
  0
LINE
  5
711
330
6FB
100
AcDbEntity
  8
LC-004-005-----0
 62
     7
370
    25
100
AcDbLine
 10
604.822974
 20
387.034086
 30
0.0
 11
608.462864
 21
390.673976
 31
0.0
  0
LINE
  5
712
330
6FB
100
AcDbEntity
  8
LC-004-005-----0
 62
     7
370
    25
100
AcDbLine
 10
604.822974
 20
387.599771
 30
0.0
 11
607.897179
 21
390.673976
 31
0.0
  0
LINE
  5
713
330
6FB
100
AcDbEntity
  8
LC-004-005-----0
 62
     7
370
    25
100
AcDbLine
 10
604.822974
 20
388.165456
 30
0.0
 11
607.331493
 21
390.673976
 31
0.0
  0
LINE
  5
714
330
6FB
100
AcDbEntity
  8
LC-004-005-----0
 62
     7
370
    25
100
AcDbLine
 10
604.822974
 20
388.731142
 30
0.0
 11
606.765808
 21
390.673976
 31
0.0
  0
LINE
  5
715
330
6FB
100
AcDbEntity
  8
LC-004-005-----0
 62
     7
370
    25
100
AcDbLine
 10
604.822974
 20
389.296827
 30
0.0
 11
606.200123
 21
390.673976
 31
0.0
  0
LINE
  5
716
330
6FB
100
AcDbEntity
  8
LC-004-005-----0
 62
     7
370
    25
100
AcDbLine
 10
604.822974
 20
389.862513
 30
0.0
 11
605.634437
 21
390.673976
 31
0.0
  0
LINE
  5
717
330
6FB
100
AcDbEntity
  8
LC-004-005-----0
 62
     7
370
    25
100
AcDbLine
 10
604.822974
 20
390.428198
 30
0.0
 11
605.068752
 21
390.673976
 31
0.0
  0
ENDBLK
  5
6FD
330
6FB
100
AcDbEntity
  8
0
100
AcDbBlockEnd
  0
BLOCK
  5
71A
330
719
100
AcDbEntity
  8
0
100
AcDbBlockBegin
  2
*X1376
 70
     1
 71
     0
 10
0.0
 20
0.0
 30
0.0
  3
*X1376
  1

  4
*X13
  0
LINE
  5
71C
330
719
100
AcDbEntity
  8
LC-004-005-----0
 62
     7
370
    25
100
AcDbLine
 10
594.711897
 20
385.973976
 30
0.0
 11
594.822974
 21
386.085052
 31
0.0
  0
LINE
  5
71D
330
719
100
AcDbEntity
  8
LC-004-005-----0
 62
     7
370
    25
100
AcDbLine
 10
594.146212
 20
385.973976
 30
0.0
 11
594.822974
 21
386.650738
 31
0.0
  0
LINE
  5
71E
330
719
100
AcDbEntity
  8
LC-004-005-----0
 62
     7
370
    25
100
AcDbLine
 10
593.580527
 20
385.973976
 30
0.0
 11
594.822974
 21
387.216423
 31
0.0
  0
LINE
  5
71F
330
719
100
AcDbEntity
  8
LC-004-005-----0
 62
     7
370
    25
100
AcDbLine
 10
593.014841
 20
385.973976
 30
0.0
 11
594.822974
 21
387.782109
 31
0.0
  0
LINE
  5
720
330
719
100
AcDbEntity
  8
LC-004-005-----0
 62
     7
370
    25
100
AcDbLine
 10
592.449156
 20
385.973976
 30
0.0
 11
594.822974
 21
388.347794
 31
0.0
  0
LINE
  5
721
330
719
100
AcDbEntity
  8
LC-004-005-----0
 62
     7
370
    25
100
AcDbLine
 10
591.88347
 20
385.973976
 30
0.0
 11
594.822974
 21
388.91348
 31
0.0
  0
LINE
  5
722
330
719
100
AcDbEntity
  8
LC-004-005-----0
 62
     7
370
    25
100
AcDbLine
 10
591.317785
 20
385.973976
 30
0.0
 11
594.822974
 21
389.479165
 31
0.0
  0
LINE
  5
723
330
719
100
AcDbEntity
  8
LC-004-005-----0
 62
     7
370
    25
100
AcDbLine
 10
590.752099
 20
385.973976
 30
0.0
 11
594.822974
 21
390.04485
 31
0.0
  0
LINE
  5
724
330
719
100
AcDbEntity
  8
LC-004-005-----0
 62
     7
370
    25
100
AcDbLine
 10
590.186414
 20
385.973976
 30
0.0
 11
594.822974
 21
390.610536
 31
0.0
  0
LINE
  5
725
330
719
100
AcDbEntity
  8
LC-004-005-----0
 62
     7
370
    25
100
AcDbLine
 10
589.620729
 20
385.973976
 30
0.0
 11
594.320729
 21
390.673976
 31
0.0
  0
LINE
  5
726
330
719
100
AcDbEntity
  8
LC-004-005-----0
 62
     7
370
    25
100
AcDbLine
 10
589.055043
 20
385.973976
 30
0.0
 11
593.755043
 21
390.673976
 31
0.0
  0
LINE
  5
727
330
719
100
AcDbEntity
  8
LC-004-005-----0
 62
     7
370
    25
100
AcDbLine
 10
588.489358
 20
385.973976
 30
0.0
 11
593.189358
 21
390.673976
 31
0.0
  0
LINE
  5
728
330
719
100
AcDbEntity
  8
LC-004-005-----0
 62
     7
370
    25
100
AcDbLine
 10
587.923672
 20
385.973976
 30
0.0
 11
592.623672
 21
390.673976
 31
0.0
  0
LINE
  5
729
330
719
100
AcDbEntity
  8
LC-004-005-----0
 62
     7
370
    25
100
AcDbLine
 10
587.357987
 20
385.973976
 30
0.0
 11
592.057987
 21
390.673976
 31
0.0
  0
LINE
  5
72A
330
719
100
AcDbEntity
  8
LC-004-005-----0
 62
     7
370
    25
100
AcDbLine
 10
586.792301
 20
385.973976
 30
0.0
 11
591.492301
 21
390.673976
 31
0.0
  0
LINE
  5
72B
330
719
100
AcDbEntity
  8
LC-004-005-----0
 62
     7
370
    25
100
AcDbLine
 10
586.226616
 20
385.973976
 30
0.0
 11
590.926616
 21
390.673976
 31
0.0
  0
LINE
  5
72C
330
719
100
AcDbEntity
  8
LC-004-005-----0
 62
     7
370
    25
100
AcDbLine
 10
585.660931
 20
385.973976
 30
0.0
 11
590.360931
 21
390.673976
 31
0.0
  0
LINE
  5
72D
330
719
100
AcDbEntity
  8
LC-004-005-----0
 62
     7
370
    25
100
AcDbLine
 10
585.095245
 20
385.973976
 30
0.0
 11
589.795245
 21
390.673976
 31
0.0
  0
LINE
  5
72E
330
719
100
AcDbEntity
  8
LC-004-005-----0
 62
     7
370
    25
100
AcDbLine
 10
584.822974
 20
386.26739
 30
0.0
 11
589.22956
 21
390.673976
 31
0.0
  0
LINE
  5
72F
330
719
100
AcDbEntity
  8
LC-004-005-----0
 62
     7
370
    25
100
AcDbLine
 10
584.822974
 20
386.833075
 30
0.0
 11
588.663874
 21
390.673976
 31
0.0
  0
LINE
  5
730
330
719
100
AcDbEntity
  8
LC-004-005-----0
 62
     7
370
    25
100
AcDbLine
 10
584.822974
 20
387.398761
 30
0.0
 11
588.098189
 21
390.673976
 31
0.0
  0
LINE
  5
731
330
719
100
AcDbEntity
  8
LC-004-005-----0
 62
     7
370
    25
100
AcDbLine
 10
584.822974
 20
387.964446
 30
0.0
 11
587.532503
 21
390.673976
 31
0.0
  0
LINE
  5
732
330
719
100
AcDbEntity
  8
LC-004-005-----0
 62
     7
370
    25
100
AcDbLine
 10
584.822974
 20
388.530132
 30
0.0
 11
586.966818
 21
390.673976
 31
0.0
  0
LINE
  5
733
330
719
100
AcDbEntity
  8
LC-004-005-----0
 62
     7
370
    25
100
AcDbLine
 10
584.822974
 20
389.095817
 30
0.0
 11
586.401133
 21
390.673976
 31
0.0
  0
LINE
  5
734
330
719
100
AcDbEntity
  8
LC-004-005-----0
 62
     7
370
    25
100
AcDbLine
 10
584.822974
 20
389.661503
 30
0.0
 11
585.835447
 21
390.673976
 31
0.0
  0
LINE
  5
735
330
719
100
AcDbEntity
  8
LC-004-005-----0
 62
     7
370
    25
100
AcDbLine
 10
584.822974
 20
390.227188
 30
0.0
 11
585.269762
 21
390.673976
 31
0.0
  0
ENDBLK
  5
71B
330
719
100
AcDbEntity
  8
0
100
AcDbBlockEnd
  0
BLOCK
  5
73A
330
739
100
AcDbEntity
  8
0
100
AcDbBlockBegin
  2
*X1477
 70
     1
 71
     0
 10
0.0
 20
0.0
 30
0.0
  3
*X1477
  1

  4
*X14
  0
LINE
  5
73C
330
739
100
AcDbEntity
  8
LC-004-005-----0
 62
     7
370
    25
100
AcDbLine
 10
574.347222
 20
385.973976
 30
0.0
 11
574.822974
 21
386.449728
 31
0.0
  0
LINE
  5
73D
330
739
100
AcDbEntity
  8
LC-004-005-----0
 62
     7
370
    25
100
AcDbLine
 10
573.781537
 20
385.973976
 30
0.0
 11
574.822974
 21
387.015413
 31
0.0
  0
LINE
  5
73E
330
739
100
AcDbEntity
  8
LC-004-005-----0
 62
     7
370
    25
100
AcDbLine
 10
573.215851
 20
385.973976
 30
0.0
 11
574.822974
 21
387.581099
 31
0.0
  0
LINE
  5
73F
330
739
100
AcDbEntity
  8
LC-004-005-----0
 62
     7
370
    25
100
AcDbLine
 10
572.650166
 20
385.973976
 30
0.0
 11
574.822974
 21
388.146784
 31
0.0
  0
LINE
  5
740
330
739
100
AcDbEntity
  8
LC-004-005-----0
 62
     7
370
    25
100
AcDbLine
 10
572.08448
 20
385.973976
 30
0.0
 11
574.822974
 21
388.712469
 31
0.0
  0
LINE
  5
741
330
739
100
AcDbEntity
  8
LC-004-005-----0
 62
     7
370
    25
100
AcDbLine
 10
571.518795
 20
385.973976
 30
0.0
 11
574.822974
 21
389.278155
 31
0.0
  0
LINE
  5
742
330
739
100
AcDbEntity
  8
LC-004-005-----0
 62
     7
370
    25
100
AcDbLine
 10
570.95311
 20
385.973976
 30
0.0
 11
574.822974
 21
389.84384
 31
0.0
  0
LINE
  5
743
330
739
100
AcDbEntity
  8
LC-004-005-----0
 62
     7
370
    25
100
AcDbLine
 10
570.387424
 20
385.973976
 30
0.0
 11
574.822974
 21
390.409526
 31
0.0
  0
LINE
  5
744
330
739
100
AcDbEntity
  8
LC-004-005-----0
 62
     7
370
    25
100
AcDbLine
 10
569.821739
 20
385.973976
 30
0.0
 11
574.521739
 21
390.673976
 31
0.0
  0
LINE
  5
745
330
739
100
AcDbEntity
  8
LC-004-005-----0
 62
     7
370
    25
100
AcDbLine
 10
569.256053
 20
385.973976
 30
0.0
 11
573.956053
 21
390.673976
 31
0.0
  0
LINE
  5
746
330
739
100
AcDbEntity
  8
LC-004-005-----0
 62
     7
370
    25
100
AcDbLine
 10
568.690368
 20
385.973976
 30
0.0
 11
573.390368
 21
390.673976
 31
0.0
  0
LINE
  5
747
330
739
100
AcDbEntity
  8
LC-004-005-----0
 62
     7
370
    25
100
AcDbLine
 10
568.124682
 20
385.973976
 30
0.0
 11
572.824682
 21
390.673976
 31
0.0
  0
LINE
  5
748
330
739
100
AcDbEntity
  8
LC-004-005-----0
 62
     7
370
    25
100
AcDbLine
 10
567.558997
 20
385.973976
 30
0.0
 11
572.258997
 21
390.673976
 31
0.0
  0
LINE
  5
749
330
739
100
AcDbEntity
  8
LC-004-005-----0
 62
     7
370
    25
100
AcDbLine
 10
566.993312
 20
385.973976
 30
0.0
 11
571.693312
 21
390.673976
 31
0.0
  0
LINE
  5
74A
330
739
100
AcDbEntity
  8
LC-004-005-----0
 62
     7
370
    25
100
AcDbLine
 10
566.427626
 20
385.973976
 30
0.0
 11
571.127626
 21
390.673976
 31
0.0
  0
LINE
  5
74B
330
739
100
AcDbEntity
  8
LC-004-005-----0
 62
     7
370
    25
100
AcDbLine
 10
565.861941
 20
385.973976
 30
0.0
 11
570.561941
 21
390.673976
 31
0.0
  0
LINE
  5
74C
330
739
100
AcDbEntity
  8
LC-004-005-----0
 62
     7
370
    25
100
AcDbLine
 10
565.296255
 20
385.973976
 30
0.0
 11
569.996255
 21
390.673976
 31
0.0
  0
LINE
  5
74D
330
739
100
AcDbEntity
  8
LC-004-005-----0
 62
     7
370
    25
100
AcDbLine
 10
564.822974
 20
386.06638
 30
0.0
 11
569.43057
 21
390.673976
 31
0.0
  0
LINE
  5
74E
330
739
100
AcDbEntity
  8
LC-004-005-----0
 62
     7
370
    25
100
AcDbLine
 10
564.822974
 20
386.632065
 30
0.0
 11
568.864884
 21
390.673976
 31
0.0
  0
LINE
  5
74F
330
739
100
AcDbEntity
  8
LC-004-005-----0
 62
     7
370
    25
100
AcDbLine
 10
564.822974
 20
387.197751
 30
0.0
 11
568.299199
 21
390.673976
 31
0.0
  0
LINE
  5
750
330
739
100
AcDbEntity
  8
LC-004-005-----0
 62
     7
370
    25
100
AcDbLine
 10
564.822974
 20
387.763436
 30
0.0
 11
567.733514
 21
390.673976
 31
0.0
  0
LINE
  5
751
330
739
100
AcDbEntity
  8
LC-004-005-----0
 62
     7
370
    25
100
AcDbLine
 10
564.822974
 20
388.329122
 30
0.0
 11
567.167828
 21
390.673976
 31
0.0
  0
LINE
  5
752
330
739
100
AcDbEntity
  8
LC-004-005-----0
 62
     7
370
    25
100
AcDbLine
 10
564.822974
 20
388.894807
 30
0.0
 11
566.602143
 21
390.673976
 31
0.0
  0
LINE
  5
753
330
739
100
AcDbEntity
  8
LC-004-005-----0
 62
     7
370
    25
100
AcDbLine
 10
564.822974
 20
389.460492
 30
0.0
 11
566.036457
 21
390.673976
 31
0.0
  0
LINE
  5
754
330
739
100
AcDbEntity
  8
LC-004-005-----0
 62
     7
370
    25
100
AcDbLine
 10
564.822974
 20
390.026178
 30
0.0
 11
565.470772
 21
390.673976
 31
0.0
  0
LINE
  5
755
330
739
100
AcDbEntity
  8
LC-004-005-----0
 62
     7
370
    25
100
AcDbLine
 10
564.822974
 20
390.591863
 30
0.0
 11
564.905086
 21
390.673976
 31
0.0
  0
ENDBLK
  5
73B
330
739
100
AcDbEntity
  8
0
100
AcDbBlockEnd
  0
BLOCK
  5
759
330
758
100
AcDbEntity
  8
0
100
AcDbBlockBegin
  2
*X1578
 70
     1
 71
     0
 10
0.0
 20
0.0
 30
0.0
  3
*X1578
  1

  4
*X15
  0
LINE
  5
75B
330
758
100
AcDbEntity
  8
LC-004-005-----0
 62
     7
370
    25
100
AcDbLine
 10
554.548232
 20
385.973976
 30
0.0
 11
554.822974
 21
386.248718
 31
0.0
  0
LINE
  5
75C
330
758
100
AcDbEntity
  8
LC-004-005-----0
 62
     7
370
    25
100
AcDbLine
 10
553.982547
 20
385.973976
 30
0.0
 11
554.822974
 21
386.814403
 31
0.0
  0
LINE
  5
75D
330
758
100
AcDbEntity
  8
LC-004-005-----0
 62
     7
370
    25
100
AcDbLine
 10
553.416861
 20
385.973976
 30
0.0
 11
554.822974
 21
387.380088
 31
0.0
  0
LINE
  5
75E
330
758
100
AcDbEntity
  8
LC-004-005-----0
 62
     7
370
    25
100
AcDbLine
 10
552.851176
 20
385.973976
 30
0.0
 11
554.822974
 21
387.945774
 31
0.0
  0
LINE
  5
75F
330
758
100
AcDbEntity
  8
LC-004-005-----0
 62
     7
370
    25
100
AcDbLine
 10
552.250816
 20
385.939301
 30
0.0
 11
554.822974
 21
388.511459
 31
0.0
  0
LINE
  5
760
330
758
100
AcDbEntity
  8
LC-004-005-----0
 62
     7
370
    25
100
AcDbLine
 10
551.361415
 20
385.615586
 30
0.0
 11
554.822974
 21
389.077145
 31
0.0
  0
LINE
  5
761
330
758
100
AcDbEntity
  8
LC-004-005-----0
 62
     7
370
    25
100
AcDbLine
 10
550.472014
 20
385.29187
 30
0.0
 11
554.822974
 21
389.64283
 31
0.0
  0
LINE
  5
762
330
758
100
AcDbEntity
  8
LC-004-005-----0
 62
     7
370
    25
100
AcDbLine
 10
549.582614
 20
384.968155
 30
0.0
 11
554.822974
 21
390.208516
 31
0.0
  0
LINE
  5
763
330
758
100
AcDbEntity
  8
LC-004-005-----0
 62
     7
370
    25
100
AcDbLine
 10
548.693213
 20
384.64444
 30
0.0
 11
554.722739
 21
390.673966
 31
0.0
  0
LINE
  5
764
330
758
100
AcDbEntity
  8
LC-004-005-----0
 62
     7
370
    25
100
AcDbLine
 10
547.803812
 20
384.320724
 30
0.0
 11
554.157054
 21
390.673966
 31
0.0
  0
LINE
  5
765
330
758
100
AcDbEntity
  8
LC-004-005-----0
 62
     7
370
    25
100
AcDbLine
 10
546.914411
 20
383.997009
 30
0.0
 11
553.591368
 21
390.673966
 31
0.0
  0
LINE
  5
766
330
758
100
AcDbEntity
  8
LC-004-005-----0
 62
     7
370
    25
100
AcDbLine
 10
546.02501
 20
383.673293
 30
0.0
 11
553.025683
 21
390.673966
 31
0.0
  0
LINE
  5
767
330
758
100
AcDbEntity
  8
LC-004-005-----0
 62
     7
370
    25
100
AcDbLine
 10
545.13561
 20
383.349578
 30
0.0
 11
552.459997
 21
390.673966
 31
0.0
  0
LINE
  5
768
330
758
100
AcDbEntity
  8
LC-004-005-----0
 62
     7
370
    25
100
AcDbLine
 10
544.822974
 20
383.602628
 30
0.0
 11
551.894312
 21
390.673966
 31
0.0
  0
LINE
  5
769
330
758
100
AcDbEntity
  8
LC-004-005-----0
 62
     7
370
    25
100
AcDbLine
 10
544.822974
 20
384.168314
 30
0.0
 11
551.107958
 21
390.453297
 31
0.0
  0
LINE
  5
76A
330
758
100
AcDbEntity
  8
LC-004-005-----0
 62
     7
370
    25
100
AcDbLine
 10
544.822974
 20
384.733999
 30
0.0
 11
550.218549
 21
390.129573
 31
0.0
  0
LINE
  5
76B
330
758
100
AcDbEntity
  8
LC-004-005-----0
 62
     7
370
    25
100
AcDbLine
 10
544.822974
 20
385.299684
 30
0.0
 11
549.329139
 21
389.80585
 31
0.0
  0
LINE
  5
76C
330
758
100
AcDbEntity
  8
LC-004-005-----0
 62
     7
370
    25
100
AcDbLine
 10
544.822974
 20
385.86537
 30
0.0
 11
547.493041
 21
388.535437
 31
0.0
  0
LINE
  5
76D
330
758
100
AcDbEntity
  8
LC-004-005-----0
 62
     7
370
    25
100
AcDbLine
 10
544.822974
 20
386.431055
 30
0.0
 11
546.81275
 21
388.420831
 31
0.0
  0
LINE
  5
76E
330
758
100
AcDbEntity
  8
LC-004-005-----0
 62
     7
370
    25
100
AcDbLine
 10
544.822974
 20
386.996741
 30
0.0
 11
546.180626
 21
388.354392
 31
0.0
  0
LINE
  5
76F
330
758
100
AcDbEntity
  8
LC-004-005-----0
 62
     7
370
    25
100
AcDbLine
 10
544.822974
 20
387.562426
 30
0.0
 11
545.548501
 21
388.287953
 31
0.0
  0
LINE
  5
770
330
758
100
AcDbEntity
  8
LC-004-005-----0
 62
     7
370
    25
100
AcDbLine
 10
544.822974
 20
388.128111
 30
0.0
 11
544.882093
 21
388.18723
 31
0.0
  0
ENDBLK
  5
75A
330
758
100
AcDbEntity
  8
0
100
AcDbBlockEnd
  0
BLOCK
  5
775
330
774
100
AcDbEntity
  8
0
100
AcDbBlockBegin
  2
*X1679
 70
     1
 71
     0
 10
0.0
 20
0.0
 30
0.0
  3
*X1679
  1

  4
*X16
  0
LINE
  5
777
330
774
100
AcDbEntity
  8
LC-004-005-----0
 62
     7
370
    25
100
AcDbLine
 10
534.4628
 20
379.464993
 30
0.0
 11
534.822974
 21
379.825168
 31
0.0
  0
LINE
  5
778
330
774
100
AcDbEntity
  8
LC-004-005-----0
 62
     7
370
    25
100
AcDbLine
 10
533.573399
 20
379.141278
 30
0.0
 11
534.822974
 21
380.390853
 31
0.0
  0
LINE
  5
779
330
774
100
AcDbEntity
  8
LC-004-005-----0
 62
     7
370
    25
100
AcDbLine
 10
532.683998
 20
378.817563
 30
0.0
 11
534.822974
 21
380.956539
 31
0.0
  0
LINE
  5
77A
330
774
100
AcDbEntity
  8
LC-004-005-----0
 62
     7
370
    25
100
AcDbLine
 10
531.794597
 20
378.493847
 30
0.0
 11
534.822974
 21
381.522224
 31
0.0
  0
LINE
  5
77B
330
774
100
AcDbEntity
  8
LC-004-005-----0
 62
     7
370
    25
100
AcDbLine
 10
530.905196
 20
378.170132
 30
0.0
 11
534.822974
 21
382.087909
 31
0.0
  0
LINE
  5
77C
330
774
100
AcDbEntity
  8
LC-004-005-----0
 62
     7
370
    25
100
AcDbLine
 10
530.015796
 20
377.846416
 30
0.0
 11
534.822974
 21
382.653595
 31
0.0
  0
LINE
  5
77D
330
774
100
AcDbEntity
  8
LC-004-005-----0
 62
     7
370
    25
100
AcDbLine
 10
529.126395
 20
377.522701
 30
0.0
 11
534.822974
 21
383.21928
 31
0.0
  0
LINE
  5
77E
330
774
100
AcDbEntity
  8
LC-004-005-----0
 62
     7
370
    25
100
AcDbLine
 10
528.331983
 20
377.293975
 30
0.0
 11
534.822974
 21
383.784966
 31
0.0
  0
LINE
  5
77F
330
774
100
AcDbEntity
  8
LC-004-005-----0
 62
     7
370
    25
100
AcDbLine
 10
527.766298
 20
377.293975
 30
0.0
 11
534.822974
 21
384.350651
 31
0.0
  0
LINE
  5
780
330
774
100
AcDbEntity
  8
LC-004-005-----0
 62
     7
370
    25
100
AcDbLine
 10
527.200612
 20
377.293975
 30
0.0
 11
534.209181
 21
384.302544
 31
0.0
  0
LINE
  5
781
330
774
100
AcDbEntity
  8
LC-004-005-----0
 62
     7
370
    25
100
AcDbLine
 10
526.634927
 20
377.293975
 30
0.0
 11
533.319772
 21
383.97882
 31
0.0
  0
LINE
  5
782
330
774
100
AcDbEntity
  8
LC-004-005-----0
 62
     7
370
    25
100
AcDbLine
 10
526.069241
 20
377.293975
 30
0.0
 11
532.430363
 21
383.655096
 31
0.0
  0
LINE
  5
783
330
774
100
AcDbEntity
  8
LC-004-005-----0
 62
     7
370
    25
100
AcDbLine
 10
525.503556
 20
377.293975
 30
0.0
 11
531.540953
 21
383.331372
 31
0.0
  0
LINE
  5
784
330
774
100
AcDbEntity
  8
LC-004-005-----0
 62
     7
370
    25
100
AcDbLine
 10
524.937871
 20
377.293975
 30
0.0
 11
530.651544
 21
383.007648
 31
0.0
  0
LINE
  5
785
330
774
100
AcDbEntity
  8
LC-004-005-----0
 62
     7
370
    25
100
AcDbLine
 10
524.822974
 20
377.744764
 30
0.0
 11
529.762135
 21
382.683924
 31
0.0
  0
LINE
  5
786
330
774
100
AcDbEntity
  8
LC-004-005-----0
 62
     7
370
    25
100
AcDbLine
 10
524.822974
 20
378.310449
 30
0.0
 11
528.872725
 21
382.3602
 31
0.0
  0
LINE
  5
787
330
774
100
AcDbEntity
  8
LC-004-005-----0
 62
     7
370
    25
100
AcDbLine
 10
524.822974
 20
378.876135
 30
0.0
 11
527.983316
 21
382.036477
 31
0.0
  0
LINE
  5
788
330
774
100
AcDbEntity
  8
LC-004-005-----0
 62
     7
370
    25
100
AcDbLine
 10
524.822974
 20
379.44182
 30
0.0
 11
527.305128
 21
381.923974
 31
0.0
  0
LINE
  5
789
330
774
100
AcDbEntity
  8
LC-004-005-----0
 62
     7
370
    25
100
AcDbLine
 10
524.822974
 20
380.007505
 30
0.0
 11
526.739443
 21
381.923974
 31
0.0
  0
LINE
  5
78A
330
774
100
AcDbEntity
  8
LC-004-005-----0
 62
     7
370
    25
100
AcDbLine
 10
524.822974
 20
380.573191
 30
0.0
 11
526.173757
 21
381.923974
 31
0.0
  0
LINE
  5
78B
330
774
100
AcDbEntity
  8
LC-004-005-----0
 62
     7
370
    25
100
AcDbLine
 10
524.822974
 20
381.138876
 30
0.0
 11
525.608072
 21
381.923974
 31
0.0
  0
LINE
  5
78C
330
774
100
AcDbEntity
  8
LC-004-005-----0
 62
     7
370
    25
100
AcDbLine
 10
524.822974
 20
381.704562
 30
0.0
 11
525.042387
 21
381.923974
 31
0.0
  0
ENDBLK
  5
776
330
774
100
AcDbEntity
  8
0
100
AcDbBlockEnd
  0
BLOCK
  5
79A
330
790
100
AcDbEntity
  8
0
100
AcDbBlockBegin
  2
*D80
 70
     1
 71
     0
 10
0.0
 20
0.0
 30
0.0
  3
*D80
  1

  0
LINE
  5
791
330
790
100
AcDbEntity
  8
LC-005-003-----0
 62
     2
370
    -2
100
AcDbLine
 10
362.322966
 20
222.473976
 30
0.0
 11
362.322966
 21
168.983154
 31
0.0
  0
LINE
  5
792
330
790
100
AcDbEntity
  8
LC-005-003-----0
 62
     2
370
    -2
100
AcDbLine
 10
487.322966
 20
222.473976
 30
0.0
 11
487.322966
 21
168.983154
 31
0.0
  0
LINE
  5
793
330
790
100
AcDbEntity
  8
LC-005-003-----0
 62
     2
370
    -2
100
AcDbLine
 10
390.322966
 20
172.583154
 30
0.0
 11
459.322966
 21
172.583154
 31
0.0
  0
SOLID
  5
794
330
790
100
AcDbEntity
  8
LC-005-003-----0
 62
     2
100
AcDbTrace
 10
390.322966
 20
177.249821
 30
0.0
 11
390.322966
 21
167.916488
 31
0.0
 12
362.322966
 22
172.583154
 32
0.0
 13
362.322966
 23
172.583154
 33
0.0
  0
SOLID
  5
795
330
790
100
AcDbEntity
  8
LC-005-003-----0
 62
     2
100
AcDbTrace
 10
459.322966
 20
167.916488
 30
0.0
 11
459.322966
 21
177.249821
 31
0.0
 12
487.322966
 22
172.583154
 32
0.0
 13
487.322966
 23
172.583154
 33
0.0
  0
MTEXT
  5
796
330
790
100
AcDbEntity
  8
LC-005-003-----0
 62
     2
100
AcDbMText
 10
424.388621
 20
203.383154
 30
0.0
 40
28.0
 41
0.0
 71
     5
 72
     1
  1
\A1;DN125
  7
LCTX15-400-0-0pDIN-Schrift
 73
     1
 44
1.0
  0
POINT
  5
797
330
790
100
AcDbEntity
  8
Defpoints
 62
     0
100
AcDbPoint
 10
362.322966
 20
222.473976
 30
0.0
  0
POINT
  5
798
330
790
100
AcDbEntity
  8
Defpoints
 62
     0
100
AcDbPoint
 10
487.322966
 20
222.473976
 30
0.0
  0
POINT
  5
799
330
790
100
AcDbEntity
  8
Defpoints
 62
     0
100
AcDbPoint
 10
487.322966
 20
172.583154
 30
0.0
  0
ENDBLK
  5
79B
330
790
100
AcDbEntity
  8
0
100
AcDbBlockEnd
  0
ENDSEC
  0
SECTION
  2
ENTITIES
  0
INSERT
  5
3D
330
1F
100
AcDbEntity
  8
LC-001-100-D00-0
 62
     7
370
    50
100
AcDbBlockReference
  2
POLY1
 10
0.0
 20
0.0
 30
0.0
  0
INSERT
  5
49
330
1F
100
AcDbEntity
  8
LC-001-100-D00-0
 62
     7
370
    50
100
AcDbBlockReference
  2
POLY2
 10
0.0
 20
0.0
 30
0.0
  0
INSERT
  5
55
330
1F
100
AcDbEntity
  8
LC-001-100-D00-0
 62
     7
370
    50
100
AcDbBlockReference
  2
POLY3
 10
0.0
 20
0.0
 30
0.0
  0
INSERT
  5
61
330
1F
100
AcDbEntity
  8
LC-001-100-D00-0
 62
     7
370
    50
100
AcDbBlockReference
  2
POLY4
 10
0.0
 20
0.0
 30
0.0
  0
INSERT
  5
6D
330
1F
100
AcDbEntity
  8
LC-001-100-D00-0
 62
     7
370
    50
100
AcDbBlockReference
  2
POLY5
 10
0.0
 20
0.0
 30
0.0
  0
INSERT
  5
79
330
1F
100
AcDbEntity
  8
LC-001-100-D00-0
 62
     7
370
    50
100
AcDbBlockReference
  2
POLY6
 10
0.0
 20
0.0
 30
0.0
  0
INSERT
  5
85
330
1F
100
AcDbEntity
  8
LC-001-100-D00-0
 62
     7
370
    50
100
AcDbBlockReference
  2
POLY7
 10
0.0
 20
0.0
 30
0.0
  0
INSERT
  5
91
330
1F
100
AcDbEntity
  8
LC-001-100-D00-0
 62
     7
370
    50
100
AcDbBlockReference
  2
POLY8
 10
0.0
 20
0.0
 30
0.0
  0
INSERT
  5
9D
330
1F
100
AcDbEntity
  8
LC-001-100-D00-0
 62
     7
370
    50
100
AcDbBlockReference
  2
POLY9
 10
0.0
 20
0.0
 30
0.0
  0
INSERT
  5
A9
330
1F
100
AcDbEntity
  8
LC-001-100-D00-0
 62
     7
370
    50
100
AcDbBlockReference
  2
POLY10
 10
0.0
 20
0.0
 30
0.0
  0
LINE
  5
AA
330
1F
100
AcDbEntity
  8
LC-001-100-D00-0
 62
     7
370
    50
100
AcDbLine
 10
377.887706
 20
387.330354
 30
0.0
 11
377.887706
 21
387.317852
 31
0.0
  0
ARC
  5
AB
330
1F
100
AcDbEntity
  8
LC-001-100-D00-0
 62
     7
370
    50
100
AcDbCircle
 10
471.822966
 20
386.192853
 30
0.0
 40
6.820236432851799
100
AcDbArc
 50
116.493736
 51
123.008786
  0
ARC
  5
AC
330
1F
100
AcDbEntity
  8
LC-001-100-D00-0
 62
     7
370
    50
100
AcDbCircle
 10
468.869679
 20
392.117853
 30
0.0
 40
0.1999999999999318
100
AcDbArc
 50
90.0
 51
116.493736
  0
ARC
  5
AD
330
1F
100
AcDbEntity
  8
LC-001-100-D00-0
 62
     7
370
    50
100
AcDbCircle
 10
497.822966
 20
303.973977
 30
0.0
 40
2.0
100
AcDbArc
 50
0.0
 51
90.0
  0
ARC
  5
AE
330
1F
100
AcDbEntity
  8
LC-001-100-D00-0
 62
     7
370
    50
100
AcDbCircle
 10
351.822966
 20
303.973977
 30
0.0
 40
2.0
100
AcDbArc
 50
90.0
 51
180.0
  0
ARC
  5
AF
330
1F
100
AcDbEntity
  8
LC-001-100-D00-0
 62
     7
370
    50
100
AcDbCircle
 10
497.822966
 20
295.973977
 30
0.0
 40
2.0
100
AcDbArc
 50
270.0
 51
0.0
  0
ARC
  5
B0
330
1F
100
AcDbEntity
  8
LC-001-100-D00-0
 62
     7
370
    50
100
AcDbCircle
 10
351.822966
 20
295.973977
 30
0.0
 40
2.0
100
AcDbArc
 50
180.0
 51
270.0
  0
LINE
  5
B1
330
1F
100
AcDbEntity
  8
LC-001-100-D00-0
 62
     7
370
    50
100
AcDbLine
 10
499.822965
 20
295.973977
 30
0.0
 11
499.822965
 21
303.973977
 31
0.0
  0
LINE
  5
B2
330
1F
100
AcDbEntity
  8
LC-001-100-D00-0
 62
     7
370
    50
100
AcDbLine
 10
349.822963
 20
303.973977
 30
0.0
 11
349.822963
 21
295.973977
 31
0.0
  0
ARC
  5
B3
330
1F
100
AcDbEntity
  8
LC-001-100-D00-0
 62
     7
370
    50
100
AcDbCircle
 10
493.822966
 20
303.973977
 30
0.0
 40
2.0
100
AcDbArc
 50
90.0
 51
180.0
  0
ARC
  5
B4
330
1F
100
AcDbEntity
  8
LC-001-100-D00-0
 62
     7
370
    50
100
AcDbCircle
 10
355.822966
 20
303.973977
 30
0.0
 40
2.0
100
AcDbArc
 50
0.0
 51
90.0
  0
LINE
  5
B5
330
1F
100
AcDbEntity
  8
LC-001-100-D00-0
 62
     7
370
    50
100
AcDbLine
 10
493.822968
 20
305.973977
 30
0.0
 11
492.572966
 21
305.973977
 31
0.0
  0
LINE
  5
B6
330
1F
100
AcDbEntity
  8
LC-001-100-D00-0
 62
     7
370
    50
100
AcDbLine
 10
357.072967
 20
305.973977
 30
0.0
 11
355.822968
 21
305.973977
 31
0.0
  0
ARC
  5
B7
330
1F
100
AcDbEntity
  8
LC-001-100-D00-0
 62
     7
370
    50
100
AcDbCircle
 10
493.822966
 20
295.973977
 30
0.0
 40
2.0
100
AcDbArc
 50
180.0
 51
270.0
  0
ARC
  5
B8
330
1F
100
AcDbEntity
  8
LC-001-100-D00-0
 62
     7
370
    50
100
AcDbCircle
 10
355.822966
 20
295.973977
 30
0.0
 40
2.0
100
AcDbArc
 50
270.0
 51
0.0
  0
LINE
  5
B9
330
1F
100
AcDbEntity
  8
LC-001-100-D00-0
 62
     7
370
    50
100
AcDbLine
 10
493.822968
 20
293.973977
 30
0.0
 11
492.572966
 21
293.973977
 31
0.0
  0
LINE
  5
BA
330
1F
100
AcDbEntity
  8
LC-001-100-D00-0
 62
     7
370
    50
100
AcDbLine
 10
357.072967
 20
293.973977
 30
0.0
 11
356.735813
 21
293.973977
 31
0.0
  0
LINE
  5
BB
330
1F
100
AcDbEntity
  8
LC-001-100-D00-0
 62
     7
370
    50
100
AcDbLine
 10
491.822968
 20
303.973977
 30
0.0
 11
491.822968
 21
295.973977
 31
0.0
  0
LINE
  5
BC
330
1F
100
AcDbEntity
  8
LC-001-100-D00-0
 62
     7
370
    50
100
AcDbLine
 10
357.822964
 20
295.973977
 30
0.0
 11
357.822964
 21
303.973977
 31
0.0
  0
LINE
  5
BD
330
1F
100
AcDbEntity
  8
LC-001-100-D00-0
 62
     7
370
    50
100
AcDbLine
 10
493.822968
 20
293.973977
 30
0.0
 11
497.822965
 21
293.973977
 31
0.0
  0
LINE
  5
BE
330
1F
100
AcDbEntity
  8
LC-001-100-D00-0
 62
     7
370
    50
100
AcDbLine
 10
497.822965
 20
305.973977
 30
0.0
 11
493.822968
 21
305.973977
 31
0.0
  0
LINE
  5
BF
330
1F
100
AcDbEntity
  8
LC-001-100-D00-0
 62
     7
370
    50
100
AcDbLine
 10
355.822968
 20
293.973977
 30
0.0
 11
356.735813
 21
293.973977
 31
0.0
  0
LINE
  5
C0
330
1F
100
AcDbEntity
  8
LC-001-100-D00-0
 62
     7
370
    50
100
AcDbLine
 10
356.735813
 20
293.973977
 30
0.0
 11
356.735813
 21
93.97398
 31
0.0
  0
LINE
  5
C1
330
1F
100
AcDbEntity
  8
LC-001-100-D00-0
 62
     7
370
    50
100
AcDbLine
 10
350.785504
 20
93.97398
 30
0.0
 11
356.735813
 21
93.97398
 31
0.0
  0
LINE
  5
C2
330
1F
100
AcDbEntity
  8
LC-001-100-D00-0
 62
     7
370
    50
100
AcDbLine
 10
350.785504
 20
93.97398
 30
0.0
 11
350.785504
 21
293.973977
 31
0.0
  0
LINE
  5
C3
330
1F
100
AcDbEntity
  8
LC-001-100-D00-0
 62
     7
370
    50
100
AcDbLine
 10
350.785504
 20
293.973977
 30
0.0
 11
351.822967
 21
293.973977
 31
0.0
  0
LINE
  5
C4
330
1F
100
AcDbEntity
  8
LC-001-100-D00-0
 62
     7
370
    50
100
AcDbLine
 10
355.822968
 20
305.973977
 30
0.0
 11
351.822967
 21
305.973977
 31
0.0
  0
LINE
  5
C5
330
1F
100
AcDbEntity
  8
LC-001-100-D00-0
 62
     7
370
    50
100
AcDbLine
 10
357.289689
 20
288.973977
 30
0.0
 11
357.289689
 21
263.973978
 31
0.0
  0
LINE
  5
C6
330
1F
100
AcDbEntity
  8
LC-001-100-D00-0
 62
     7
370
    50
100
AcDbLine
 10
350.231627
 20
263.973978
 30
0.0
 11
350.231627
 21
288.973977
 31
0.0
  0
LINE
  5
C7
330
1F
100
AcDbEntity
  8
LC-001-100-D00-0
 62
     7
370
    50
100
AcDbLine
 10
357.289689
 20
263.973978
 30
0.0
 11
356.735813
 21
263.973978
 31
0.0
  0
LINE
  5
C8
330
1F
100
AcDbEntity
  8
LC-001-100-D00-0
 62
     7
370
    50
100
AcDbLine
 10
350.785504
 20
263.973978
 30
0.0
 11
350.231627
 21
263.973978
 31
0.0
  0
LINE
  5
C9
330
1F
100
AcDbEntity
  8
LC-001-100-D00-0
 62
     7
370
    50
100
AcDbLine
 10
357.289689
 20
288.973977
 30
0.0
 11
356.735813
 21
288.973977
 31
0.0
  0
LINE
  5
CA
330
1F
100
AcDbEntity
  8
LC-001-100-D00-0
 62
     7
370
    50
100
AcDbLine
 10
350.785504
 20
288.973977
 30
0.0
 11
350.231627
 21
288.973977
 31
0.0
  0
LINE
  5
CB
330
1F
100
AcDbEntity
  8
LC-001-100-D00-0
 62
     7
370
    50
100
AcDbLine
 10
349.528159
 20
263.973978
 30
0.0
 11
350.231627
 21
263.973978
 31
0.0
  0
LINE
  5
CC
330
1F
100
AcDbEntity
  8
LC-001-100-D00-0
 62
     7
370
    50
100
AcDbLine
 10
349.528159
 20
286.473977
 30
0.0
 11
349.528159
 21
263.973978
 31
0.0
  0
LINE
  5
CD
330
1F
100
AcDbEntity
  8
LC-001-100-D00-0
 62
     7
370
    50
100
AcDbLine
 10
350.231627
 20
288.973977
 30
0.0
 11
347.422356
 21
288.973977
 31
0.0
  0
LINE
  5
CE
330
1F
100
AcDbEntity
  8
LC-001-100-D00-0
 62
     7
370
    50
100
AcDbLine
 10
347.422356
 20
286.473977
 30
0.0
 11
349.528159
 21
286.473977
 31
0.0
  0
LINE
  5
CF
330
1F
100
AcDbEntity
  8
LC-001-100-D00-0
 62
     7
370
    50
100
AcDbLine
 10
347.422356
 20
288.973977
 30
0.0
 11
347.422356
 21
286.473977
 31
0.0
  0
LINE
  5
D0
330
1F
100
AcDbEntity
  8
LC-001-100-D00-0
 62
     7
370
    50
100
AcDbLine
 10
357.289689
 20
263.973978
 30
0.0
 11
357.993158
 21
263.973978
 31
0.0
  0
LINE
  5
D1
330
1F
100
AcDbEntity
  8
LC-001-100-D00-0
 62
     7
370
    50
100
AcDbLine
 10
357.993158
 20
263.973978
 30
0.0
 11
357.993158
 21
286.473977
 31
0.0
  0
LINE
  5
D2
330
1F
100
AcDbEntity
  8
LC-001-100-D00-0
 62
     7
370
    50
100
AcDbLine
 10
360.09896
 20
288.973977
 30
0.0
 11
357.289689
 21
288.973977
 31
0.0
  0
LINE
  5
D3
330
1F
100
AcDbEntity
  8
LC-001-100-D00-0
 62
     7
370
    50
100
AcDbLine
 10
357.993158
 20
286.473977
 30
0.0
 11
360.09896
 21
286.473977
 31
0.0
  0
LINE
  5
D4
330
1F
100
AcDbEntity
  8
LC-001-100-D00-0
 62
     7
370
    50
100
AcDbLine
 10
360.09896
 20
286.473977
 30
0.0
 11
360.09896
 21
288.973977
 31
0.0
  0
INSERT
  5
DB
330
1F
100
AcDbEntity
  8
LC-001-100-D00-0
 62
     7
370
    50
100
AcDbBlockReference
  2
KLON1
 10
0.0
 20
0.0
 30
0.0
  0
INSERT
  5
E2
330
1F
100
AcDbEntity
  8
LC-001-100-D00-0
 62
     7
370
    50
100
AcDbBlockReference
  2
KLON2
 10
0.0
 20
0.0
 30
0.0
  0
INSERT
  5
EE
330
1F
100
AcDbEntity
  8
LC-001-100-D00-0
 62
     7
370
    50
100
AcDbBlockReference
  2
POLY11
 10
0.0
 20
0.0
 30
0.0
  0
LINE
  5
EF
330
1F
100
AcDbEntity
  8
LC-001-100-D00-0
 62
     7
370
    50
100
AcDbLine
 10
333.861391
 20
383.327112
 30
0.0
 11
334.072965
 21
383.162737
 31
0.0
  0
INSERT
  5
F6
330
1F
100
AcDbEntity
  8
LC-001-100-D00-0
 62
     7
370
    50
100
AcDbBlockReference
  2
KLON3
 10
0.0
 20
0.0
 30
0.0
  0
INSERT
  5
FD
330
1F
100
AcDbEntity
  8
LC-001-100-D00-0
 62
     7
370
    50
100
AcDbBlockReference
  2
KLON4
 10
0.0
 20
0.0
 30
0.0
  0
INSERT
  5
109
330
1F
100
AcDbEntity
  8
LC-001-100-D00-0
 62
     7
370
    50
100
AcDbBlockReference
  2
POLY12
 10
0.0
 20
0.0
 30
0.0
  0
LINE
  5
10A
330
1F
100
AcDbEntity
  8
LC-001-100-D00-0
 62
     7
370
    50
100
AcDbLine
 10
333.861391
 20
380.327114
 30
0.0
 11
334.072965
 21
380.162731
 31
0.0
  0
INSERT
  5
111
330
1F
100
AcDbEntity
  8
LC-001-100-D00-0
 62
     7
370
    50
100
AcDbBlockReference
  2
KLON5
 10
0.0
 20
0.0
 30
0.0
  0
INSERT
  5
118
330
1F
100
AcDbEntity
  8
LC-001-100-D00-0
 62
     7
370
    50
100
AcDbBlockReference
  2
KLON6
 10
0.0
 20
0.0
 30
0.0
  0
INSERT
  5
11F
330
1F
100
AcDbEntity
  8
LC-001-100-D00-0
 62
     7
370
    50
100
AcDbBlockReference
  2
KLON7
 10
0.0
 20
0.0
 30
0.0
  0
INSERT
  5
126
330
1F
100
AcDbEntity
  8
LC-001-100-D00-0
 62
     7
370
    50
100
AcDbBlockReference
  2
KLON8
 10
0.0
 20
0.0
 30
0.0
  0
INSERT
  5
132
330
1F
100
AcDbEntity
  8
LC-001-100-D00-0
 62
     7
370
    50
100
AcDbBlockReference
  2
POLY13
 10
0.0
 20
0.0
 30
0.0
  0
LINE
  5
133
330
1F
100
AcDbEntity
  8
LC-001-100-D00-0
 62
     7
370
    50
100
AcDbLine
 10
333.861391
 20
386.327111
 30
0.0
 11
334.072965
 21
386.162736
 31
0.0
  0
INSERT
  5
13A
330
1F
100
AcDbEntity
  8
LC-001-100-D00-0
 62
     7
370
    50
100
AcDbBlockReference
  2
KLON9
 10
0.0
 20
0.0
 30
0.0
  0
INSERT
  5
141
330
1F
100
AcDbEntity
  8
LC-001-100-D00-0
 62
     7
370
    50
100
AcDbBlockReference
  2
KLON10
 10
0.0
 20
0.0
 30
0.0
  0
INSERT
  5
14D
330
1F
100
AcDbEntity
  8
LC-001-100-D00-0
 62
     7
370
    50
100
AcDbBlockReference
  2
POLY14
 10
0.0
 20
0.0
 30
0.0
  0
LINE
  5
14E
330
1F
100
AcDbEntity
  8
LC-001-100-D00-0
 62
     7
370
    50
100
AcDbLine
 10
332.822966
 20
374.813445
 30
0.0
 11
332.822966
 21
376.512029
 31
0.0
  0
LINE
  5
14F
330
1F
100
AcDbEntity
  8
LC-001-100-D00-0
 62
     7
370
    50
100
AcDbLine
 10
328.822965
 20
378.012024
 30
0.0
 11
328.822965
 21
376.313441
 31
0.0
  0
LINE
  5
150
330
1F
100
AcDbEntity
  8
LC-001-100-D00-0
 62
     7
370
    50
100
AcDbLine
 10
332.596401
 20
390.31785
 30
0.0
 11
332.596401
 21
390.817851
 31
0.0
  0
LINE
  5
151
330
1F
100
AcDbEntity
  8
LC-001-100-D00-0
 62
     7
370
    50
100
AcDbLine
 10
334.572966
 20
390.817851
 30
0.0
 11
332.596401
 21
390.817851
 31
0.0
  0
LINE
  5
152
330
1F
100
AcDbEntity
  8
LC-001-100-D00-0
 62
     7
370
    50
100
AcDbLine
 10
334.572966
 20
390.817851
 30
0.0
 11
334.572966
 21
391.889617
 31
0.0
  0
ARC
  5
153
330
1F
100
AcDbEntity
  8
LC-001-100-D00-0
 62
     7
370
    50
100
AcDbCircle
 10
330.822966
 20
386.192853
 30
0.0
 40
6.820236432852047
100
AcDbArc
 50
48.715289
 51
56.644353
  0
LINE
  5
154
330
1F
100
AcDbEntity
  8
LC-001-100-D00-0
 62
     7
370
    50
100
AcDbLine
 10
335.872965
 20
391.317852
 30
0.0
 11
335.322964
 21
391.317852
 31
0.0
  0
ARC
  5
155
330
1F
100
AcDbEntity
  8
LC-001-100-D00-0
 62
     7
370
    50
100
AcDbCircle
 10
335.872966
 20
391.117853
 30
0.0
 40
0.2000000000000455
100
AcDbArc
 50
0.0
 51
90.0
  0
LINE
  5
156
330
1F
100
AcDbEntity
  8
LC-001-100-D00-0
 62
     7
370
    50
100
AcDbLine
 10
336.072969
 20
388.317854
 30
0.0
 11
336.072969
 21
391.117856
 31
0.0
  0
LINE
  5
157
330
1F
100
AcDbEntity
  8
LC-001-100-D00-0
 62
     7
370
    50
100
AcDbLine
 10
332.822966
 20
388.317854
 30
0.0
 11
336.072969
 21
388.317854
 31
0.0
  0
LINE
  5
158
330
1F
100
AcDbEntity
  8
LC-001-100-D00-0
 62
     7
370
    50
100
AcDbLine
 10
332.822966
 20
386.81344
 30
0.0
 11
332.822966
 21
388.317854
 31
0.0
  0
INSERT
  5
15F
330
1F
100
AcDbEntity
  8
LC-001-100-D00-0
 62
     7
370
    50
100
AcDbBlockReference
  2
KLON11
 10
0.0
 20
0.0
 30
0.0
  0
LINE
  5
160
330
1F
100
AcDbEntity
  8
LC-001-100-D00-0
 62
     7
370
    50
100
AcDbLine
 10
332.822966
 20
383.813441
 30
0.0
 11
332.822966
 21
385.512025
 31
0.0
  0
INSERT
  5
167
330
1F
100
AcDbEntity
  8
LC-001-100-D00-0
 62
     7
370
    50
100
AcDbBlockReference
  2
KLON12
 10
0.0
 20
0.0
 30
0.0
  0
LINE
  5
168
330
1F
100
AcDbEntity
  8
LC-001-100-D00-0
 62
     7
370
    50
100
AcDbLine
 10
332.822966
 20
380.813443
 30
0.0
 11
332.822966
 21
382.512026
 31
0.0
  0
INSERT
  5
16F
330
1F
100
AcDbEntity
  8
LC-001-100-D00-0
 62
     7
370
    50
100
AcDbBlockReference
  2
KLON13
 10
0.0
 20
0.0
 30
0.0
  0
LINE
  5
170
330
1F
100
AcDbEntity
  8
LC-001-100-D00-0
 62
     7
370
    50
100
AcDbLine
 10
332.822966
 20
377.813444
 30
0.0
 11
332.822966
 21
379.512027
 31
0.0
  0
INSERT
  5
177
330
1F
100
AcDbEntity
  8
LC-001-100-D00-0
 62
     7
370
    50
100
AcDbBlockReference
  2
KLON14
 10
0.0
 20
0.0
 30
0.0
  0
INSERT
  5
17E
330
1F
100
AcDbEntity
  8
LC-001-100-D00-0
 62
     7
370
    50
100
AcDbBlockReference
  2
KLON15
 10
0.0
 20
0.0
 30
0.0
  0
LINE
  5
17F
330
1F
100
AcDbEntity
  8
LC-001-100-D00-0
 62
     7
370
    50
100
AcDbLine
 10
332.822966
 20
372.718268
 30
0.0
 11
332.822966
 21
373.512023
 31
0.0
  0
LINE
  5
180
330
1F
100
AcDbEntity
  8
LC-001-100-D00-0
 62
     7
370
    50
100
AcDbLine
 10
330.822969
 20
371.317857
 30
0.0
 11
332.822966
 21
372.718268
 31
0.0
  0
LINE
  5
181
330
1F
100
AcDbEntity
  8
LC-001-100-D00-0
 62
     7
370
    50
100
AcDbLine
 10
328.822965
 20
372.718268
 30
0.0
 11
330.822969
 21
371.317857
 31
0.0
  0
LINE
  5
182
330
1F
100
AcDbEntity
  8
LC-001-100-D00-0
 62
     7
370
    50
100
AcDbLine
 10
328.822965
 20
375.012026
 30
0.0
 11
328.822965
 21
372.718268
 31
0.0
  0
INSERT
  5
189
330
1F
100
AcDbEntity
  8
LC-001-100-D00-0
 62
     7
370
    50
100
AcDbBlockReference
  2
KLON16
 10
0.0
 20
0.0
 30
0.0
  0
INSERT
  5
190
330
1F
100
AcDbEntity
  8
LC-001-100-D00-0
 62
     7
370
    50
100
AcDbBlockReference
  2
KLON17
 10
0.0
 20
0.0
 30
0.0
  0
LINE
  5
191
330
1F
100
AcDbEntity
  8
LC-001-100-D00-0
 62
     7
370
    50
100
AcDbLine
 10
328.822965
 20
381.012023
 30
0.0
 11
328.822965
 21
379.313447
 31
0.0
  0
INSERT
  5
198
330
1F
100
AcDbEntity
  8
LC-001-100-D00-0
 62
     7
370
    50
100
AcDbBlockReference
  2
KLON18
 10
0.0
 20
0.0
 30
0.0
  0
LINE
  5
199
330
1F
100
AcDbEntity
  8
LC-001-100-D00-0
 62
     7
370
    50
100
AcDbLine
 10
328.822965
 20
384.012029
 30
0.0
 11
328.822965
 21
382.313446
 31
0.0
  0
INSERT
  5
1A0
330
1F
100
AcDbEntity
  8
LC-001-100-D00-0
 62
     7
370
    50
100
AcDbBlockReference
  2
KLON19
 10
0.0
 20
0.0
 30
0.0
  0
LINE
  5
1A1
330
1F
100
AcDbEntity
  8
LC-001-100-D00-0
 62
     7
370
    50
100
AcDbLine
 10
328.822965
 20
387.012028
 30
0.0
 11
328.822965
 21
385.313444
 31
0.0
  0
INSERT
  5
1A8
330
1F
100
AcDbEntity
  8
LC-001-100-D00-0
 62
     7
370
    50
100
AcDbBlockReference
  2
KLON20
 10
0.0
 20
0.0
 30
0.0
  0
LINE
  5
1A9
330
1F
100
AcDbEntity
  8
LC-001-100-D00-0
 62
     7
370
    50
100
AcDbLine
 10
328.822965
 20
388.317854
 30
0.0
 11
328.822965
 21
388.313443
 31
0.0
  0
LINE
  5
1AA
330
1F
100
AcDbEntity
  8
LC-001-100-D00-0
 62
     7
370
    50
100
AcDbLine
 10
325.57297
 20
388.317854
 30
0.0
 11
328.822965
 21
388.317854
 31
0.0
  0
LINE
  5
1AB
330
1F
100
AcDbEntity
  8
LC-001-100-D00-0
 62
     7
370
    50
100
AcDbLine
 10
325.57297
 20
391.117856
 30
0.0
 11
325.57297
 21
388.317854
 31
0.0
  0
ARC
  5
1AC
330
1F
100
AcDbEntity
  8
LC-001-100-D00-0
 62
     7
370
    50
100
AcDbCircle
 10
325.772966
 20
391.117853
 30
0.0
 40
0.2000000000000455
100
AcDbArc
 50
90.0
 51
180.0
  0
LINE
  5
1AD
330
1F
100
AcDbEntity
  8
LC-001-100-D00-0
 62
     7
370
    50
100
AcDbLine
 10
326.322968
 20
391.317852
 30
0.0
 11
325.772966
 21
391.317852
 31
0.0
  0
ARC
  5
1AE
330
1F
100
AcDbEntity
  8
LC-001-100-D00-0
 62
     7
370
    50
100
AcDbCircle
 10
330.822966
 20
386.192853
 30
0.0
 40
6.82023643285201
100
AcDbArc
 50
123.355647
 51
131.284711
  0
LINE
  5
1AF
330
1F
100
AcDbEntity
  8
LC-001-100-D00-0
 62
     7
370
    50
100
AcDbLine
 10
327.072965
 20
391.889617
 30
0.0
 11
327.072965
 21
390.817851
 31
0.0
  0
LINE
  5
1B0
330
1F
100
AcDbEntity
  8
LC-001-100-D00-0
 62
     7
370
    50
100
AcDbLine
 10
329.049537
 20
390.817851
 30
0.0
 11
327.072965
 21
390.817851
 31
0.0
  0
LINE
  5
1B1
330
1F
100
AcDbEntity
  8
LC-001-100-D00-0
 62
     7
370
    50
100
AcDbLine
 10
329.049537
 20
390.31785
 30
0.0
 11
329.049537
 21
390.817851
 31
0.0
  0
LINE
  5
1B2
330
1F
100
AcDbEntity
  8
LC-001-100-D00-0
 62
     7
370
    50
100
AcDbLine
 10
332.596401
 20
390.31785
 30
0.0
 11
329.049537
 21
390.31785
 31
0.0
  0
ARC
  5
1B3
330
1F
100
AcDbEntity
  8
LC-001-100-D00-0
 62
     7
370
    50
100
AcDbCircle
 10
330.822966
 20
386.192853
 30
0.0
 40
6.801883930206413
100
AcDbArc
 50
56.54253
 51
63.818118
  0
ARC
  5
1B4
330
1F
100
AcDbEntity
  8
LC-001-100-D00-0
 62
     7
370
    50
100
AcDbCircle
 10
330.822966
 20
386.192853
 30
0.0
 40
6.801883930206538
100
AcDbArc
 50
116.181882
 51
123.45747
  0
INSERT
  5
1C0
330
1F
100
AcDbEntity
  8
LC-001-100-D00-0
 62
     7
370
    50
100
AcDbBlockReference
  2
POLY15
 10
0.0
 20
0.0
 30
0.0
  0
INSERT
  5
1CC
330
1F
100
AcDbEntity
  8
LC-001-100-D00-0
 62
     7
370
    50
100
AcDbBlockReference
  2
POLY16
 10
0.0
 20
0.0
 30
0.0
  0
LINE
  5
1CD
330
1F
100
AcDbEntity
  8
LC-001-100-D00-0
 62
     7
370
    50
100
AcDbLine
 10
329.049537
 20
392.317854
 30
0.0
 11
327.912311
 21
392.317854
 31
0.0
  0
LINE
  5
1CE
330
1F
100
AcDbEntity
  8
LC-001-100-D00-0
 62
     7
370
    50
100
AcDbLine
 10
329.049537
 20
392.317854
 30
0.0
 11
329.049537
 21
390.817851
 31
0.0
  0
LINE
  5
1CF
330
1F
100
AcDbEntity
  8
LC-001-100-D00-0
 62
     7
370
    50
100
AcDbLine
 10
333.733621
 20
392.317854
 30
0.0
 11
332.596401
 21
392.317854
 31
0.0
  0
LINE
  5
1D0
330
1F
100
AcDbEntity
  8
LC-001-100-D00-0
 62
     7
370
    50
100
AcDbLine
 10
332.596401
 20
392.317854
 30
0.0
 11
332.596401
 21
390.817851
 31
0.0
  0
LINE
  5
1D1
330
1F
100
AcDbEntity
  8
LC-001-100-D00-0
 62
     7
370
    50
100
AcDbLine
 10
330.153415
 20
392.317854
 30
0.0
 11
331.492516
 21
392.317854
 31
0.0
  0
LINE
  5
1D2
330
1F
100
AcDbEntity
  8
LC-001-100-D00-0
 62
     7
370
    50
100
AcDbLine
 10
331.795628
 20
392.317854
 30
0.0
 11
331.492516
 21
392.317854
 31
0.0
  0
LINE
  5
1D3
330
1F
100
AcDbEntity
  8
LC-001-100-D00-0
 62
     7
370
    50
100
AcDbLine
 10
329.850304
 20
392.317854
 30
0.0
 11
330.153415
 21
392.317854
 31
0.0
  0
LINE
  5
1D4
330
1F
100
AcDbEntity
  8
LC-001-100-D00-0
 62
     7
370
    50
100
AcDbLine
 10
331.795628
 20
392.317854
 30
0.0
 11
332.596401
 21
392.317854
 31
0.0
  0
LINE
  5
1D5
330
1F
100
AcDbEntity
  8
LC-001-100-D00-0
 62
     7
370
    50
100
AcDbLine
 10
329.850304
 20
392.317854
 30
0.0
 11
329.049537
 21
392.317854
 31
0.0
  0
LINE
  5
1D6
330
1F
100
AcDbEntity
  8
LC-001-100-D00-0
 62
     7
370
    50
100
AcDbLine
 10
528.502966
 20
377.223977
 30
0.0
 11
552.542964
 21
385.973976
 31
0.0
  0
LINE
  5
1D7
330
1F
100
AcDbEntity
  8
LC-001-100-D00-0
 62
     7
370
    50
100
AcDbLine
 10
297.10296
 20
385.973976
 30
0.0
 11
321.142966
 21
377.223977
 31
0.0
  0
LINE
  5
1D8
330
1F
100
AcDbEntity
  8
LC-001-100-D00-0
 62
     7
370
    50
100
AcDbLine
 10
551.714214
 20
390.673981
 30
0.0
 11
527.674215
 21
381.923974
 31
0.0
  0
LINE
  5
1D9
330
1F
100
AcDbEntity
  8
LC-001-100-D00-0
 62
     7
370
    50
100
AcDbLine
 10
321.971717
 20
381.923974
 30
0.0
 11
297.931718
 21
390.673981
 31
0.0
  0
LINE
  5
1DA
330
1F
100
AcDbEntity
  8
LC-001-100-D00-0
 62
     7
370
    50
100
AcDbLine
 10
297.931718
 20
390.673981
 30
0.0
 11
325.57297
 21
390.673981
 31
0.0
  0
LINE
  5
1DB
330
1F
100
AcDbEntity
  8
LC-001-100-D00-0
 62
     7
370
    50
100
AcDbLine
 10
336.072969
 20
390.673981
 30
0.0
 11
339.795033
 21
390.673981
 31
0.0
  0
LINE
  5
1DC
330
1F
100
AcDbEntity
  8
LC-001-100-D00-0
 62
     7
370
    50
100
AcDbLine
 10
376.649129
 20
390.673981
 30
0.0
 11
381.313073
 21
390.673981
 31
0.0
  0
LINE
  5
1DD
330
1F
100
AcDbEntity
  8
LC-001-100-D00-0
 62
     7
370
    50
100
AcDbLine
 10
391.179847
 20
390.673981
 30
0.0
 11
401.705301
 21
390.673981
 31
0.0
  0
LINE
  5
1DE
330
1F
100
AcDbEntity
  8
LC-001-100-D00-0
 62
     7
370
    50
100
AcDbLine
 10
408.003288
 20
390.673981
 30
0.0
 11
423.672967
 21
390.673981
 31
0.0
  0
LINE
  5
1DF
330
1F
100
AcDbEntity
  8
LC-001-100-D00-0
 62
     7
370
    50
100
AcDbLine
 10
425.972967
 20
390.673981
 30
0.0
 11
441.642643
 21
390.673981
 31
0.0
  0
LINE
  5
1E0
330
1F
100
AcDbEntity
  8
LC-001-100-D00-0
 62
     7
370
    50
100
AcDbLine
 10
447.94063
 20
390.673981
 30
0.0
 11
458.466087
 21
390.673981
 31
0.0
  0
LINE
  5
1E1
330
1F
100
AcDbEntity
  8
LC-001-100-D00-0
 62
     7
370
    50
100
AcDbLine
 10
509.850899
 20
390.673981
 30
0.0
 11
551.714214
 21
390.673981
 31
0.0
  0
LINE
  5
1E2
330
1F
100
AcDbEntity
  8
LC-001-100-D00-0
 62
     7
370
    50
100
AcDbLine
 10
174.822959
 20
390.673981
 30
0.0
 11
174.822959
 21
385.973976
 31
0.0
  0
LINE
  5
1E3
330
1F
100
AcDbEntity
  8
LC-001-100-D00-0
 62
     7
370
    50
100
AcDbLine
 10
326.822969
 20
381.923974
 30
0.0
 11
326.822969
 21
377.223977
 31
0.0
  0
LINE
  5
1E4
330
1F
100
AcDbEntity
  8
LC-001-100-D00-0
 62
     7
370
    50
100
AcDbLine
 10
326.822969
 20
381.923974
 30
0.0
 11
321.971717
 21
381.923974
 31
0.0
  0
LINE
  5
1E5
330
1F
100
AcDbEntity
  8
LC-001-100-D00-0
 62
     7
370
    50
100
AcDbLine
 10
321.142966
 20
377.223977
 30
0.0
 11
326.822969
 21
377.223977
 31
0.0
  0
LINE
  5
1E6
330
1F
100
AcDbEntity
  8
LC-001-100-D00-0
 62
     7
370
    50
100
AcDbLine
 10
174.822959
 20
385.973976
 30
0.0
 11
297.10296
 21
385.973976
 31
0.0
  0
LINE
  5
1E7
330
1F
100
AcDbEntity
  8
LC-001-100-D00-0
 62
     7
370
    50
100
AcDbLine
 10
297.931718
 20
390.673981
 30
0.0
 11
174.822959
 21
390.673981
 31
0.0
  0
LINE
  5
1E8
330
1F
100
AcDbEntity
  8
LC-001-100-D00-0
 62
     7
370
    50
100
AcDbLine
 10
522.822964
 20
377.223977
 30
0.0
 11
522.822964
 21
381.923974
 31
0.0
  0
LINE
  5
1E9
330
1F
100
AcDbEntity
  8
LC-001-100-D00-0
 62
     7
370
    50
100
AcDbLine
 10
674.822974
 20
385.973976
 30
0.0
 11
674.822974
 21
390.673981
 31
0.0
  0
LINE
  5
1EA
330
1F
100
AcDbEntity
  8
LC-001-100-D00-0
 62
     7
370
    50
100
AcDbLine
 10
527.674215
 20
381.923974
 30
0.0
 11
522.822964
 21
381.923974
 31
0.0
  0
LINE
  5
1EB
330
1F
100
AcDbEntity
  8
LC-001-100-D00-0
 62
     7
370
    50
100
AcDbLine
 10
522.822964
 20
377.223977
 30
0.0
 11
528.502966
 21
377.223977
 31
0.0
  0
LINE
  5
1EC
330
1F
100
AcDbEntity
  8
LC-001-100-D00-0
 62
     7
370
    50
100
AcDbLine
 10
552.542964
 20
385.973976
 30
0.0
 11
674.822974
 21
385.973976
 31
0.0
  0
LINE
  5
1ED
330
1F
100
AcDbEntity
  8
LC-001-100-D00-0
 62
     7
370
    50
100
AcDbLine
 10
674.822974
 20
390.673981
 30
0.0
 11
551.714214
 21
390.673981
 31
0.0
  0
LINE
  5
1EE
330
1F
100
AcDbEntity
  8
LC-001-100-D00-0
 62
     7
370
    50
100
AcDbLine
 10
328.065927
 20
381.923974
 30
0.0
 11
326.822969
 21
381.923974
 31
0.0
  0
LINE
  5
1EF
330
1F
100
AcDbEntity
  8
LC-001-100-D00-0
 62
     7
370
    50
100
AcDbLine
 10
518.737862
 20
377.293975
 30
0.0
 11
518.737862
 21
381.923974
 31
0.0
  0
LINE
  5
1F0
330
1F
100
AcDbEntity
  8
LC-001-100-D00-0
 62
     7
370
    50
100
AcDbLine
 10
522.822964
 20
381.923974
 30
0.0
 11
518.737862
 21
381.923974
 31
0.0
  0
LINE
  5
1F1
330
1F
100
AcDbEntity
  8
LC-001-100-D00-0
 62
     7
370
    50
100
AcDbLine
 10
507.225985
 20
377.223977
 30
0.0
 11
507.225985
 21
381.923974
 31
0.0
  0
LINE
  5
1F2
330
1F
100
AcDbEntity
  8
LC-001-100-D00-0
 62
     7
370
    50
100
AcDbLine
 10
518.737862
 20
381.923974
 30
0.0
 11
507.225985
 21
381.923974
 31
0.0
  0
LINE
  5
1F3
330
1F
100
AcDbEntity
  8
LC-001-100-D00-0
 62
     7
370
    50
100
AcDbLine
 10
504.572968
 20
381.923974
 30
0.0
 11
507.225985
 21
381.923974
 31
0.0
  0
LINE
  5
1F4
330
1F
100
AcDbEntity
  8
LC-001-100-D00-0
 62
     7
370
    50
100
AcDbLine
 10
504.572968
 20
377.223977
 30
0.0
 11
507.225985
 21
377.223977
 31
0.0
  0
LINE
  5
1F5
330
1F
100
AcDbEntity
  8
LC-001-100-D00-0
 62
     7
370
    50
100
AcDbLine
 10
342.419947
 20
381.923974
 30
0.0
 11
342.419947
 21
377.223977
 31
0.0
  0
LINE
  5
1F6
330
1F
100
AcDbEntity
  8
LC-001-100-D00-0
 62
     7
370
    50
100
AcDbLine
 10
342.419947
 20
381.923974
 30
0.0
 11
345.072965
 21
381.923974
 31
0.0
  0
LINE
  5
1F7
330
1F
100
AcDbEntity
  8
LC-001-100-D00-0
 62
     7
370
    50
100
AcDbLine
 10
342.419947
 20
377.223977
 30
0.0
 11
345.072965
 21
377.223977
 31
0.0
  0
LINE
  5
1F8
330
1F
100
AcDbEntity
  8
LC-001-100-D00-0
 62
     7
370
    50
100
AcDbLine
 10
342.419947
 20
381.923974
 30
0.0
 11
332.822966
 21
381.923974
 31
0.0
  0
ARC
  5
1F9
330
1F
100
AcDbEntity
  8
LC-001-100-D00-0
 62
     7
370
    50
100
AcDbCircle
 10
546.68139
 20
391.939849
 30
0.0
 40
2.500000000000018
100
AcDbArc
 50
276.0
 51
325.333525
  0
ARC
  5
1FA
330
1F
100
AcDbEntity
  8
LC-001-100-D00-0
 62
     7
370
    50
100
AcDbCircle
 10
302.964543
 20
391.939849
 30
0.0
 40
2.499999999999987
100
AcDbArc
 50
214.666475
 51
264.0
  0
LINE
  5
1FB
330
1F
100
AcDbEntity
  8
LC-001-100-D00-0
 62
     7
370
    50
100
AcDbLine
 10
548.73758
 20
390.517854
 30
0.0
 11
509.907725
 21
390.517854
 31
0.0
  0
LINE
  5
1FC
330
1F
100
AcDbEntity
  8
LC-001-100-D00-0
 62
     7
370
    50
100
AcDbLine
 10
458.494499
 20
390.517854
 30
0.0
 11
447.955337
 21
390.517854
 31
0.0
  0
LINE
  5
1FD
330
1F
100
AcDbEntity
  8
LC-001-100-D00-0
 62
     7
370
    50
100
AcDbLine
 10
441.65735
 20
390.517854
 30
0.0
 11
425.972967
 21
390.517854
 31
0.0
  0
LINE
  5
1FE
330
1F
100
AcDbEntity
  8
LC-001-100-D00-0
 62
     7
370
    50
100
AcDbLine
 10
423.672967
 20
390.517854
 30
0.0
 11
407.988584
 21
390.517854
 31
0.0
  0
LINE
  5
1FF
330
1F
100
AcDbEntity
  8
LC-001-100-D00-0
 62
     7
370
    50
100
AcDbLine
 10
401.690597
 20
390.517854
 30
0.0
 11
391.151434
 21
390.517854
 31
0.0
  0
LINE
  5
200
330
1F
100
AcDbEntity
  8
LC-001-100-D00-0
 62
     7
370
    50
100
AcDbLine
 10
381.284656
 20
390.517854
 30
0.0
 11
376.608948
 21
390.517854
 31
0.0
  0
LINE
  5
201
330
1F
100
AcDbEntity
  8
LC-001-100-D00-0
 62
     7
370
    50
100
AcDbLine
 10
339.738207
 20
390.517854
 30
0.0
 11
336.072969
 21
390.517854
 31
0.0
  0
LINE
  5
202
330
1F
100
AcDbEntity
  8
LC-001-100-D00-0
 62
     7
370
    50
100
AcDbLine
 10
325.57297
 20
390.517854
 30
0.0
 11
300.908344
 21
390.517854
 31
0.0
  0
ARC
  5
203
330
1F
100
AcDbEntity
  8
LC-001-100-D00-0
 62
     7
370
    50
100
AcDbCircle
 10
546.68139
 20
391.939849
 30
0.0
 40
3.000000000000016
100
AcDbArc
 50
276.0
 51
331.705828
  0
ARC
  5
204
330
1F
100
AcDbEntity
  8
LC-001-100-D00-0
 62
     7
370
    50
100
AcDbCircle
 10
302.964543
 20
391.939849
 30
0.0
 40
2.999999999999982
100
AcDbArc
 50
208.294172
 51
264.0
  0
LINE
  5
205
330
1F
100
AcDbEntity
  8
LC-001-100-D00-0
 62
     7
370
    50
100
AcDbLine
 10
546.994972
 20
388.956287
 30
0.0
 11
526.649172
 21
386.817851
 31
0.0
  0
LINE
  5
206
330
1F
100
AcDbEntity
  8
LC-001-100-D00-0
 62
     7
370
    50
100
AcDbLine
 10
322.99676
 20
386.817851
 30
0.0
 11
302.650961
 21
388.956287
 31
0.0
  0
LINE
  5
207
330
1F
100
AcDbEntity
  8
LC-001-100-D00-0
 62
     7
370
    50
100
AcDbLine
 10
526.622968
 20
387.317852
 30
0.0
 11
546.942713
 21
389.453546
 31
0.0
  0
LINE
  5
208
330
1F
100
AcDbEntity
  8
LC-001-100-D00-0
 62
     7
370
    50
100
AcDbLine
 10
302.703219
 20
389.453546
 30
0.0
 11
323.022964
 21
387.317852
 31
0.0
  0
ARC
  5
209
330
1F
100
AcDbEntity
  8
LC-001-100-D00-0
 62
     7
370
    50
100
AcDbCircle
 10
507.072966
 20
384.317853
 30
0.0
 40
2.500000000000114
100
AcDbArc
 50
90.0
 51
180.0
  0
ARC
  5
20A
330
1F
100
AcDbEntity
  8
LC-001-100-D00-0
 62
     7
370
    50
100
AcDbCircle
 10
342.572966
 20
384.317853
 30
0.0
 40
2.500000000000114
100
AcDbArc
 50
0.0
 51
90.0
  0
LINE
  5
20B
330
1F
100
AcDbEntity
  8
LC-001-100-D00-0
 62
     7
370
    50
100
AcDbLine
 10
504.572968
 20
384.317853
 30
0.0
 11
504.572968
 21
367.017851
 31
0.0
  0
LINE
  5
20C
330
1F
100
AcDbEntity
  8
LC-001-100-D00-0
 62
     7
370
    50
100
AcDbLine
 10
345.072965
 20
367.017851
 30
0.0
 11
345.072965
 21
384.317853
 31
0.0
  0
ARC
  5
20D
330
1F
100
AcDbEntity
  8
LC-001-100-D00-0
 62
     7
370
    50
100
AcDbCircle
 10
507.072966
 20
384.317853
 30
0.0
 40
3.0
100
AcDbArc
 50
90.0
 51
180.0
  0
ARC
  5
20E
330
1F
100
AcDbEntity
  8
LC-001-100-D00-0
 62
     7
370
    50
100
AcDbCircle
 10
342.572966
 20
384.317853
 30
0.0
 40
3.0
100
AcDbArc
 50
0.0
 51
90.0
  0
LINE
  5
20F
330
1F
100
AcDbEntity
  8
LC-001-100-D00-0
 62
     7
370
    50
100
AcDbLine
 10
504.072967
 20
367.017851
 30
0.0
 11
504.072967
 21
384.317853
 31
0.0
  0
LINE
  5
210
330
1F
100
AcDbEntity
  8
LC-001-100-D00-0
 62
     7
370
    50
100
AcDbLine
 10
345.572966
 20
384.317853
 30
0.0
 11
345.572966
 21
367.017851
 31
0.0
  0
ARC
  5
211
330
1F
100
AcDbEntity
  8
LC-001-100-D00-0
 62
     7
370
    50
100
AcDbCircle
 10
502.072966
 20
367.017853
 30
0.0
 40
2.0
100
AcDbArc
 50
270.0
 51
0.0
  0
ARC
  5
212
330
1F
100
AcDbEntity
  8
LC-001-100-D00-0
 62
     7
370
    50
100
AcDbCircle
 10
347.572966
 20
367.017853
 30
0.0
 40
2.0
100
AcDbArc
 50
180.0
 51
270.0
  0
ARC
  5
213
330
1F
100
AcDbEntity
  8
LC-001-100-D00-0
 62
     7
370
    50
100
AcDbCircle
 10
502.072966
 20
367.017853
 30
0.0
 40
2.500000000000114
100
AcDbArc
 50
270.0
 51
0.0
  0
ARC
  5
214
330
1F
100
AcDbEntity
  8
LC-001-100-D00-0
 62
     7
370
    50
100
AcDbCircle
 10
347.572966
 20
367.017853
 30
0.0
 40
2.5
100
AcDbArc
 50
180.0
 51
270.0
  0
ARC
  5
215
330
1F
100
AcDbEntity
  8
LC-001-100-D00-0
 62
     7
370
    50
100
AcDbCircle
 10
501.322966
 20
363.517853
 30
0.0
 40
1.0
100
AcDbArc
 50
90.0
 51
180.0
  0
ARC
  5
216
330
1F
100
AcDbEntity
  8
LC-001-100-D00-0
 62
     7
370
    50
100
AcDbCircle
 10
348.322966
 20
363.517853
 30
0.0
 40
1.0
100
AcDbArc
 50
0.0
 51
90.0
  0
ARC
  5
217
330
1F
100
AcDbEntity
  8
LC-001-100-D00-0
 62
     7
370
    50
100
AcDbCircle
 10
501.322966
 20
363.517853
 30
0.0
 40
1.5
100
AcDbArc
 50
90.0
 51
180.0
  0
ARC
  5
218
330
1F
100
AcDbEntity
  8
LC-001-100-D00-0
 62
     7
370
    50
100
AcDbCircle
 10
348.322966
 20
363.517853
 30
0.0
 40
1.5
100
AcDbArc
 50
0.0
 51
90.0
  0
LINE
  5
219
330
1F
100
AcDbEntity
  8
LC-001-100-D00-0
 62
     7
370
    50
100
AcDbLine
 10
501.322965
 20
365.017854
 30
0.0
 11
498.722965
 21
365.017854
 31
0.0
  0
LINE
  5
21A
330
1F
100
AcDbEntity
  8
LC-001-100-D00-0
 62
     7
370
    50
100
AcDbLine
 10
494.835539
 20
365.017854
 30
0.0
 11
436.623063
 21
365.017854
 31
0.0
  0
LINE
  5
21B
330
1F
100
AcDbEntity
  8
LC-001-100-D00-0
 62
     7
370
    50
100
AcDbLine
 10
413.022982
 20
365.017854
 30
0.0
 11
354.810412
 21
365.017854
 31
0.0
  0
LINE
  5
21C
330
1F
100
AcDbEntity
  8
LC-001-100-D00-0
 62
     7
370
    50
100
AcDbLine
 10
350.922967
 20
365.017854
 30
0.0
 11
348.322968
 21
365.017854
 31
0.0
  0
LINE
  5
21D
330
1F
100
AcDbEntity
  8
LC-001-100-D00-0
 62
     7
370
    50
100
AcDbLine
 10
500.322966
 20
363.517851
 30
0.0
 11
500.322966
 21
359.517851
 31
0.0
  0
LINE
  5
21E
330
1F
100
AcDbEntity
  8
LC-001-100-D00-0
 62
     7
370
    50
100
AcDbLine
 10
349.32297
 20
359.517851
 30
0.0
 11
349.32297
 21
363.517851
 31
0.0
  0
LINE
  5
21F
330
1F
100
AcDbEntity
  8
LC-001-100-D00-0
 62
     7
370
    50
100
AcDbLine
 10
499.822965
 20
359.517851
 30
0.0
 11
499.822965
 21
363.517851
 31
0.0
  0
LINE
  5
220
330
1F
100
AcDbEntity
  8
LC-001-100-D00-0
 62
     7
370
    50
100
AcDbLine
 10
349.822963
 20
363.517851
 30
0.0
 11
349.822963
 21
359.517851
 31
0.0
  0
LINE
  5
221
330
1F
100
AcDbEntity
  8
LC-001-100-D00-0
 62
     7
370
    50
100
AcDbLine
 10
494.835539
 20
359.517851
 30
0.0
 11
436.623063
 21
359.517851
 31
0.0
  0
LINE
  5
222
330
1F
100
AcDbEntity
  8
LC-001-100-D00-0
 62
     7
370
    50
100
AcDbLine
 10
413.022982
 20
359.517851
 30
0.0
 11
354.810412
 21
359.517851
 31
0.0
  0
LINE
  5
223
330
1F
100
AcDbEntity
  8
LC-001-100-D00-0
 62
     7
370
    50
100
AcDbLine
 10
500.322966
 20
359.517851
 30
0.0
 11
499.822965
 21
359.517851
 31
0.0
  0
LINE
  5
224
330
1F
100
AcDbEntity
  8
LC-001-100-D00-0
 62
     7
370
    50
100
AcDbLine
 10
501.322965
 20
365.017854
 30
0.0
 11
502.072966
 21
365.017854
 31
0.0
  0
LINE
  5
225
330
1F
100
AcDbEntity
  8
LC-001-100-D00-0
 62
     7
370
    50
100
AcDbLine
 10
502.072966
 20
364.517853
 30
0.0
 11
501.322965
 21
364.517853
 31
0.0
  0
LINE
  5
226
330
1F
100
AcDbEntity
  8
LC-001-100-D00-0
 62
     7
370
    50
100
AcDbLine
 10
507.072965
 20
387.317852
 30
0.0
 11
526.622968
 21
387.317852
 31
0.0
  0
LINE
  5
227
330
1F
100
AcDbEntity
  8
LC-001-100-D00-0
 62
     7
370
    50
100
AcDbLine
 10
526.649172
 20
386.817851
 30
0.0
 11
507.072965
 21
386.817851
 31
0.0
  0
LINE
  5
228
330
1F
100
AcDbEntity
  8
LC-001-100-D00-0
 62
     7
370
    50
100
AcDbLine
 10
548.73758
 20
390.517854
 30
0.0
 11
549.322965
 21
390.517854
 31
0.0
  0
ARC
  5
229
330
1F
100
AcDbEntity
  8
LC-001-100-D00-0
 62
     7
370
    50
100
AcDbCircle
 10
323.71586
 20
387.817853
 30
0.0
 40
1.000000000000114
100
AcDbArc
 50
270.0
 51
315.0
  0
LINE
  5
22A
330
1F
100
AcDbEntity
  8
LC-001-100-D00-0
 62
     7
370
    50
100
AcDbLine
 10
323.922964
 20
387.317852
 30
0.0
 11
324.630077
 21
388.024957
 31
0.0
  0
ARC
  5
22B
330
1F
100
AcDbEntity
  8
LC-001-100-D00-0
 62
     7
370
    50
100
AcDbCircle
 10
325.33718
 20
387.317853
 30
0.0
 40
1.0
100
AcDbArc
 50
90.0
 51
135.0
  0
LINE
  5
22C
330
1F
100
AcDbEntity
  8
LC-001-100-D00-0
 62
     7
370
    50
100
AcDbLine
 10
325.337181
 20
388.317854
 30
0.0
 11
327.072965
 21
388.317854
 31
0.0
  0
LINE
  5
22D
330
1F
100
AcDbEntity
  8
LC-001-100-D00-0
 62
     7
370
    50
100
AcDbLine
 10
327.072965
 20
388.317854
 30
0.0
 11
327.072965
 21
387.817853
 31
0.0
  0
LINE
  5
22E
330
1F
100
AcDbEntity
  8
LC-001-100-D00-0
 62
     7
370
    50
100
AcDbLine
 10
327.072965
 20
387.817853
 30
0.0
 11
325.13007
 21
387.817853
 31
0.0
  0
LINE
  5
22F
330
1F
100
AcDbEntity
  8
LC-001-100-D00-0
 62
     7
370
    50
100
AcDbLine
 10
325.13007
 20
387.817853
 30
0.0
 11
324.422965
 21
387.110748
 31
0.0
  0
LINE
  5
230
330
1F
100
AcDbEntity
  8
LC-001-100-D00-0
 62
     7
370
    50
100
AcDbLine
 10
323.022964
 20
387.317852
 30
0.0
 11
323.922964
 21
387.317852
 31
0.0
  0
LINE
  5
231
330
1F
100
AcDbEntity
  8
LC-001-100-D00-0
 62
     7
370
    50
100
AcDbLine
 10
323.715861
 20
386.817851
 30
0.0
 11
322.99676
 21
386.817851
 31
0.0
  0
LINE
  5
232
330
1F
100
AcDbEntity
  8
LC-001-100-D00-0
 62
     7
370
    50
100
AcDbLine
 10
300.322967
 20
390.517854
 30
0.0
 11
300.908344
 21
390.517854
 31
0.0
  0
ARC
  5
233
330
1F
100
AcDbEntity
  8
LC-001-100-D00-0
 62
     7
370
    50
100
AcDbCircle
 10
337.930073
 20
387.817853
 30
0.0
 40
1.000000000000088
100
AcDbArc
 50
225.0
 51
270.0
  0
LINE
  5
234
330
1F
100
AcDbEntity
  8
LC-001-100-D00-0
 62
     7
370
    50
100
AcDbLine
 10
337.222966
 20
387.110748
 30
0.0
 11
336.515861
 21
387.817853
 31
0.0
  0
LINE
  5
235
330
1F
100
AcDbEntity
  8
LC-001-100-D00-0
 62
     7
370
    50
100
AcDbLine
 10
336.515861
 20
387.817853
 30
0.0
 11
334.572966
 21
387.817853
 31
0.0
  0
LINE
  5
236
330
1F
100
AcDbEntity
  8
LC-001-100-D00-0
 62
     7
370
    50
100
AcDbLine
 10
334.572966
 20
387.817853
 30
0.0
 11
334.572966
 21
388.317854
 31
0.0
  0
LINE
  5
237
330
1F
100
AcDbEntity
  8
LC-001-100-D00-0
 62
     7
370
    50
100
AcDbLine
 10
334.572966
 20
388.317854
 30
0.0
 11
336.30875
 21
388.317854
 31
0.0
  0
ARC
  5
238
330
1F
100
AcDbEntity
  8
LC-001-100-D00-0
 62
     7
370
    50
100
AcDbCircle
 10
336.308753
 20
387.317853
 30
0.0
 40
1.000000000000008
100
AcDbArc
 50
45.0
 51
90.0
  0
LINE
  5
239
330
1F
100
AcDbEntity
  8
LC-001-100-D00-0
 62
     7
370
    50
100
AcDbLine
 10
337.015862
 20
388.024957
 30
0.0
 11
337.722967
 21
387.317852
 31
0.0
  0
LINE
  5
23A
330
1F
100
AcDbEntity
  8
LC-001-100-D00-0
 62
     7
370
    50
100
AcDbLine
 10
349.822963
 20
359.517851
 30
0.0
 11
349.32297
 21
359.517851
 31
0.0
  0
LINE
  5
23B
330
1F
100
AcDbEntity
  8
LC-001-100-D00-0
 62
     7
370
    50
100
AcDbLine
 10
347.57297
 20
365.017854
 30
0.0
 11
348.322968
 21
365.017854
 31
0.0
  0
LINE
  5
23C
330
1F
100
AcDbEntity
  8
LC-001-100-D00-0
 62
     7
370
    50
100
AcDbLine
 10
348.322968
 20
364.517853
 30
0.0
 11
347.57297
 21
364.517853
 31
0.0
  0
LINE
  5
23D
330
1F
100
AcDbEntity
  8
LC-001-100-D00-0
 62
     7
370
    50
100
AcDbLine
 10
337.722967
 20
387.317852
 30
0.0
 11
342.572967
 21
387.317852
 31
0.0
  0
LINE
  5
23E
330
1F
100
AcDbEntity
  8
LC-001-100-D00-0
 62
     7
370
    50
100
AcDbLine
 10
342.572967
 20
386.817851
 30
0.0
 11
337.930071
 21
386.817851
 31
0.0
  0
LINE
  5
23F
330
1F
100
AcDbEntity
  8
LC-001-100-D00-0
 62
     7
370
    50
100
AcDbLine
 10
334.572966
 20
387.817853
 30
0.0
 11
332.822966
 21
387.817853
 31
0.0
  0
LINE
  5
240
330
1F
100
AcDbEntity
  8
LC-001-100-D00-0
 62
     7
370
    50
100
AcDbLine
 10
327.826152
 20
387.817853
 30
0.0
 11
327.072965
 21
387.817853
 31
0.0
  0
LINE
  5
241
330
1F
100
AcDbEntity
  8
LC-001-100-D00-0
 62
     7
370
    50
100
AcDbLine
 10
337.930071
 20
386.817851
 30
0.0
 11
333.024623
 21
386.817851
 31
0.0
  0
LINE
  5
242
330
1F
100
AcDbEntity
  8
LC-001-100-D00-0
 62
     7
370
    50
100
AcDbLine
 10
328.822965
 20
386.817851
 30
0.0
 11
323.715861
 21
386.817851
 31
0.0
  0
LINE
  5
243
330
1F
100
AcDbEntity
  8
LC-001-100-D00-0
 62
     7
370
    50
100
AcDbLine
 10
467.890345
 20
388.317854
 30
0.0
 11
473.603193
 21
388.317854
 31
0.0
  0
LINE
  5
244
330
1F
100
AcDbEntity
  8
LC-001-100-D00-0
 62
     7
370
    50
100
AcDbLine
 10
351.572963
 20
347.103976
 30
0.0
 11
356.072965
 21
347.103976
 31
0.0
  0
LINE
  5
245
330
1F
100
AcDbEntity
  8
LC-001-100-D00-0
 62
     7
370
    50
100
AcDbLine
 10
351.572963
 20
345.103976
 30
0.0
 11
351.572963
 21
347.103976
 31
0.0
  0
LINE
  5
246
330
1F
100
AcDbEntity
  8
LC-001-100-D00-0
 62
     7
370
    50
100
AcDbLine
 10
348.572964
 20
345.103976
 30
0.0
 11
351.572963
 21
345.103976
 31
0.0
  0
LINE
  5
247
330
1F
100
AcDbEntity
  8
LC-001-100-D00-0
 62
     7
370
    50
100
AcDbLine
 10
347.57297
 20
346.103974
 30
0.0
 11
348.572964
 21
345.103976
 31
0.0
  0
LINE
  5
248
330
1F
100
AcDbEntity
  8
LC-001-100-D00-0
 62
     7
370
    50
100
AcDbLine
 10
347.57297
 20
349.603974
 30
0.0
 11
347.57297
 21
346.103974
 31
0.0
  0
LINE
  5
249
330
1F
100
AcDbEntity
  8
LC-001-100-D00-0
 62
     7
370
    50
100
AcDbLine
 10
348.572964
 20
349.603974
 30
0.0
 11
347.57297
 21
349.603974
 31
0.0
  0
LINE
  5
24A
330
1F
100
AcDbEntity
  8
LC-001-100-D00-0
 62
     7
370
    50
100
AcDbLine
 10
348.572964
 20
350.603976
 30
0.0
 11
348.572964
 21
349.603974
 31
0.0
  0
LINE
  5
24B
330
1F
100
AcDbEntity
  8
LC-001-100-D00-0
 62
     7
370
    50
100
AcDbLine
 10
359.072963
 20
350.603976
 30
0.0
 11
348.572964
 21
350.603976
 31
0.0
  0
LINE
  5
24C
330
1F
100
AcDbEntity
  8
LC-001-100-D00-0
 62
     7
370
    50
100
AcDbLine
 10
360.072965
 20
342.603978
 30
0.0
 11
359.072963
 21
350.603976
 31
0.0
  0
LINE
  5
24D
330
1F
100
AcDbEntity
  8
LC-001-100-D00-0
 62
     7
370
    50
100
AcDbLine
 10
356.072965
 20
347.103976
 30
0.0
 11
356.072965
 21
342.603978
 31
0.0
  0
LINE
  5
24E
330
1F
100
AcDbEntity
  8
LC-001-100-D00-0
 62
     7
370
    50
100
AcDbLine
 10
356.072965
 20
342.603978
 30
0.0
 11
360.072965
 21
342.603978
 31
0.0
  0
LINE
  5
24F
330
1F
100
AcDbEntity
  8
LC-001-100-D00-0
 62
     7
370
    50
100
AcDbLine
 10
501.072968
 20
350.603976
 30
0.0
 11
490.572965
 21
350.603976
 31
0.0
  0
LINE
  5
250
330
1F
100
AcDbEntity
  8
LC-001-100-D00-0
 62
     7
370
    50
100
AcDbLine
 10
501.072968
 20
349.603974
 30
0.0
 11
501.072968
 21
350.603976
 31
0.0
  0
LINE
  5
251
330
1F
100
AcDbEntity
  8
LC-001-100-D00-0
 62
     7
370
    50
100
AcDbLine
 10
502.072966
 20
349.603974
 30
0.0
 11
501.072968
 21
349.603974
 31
0.0
  0
LINE
  5
252
330
1F
100
AcDbEntity
  8
LC-001-100-D00-0
 62
     7
370
    50
100
AcDbLine
 10
502.072966
 20
346.103974
 30
0.0
 11
502.072966
 21
349.603974
 31
0.0
  0
LINE
  5
253
330
1F
100
AcDbEntity
  8
LC-001-100-D00-0
 62
     7
370
    50
100
AcDbLine
 10
501.072968
 20
345.103976
 30
0.0
 11
502.072966
 21
346.103974
 31
0.0
  0
LINE
  5
254
330
1F
100
AcDbEntity
  8
LC-001-100-D00-0
 62
     7
370
    50
100
AcDbLine
 10
498.072966
 20
345.103976
 30
0.0
 11
501.072968
 21
345.103976
 31
0.0
  0
LINE
  5
255
330
1F
100
AcDbEntity
  8
LC-001-100-D00-0
 62
     7
370
    50
100
AcDbLine
 10
498.072966
 20
347.103976
 30
0.0
 11
498.072966
 21
345.103976
 31
0.0
  0
LINE
  5
256
330
1F
100
AcDbEntity
  8
LC-001-100-D00-0
 62
     7
370
    50
100
AcDbLine
 10
493.572968
 20
347.103976
 30
0.0
 11
498.072966
 21
347.103976
 31
0.0
  0
LINE
  5
257
330
1F
100
AcDbEntity
  8
LC-001-100-D00-0
 62
     7
370
    50
100
AcDbLine
 10
493.572968
 20
342.603978
 30
0.0
 11
493.572968
 21
347.103976
 31
0.0
  0
LINE
  5
258
330
1F
100
AcDbEntity
  8
LC-001-100-D00-0
 62
     7
370
    50
100
AcDbLine
 10
490.572965
 20
350.603976
 30
0.0
 11
489.572967
 21
342.603978
 31
0.0
  0
LINE
  5
259
330
1F
100
AcDbEntity
  8
LC-001-100-D00-0
 62
     7
370
    50
100
AcDbLine
 10
489.572967
 20
342.603978
 30
0.0
 11
493.572968
 21
342.603978
 31
0.0
  0
LINE
  5
25A
330
1F
100
AcDbEntity
  8
LC-001-100-D00-0
 62
     7
370
    50
100
AcDbLine
 10
490.572965
 20
350.603976
 30
0.0
 11
359.072963
 21
350.603976
 31
0.0
  0
LINE
  5
25B
330
1F
100
AcDbEntity
  8
LC-001-100-D00-0
 62
     7
370
    50
100
AcDbLine
 10
489.572967
 20
342.603978
 30
0.0
 11
360.072965
 21
342.603978
 31
0.0
  0
LINE
  5
25C
330
1F
100
AcDbEntity
  8
LC-001-100-D00-0
 62
     7
370
    50
100
AcDbLine
 10
333.572964
 20
361.793981
 30
0.0
 11
328.072968
 21
361.793981
 31
0.0
  0
LINE
  5
25D
330
1F
100
AcDbEntity
  8
LC-001-100-D00-0
 62
     7
370
    50
100
AcDbLine
 10
333.572964
 20
361.793981
 30
0.0
 11
333.572964
 21
377.293975
 31
0.0
  0
LINE
  5
25E
330
1F
100
AcDbEntity
  8
LC-001-100-D00-0
 62
     7
370
    50
100
AcDbLine
 10
342.322963
 20
377.293975
 30
0.0
 11
333.572964
 21
377.293975
 31
0.0
  0
LINE
  5
25F
330
1F
100
AcDbEntity
  8
LC-001-100-D00-0
 62
     7
370
    50
100
AcDbLine
 10
342.322963
 20
360.55398
 30
0.0
 11
342.322963
 21
377.293975
 31
0.0
  0
LINE
  5
260
330
1F
100
AcDbEntity
  8
LC-001-100-D00-0
 62
     7
370
    50
100
AcDbLine
 10
347.322966
 20
355.553978
 30
0.0
 11
342.322963
 21
360.55398
 31
0.0
  0
LINE
  5
261
330
1F
100
AcDbEntity
  8
LC-001-100-D00-0
 62
     7
370
    50
100
AcDbLine
 10
347.322966
 20
346.103974
 30
0.0
 11
347.322966
 21
355.553978
 31
0.0
  0
ARC
  5
262
330
1F
100
AcDbEntity
  8
LC-001-100-D00-0
 62
     7
370
    50
100
AcDbCircle
 10
348.322966
 20
346.103977
 30
0.0
 40
1.0
100
AcDbArc
 50
180.0
 51
270.0
  0
LINE
  5
263
330
1F
100
AcDbEntity
  8
LC-001-100-D00-0
 62
     7
370
    50
100
AcDbLine
 10
353.322963
 20
345.103976
 30
0.0
 11
348.322968
 21
345.103976
 31
0.0
  0
ARC
  5
264
330
1F
100
AcDbEntity
  8
LC-001-100-D00-0
 62
     7
370
    50
100
AcDbCircle
 10
353.322966
 20
344.103977
 30
0.0
 40
1.0
100
AcDbArc
 50
0.0
 51
90.0
  0
LINE
  5
265
330
1F
100
AcDbEntity
  8
LC-001-100-D00-0
 62
     7
370
    50
100
AcDbLine
 10
354.322965
 20
330.103975
 30
0.0
 11
354.322965
 21
344.103978
 31
0.0
  0
LINE
  5
266
330
1F
100
AcDbEntity
  8
LC-001-100-D00-0
 62
     7
370
    50
100
AcDbLine
 10
359.322968
 20
330.103975
 30
0.0
 11
354.322965
 21
330.103975
 31
0.0
  0
ARC
  5
267
330
1F
100
AcDbEntity
  8
LC-001-100-D00-0
 62
     7
370
    50
100
AcDbCircle
 10
359.322966
 20
329.103977
 30
0.0
 40
1.0
100
AcDbArc
 50
0.0
 51
90.0
  0
LINE
  5
268
330
1F
100
AcDbEntity
  8
LC-001-100-D00-0
 62
     7
370
    50
100
AcDbLine
 10
360.32297
 20
300.462625
 30
0.0
 11
360.32297
 21
329.103977
 31
0.0
  0
ARC
  5
269
330
1F
100
AcDbEntity
  8
LC-001-100-D00-0
 62
     7
370
    50
100
AcDbCircle
 10
361.322966
 20
300.462625
 30
0.0
 40
1.0
100
AcDbArc
 50
180.0
 51
263.0
  0
LINE
  5
26A
330
1F
100
AcDbEntity
  8
LC-001-100-D00-0
 62
     7
370
    50
100
AcDbLine
 10
365.322965
 20
298.963978
 30
0.0
 11
361.201095
 21
299.470079
 31
0.0
  0
LINE
  5
26B
330
1F
100
AcDbEntity
  8
LC-001-100-D00-0
 62
     7
370
    50
100
AcDbLine
 10
365.322965
 20
217.973978
 30
0.0
 11
365.322965
 21
298.963978
 31
0.0
  0
LINE
  5
26C
330
1F
100
AcDbEntity
  8
LC-001-100-D00-0
 62
     7
370
    50
100
AcDbLine
 10
363.528738
 20
217.973978
 30
0.0
 11
365.322965
 21
217.973978
 31
0.0
  0
LINE
  5
26D
330
1F
100
AcDbEntity
  8
LC-001-100-D00-0
 62
     7
370
    50
100
AcDbLine
 10
362.322966
 20
222.473976
 30
0.0
 11
363.528738
 21
217.973978
 31
0.0
  0
LINE
  5
26E
330
1F
100
AcDbEntity
  8
LC-001-100-D00-0
 62
     7
370
    50
100
AcDbLine
 10
362.322966
 20
293.973977
 30
0.0
 11
362.322966
 21
222.473976
 31
0.0
  0
LINE
  5
26F
330
1F
100
AcDbEntity
  8
LC-001-100-D00-0
 62
     7
370
    50
100
AcDbLine
 10
357.072967
 20
293.973977
 30
0.0
 11
362.322966
 21
293.973977
 31
0.0
  0
LINE
  5
270
330
1F
100
AcDbEntity
  8
LC-001-100-D00-0
 62
     7
370
    50
100
AcDbLine
 10
357.072967
 20
325.603977
 30
0.0
 11
357.072967
 21
293.973977
 31
0.0
  0
ARC
  5
271
330
1F
100
AcDbEntity
  8
LC-001-100-D00-0
 62
     7
370
    50
100
AcDbCircle
 10
356.072966
 20
325.603977
 30
0.0
 40
1.0
100
AcDbArc
 50
0.0
 51
90.0
  0
LINE
  5
272
330
1F
100
AcDbEntity
  8
LC-001-100-D00-0
 62
     7
370
    50
100
AcDbLine
 10
354.272964
 20
326.603976
 30
0.0
 11
356.072965
 21
326.603976
 31
0.0
  0
ARC
  5
273
330
1F
100
AcDbEntity
  8
LC-001-100-D00-0
 62
     7
370
    50
100
AcDbCircle
 10
354.272966
 20
329.103977
 30
0.0
 40
2.500000000000114
100
AcDbArc
 50
180.0
 51
270.0
  0
LINE
  5
274
330
1F
100
AcDbEntity
  8
LC-001-100-D00-0
 62
     7
370
    50
100
AcDbLine
 10
351.772966
 20
339.503978
 30
0.0
 11
351.772966
 21
329.103977
 31
0.0
  0
ARC
  5
275
330
1F
100
AcDbEntity
  8
LC-001-100-D00-0
 62
     7
370
    50
100
AcDbCircle
 10
350.772966
 20
339.503977
 30
0.0
 40
1.0
100
AcDbArc
 50
0.0
 51
90.0
  0
LINE
  5
276
330
1F
100
AcDbEntity
  8
LC-001-100-D00-0
 62
     7
370
    50
100
AcDbLine
 10
348.322968
 20
340.503976
 30
0.0
 11
350.772964
 21
340.503976
 31
0.0
  0
ARC
  5
277
330
1F
100
AcDbEntity
  8
LC-001-100-D00-0
 62
     7
370
    50
100
AcDbCircle
 10
348.322966
 20
339.503977
 30
0.0
 40
1.0
100
AcDbArc
 50
90.0
 51
180.0
  0
LINE
  5
278
330
1F
100
AcDbEntity
  8
LC-001-100-D00-0
 62
     7
370
    50
100
AcDbLine
 10
347.322966
 20
293.973977
 30
0.0
 11
347.322966
 21
339.503978
 31
0.0
  0
LINE
  5
279
330
1F
100
AcDbEntity
  8
LC-001-100-D00-0
 62
     7
370
    50
100
AcDbLine
 10
344.822968
 20
293.973977
 30
0.0
 11
347.322966
 21
293.973977
 31
0.0
  0
LINE
  5
27A
330
1F
100
AcDbEntity
  8
LC-001-100-D00-0
 62
     7
370
    50
100
AcDbLine
 10
344.822968
 20
355.413974
 30
0.0
 11
344.822968
 21
293.973977
 31
0.0
  0
LINE
  5
27B
330
1F
100
AcDbEntity
  8
LC-001-100-D00-0
 62
     7
370
    50
100
AcDbLine
 10
343.822966
 20
356.413976
 30
0.0
 11
344.822968
 21
355.413974
 31
0.0
  0
LINE
  5
27C
330
1F
100
AcDbEntity
  8
LC-001-100-D00-0
 62
     7
370
    50
100
AcDbLine
 10
339.822965
 20
356.413976
 30
0.0
 11
343.822966
 21
356.413976
 31
0.0
  0
LINE
  5
27D
330
1F
100
AcDbEntity
  8
LC-001-100-D00-0
 62
     7
370
    50
100
AcDbLine
 10
339.822965
 20
358.793974
 30
0.0
 11
339.822965
 21
356.413976
 31
0.0
  0
LINE
  5
27E
330
1F
100
AcDbEntity
  8
LC-001-100-D00-0
 62
     7
370
    50
100
AcDbLine
 10
333.822968
 20
358.793974
 30
0.0
 11
339.822965
 21
358.793974
 31
0.0
  0
LINE
  5
27F
330
1F
100
AcDbEntity
  8
LC-001-100-D00-0
 62
     7
370
    50
100
AcDbLine
 10
333.822968
 20
358.793974
 30
0.0
 11
333.822968
 21
355.793976
 31
0.0
  0
LINE
  5
280
330
1F
100
AcDbEntity
  8
LC-001-100-D00-0
 62
     7
370
    50
100
AcDbLine
 10
332.822966
 20
354.793974
 30
0.0
 11
333.822968
 21
355.793976
 31
0.0
  0
LINE
  5
281
330
1F
100
AcDbEntity
  8
LC-001-100-D00-0
 62
     7
370
    50
100
AcDbLine
 10
328.822965
 20
354.793974
 30
0.0
 11
332.822966
 21
354.793974
 31
0.0
  0
LINE
  5
282
330
1F
100
AcDbEntity
  8
LC-001-100-D00-0
 62
     7
370
    50
100
AcDbLine
 10
327.822963
 20
355.793976
 30
0.0
 11
328.822965
 21
354.793974
 31
0.0
  0
LINE
  5
283
330
1F
100
AcDbEntity
  8
LC-001-100-D00-0
 62
     7
370
    50
100
AcDbLine
 10
327.822963
 20
355.793976
 30
0.0
 11
327.822963
 21
358.793974
 31
0.0
  0
LINE
  5
284
330
1F
100
AcDbEntity
  8
LC-001-100-D00-0
 62
     7
370
    50
100
AcDbLine
 10
325.34797
 20
358.793974
 30
0.0
 11
327.822963
 21
358.793974
 31
0.0
  0
ARC
  5
285
330
1F
100
AcDbEntity
  8
LC-001-100-D00-0
 62
     7
370
    50
100
AcDbCircle
 10
325.347966
 20
359.293977
 30
0.0
 40
0.5
100
AcDbArc
 50
180.0
 51
270.0
  0
LINE
  5
286
330
1F
100
AcDbEntity
  8
LC-001-100-D00-0
 62
     7
370
    50
100
AcDbLine
 10
324.847969
 20
359.293975
 30
0.0
 11
324.847969
 21
374.793977
 31
0.0
  0
LINE
  5
287
330
1F
100
AcDbEntity
  8
LC-001-100-D00-0
 62
     7
370
    50
100
AcDbLine
 10
319.508391
 20
374.793977
 30
0.0
 11
324.847969
 21
374.793977
 31
0.0
  0
LINE
  5
288
330
1F
100
AcDbEntity
  8
LC-001-100-D00-0
 62
     7
370
    50
100
AcDbLine
 10
297.034028
 20
382.973977
 30
0.0
 11
319.508391
 21
374.793977
 31
0.0
  0
LINE
  5
289
330
1F
100
AcDbEntity
  8
LC-001-100-D00-0
 62
     7
370
    50
100
AcDbLine
 10
247.822973
 20
382.973977
 30
0.0
 11
297.034028
 21
382.973977
 31
0.0
  0
LINE
  5
28A
330
1F
100
AcDbEntity
  8
LC-001-100-D00-0
 62
     7
370
    50
100
AcDbLine
 10
247.822973
 20
383.973979
 30
0.0
 11
247.822973
 21
382.973977
 31
0.0
  0
ARC
  5
28B
330
1F
100
AcDbEntity
  8
LC-001-100-D00-0
 62
     7
370
    50
100
AcDbCircle
 10
249.822966
 20
383.973977
 30
0.0
 40
2.0
100
AcDbArc
 50
90.0
 51
180.0
  0
LINE
  5
28C
330
1F
100
AcDbEntity
  8
LC-001-100-D00-0
 62
     7
370
    50
100
AcDbLine
 10
297.299864
 20
385.973976
 30
0.0
 11
249.822962
 21
385.973976
 31
0.0
  0
LINE
  5
28D
330
1F
100
AcDbEntity
  8
LC-001-100-D00-0
 62
     7
370
    50
100
AcDbLine
 10
321.147966
 20
377.293975
 30
0.0
 11
297.299864
 21
385.973976
 31
0.0
  0
LINE
  5
28E
330
1F
100
AcDbEntity
  8
LC-001-100-D00-0
 62
     7
370
    50
100
AcDbLine
 10
328.072968
 20
377.293975
 30
0.0
 11
321.147966
 21
377.293975
 31
0.0
  0
LINE
  5
28F
330
1F
100
AcDbEntity
  8
LC-001-100-D00-0
 62
     7
370
    50
100
AcDbLine
 10
328.072968
 20
377.293975
 30
0.0
 11
328.072968
 21
361.793981
 31
0.0
  0
LINE
  5
290
330
1F
100
AcDbEntity
  8
LC-001-100-D00-0
 62
     7
370
    50
100
AcDbLine
 10
599.822971
 20
385.973976
 30
0.0
 11
552.346068
 21
385.973976
 31
0.0
  0
ARC
  5
291
330
1F
100
AcDbEntity
  8
LC-001-100-D00-0
 62
     7
370
    50
100
AcDbCircle
 10
599.822966
 20
383.973977
 30
0.0
 40
2.0
100
AcDbArc
 50
0.0
 51
90.0
  0
LINE
  5
292
330
1F
100
AcDbEntity
  8
LC-001-100-D00-0
 62
     7
370
    50
100
AcDbLine
 10
601.82296
 20
382.973977
 30
0.0
 11
601.82296
 21
383.973979
 31
0.0
  0
LINE
  5
293
330
1F
100
AcDbEntity
  8
LC-001-100-D00-0
 62
     7
370
    50
100
AcDbLine
 10
552.611912
 20
382.973977
 30
0.0
 11
601.82296
 21
382.973977
 31
0.0
  0
LINE
  5
294
330
1F
100
AcDbEntity
  8
LC-001-100-D00-0
 62
     7
370
    50
100
AcDbLine
 10
530.137541
 20
374.793977
 30
0.0
 11
552.611912
 21
382.973977
 31
0.0
  0
LINE
  5
295
330
1F
100
AcDbEntity
  8
LC-001-100-D00-0
 62
     7
370
    50
100
AcDbLine
 10
524.797963
 20
374.793977
 30
0.0
 11
530.137541
 21
374.793977
 31
0.0
  0
LINE
  5
296
330
1F
100
AcDbEntity
  8
LC-001-100-D00-0
 62
     7
370
    50
100
AcDbLine
 10
524.797963
 20
374.793977
 30
0.0
 11
524.797963
 21
359.293975
 31
0.0
  0
ARC
  5
297
330
1F
100
AcDbEntity
  8
LC-001-100-D00-0
 62
     7
370
    50
100
AcDbCircle
 10
524.297966
 20
359.293977
 30
0.0
 40
0.5
100
AcDbArc
 50
270.0
 51
0.0
  0
LINE
  5
298
330
1F
100
AcDbEntity
  8
LC-001-100-D00-0
 62
     7
370
    50
100
AcDbLine
 10
521.822969
 20
358.793974
 30
0.0
 11
524.29797
 21
358.793974
 31
0.0
  0
LINE
  5
299
330
1F
100
AcDbEntity
  8
LC-001-100-D00-0
 62
     7
370
    50
100
AcDbLine
 10
521.822969
 20
358.793974
 30
0.0
 11
521.822969
 21
355.793976
 31
0.0
  0
LINE
  5
29A
330
1F
100
AcDbEntity
  8
LC-001-100-D00-0
 62
     7
370
    50
100
AcDbLine
 10
520.822967
 20
354.793974
 30
0.0
 11
521.822969
 21
355.793976
 31
0.0
  0
LINE
  5
29B
330
1F
100
AcDbEntity
  8
LC-001-100-D00-0
 62
     7
370
    50
100
AcDbLine
 10
516.822966
 20
354.793974
 30
0.0
 11
520.822967
 21
354.793974
 31
0.0
  0
LINE
  5
29C
330
1F
100
AcDbEntity
  8
LC-001-100-D00-0
 62
     7
370
    50
100
AcDbLine
 10
515.822964
 20
355.793976
 30
0.0
 11
516.822966
 21
354.793974
 31
0.0
  0
LINE
  5
29D
330
1F
100
AcDbEntity
  8
LC-001-100-D00-0
 62
     7
370
    50
100
AcDbLine
 10
515.822964
 20
355.793976
 30
0.0
 11
515.822964
 21
358.793974
 31
0.0
  0
LINE
  5
29E
330
1F
100
AcDbEntity
  8
LC-001-100-D00-0
 62
     7
370
    50
100
AcDbLine
 10
509.822967
 20
358.793974
 30
0.0
 11
515.822964
 21
358.793974
 31
0.0
  0
LINE
  5
29F
330
1F
100
AcDbEntity
  8
LC-001-100-D00-0
 62
     7
370
    50
100
AcDbLine
 10
509.822967
 20
356.413976
 30
0.0
 11
509.822967
 21
358.793974
 31
0.0
  0
LINE
  5
2A0
330
1F
100
AcDbEntity
  8
LC-001-100-D00-0
 62
     7
370
    50
100
AcDbLine
 10
505.822966
 20
356.413976
 30
0.0
 11
509.822967
 21
356.413976
 31
0.0
  0
LINE
  5
2A1
330
1F
100
AcDbEntity
  8
LC-001-100-D00-0
 62
     7
370
    50
100
AcDbLine
 10
504.822968
 20
355.413974
 30
0.0
 11
505.822966
 21
356.413976
 31
0.0
  0
LINE
  5
2A2
330
1F
100
AcDbEntity
  8
LC-001-100-D00-0
 62
     7
370
    50
100
AcDbLine
 10
504.822968
 20
293.973977
 30
0.0
 11
504.822968
 21
355.413974
 31
0.0
  0
LINE
  5
2A3
330
1F
100
AcDbEntity
  8
LC-001-100-D00-0
 62
     7
370
    50
100
AcDbLine
 10
502.322967
 20
293.973977
 30
0.0
 11
504.822968
 21
293.973977
 31
0.0
  0
LINE
  5
2A4
330
1F
100
AcDbEntity
  8
LC-001-100-D00-0
 62
     7
370
    50
100
AcDbLine
 10
502.322967
 20
339.503978
 30
0.0
 11
502.322967
 21
293.973977
 31
0.0
  0
ARC
  5
2A5
330
1F
100
AcDbEntity
  8
LC-001-100-D00-0
 62
     7
370
    50
100
AcDbCircle
 10
501.322966
 20
339.503977
 30
0.0
 40
1.0
100
AcDbArc
 50
0.0
 51
90.0
  0
LINE
  5
2A6
330
1F
100
AcDbEntity
  8
LC-001-100-D00-0
 62
     7
370
    50
100
AcDbLine
 10
498.872968
 20
340.503976
 30
0.0
 11
501.322965
 21
340.503976
 31
0.0
  0
ARC
  5
2A7
330
1F
100
AcDbEntity
  8
LC-001-100-D00-0
 62
     7
370
    50
100
AcDbCircle
 10
498.872966
 20
339.503977
 30
0.0
 40
1.0
100
AcDbArc
 50
90.0
 51
180.0
  0
LINE
  5
2A8
330
1F
100
AcDbEntity
  8
LC-001-100-D00-0
 62
     7
370
    50
100
AcDbLine
 10
497.872966
 20
329.103977
 30
0.0
 11
497.872966
 21
339.503978
 31
0.0
  0
ARC
  5
2A9
330
1F
100
AcDbEntity
  8
LC-001-100-D00-0
 62
     7
370
    50
100
AcDbCircle
 10
495.372966
 20
329.103977
 30
0.0
 40
2.5
100
AcDbArc
 50
270.0
 51
0.0
  0
LINE
  5
2AA
330
1F
100
AcDbEntity
  8
LC-001-100-D00-0
 62
     7
370
    50
100
AcDbLine
 10
493.572968
 20
326.603976
 30
0.0
 11
495.372968
 21
326.603976
 31
0.0
  0
ARC
  5
2AB
330
1F
100
AcDbEntity
  8
LC-001-100-D00-0
 62
     7
370
    50
100
AcDbCircle
 10
493.572966
 20
325.603977
 30
0.0
 40
1.0
100
AcDbArc
 50
90.0
 51
180.0
  0
LINE
  5
2AC
330
1F
100
AcDbEntity
  8
LC-001-100-D00-0
 62
     7
370
    50
100
AcDbLine
 10
492.572966
 20
293.973977
 30
0.0
 11
492.572966
 21
325.603977
 31
0.0
  0
LINE
  5
2AD
330
1F
100
AcDbEntity
  8
LC-001-100-D00-0
 62
     7
370
    50
100
AcDbLine
 10
487.322966
 20
293.973977
 30
0.0
 11
492.572966
 21
293.973977
 31
0.0
  0
LINE
  5
2AE
330
1F
100
AcDbEntity
  8
LC-001-100-D00-0
 62
     7
370
    50
100
AcDbLine
 10
487.322966
 20
222.473976
 30
0.0
 11
487.322966
 21
293.973977
 31
0.0
  0
LINE
  5
2AF
330
1F
100
AcDbEntity
  8
LC-001-100-D00-0
 62
     7
370
    50
100
AcDbLine
 10
486.117194
 20
217.973978
 30
0.0
 11
487.322966
 21
222.473976
 31
0.0
  0
LINE
  5
2B0
330
1F
100
AcDbEntity
  8
LC-001-100-D00-0
 62
     7
370
    50
100
AcDbLine
 10
484.322968
 20
217.973978
 30
0.0
 11
486.117194
 21
217.973978
 31
0.0
  0
LINE
  5
2B1
330
1F
100
AcDbEntity
  8
LC-001-100-D00-0
 62
     7
370
    50
100
AcDbLine
 10
484.322968
 20
298.963978
 30
0.0
 11
484.322968
 21
217.973978
 31
0.0
  0
LINE
  5
2B2
330
1F
100
AcDbEntity
  8
LC-001-100-D00-0
 62
     7
370
    50
100
AcDbLine
 10
488.444837
 20
299.470079
 30
0.0
 11
484.322968
 21
298.963978
 31
0.0
  0
ARC
  5
2B3
330
1F
100
AcDbEntity
  8
LC-001-100-D00-0
 62
     7
370
    50
100
AcDbCircle
 10
488.322966
 20
300.462625
 30
0.0
 40
1.00000000000004
100
AcDbArc
 50
277.0
 51
0.0
  0
LINE
  5
2B4
330
1F
100
AcDbEntity
  8
LC-001-100-D00-0
 62
     7
370
    50
100
AcDbLine
 10
489.322966
 20
329.103977
 30
0.0
 11
489.322966
 21
300.462625
 31
0.0
  0
ARC
  5
2B5
330
1F
100
AcDbEntity
  8
LC-001-100-D00-0
 62
     7
370
    50
100
AcDbCircle
 10
490.322966
 20
329.103977
 30
0.0
 40
1.0
100
AcDbArc
 50
90.0
 51
180.0
  0
LINE
  5
2B6
330
1F
100
AcDbEntity
  8
LC-001-100-D00-0
 62
     7
370
    50
100
AcDbLine
 10
495.322967
 20
330.103975
 30
0.0
 11
490.322965
 21
330.103975
 31
0.0
  0
LINE
  5
2B7
330
1F
100
AcDbEntity
  8
LC-001-100-D00-0
 62
     7
370
    50
100
AcDbLine
 10
495.322967
 20
344.103978
 30
0.0
 11
495.322967
 21
330.103975
 31
0.0
  0
ARC
  5
2B8
330
1F
100
AcDbEntity
  8
LC-001-100-D00-0
 62
     7
370
    50
100
AcDbCircle
 10
496.322966
 20
344.103977
 30
0.0
 40
1.0
100
AcDbArc
 50
90.0
 51
180.0
  0
LINE
  5
2B9
330
1F
100
AcDbEntity
  8
LC-001-100-D00-0
 62
     7
370
    50
100
AcDbLine
 10
501.322965
 20
345.103976
 30
0.0
 11
496.322966
 21
345.103976
 31
0.0
  0
ARC
  5
2BA
330
1F
100
AcDbEntity
  8
LC-001-100-D00-0
 62
     7
370
    50
100
AcDbCircle
 10
501.322966
 20
346.103977
 30
0.0
 40
1.0
100
AcDbArc
 50
270.0
 51
0.0
  0
LINE
  5
2BB
330
1F
100
AcDbEntity
  8
LC-001-100-D00-0
 62
     7
370
    50
100
AcDbLine
 10
502.322967
 20
355.553978
 30
0.0
 11
502.322967
 21
346.103974
 31
0.0
  0
LINE
  5
2BC
330
1F
100
AcDbEntity
  8
LC-001-100-D00-0
 62
     7
370
    50
100
AcDbLine
 10
507.322969
 20
360.55398
 30
0.0
 11
502.322967
 21
355.553978
 31
0.0
  0
LINE
  5
2BD
330
1F
100
AcDbEntity
  8
LC-001-100-D00-0
 62
     7
370
    50
100
AcDbLine
 10
507.322969
 20
377.293975
 30
0.0
 11
507.322969
 21
360.55398
 31
0.0
  0
LINE
  5
2BE
330
1F
100
AcDbEntity
  8
LC-001-100-D00-0
 62
     7
370
    50
100
AcDbLine
 10
516.072969
 20
377.293975
 30
0.0
 11
507.322969
 21
377.293975
 31
0.0
  0
LINE
  5
2BF
330
1F
100
AcDbEntity
  8
LC-001-100-D00-0
 62
     7
370
    50
100
AcDbLine
 10
516.072969
 20
377.293975
 30
0.0
 11
516.072969
 21
361.793981
 31
0.0
  0
LINE
  5
2C0
330
1F
100
AcDbEntity
  8
LC-001-100-D00-0
 62
     7
370
    50
100
AcDbLine
 10
521.572965
 20
361.793981
 30
0.0
 11
516.072969
 21
361.793981
 31
0.0
  0
LINE
  5
2C1
330
1F
100
AcDbEntity
  8
LC-001-100-D00-0
 62
     7
370
    50
100
AcDbLine
 10
521.572965
 20
361.793981
 30
0.0
 11
521.572965
 21
377.293975
 31
0.0
  0
LINE
  5
2C2
330
1F
100
AcDbEntity
  8
LC-001-100-D00-0
 62
     7
370
    50
100
AcDbLine
 10
528.497966
 20
377.293975
 30
0.0
 11
521.572965
 21
377.293975
 31
0.0
  0
LINE
  5
2C3
330
1F
100
AcDbEntity
  8
LC-001-100-D00-0
 62
     7
370
    50
100
AcDbLine
 10
552.346068
 20
385.973976
 30
0.0
 11
528.497966
 21
377.293975
 31
0.0
  0
LINE
  5
2C4
330
1F
100
AcDbEntity
  8
LC-001-100-D00-0
 62
     7
370
    50
100
AcDbLine
 10
361.201095
 20
299.470079
 30
0.0
 11
488.444837
 21
299.470079
 31
0.0
  0
LINE
  5
2C5
330
1F
100
AcDbEntity
  8
LC-001-100-D00-0
 62
     7
370
    50
100
AcDbLine
 10
359.322968
 20
330.103975
 30
0.0
 11
490.322965
 21
330.103975
 31
0.0
  0
LINE
  5
2C6
330
1F
100
AcDbEntity
  8
LC-001-100-D00-0
 62
     7
370
    50
100
AcDbLine
 10
353.322963
 20
345.103976
 30
0.0
 11
356.072965
 21
345.103976
 31
0.0
  0
LINE
  5
2C7
330
1F
100
AcDbEntity
  8
LC-001-100-D00-0
 62
     7
370
    50
100
AcDbLine
 10
493.572968
 20
345.103976
 30
0.0
 11
496.322966
 21
345.103976
 31
0.0
  0
LINE
  5
2C8
330
1F
100
AcDbEntity
  8
LC-001-100-D00-0
 62
     7
370
    50
100
AcDbLine
 10
347.322966
 20
355.553978
 30
0.0
 11
502.322967
 21
355.553978
 31
0.0
  0
LINE
  5
2C9
330
1F
100
AcDbEntity
  8
LC-001-100-D00-0
 62
     7
370
    50
100
AcDbLine
 10
342.322963
 20
360.55398
 30
0.0
 11
349.32297
 21
360.55398
 31
0.0
  0
LINE
  5
2CA
330
1F
100
AcDbEntity
  8
LC-001-100-D00-0
 62
     7
370
    50
100
AcDbLine
 10
500.322966
 20
360.55398
 30
0.0
 11
507.322969
 21
360.55398
 31
0.0
  0
LINE
  5
2CB
330
1F
100
AcDbEntity
  8
LC-001-100-D00-0
 62
     7
370
    50
100
AcDbLine
 10
365.322965
 20
298.963978
 30
0.0
 11
484.322968
 21
298.963978
 31
0.0
  0
LINE
  5
2CC
330
1F
100
AcDbEntity
  8
LC-001-100-D00-0
 62
     7
370
    50
100
AcDbLine
 10
521.572965
 20
377.293975
 30
0.0
 11
516.072969
 21
377.293975
 31
0.0
  0
LINE
  5
2CD
330
1F
100
AcDbEntity
  8
LC-001-100-D00-0
 62
     7
370
    50
100
AcDbLine
 10
342.322963
 20
377.293975
 30
0.0
 11
345.072965
 21
377.293975
 31
0.0
  0
LINE
  5
2CE
330
1F
100
AcDbEntity
  8
LC-001-100-D00-0
 62
     7
370
    50
100
AcDbLine
 10
504.572968
 20
377.293975
 30
0.0
 11
507.322969
 21
377.293975
 31
0.0
  0
LINE
  5
2CF
330
1F
100
AcDbEntity
  8
LC-001-100-D00-0
 62
     7
370
    50
100
AcDbLine
 10
328.822965
 20
377.293975
 30
0.0
 11
328.072968
 21
377.293975
 31
0.0
  0
LINE
  5
2D0
330
1F
100
AcDbEntity
  8
LC-001-100-D00-0
 62
     7
370
    50
100
AcDbLine
 10
365.322965
 20
217.973978
 30
0.0
 11
484.322968
 21
217.973978
 31
0.0
  0
LINE
  5
2D1
330
1F
100
AcDbEntity
  8
LC-001-100-D00-0
 62
     7
370
    50
100
AcDbLine
 10
487.572967
 20
281.973977
 30
0.0
 11
495.572968
 21
281.973977
 31
0.0
  0
LINE
  5
2D2
330
1F
100
AcDbEntity
  8
LC-001-100-D00-0
 62
     7
370
    50
100
AcDbLine
 10
487.572967
 20
286.473977
 30
0.0
 11
487.572967
 21
281.973977
 31
0.0
  0
LINE
  5
2D3
330
1F
100
AcDbEntity
  8
LC-001-100-D00-0
 62
     7
370
    50
100
AcDbLine
 10
497.322968
 20
286.473977
 30
0.0
 11
487.572967
 21
286.473977
 31
0.0
  0
ARC
  5
2D4
330
1F
100
AcDbEntity
  8
LC-001-100-D00-0
 62
     7
370
    50
100
AcDbCircle
 10
497.322966
 20
288.973977
 30
0.0
 40
2.5
100
AcDbArc
 50
270.0
 51
0.0
  0
LINE
  5
2D5
330
1F
100
AcDbEntity
  8
LC-001-100-D00-0
 62
     7
370
    50
100
AcDbLine
 10
499.822965
 20
301.473978
 30
0.0
 11
499.822965
 21
288.973977
 31
0.0
  0
LINE
  5
2D6
330
1F
100
AcDbEntity
  8
LC-001-100-D00-0
 62
     7
370
    50
100
AcDbLine
 10
500.122967
 20
301.473978
 30
0.0
 11
499.822965
 21
301.473978
 31
0.0
  0
LINE
  5
2D7
330
1F
100
AcDbEntity
  8
LC-001-100-D00-0
 62
     7
370
    50
100
AcDbLine
 10
500.122967
 20
302.973977
 30
0.0
 11
500.122967
 21
301.473978
 31
0.0
  0
LINE
  5
2D8
330
1F
100
AcDbEntity
  8
LC-001-100-D00-0
 62
     7
370
    50
100
AcDbLine
 10
502.072966
 20
302.973977
 30
0.0
 11
500.122967
 21
302.973977
 31
0.0
  0
LINE
  5
2D9
330
1F
100
AcDbEntity
  8
LC-001-100-D00-0
 62
     7
370
    50
100
AcDbLine
 10
502.072966
 20
293.973977
 30
0.0
 11
502.072966
 21
302.973977
 31
0.0
  0
LINE
  5
2DA
330
1F
100
AcDbEntity
  8
LC-001-100-D00-0
 62
     7
370
    50
100
AcDbLine
 10
504.822968
 20
293.973977
 30
0.0
 11
502.072966
 21
293.973977
 31
0.0
  0
LINE
  5
2DB
330
1F
100
AcDbEntity
  8
LC-001-100-D00-0
 62
     7
370
    50
100
AcDbLine
 10
504.822968
 20
291.973977
 30
0.0
 11
504.822968
 21
293.973977
 31
0.0
  0
ARC
  5
2DC
330
1F
100
AcDbEntity
  8
LC-001-100-D00-0
 62
     7
370
    50
100
AcDbCircle
 10
496.822966
 20
291.973977
 30
0.0
 40
8.0
100
AcDbArc
 50
270.0
 51
0.0
  0
LINE
  5
2DD
330
1F
100
AcDbEntity
  8
LC-001-100-D00-0
 62
     7
370
    50
100
AcDbLine
 10
495.572968
 20
283.973977
 30
0.0
 11
496.822967
 21
283.973977
 31
0.0
  0
LINE
  5
2DE
330
1F
100
AcDbEntity
  8
LC-001-100-D00-0
 62
     7
370
    50
100
AcDbLine
 10
495.572968
 20
283.973977
 30
0.0
 11
495.572968
 21
281.973977
 31
0.0
  0
ARC
  5
2DF
330
1F
100
AcDbEntity
  8
LC-001-100-D00-0
 62
     7
370
    50
100
AcDbCircle
 10
352.822966
 20
291.973977
 30
0.0
 40
8.0
100
AcDbArc
 50
180.0
 51
270.0
  0
LINE
  5
2E0
330
1F
100
AcDbEntity
  8
LC-001-100-D00-0
 62
     7
370
    50
100
AcDbLine
 10
349.822963
 20
288.973977
 30
0.0
 11
349.822963
 21
301.473978
 31
0.0
  0
ARC
  5
2E1
330
1F
100
AcDbEntity
  8
LC-001-100-D00-0
 62
     7
370
    50
100
AcDbCircle
 10
352.322966
 20
288.973977
 30
0.0
 40
2.5
100
AcDbArc
 50
180.0
 51
270.0
  0
LINE
  5
2E2
330
1F
100
AcDbEntity
  8
LC-001-100-D00-0
 62
     7
370
    50
100
AcDbLine
 10
344.822968
 20
293.973977
 30
0.0
 11
344.822968
 21
291.973977
 31
0.0
  0
LINE
  5
2E3
330
1F
100
AcDbEntity
  8
LC-001-100-D00-0
 62
     7
370
    50
100
AcDbLine
 10
347.57297
 20
293.973977
 30
0.0
 11
344.822968
 21
293.973977
 31
0.0
  0
LINE
  5
2E4
330
1F
100
AcDbEntity
  8
LC-001-100-D00-0
 62
     7
370
    50
100
AcDbLine
 10
347.57297
 20
302.973977
 30
0.0
 11
347.57297
 21
293.973977
 31
0.0
  0
LINE
  5
2E5
330
1F
100
AcDbEntity
  8
LC-001-100-D00-0
 62
     7
370
    50
100
AcDbLine
 10
349.522966
 20
302.973977
 30
0.0
 11
347.57297
 21
302.973977
 31
0.0
  0
LINE
  5
2E6
330
1F
100
AcDbEntity
  8
LC-001-100-D00-0
 62
     7
370
    50
100
AcDbLine
 10
349.522966
 20
301.473978
 30
0.0
 11
349.522966
 21
302.973977
 31
0.0
  0
LINE
  5
2E7
330
1F
100
AcDbEntity
  8
LC-001-100-D00-0
 62
     7
370
    50
100
AcDbLine
 10
349.822963
 20
301.473978
 30
0.0
 11
349.522966
 21
301.473978
 31
0.0
  0
LINE
  5
2E8
330
1F
100
AcDbEntity
  8
LC-001-100-D00-0
 62
     7
370
    50
100
AcDbLine
 10
362.072969
 20
286.473977
 30
0.0
 11
352.322968
 21
286.473977
 31
0.0
  0
LINE
  5
2E9
330
1F
100
AcDbEntity
  8
LC-001-100-D00-0
 62
     7
370
    50
100
AcDbLine
 10
362.072969
 20
281.973977
 30
0.0
 11
362.072969
 21
286.473977
 31
0.0
  0
LINE
  5
2EA
330
1F
100
AcDbEntity
  8
LC-001-100-D00-0
 62
     7
370
    50
100
AcDbLine
 10
354.072968
 20
281.973977
 30
0.0
 11
362.072969
 21
281.973977
 31
0.0
  0
LINE
  5
2EB
330
1F
100
AcDbEntity
  8
LC-001-100-D00-0
 62
     7
370
    50
100
AcDbLine
 10
354.072968
 20
281.973977
 30
0.0
 11
354.072968
 21
283.973977
 31
0.0
  0
LINE
  5
2EC
330
1F
100
AcDbEntity
  8
LC-001-100-D00-0
 62
     7
370
    50
100
AcDbLine
 10
352.822969
 20
283.973977
 30
0.0
 11
354.072968
 21
283.973977
 31
0.0
  0
LINE
  5
2ED
330
1F
100
AcDbEntity
  8
LC-001-100-D00-0
 62
     7
370
    50
100
AcDbLine
 10
487.572967
 20
281.973977
 30
0.0
 11
487.564998
 21
281.973977
 31
0.0
  0
LINE
  5
2EE
330
1F
100
AcDbEntity
  8
LC-001-100-D00-0
 62
     7
370
    50
100
AcDbLine
 10
487.564998
 20
281.973977
 30
0.0
 11
487.564998
 21
283.973977
 31
0.0
  0
LINE
  5
2EF
330
1F
100
AcDbEntity
  8
LC-001-100-D00-0
 62
     7
370
    50
100
AcDbLine
 10
362.080934
 20
281.973977
 30
0.0
 11
362.080934
 21
283.973977
 31
0.0
  0
LINE
  5
2F0
330
1F
100
AcDbEntity
  8
LC-001-100-D00-0
 62
     7
370
    50
100
AcDbLine
 10
362.080934
 20
281.973977
 30
0.0
 11
362.072969
 21
281.973977
 31
0.0
  0
LINE
  5
2F1
330
1F
100
AcDbEntity
  8
LC-001-100-D00-0
 62
     7
370
    50
100
AcDbLine
 10
362.072969
 20
286.473977
 30
0.0
 11
362.322966
 21
286.473977
 31
0.0
  0
LINE
  5
2F2
330
1F
100
AcDbEntity
  8
LC-001-100-D00-0
 62
     7
370
    50
100
AcDbLine
 10
487.322966
 20
286.473977
 30
0.0
 11
487.572967
 21
286.473977
 31
0.0
  0
LINE
  5
2F3
330
1F
100
AcDbEntity
  8
LC-001-100-D00-0
 62
     7
370
    50
100
AcDbLine
 10
362.080934
 20
283.973977
 30
0.0
 11
362.322966
 21
283.973977
 31
0.0
  0
LINE
  5
2F4
330
1F
100
AcDbEntity
  8
LC-001-100-D00-0
 62
     7
370
    50
100
AcDbLine
 10
487.322966
 20
283.973977
 30
0.0
 11
487.564998
 21
283.973977
 31
0.0
  0
LINE
  5
2F5
330
1F
100
AcDbEntity
  8
LC-001-100-D00-0
 62
     7
370
    50
100
AcDbLine
 10
481.022968
 20
426.605762
 30
0.0
 11
473.271549
 21
447.90262
 31
0.0
  0
LINE
  5
2F6
330
1F
100
AcDbEntity
  8
LC-001-100-D00-0
 62
     7
370
    50
100
AcDbLine
 10
473.271549
 20
447.90262
 30
0.0
 11
473.271549
 21
447.517858
 31
0.0
  0
LINE
  5
2F7
330
1F
100
AcDbEntity
  8
LC-001-100-D00-0
 62
     7
370
    50
100
AcDbLine
 10
473.271549
 20
447.517858
 30
0.0
 11
376.374381
 21
447.517858
 31
0.0
  0
LINE
  5
2F8
330
1F
100
AcDbEntity
  8
LC-001-100-D00-0
 62
     7
370
    50
100
AcDbLine
 10
376.374381
 20
447.517858
 30
0.0
 11
376.374381
 21
447.90262
 31
0.0
  0
LINE
  5
2F9
330
1F
100
AcDbEntity
  8
LC-001-100-D00-0
 62
     7
370
    50
100
AcDbLine
 10
376.374381
 20
447.90262
 30
0.0
 11
368.622968
 21
426.605762
 31
0.0
  0
LINE
  5
2FA
330
1F
100
AcDbEntity
  8
LC-001-100-D00-0
 62
     7
370
    50
100
AcDbLine
 10
368.622968
 20
426.605762
 30
0.0
 11
368.622968
 21
421.917916
 31
0.0
  0
LINE
  5
2FB
330
1F
100
AcDbEntity
  8
LC-001-100-D00-0
 62
     7
370
    50
100
AcDbLine
 10
368.622968
 20
421.917916
 30
0.0
 11
366.916733
 21
421.917916
 31
0.0
  0
LINE
  5
2FC
330
1F
100
AcDbEntity
  8
LC-001-100-D00-0
 62
     7
370
    50
100
AcDbLine
 10
366.916733
 20
421.917916
 30
0.0
 11
354.323337
 21
387.317852
 31
0.0
  0
LINE
  5
2FD
330
1F
100
AcDbEntity
  8
LC-001-100-D00-0
 62
     7
370
    50
100
AcDbLine
 10
354.323337
 20
387.317852
 30
0.0
 11
354.322965
 21
387.317852
 31
0.0
  0
LINE
  5
2FE
330
1F
100
AcDbEntity
  8
LC-001-100-D00-0
 62
     7
370
    50
100
AcDbLine
 10
354.322965
 20
379.617856
 30
0.0
 11
354.322965
 21
387.317852
 31
0.0
  0
LINE
  5
2FF
330
1F
100
AcDbEntity
  8
LC-001-100-D00-0
 62
     7
370
    50
100
AcDbLine
 10
353.822964
 20
379.617856
 30
0.0
 11
354.322965
 21
379.617856
 31
0.0
  0
LINE
  5
300
330
1F
100
AcDbEntity
  8
LC-001-100-D00-0
 62
     7
370
    50
100
AcDbLine
 10
353.822964
 20
358.317853
 30
0.0
 11
353.822964
 21
379.617856
 31
0.0
  0
LINE
  5
301
330
1F
100
AcDbEntity
  8
LC-001-100-D00-0
 62
     7
370
    50
100
AcDbLine
 10
350.422966
 20
358.317853
 30
0.0
 11
353.822964
 21
358.317853
 31
0.0
  0
ARC
  5
302
330
1F
100
AcDbEntity
  8
LC-001-100-D00-0
 62
     7
370
    50
100
AcDbCircle
 10
350.422966
 20
359.317853
 30
0.0
 40
1.0
100
AcDbArc
 50
180.0
 51
270.0
  0
ARC
  5
303
330
1F
100
AcDbEntity
  8
LC-001-100-D00-0
 62
     7
370
    50
100
AcDbCircle
 10
350.422966
 20
359.317853
 30
0.0
 40
1.0
100
AcDbArc
 50
90.0
 51
180.0
  0
LINE
  5
304
330
1F
100
AcDbEntity
  8
LC-001-100-D00-0
 62
     7
370
    50
100
AcDbLine
 10
350.422966
 20
360.317857
 30
0.0
 11
350.922967
 21
360.317857
 31
0.0
  0
LINE
  5
305
330
1F
100
AcDbEntity
  8
LC-001-100-D00-0
 62
     7
370
    50
100
AcDbLine
 10
350.922967
 20
360.317857
 30
0.0
 11
350.922967
 21
387.317852
 31
0.0
  0
LINE
  5
306
330
1F
100
AcDbEntity
  8
LC-001-100-D00-0
 62
     7
370
    50
100
AcDbLine
 10
350.922967
 20
387.317852
 30
0.0
 11
342.430065
 21
387.317852
 31
0.0
  0
LINE
  5
307
330
1F
100
AcDbEntity
  8
LC-001-100-D00-0
 62
     7
370
    50
100
AcDbLine
 10
339.237499
 20
389.142179
 30
0.0
 11
342.430065
 21
387.317852
 31
0.0
  0
LINE
  5
308
330
1F
100
AcDbEntity
  8
LC-001-100-D00-0
 62
     7
370
    50
100
AcDbLine
 10
362.278993
 20
452.44816
 30
0.0
 11
339.237499
 21
389.142179
 31
0.0
  0
ARC
  5
309
330
1F
100
AcDbEntity
  8
LC-001-100-D00-0
 62
     7
370
    50
100
AcDbCircle
 10
376.374385
 20
447.317859
 30
0.0
 40
14.99999999999977
100
AcDbArc
 50
90.0
 51
160.0
  0
LINE
  5
30A
330
1F
100
AcDbEntity
  8
LC-001-100-D00-0
 62
     7
370
    50
100
AcDbLine
 10
376.374381
 20
462.317855
 30
0.0
 11
436.625231
 21
462.317855
 31
0.0
  0
LINE
  5
30B
330
1F
100
AcDbEntity
  8
LC-001-100-D00-0
 62
     7
370
    50
100
AcDbLine
 10
436.625231
 20
462.317855
 30
0.0
 11
436.625231
 21
462.417856
 31
0.0
  0
LINE
  5
30C
330
1F
100
AcDbEntity
  8
LC-001-100-D00-0
 62
     7
370
    50
100
AcDbLine
 10
437.451285
 20
462.417856
 30
0.0
 11
436.625231
 21
462.417856
 31
0.0
  0
LINE
  5
30D
330
1F
100
AcDbEntity
  8
LC-001-100-D00-0
 62
     7
370
    50
100
AcDbLine
 10
437.451285
 20
462.317855
 30
0.0
 11
437.451285
 21
462.417856
 31
0.0
  0
LINE
  5
30E
330
1F
100
AcDbEntity
  8
LC-001-100-D00-0
 62
     7
370
    50
100
AcDbLine
 10
437.451285
 20
462.317855
 30
0.0
 11
438.028907
 21
462.317855
 31
0.0
  0
LINE
  5
30F
330
1F
100
AcDbEntity
  8
LC-001-100-D00-0
 62
     7
370
    50
100
AcDbLine
 10
438.028907
 20
462.417856
 30
0.0
 11
438.028907
 21
462.317855
 31
0.0
  0
LINE
  5
310
330
1F
100
AcDbEntity
  8
LC-001-100-D00-0
 62
     7
370
    50
100
AcDbLine
 10
438.768009
 20
462.417856
 30
0.0
 11
438.028907
 21
462.417856
 31
0.0
  0
LINE
  5
311
330
1F
100
AcDbEntity
  8
LC-001-100-D00-0
 62
     7
370
    50
100
AcDbLine
 10
438.768009
 20
462.417856
 30
0.0
 11
438.768009
 21
462.317855
 31
0.0
  0
LINE
  5
312
330
1F
100
AcDbEntity
  8
LC-001-100-D00-0
 62
     7
370
    50
100
AcDbLine
 10
438.768009
 20
462.317855
 30
0.0
 11
439.146872
 21
462.317855
 31
0.0
  0
LINE
  5
313
330
1F
100
AcDbEntity
  8
LC-001-100-D00-0
 62
     7
370
    50
100
AcDbLine
 10
439.146872
 20
462.317855
 30
0.0
 11
439.146872
 21
462.417856
 31
0.0
  0
LINE
  5
314
330
1F
100
AcDbEntity
  8
LC-001-100-D00-0
 62
     7
370
    50
100
AcDbLine
 10
441.494606
 20
462.417856
 30
0.0
 11
439.146872
 21
462.417856
 31
0.0
  0
LINE
  5
315
330
1F
100
AcDbEntity
  8
LC-001-100-D00-0
 62
     7
370
    50
100
AcDbLine
 10
441.494606
 20
462.417856
 30
0.0
 11
441.494606
 21
462.317855
 31
0.0
  0
LINE
  5
316
330
1F
100
AcDbEntity
  8
LC-001-100-D00-0
 62
     7
370
    50
100
AcDbLine
 10
441.494606
 20
462.317855
 30
0.0
 11
441.929372
 21
462.317855
 31
0.0
  0
LINE
  5
317
330
1F
100
AcDbEntity
  8
LC-001-100-D00-0
 62
     7
370
    50
100
AcDbLine
 10
441.929372
 20
462.317855
 30
0.0
 11
441.929372
 21
462.417856
 31
0.0
  0
LINE
  5
318
330
1F
100
AcDbEntity
  8
LC-001-100-D00-0
 62
     7
370
    50
100
AcDbLine
 10
441.929372
 20
462.417856
 30
0.0
 11
442.71195
 21
462.417856
 31
0.0
  0
LINE
  5
319
330
1F
100
AcDbEntity
  8
LC-001-100-D00-0
 62
     7
370
    50
100
AcDbLine
 10
442.71195
 20
462.417856
 30
0.0
 11
442.71195
 21
462.317855
 31
0.0
  0
LINE
  5
31A
330
1F
100
AcDbEntity
  8
LC-001-100-D00-0
 62
     7
370
    50
100
AcDbLine
 10
442.71195
 20
462.317855
 30
0.0
 11
443.798864
 21
462.317855
 31
0.0
  0
LINE
  5
31B
330
1F
100
AcDbEntity
  8
LC-001-100-D00-0
 62
     7
370
    50
100
AcDbLine
 10
443.798864
 20
462.317855
 30
0.0
 11
443.798864
 21
462.417856
 31
0.0
  0
LINE
  5
31C
330
1F
100
AcDbEntity
  8
LC-001-100-D00-0
 62
     7
370
    50
100
AcDbLine
 10
443.798864
 20
462.417856
 30
0.0
 11
444.581443
 21
462.417856
 31
0.0
  0
LINE
  5
31D
330
1F
100
AcDbEntity
  8
LC-001-100-D00-0
 62
     7
370
    50
100
AcDbLine
 10
444.581443
 20
462.417856
 30
0.0
 11
444.581443
 21
462.317855
 31
0.0
  0
LINE
  5
31E
330
1F
100
AcDbEntity
  8
LC-001-100-D00-0
 62
     7
370
    50
100
AcDbLine
 10
444.581443
 20
462.317855
 30
0.0
 11
445.668357
 21
462.317855
 31
0.0
  0
LINE
  5
31F
330
1F
100
AcDbEntity
  8
LC-001-100-D00-0
 62
     7
370
    50
100
AcDbLine
 10
445.668357
 20
462.317855
 30
0.0
 11
445.668357
 21
462.417856
 31
0.0
  0
LINE
  5
320
330
1F
100
AcDbEntity
  8
LC-001-100-D00-0
 62
     7
370
    50
100
AcDbLine
 10
446.450935
 20
462.417856
 30
0.0
 11
445.668357
 21
462.417856
 31
0.0
  0
LINE
  5
321
330
1F
100
AcDbEntity
  8
LC-001-100-D00-0
 62
     7
370
    50
100
AcDbLine
 10
446.450935
 20
462.417856
 30
0.0
 11
446.450935
 21
462.317855
 31
0.0
  0
LINE
  5
322
330
1F
100
AcDbEntity
  8
LC-001-100-D00-0
 62
     7
370
    50
100
AcDbLine
 10
446.450935
 20
462.317855
 30
0.0
 11
447.01613
 21
462.317855
 31
0.0
  0
LINE
  5
323
330
1F
100
AcDbEntity
  8
LC-001-100-D00-0
 62
     7
370
    50
100
AcDbLine
 10
447.01613
 20
462.317855
 30
0.0
 11
447.01613
 21
462.417856
 31
0.0
  0
LINE
  5
324
330
1F
100
AcDbEntity
  8
LC-001-100-D00-0
 62
     7
370
    50
100
AcDbLine
 10
447.842185
 20
462.417856
 30
0.0
 11
447.01613
 21
462.417856
 31
0.0
  0
LINE
  5
325
330
1F
100
AcDbEntity
  8
LC-001-100-D00-0
 62
     7
370
    50
100
AcDbLine
 10
447.842185
 20
462.417856
 30
0.0
 11
447.842185
 21
462.317855
 31
0.0
  0
LINE
  5
326
330
1F
100
AcDbEntity
  8
LC-001-100-D00-0
 62
     7
370
    50
100
AcDbLine
 10
447.842185
 20
462.317855
 30
0.0
 11
448.407381
 21
462.317855
 31
0.0
  0
LINE
  5
327
330
1F
100
AcDbEntity
  8
LC-001-100-D00-0
 62
     7
370
    50
100
AcDbLine
 10
448.407381
 20
462.317855
 30
0.0
 11
448.407381
 21
462.417856
 31
0.0
  0
LINE
  5
328
330
1F
100
AcDbEntity
  8
LC-001-100-D00-0
 62
     7
370
    50
100
AcDbLine
 10
449.189958
 20
462.417856
 30
0.0
 11
448.407381
 21
462.417856
 31
0.0
  0
LINE
  5
329
330
1F
100
AcDbEntity
  8
LC-001-100-D00-0
 62
     7
370
    50
100
AcDbLine
 10
449.189958
 20
462.417856
 30
0.0
 11
449.189958
 21
462.317855
 31
0.0
  0
LINE
  5
32A
330
1F
100
AcDbEntity
  8
LC-001-100-D00-0
 62
     7
370
    50
100
AcDbLine
 10
449.189958
 20
462.317855
 30
0.0
 11
449.537772
 21
462.317855
 31
0.0
  0
LINE
  5
32B
330
1F
100
AcDbEntity
  8
LC-001-100-D00-0
 62
     7
370
    50
100
AcDbLine
 10
449.537772
 20
462.317855
 30
0.0
 11
449.537772
 21
462.417856
 31
0.0
  0
LINE
  5
32C
330
1F
100
AcDbEntity
  8
LC-001-100-D00-0
 62
     7
370
    50
100
AcDbLine
 10
449.537772
 20
462.417856
 30
0.0
 11
451.450741
 21
462.417856
 31
0.0
  0
LINE
  5
32D
330
1F
100
AcDbEntity
  8
LC-001-100-D00-0
 62
     7
370
    50
100
AcDbLine
 10
451.450741
 20
462.417856
 30
0.0
 11
451.450741
 21
462.317855
 31
0.0
  0
LINE
  5
32E
330
1F
100
AcDbEntity
  8
LC-001-100-D00-0
 62
     7
370
    50
100
AcDbLine
 10
451.450741
 20
462.317855
 30
0.0
 11
451.928982
 21
462.317855
 31
0.0
  0
LINE
  5
32F
330
1F
100
AcDbEntity
  8
LC-001-100-D00-0
 62
     7
370
    50
100
AcDbLine
 10
451.928982
 20
462.317855
 30
0.0
 11
451.928982
 21
462.417856
 31
0.0
  0
LINE
  5
330
330
1F
100
AcDbEntity
  8
LC-001-100-D00-0
 62
     7
370
    50
100
AcDbLine
 10
454.252049
 20
462.417856
 30
0.0
 11
451.928982
 21
462.417856
 31
0.0
  0
LINE
  5
331
330
1F
100
AcDbEntity
  8
LC-001-100-D00-0
 62
     7
370
    50
100
AcDbLine
 10
454.252049
 20
462.417856
 30
0.0
 11
454.252049
 21
462.317855
 31
0.0
  0
LINE
  5
332
330
1F
100
AcDbEntity
  8
LC-001-100-D00-0
 62
     7
370
    50
100
AcDbLine
 10
454.252049
 20
462.317855
 30
0.0
 11
473.271549
 21
462.317855
 31
0.0
  0
ARC
  5
333
330
1F
100
AcDbEntity
  8
LC-001-100-D00-0
 62
     7
370
    50
100
AcDbCircle
 10
473.271548
 20
447.317859
 30
0.0
 40
14.99999999999993
100
AcDbArc
 50
20.0
 51
90.0
  0
LINE
  5
334
330
1F
100
AcDbEntity
  8
LC-001-100-D00-0
 62
     7
370
    50
100
AcDbLine
 10
510.408434
 20
389.142179
 30
0.0
 11
487.366939
 21
452.44816
 31
0.0
  0
LINE
  5
335
330
1F
100
AcDbEntity
  8
LC-001-100-D00-0
 62
     7
370
    50
100
AcDbLine
 10
507.215867
 20
387.317852
 30
0.0
 11
510.408434
 21
389.142179
 31
0.0
  0
LINE
  5
336
330
1F
100
AcDbEntity
  8
LC-001-100-D00-0
 62
     7
370
    50
100
AcDbLine
 10
507.215867
 20
387.317852
 30
0.0
 11
498.722965
 21
387.317852
 31
0.0
  0
LINE
  5
337
330
1F
100
AcDbEntity
  8
LC-001-100-D00-0
 62
     7
370
    50
100
AcDbLine
 10
498.722965
 20
387.317852
 30
0.0
 11
498.722965
 21
360.317857
 31
0.0
  0
LINE
  5
338
330
1F
100
AcDbEntity
  8
LC-001-100-D00-0
 62
     7
370
    50
100
AcDbLine
 10
498.722965
 20
360.317857
 30
0.0
 11
499.222966
 21
360.317857
 31
0.0
  0
ARC
  5
339
330
1F
100
AcDbEntity
  8
LC-001-100-D00-0
 62
     7
370
    50
100
AcDbCircle
 10
499.222966
 20
359.317853
 30
0.0
 40
1.0
100
AcDbArc
 50
0.0
 51
90.0
  0
ARC
  5
33A
330
1F
100
AcDbEntity
  8
LC-001-100-D00-0
 62
     7
370
    50
100
AcDbCircle
 10
499.222966
 20
359.317853
 30
0.0
 40
1.0
100
AcDbArc
 50
270.0
 51
0.0
  0
LINE
  5
33B
330
1F
100
AcDbEntity
  8
LC-001-100-D00-0
 62
     7
370
    50
100
AcDbLine
 10
495.822965
 20
358.317853
 30
0.0
 11
499.222966
 21
358.317853
 31
0.0
  0
LINE
  5
33C
330
1F
100
AcDbEntity
  8
LC-001-100-D00-0
 62
     7
370
    50
100
AcDbLine
 10
495.822965
 20
379.617856
 30
0.0
 11
495.822965
 21
358.317853
 31
0.0
  0
LINE
  5
33D
330
1F
100
AcDbEntity
  8
LC-001-100-D00-0
 62
     7
370
    50
100
AcDbLine
 10
495.322967
 20
379.617856
 30
0.0
 11
495.822965
 21
379.617856
 31
0.0
  0
LINE
  5
33E
330
1F
100
AcDbEntity
  8
LC-001-100-D00-0
 62
     7
370
    50
100
AcDbLine
 10
495.322967
 20
387.317852
 30
0.0
 11
495.322967
 21
379.617856
 31
0.0
  0
LINE
  5
33F
330
1F
100
AcDbEntity
  8
LC-001-100-D00-0
 62
     7
370
    50
100
AcDbLine
 10
495.322967
 20
387.317852
 30
0.0
 11
495.322595
 21
387.317852
 31
0.0
  0
LINE
  5
340
330
1F
100
AcDbEntity
  8
LC-001-100-D00-0
 62
     7
370
    50
100
AcDbLine
 10
495.322595
 20
387.317852
 30
0.0
 11
482.729203
 21
421.917916
 31
0.0
  0
LINE
  5
341
330
1F
100
AcDbEntity
  8
LC-001-100-D00-0
 62
     7
370
    50
100
AcDbLine
 10
482.729203
 20
421.917916
 30
0.0
 11
481.022968
 21
421.917916
 31
0.0
  0
LINE
  5
342
330
1F
100
AcDbEntity
  8
LC-001-100-D00-0
 62
     7
370
    50
100
AcDbLine
 10
481.022968
 20
421.917916
 30
0.0
 11
481.022968
 21
426.605762
 31
0.0
  0
INSERT
  5
354
330
1F
100
AcDbEntity
  8
LC-001-100-D00-0
 62
     7
370
    50
100
AcDbBlockReference
  2
POLY17
 10
0.0
 20
0.0
 30
0.0
  0
LINE
  5
355
330
1F
100
AcDbEntity
  8
LC-001-100-D00-0
 62
     7
370
    50
100
AcDbLine
 10
354.810412
 20
378.617853
 30
0.0
 11
354.810412
 21
358.317853
 31
0.0
  0
LINE
  5
356
330
1F
100
AcDbEntity
  8
LC-001-100-D00-0
 62
     7
370
    50
100
AcDbLine
 10
353.822964
 20
358.317853
 30
0.0
 11
354.810412
 21
358.317853
 31
0.0
  0
LINE
  5
357
330
1F
100
AcDbEntity
  8
LC-001-100-D00-0
 62
     7
370
    50
100
AcDbLine
 10
494.835539
 20
358.317853
 30
0.0
 11
494.835539
 21
378.617853
 31
0.0
  0
INSERT
  5
369
330
1F
100
AcDbEntity
  8
LC-001-100-D00-0
 62
     7
370
    50
100
AcDbBlockReference
  2
POLY18
 10
0.0
 20
0.0
 30
0.0
  0
LINE
  5
36A
330
1F
100
AcDbEntity
  8
LC-001-100-D00-0
 62
     7
370
    50
100
AcDbLine
 10
494.835539
 20
358.317853
 30
0.0
 11
495.822965
 21
358.317853
 31
0.0
  0
LINE
  5
36B
330
1F
100
AcDbEntity
  8
LC-001-100-D00-0
 62
     7
370
    50
100
AcDbLine
 10
354.323337
 20
387.317852
 30
0.0
 11
356.666299
 21
387.317852
 31
0.0
  0
LINE
  5
36C
330
1F
100
AcDbEntity
  8
LC-001-100-D00-0
 62
     7
370
    50
100
AcDbLine
 10
356.784815
 20
387.317852
 30
0.0
 11
363.65402
 21
387.317852
 31
0.0
  0
LINE
  5
36D
330
1F
100
AcDbEntity
  8
LC-001-100-D00-0
 62
     7
370
    50
100
AcDbLine
 10
363.882976
 20
387.317852
 30
0.0
 11
374.810303
 21
387.317852
 31
0.0
  0
LINE
  5
36E
330
1F
100
AcDbEntity
  8
LC-001-100-D00-0
 62
     7
370
    50
100
AcDbLine
 10
375.134098
 20
387.317852
 30
0.0
 11
389.374873
 21
387.317852
 31
0.0
  0
LINE
  5
36F
330
1F
100
AcDbEntity
  8
LC-001-100-D00-0
 62
     7
370
    50
100
AcDbLine
 10
389.77143
 20
387.317852
 30
0.0
 11
406.355167
 21
387.317852
 31
0.0
  0
LINE
  5
370
330
1F
100
AcDbEntity
  8
LC-001-100-D00-0
 62
     7
370
    50
100
AcDbLine
 10
406.797471
 20
387.317852
 30
0.0
 11
424.594014
 21
387.317852
 31
0.0
  0
LINE
  5
371
330
1F
100
AcDbEntity
  8
LC-001-100-D00-0
 62
     7
370
    50
100
AcDbLine
 10
425.051921
 20
387.317852
 30
0.0
 11
442.848461
 21
387.317852
 31
0.0
  0
LINE
  5
372
330
1F
100
AcDbEntity
  8
LC-001-100-D00-0
 62
     7
370
    50
100
AcDbLine
 10
443.290765
 20
387.317852
 30
0.0
 11
459.874501
 21
387.317852
 31
0.0
  0
LINE
  5
373
330
1F
100
AcDbEntity
  8
LC-001-100-D00-0
 62
     7
370
    50
100
AcDbLine
 10
460.27106
 20
387.317852
 30
0.0
 11
474.511836
 21
387.317852
 31
0.0
  0
LINE
  5
374
330
1F
100
AcDbEntity
  8
LC-001-100-D00-0
 62
     7
370
    50
100
AcDbLine
 10
474.835625
 20
387.317852
 30
0.0
 11
485.76296
 21
387.317852
 31
0.0
  0
LINE
  5
375
330
1F
100
AcDbEntity
  8
LC-001-100-D00-0
 62
     7
370
    50
100
AcDbLine
 10
485.991912
 20
387.317852
 30
0.0
 11
492.861121
 21
387.317852
 31
0.0
  0
LINE
  5
376
330
1F
100
AcDbEntity
  8
LC-001-100-D00-0
 62
     7
370
    50
100
AcDbLine
 10
492.979637
 20
387.317852
 30
0.0
 11
495.322595
 21
387.317852
 31
0.0
  0
LINE
  5
377
330
1F
100
AcDbEntity
  8
LC-001-100-D00-0
 62
     7
370
    50
100
AcDbLine
 10
354.322965
 20
379.617856
 30
0.0
 11
495.322967
 21
379.617856
 31
0.0
  0
LINE
  5
378
330
1F
100
AcDbEntity
  8
LC-001-100-D00-0
 62
     7
370
    50
100
AcDbLine
 10
447.01613
 20
462.417856
 30
0.0
 11
447.01613
 21
462.317855
 31
0.0
  0
LINE
  5
379
330
1F
100
AcDbEntity
  8
LC-001-100-D00-0
 62
     7
370
    50
100
AcDbLine
 10
447.01613
 20
462.417856
 30
0.0
 11
447.01613
 21
462.417856
 31
0.0
  0
LINE
  5
37A
330
1F
100
AcDbEntity
  8
LC-001-100-D00-0
 62
     7
370
    50
100
AcDbLine
 10
454.276718
 20
462.417856
 30
0.0
 11
454.276718
 21
462.317855
 31
0.0
  0
LINE
  5
37B
330
1F
100
AcDbEntity
  8
LC-001-100-D00-0
 62
     7
370
    50
100
AcDbLine
 10
454.252049
 20
462.417856
 30
0.0
 11
454.276718
 21
462.417856
 31
0.0
  0
LINE
  5
37C
330
1F
100
AcDbEntity
  8
LC-001-100-D00-0
 62
     7
370
    50
100
AcDbLine
 10
370.251658
 20
427.224622
 30
0.0
 11
368.848214
 21
427.224622
 31
0.0
  0
LINE
  5
37D
330
1F
100
AcDbEntity
  8
LC-001-100-D00-0
 62
     7
370
    50
100
AcDbLine
 10
370.251658
 20
427.224622
 30
0.0
 11
370.251658
 21
426.638097
 31
0.0
  0
ELLIPSE
  5
37E
330
1F
100
AcDbEntity
  8
LC-001-100-D00-0
 62
     7
370
    50
100
AcDbEllipse
 10
424.822966
 20
581.014029
 30
0.0
 11
-54.69271162369891
 21
-154.3402810312325
 31
0.0
210
0.0
220
0.0
230
1.0
 40
0.083767
 41
3.150803750597299
 42
3.191731874073114
  0
LINE
  5
37F
330
1F
100
AcDbEntity
  8
LC-001-100-D00-0
 62
     7
370
    50
100
AcDbLine
 10
375.587533
 20
427.224622
 30
0.0
 11
371.053147
 21
427.224622
 31
0.0
  0
LINE
  5
380
330
1F
100
AcDbEntity
  8
LC-001-100-D00-0
 62
     7
370
    50
100
AcDbLine
 10
375.587533
 20
427.224622
 30
0.0
 11
375.587533
 21
426.638097
 31
0.0
  0
ELLIPSE
  5
381
330
1F
100
AcDbEntity
  8
LC-001-100-D00-0
 62
     7
370
    50
100
AcDbEllipse
 10
424.822966
 20
581.014029
 30
0.0
 11
-50.10599910011806
 21
-154.1865670813336
 31
0.0
210
0.0
220
0.0
230
1.0
 40
0.165076
 41
3.174721918189741
 42
3.215650041665579
  0
LINE
  5
382
330
1F
100
AcDbEntity
  8
LC-001-100-D00-0
 62
     7
370
    50
100
AcDbLine
 10
384.278713
 20
427.224622
 30
0.0
 11
376.922409
 21
427.224622
 31
0.0
  0
LINE
  5
383
330
1F
100
AcDbEntity
  8
LC-001-100-D00-0
 62
     7
370
    50
100
AcDbLine
 10
384.278713
 20
427.224622
 30
0.0
 11
384.278713
 21
426.638097
 31
0.0
  0
ELLIPSE
  5
384
330
1F
100
AcDbEntity
  8
LC-001-100-D00-0
 62
     7
370
    50
100
AcDbEllipse
 10
424.822966
 20
581.014029
 30
0.0
 11
-42.26835833949237
 21
-154.0735723013277
 31
0.0
210
0.0
220
0.0
230
1.0
 40
0.240393
 41
3.186982284715626
 42
3.227910408191461
  0
LINE
  5
385
330
1F
100
AcDbEntity
  8
LC-001-100-D00-0
 62
     7
370
    50
100
AcDbLine
 10
395.732919
 20
427.224622
 30
0.0
 11
386.056012
 21
427.224622
 31
0.0
  0
LINE
  5
386
330
1F
100
AcDbEntity
  8
LC-001-100-D00-0
 62
     7
370
    50
100
AcDbLine
 10
395.732919
 20
427.224622
 30
0.0
 11
395.732919
 21
426.638097
 31
0.0
  0
ELLIPSE
  5
387
330
1F
100
AcDbEntity
  8
LC-001-100-D00-0
 62
     7
370
    50
100
AcDbEllipse
 10
424.822966
 20
581.014029
 30
0.0
 11
-31.0206984564831
 21
-154.1198904247348
 31
0.0
210
0.0
220
0.0
230
0.9999999999999999
 40
0.30407
 41
3.182254375888675
 42
3.223182499364516
  0
LINE
  5
388
330
1F
100
AcDbEntity
  8
LC-001-100-D00-0
 62
     7
370
    50
100
AcDbLine
 10
409.169568
 20
427.224622
 30
0.0
 11
397.72478
 21
427.224622
 31
0.0
  0
LINE
  5
389
330
1F
100
AcDbEntity
  8
LC-001-100-D00-0
 62
     7
370
    50
100
AcDbLine
 10
409.169568
 20
427.224622
 30
0.0
 11
409.169568
 21
426.638097
 31
0.0
  0
ELLIPSE
  5
38A
330
1F
100
AcDbEntity
  8
LC-001-100-D00-0
 62
     7
370
    50
100
AcDbEllipse
 10
424.822966
 20
581.014029
 30
0.0
 11
-16.5620746345937
 21
-154.3006263193193
 31
0.0
210
0.0
220
0.0
230
1.0
 40
0.348049
 41
3.158469548149917
 42
3.199397671625757
  0
LINE
  5
38B
330
1F
100
AcDbEntity
  8
LC-001-100-D00-0
 62
     7
370
    50
100
AcDbLine
 10
423.672967
 20
427.224622
 30
0.0
 11
411.391197
 21
427.224622
 31
0.0
  0
ELLIPSE
  5
38C
330
1F
100
AcDbEntity
  8
LC-001-100-D00-0
 62
     7
370
    50
100
AcDbEllipse
 10
424.822966
 20
581.014029
 30
0.0
 11
0.0
 21
-154.4082631621037
 31
0.0
210
0.0
220
0.0
230
0.9999999999999999
 40
0.36397
 41
3.121128591851882
 42
3.162056715327759
  0
LINE
  5
38D
330
1F
100
AcDbEntity
  8
LC-001-100-D00-0
 62
     7
370
    50
100
AcDbLine
 10
438.254736
 20
427.224622
 30
0.0
 11
425.972967
 21
427.224622
 31
0.0
  0
ELLIPSE
  5
38E
330
1F
100
AcDbEntity
  8
LC-001-100-D00-0
 62
     7
370
    50
100
AcDbEllipse
 10
424.822966
 20
581.014029
 30
0.0
 11
16.56207463459284
 21
-154.3006263193076
 31
0.0
210
0.0
220
0.0
230
1.0
 40
0.348049
 41
3.083787635553872
 42
3.124715759029714
  0
LINE
  5
38F
330
1F
100
AcDbEntity
  8
LC-001-100-D00-0
 62
     7
370
    50
100
AcDbLine
 10
440.476366
 20
427.224622
 30
0.0
 11
440.476366
 21
426.638097
 31
0.0
  0
LINE
  5
390
330
1F
100
AcDbEntity
  8
LC-001-100-D00-0
 62
     7
370
    50
100
AcDbLine
 10
451.921153
 20
427.224622
 30
0.0
 11
440.476366
 21
427.224622
 31
0.0
  0
ELLIPSE
  5
391
330
1F
100
AcDbEntity
  8
LC-001-100-D00-0
 62
     7
370
    50
100
AcDbEllipse
 10
424.822966
 20
581.014029
 30
0.0
 11
31.02069845649018
 21
-154.1198904247686
 31
0.0
210
0.0
220
0.0
230
1.0
 40
0.30407
 41
3.060002807815097
 42
3.100930931290939
  0
LINE
  5
392
330
1F
100
AcDbEntity
  8
LC-001-100-D00-0
 62
     7
370
    50
100
AcDbLine
 10
453.913012
 20
427.224622
 30
0.0
 11
453.913012
 21
426.638097
 31
0.0
  0
LINE
  5
393
330
1F
100
AcDbEntity
  8
LC-001-100-D00-0
 62
     7
370
    50
100
AcDbLine
 10
463.589922
 20
427.224622
 30
0.0
 11
453.913012
 21
427.224622
 31
0.0
  0
ELLIPSE
  5
394
330
1F
100
AcDbEntity
  8
LC-001-100-D00-0
 62
     7
370
    50
100
AcDbEllipse
 10
424.822966
 20
581.014029
 30
0.0
 11
42.26835833947184
 21
-154.0735723012523
 31
0.0
210
0.0
220
0.0
230
1.0
 40
0.240393
 41
3.055274898988219
 42
3.096203022464057
  0
LINE
  5
395
330
1F
100
AcDbEntity
  8
LC-001-100-D00-0
 62
     7
370
    50
100
AcDbLine
 10
465.367219
 20
427.224622
 30
0.0
 11
465.367219
 21
426.638097
 31
0.0
  0
LINE
  5
396
330
1F
100
AcDbEntity
  8
LC-001-100-D00-0
 62
     7
370
    50
100
AcDbLine
 10
472.723526
 20
427.224622
 30
0.0
 11
465.367219
 21
427.224622
 31
0.0
  0
ELLIPSE
  5
397
330
1F
100
AcDbEntity
  8
LC-001-100-D00-0
 62
     7
370
    50
100
AcDbEllipse
 10
424.822966
 20
581.014029
 30
0.0
 11
50.10599910010303
 21
-154.1865670812871
 31
0.0
210
0.0
220
0.0
230
1.0
 40
0.165076
 41
3.067535265514048
 42
3.108463388989891
  0
LINE
  5
398
330
1F
100
AcDbEntity
  8
LC-001-100-D00-0
 62
     7
370
    50
100
AcDbLine
 10
474.058403
 20
427.224622
 30
0.0
 11
474.058403
 21
426.638097
 31
0.0
  0
LINE
  5
399
330
1F
100
AcDbEntity
  8
LC-001-100-D00-0
 62
     7
370
    50
100
AcDbLine
 10
478.592786
 20
427.224622
 30
0.0
 11
474.058403
 21
427.224622
 31
0.0
  0
ELLIPSE
  5
39A
330
1F
100
AcDbEntity
  8
LC-001-100-D00-0
 62
     7
370
    50
100
AcDbEllipse
 10
424.822966
 20
581.014029
 30
0.0
 11
54.69271162474161
 21
-154.3402810341745
 31
0.0
210
0.0
220
0.0
230
1.0
 40
0.083767
 41
3.091453433106303
 42
3.132381556582145
  0
LINE
  5
39B
330
1F
100
AcDbEntity
  8
LC-001-100-D00-0
 62
     7
370
    50
100
AcDbLine
 10
479.394274
 20
427.224622
 30
0.0
 11
479.394274
 21
426.638097
 31
0.0
  0
LINE
  5
39C
330
1F
100
AcDbEntity
  8
LC-001-100-D00-0
 62
     7
370
    50
100
AcDbLine
 10
480.797722
 20
427.224622
 30
0.0
 11
479.394274
 21
427.224622
 31
0.0
  0
LINE
  5
39D
330
1F
100
AcDbEntity
  8
LC-001-100-D00-0
 62
     7
370
    50
100
AcDbLine
 10
481.022968
 20
421.917916
 30
0.0
 11
368.622968
 21
421.917916
 31
0.0
  0
LINE
  5
39E
330
1F
100
AcDbEntity
  8
LC-001-100-D00-0
 62
     7
370
    50
100
AcDbLine
 10
438.028907
 20
462.417856
 30
0.0
 11
437.898478
 21
462.417856
 31
0.0
  0
LINE
  5
39F
330
1F
100
AcDbEntity
  8
LC-001-100-D00-0
 62
     7
370
    50
100
AcDbLine
 10
447.842185
 20
462.417856
 30
0.0
 11
447.929139
 21
462.417856
 31
0.0
  0
LINE
  5
3A0
330
1F
100
AcDbEntity
  8
LC-001-100-D00-0
 62
     7
370
    50
100
AcDbLine
 10
446.929177
 20
462.417856
 30
0.0
 11
447.01613
 21
462.417856
 31
0.0
  0
LINE
  5
3A1
330
1F
100
AcDbEntity
  8
LC-001-100-D00-0
 62
     7
370
    50
100
AcDbLine
 10
446.450935
 20
462.417856
 30
0.0
 11
446.537888
 21
462.417856
 31
0.0
  0
LINE
  5
3A2
330
1F
100
AcDbEntity
  8
LC-001-100-D00-0
 62
     7
370
    50
100
AcDbLine
 10
448.320427
 20
462.417856
 30
0.0
 11
448.407381
 21
462.417856
 31
0.0
  0
LINE
  5
3A3
330
1F
100
AcDbEntity
  8
LC-001-100-D00-0
 62
     7
370
    50
100
AcDbLine
 10
437.898478
 20
462.417856
 30
0.0
 11
437.451285
 21
462.417856
 31
0.0
  0
LINE
  5
3A4
330
1F
100
AcDbEntity
  8
LC-001-100-D00-0
 62
     7
370
    50
100
AcDbLine
 10
446.537888
 20
462.417856
 30
0.0
 11
446.929177
 21
462.417856
 31
0.0
  0
LINE
  5
3A5
330
1F
100
AcDbEntity
  8
LC-001-100-D00-0
 62
     7
370
    50
100
AcDbLine
 10
447.929139
 20
462.417856
 30
0.0
 11
448.320427
 21
462.417856
 31
0.0
  0
LINE
  5
3A6
330
1F
100
AcDbEntity
  8
LC-001-100-D00-0
 62
     7
370
    50
100
AcDbLine
 10
465.367219
 20
426.638097
 30
0.0
 11
459.993483
 21
447.517858
 31
0.0
  0
LINE
  5
3A7
330
1F
100
AcDbEntity
  8
LC-001-100-D00-0
 62
     7
370
    50
100
AcDbLine
 10
483.896716
 20
387.317852
 30
0.0
 11
485.017056
 21
388.223224
 31
0.0
  0
LINE
  5
3A8
330
1F
100
AcDbEntity
  8
LC-001-100-D00-0
 62
     7
370
    50
100
AcDbLine
 10
475.486905
 20
387.317852
 30
0.0
 11
466.582032
 21
421.917916
 31
0.0
  0
LINE
  5
3A9
330
1F
100
AcDbEntity
  8
LC-001-100-D00-0
 62
     7
370
    50
100
AcDbLine
 10
365.74922
 20
387.317852
 30
0.0
 11
364.628876
 21
388.223224
 31
0.0
  0
LINE
  5
3AA
330
1F
100
AcDbEntity
  8
LC-001-100-D00-0
 62
     7
370
    50
100
AcDbLine
 10
384.278713
 20
426.638097
 30
0.0
 11
389.652448
 21
447.517858
 31
0.0
  0
LINE
  5
3AB
330
1F
100
AcDbEntity
  8
LC-001-100-D00-0
 62
     7
370
    50
100
AcDbLine
 10
374.159026
 20
387.317852
 30
0.0
 11
383.0639
 21
421.917916
 31
0.0
  0
LINE
  5
3AC
330
1F
100
AcDbEntity
  8
LC-001-100-D00-0
 62
     7
370
    50
100
AcDbLine
 10
350.922967
 20
370.617852
 30
0.0
 11
348.804886
 21
370.617852
 31
0.0
  0
LINE
  5
3AD
330
1F
100
AcDbEntity
  8
LC-001-100-D00-0
 62
     7
370
    50
100
AcDbLine
 10
348.804886
 20
370.617852
 30
0.0
 11
348.804886
 21
387.317852
 31
0.0
  0
LINE
  5
3AE
330
1F
100
AcDbEntity
  8
LC-001-100-D00-0
 62
     7
370
    50
100
AcDbLine
 10
370.251658
 20
426.638097
 30
0.0
 11
377.59232
 21
447.517858
 31
0.0
  0
LINE
  5
3AF
330
1F
100
AcDbEntity
  8
LC-001-100-D00-0
 62
     7
370
    50
100
AcDbLine
 10
356.42791
 20
387.317852
 30
0.0
 11
368.592198
 21
421.917916
 31
0.0
  0
LINE
  5
3B0
330
1F
100
AcDbEntity
  8
LC-001-100-D00-0
 62
     7
370
    50
100
AcDbLine
 10
479.394274
 20
426.638097
 30
0.0
 11
472.053614
 21
447.517858
 31
0.0
  0
LINE
  5
3B1
330
1F
100
AcDbEntity
  8
LC-001-100-D00-0
 62
     7
370
    50
100
AcDbLine
 10
500.841046
 20
370.617852
 30
0.0
 11
500.841046
 21
387.317852
 31
0.0
  0
LINE
  5
3B2
330
1F
100
AcDbEntity
  8
LC-001-100-D00-0
 62
     7
370
    50
100
AcDbLine
 10
500.841046
 20
370.617852
 30
0.0
 11
498.722965
 21
370.617852
 31
0.0
  0
LINE
  5
3B3
330
1F
100
AcDbEntity
  8
LC-001-100-D00-0
 62
     7
370
    50
100
AcDbLine
 10
493.218018
 20
387.317852
 30
0.0
 11
481.053738
 21
421.917916
 31
0.0
  0
LINE
  5
3B4
330
1F
100
AcDbEntity
  8
LC-001-100-D00-0
 62
     7
370
    50
100
AcDbLine
 10
478.798988
 20
426.638097
 30
0.0
 11
471.458329
 21
447.517858
 31
0.0
  0
LINE
  5
3B5
330
1F
100
AcDbEntity
  8
LC-001-100-D00-0
 62
     7
370
    50
100
AcDbLine
 10
370.846944
 20
426.638097
 30
0.0
 11
378.187607
 21
447.517858
 31
0.0
  0
INSERT
  5
3C7
330
1F
100
AcDbEntity
  8
LC-001-100-D00-0
 62
     7
370
    50
100
AcDbBlockReference
  2
POLY19
 10
0.0
 20
0.0
 30
0.0
  0
INSERT
  5
3D9
330
1F
100
AcDbEntity
  8
LC-001-100-D00-0
 62
     7
370
    50
100
AcDbBlockReference
  2
POLY20
 10
0.0
 20
0.0
 30
0.0
  0
LINE
  5
3DA
330
1F
100
AcDbEntity
  8
LC-001-100-D00-0
 62
     7
370
    50
100
AcDbLine
 10
411.022982
 20
378.617853
 30
0.0
 11
411.022982
 21
370.617852
 31
0.0
  0
LINE
  5
3DB
330
1F
100
AcDbEntity
  8
LC-001-100-D00-0
 62
     7
370
    50
100
AcDbLine
 10
355.177025
 20
370.617852
 30
0.0
 11
411.022982
 21
370.617852
 31
0.0
  0
LINE
  5
3DC
330
1F
100
AcDbEntity
  8
LC-001-100-D00-0
 62
     7
370
    50
100
AcDbLine
 10
355.177025
 20
370.617852
 30
0.0
 11
355.177025
 21
378.617853
 31
0.0
  0
INSERT
  5
3EE
330
1F
100
AcDbEntity
  8
LC-001-100-D00-0
 62
     7
370
    50
100
AcDbBlockReference
  2
POLY21
 10
0.0
 20
0.0
 30
0.0
  0
INSERT
  5
400
330
1F
100
AcDbEntity
  8
LC-001-100-D00-0
 62
     7
370
    50
100
AcDbBlockReference
  2
POLY22
 10
0.0
 20
0.0
 30
0.0
  0
LINE
  5
401
330
1F
100
AcDbEntity
  8
LC-001-100-D00-0
 62
     7
370
    50
100
AcDbLine
 10
494.468933
 20
378.617853
 30
0.0
 11
494.468933
 21
370.617852
 31
0.0
  0
LINE
  5
402
330
1F
100
AcDbEntity
  8
LC-001-100-D00-0
 62
     7
370
    50
100
AcDbLine
 10
438.623063
 20
370.617852
 30
0.0
 11
494.468933
 21
370.617852
 31
0.0
  0
LINE
  5
403
330
1F
100
AcDbEntity
  8
LC-001-100-D00-0
 62
     7
370
    50
100
AcDbLine
 10
438.623063
 20
370.617852
 30
0.0
 11
438.623063
 21
378.617853
 31
0.0
  0
LINE
  5
404
330
1F
100
AcDbEntity
  8
LC-001-100-D00-0
 62
     7
370
    50
100
AcDbLine
 10
494.468933
 20
370.617852
 30
0.0
 11
494.835539
 21
370.617852
 31
0.0
  0
LINE
  5
405
330
1F
100
AcDbEntity
  8
LC-001-100-D00-0
 62
     7
370
    50
100
AcDbLine
 10
354.810412
 20
370.617852
 30
0.0
 11
355.177025
 21
370.617852
 31
0.0
  0
LINE
  5
406
330
1F
100
AcDbEntity
  8
LC-001-100-D00-0
 62
     7
370
    50
100
AcDbLine
 10
492.861121
 20
387.317852
 30
0.0
 11
492.979637
 21
387.317852
 31
0.0
  0
LINE
  5
407
330
1F
100
AcDbEntity
  8
LC-001-100-D00-0
 62
     7
370
    50
100
AcDbLine
 10
492.622735
 20
387.317852
 30
0.0
 11
480.458456
 21
421.917916
 31
0.0
  0
LINE
  5
408
330
1F
100
AcDbEntity
  8
LC-001-100-D00-0
 62
     7
370
    50
100
AcDbLine
 10
356.666299
 20
387.317852
 30
0.0
 11
356.784815
 21
387.317852
 31
0.0
  0
LINE
  5
409
330
1F
100
AcDbEntity
  8
LC-001-100-D00-0
 62
     7
370
    50
100
AcDbLine
 10
357.023197
 20
387.317852
 30
0.0
 11
369.187477
 21
421.917916
 31
0.0
  0
LINE
  5
40A
330
1F
100
AcDbEntity
  8
LC-001-100-D00-0
 62
     7
370
    50
100
AcDbLine
 10
474.058403
 20
426.638097
 30
0.0
 11
467.476948
 21
447.517858
 31
0.0
  0
LINE
  5
40B
330
1F
100
AcDbEntity
  8
LC-001-100-D00-0
 62
     7
370
    50
100
AcDbLine
 10
486.452437
 20
387.317852
 30
0.0
 11
475.546238
 21
421.917916
 31
0.0
  0
LINE
  5
40C
330
1F
100
AcDbEntity
  8
LC-001-100-D00-0
 62
     7
370
    50
100
AcDbLine
 10
375.587533
 20
426.638097
 30
0.0
 11
382.168988
 21
447.517858
 31
0.0
  0
LINE
  5
40D
330
1F
100
AcDbEntity
  8
LC-001-100-D00-0
 62
     7
370
    50
100
AcDbLine
 10
363.193499
 20
387.317852
 30
0.0
 11
374.099697
 21
421.917916
 31
0.0
  0
LINE
  5
40E
330
1F
100
AcDbEntity
  8
LC-001-100-D00-0
 62
     7
370
    50
100
AcDbLine
 10
472.908404
 20
426.638097
 30
0.0
 11
466.326947
 21
447.517858
 31
0.0
  0
LINE
  5
40F
330
1F
100
AcDbEntity
  8
LC-001-100-D00-0
 62
     7
370
    50
100
AcDbLine
 10
376.73753
 20
426.638097
 30
0.0
 11
383.318985
 21
447.517858
 31
0.0
  0
LINE
  5
410
330
1F
100
AcDbEntity
  8
LC-001-100-D00-0
 62
     7
370
    50
100
AcDbLine
 10
485.76296
 20
387.317852
 30
0.0
 11
485.991912
 21
387.317852
 31
0.0
  0
LINE
  5
411
330
1F
100
AcDbEntity
  8
LC-001-100-D00-0
 62
     7
370
    50
100
AcDbLine
 10
485.302436
 20
387.317852
 30
0.0
 11
474.396239
 21
421.917916
 31
0.0
  0
LINE
  5
412
330
1F
100
AcDbEntity
  8
LC-001-100-D00-0
 62
     7
370
    50
100
AcDbLine
 10
363.65402
 20
387.317852
 30
0.0
 11
363.882976
 21
387.317852
 31
0.0
  0
LINE
  5
413
330
1F
100
AcDbEntity
  8
LC-001-100-D00-0
 62
     7
370
    50
100
AcDbLine
 10
364.343497
 20
387.317852
 30
0.0
 11
375.249694
 21
421.917916
 31
0.0
  0
LINE
  5
414
330
1F
100
AcDbEntity
  8
LC-001-100-D00-0
 62
     7
370
    50
100
AcDbLine
 10
463.740875
 20
426.638097
 30
0.0
 11
458.367138
 21
447.517858
 31
0.0
  0
LINE
  5
415
330
1F
100
AcDbEntity
  8
LC-001-100-D00-0
 62
     7
370
    50
100
AcDbLine
 10
385.90506
 20
426.638097
 30
0.0
 11
391.278795
 21
447.517858
 31
0.0
  0
LINE
  5
416
330
1F
100
AcDbEntity
  8
LC-001-100-D00-0
 62
     7
370
    50
100
AcDbLine
 10
453.913012
 20
426.638097
 30
0.0
 11
450.113207
 21
447.517858
 31
0.0
  0
LINE
  5
417
330
1F
100
AcDbEntity
  8
LC-001-100-D00-0
 62
     7
370
    50
100
AcDbLine
 10
468.611628
 20
389.142179
 30
0.0
 11
462.646932
 21
421.917916
 31
0.0
  0
LINE
  5
418
330
1F
100
AcDbEntity
  8
LC-001-100-D00-0
 62
     7
370
    50
100
AcDbLine
 10
461.68119
 20
427.224622
 30
0.0
 11
457.988123
 21
447.517858
 31
0.0
  0
LINE
  5
419
330
1F
100
AcDbEntity
  8
LC-001-100-D00-0
 62
     7
370
    50
100
AcDbLine
 10
467.015345
 20
387.317852
 30
0.0
 11
468.611628
 21
389.142179
 31
0.0
  0
LINE
  5
41A
330
1F
100
AcDbEntity
  8
LC-001-100-D00-0
 62
     7
370
    50
100
AcDbLine
 10
461.068709
 20
387.317852
 30
0.0
 11
454.772014
 21
421.917916
 31
0.0
  0
LINE
  5
41B
330
1F
100
AcDbEntity
  8
LC-001-100-D00-0
 62
     7
370
    50
100
AcDbLine
 10
382.630589
 20
387.317852
 30
0.0
 11
381.034302
 21
389.142179
 31
0.0
  0
LINE
  5
41C
330
1F
100
AcDbEntity
  8
LC-001-100-D00-0
 62
     7
370
    50
100
AcDbLine
 10
381.034302
 20
389.142179
 30
0.0
 11
386.999002
 21
421.917916
 31
0.0
  0
LINE
  5
41D
330
1F
100
AcDbEntity
  8
LC-001-100-D00-0
 62
     7
370
    50
100
AcDbLine
 10
387.964743
 20
427.224622
 30
0.0
 11
391.657809
 21
447.517858
 31
0.0
  0
LINE
  5
41E
330
1F
100
AcDbEntity
  8
LC-001-100-D00-0
 62
     7
370
    50
100
AcDbLine
 10
395.732919
 20
426.638097
 30
0.0
 11
399.532727
 21
447.517858
 31
0.0
  0
LINE
  5
41F
330
1F
100
AcDbEntity
  8
LC-001-100-D00-0
 62
     7
370
    50
100
AcDbLine
 10
388.577221
 20
387.317852
 30
0.0
 11
394.873919
 21
421.917916
 31
0.0
  0
LINE
  5
420
330
1F
100
AcDbEntity
  8
LC-001-100-D00-0
 62
     7
370
    50
100
AcDbLine
 10
451.921153
 20
426.638097
 30
0.0
 11
448.121348
 21
447.517858
 31
0.0
  0
LINE
  5
421
330
1F
100
AcDbEntity
  8
LC-001-100-D00-0
 62
     7
370
    50
100
AcDbLine
 10
397.72478
 20
426.638097
 30
0.0
 11
401.524583
 21
447.517858
 31
0.0
  0
LINE
  5
422
330
1F
100
AcDbEntity
  8
LC-001-100-D00-0
 62
     7
370
    50
100
AcDbLine
 10
474.511836
 20
387.317852
 30
0.0
 11
474.835625
 21
387.317852
 31
0.0
  0
LINE
  5
423
330
1F
100
AcDbEntity
  8
LC-001-100-D00-0
 62
     7
370
    50
100
AcDbLine
 10
473.860559
 20
387.317852
 30
0.0
 11
464.955686
 21
421.917916
 31
0.0
  0
LINE
  5
424
330
1F
100
AcDbEntity
  8
LC-001-100-D00-0
 62
     7
370
    50
100
AcDbLine
 10
374.810303
 20
387.317852
 30
0.0
 11
375.134098
 21
387.317852
 31
0.0
  0
LINE
  5
425
330
1F
100
AcDbEntity
  8
LC-001-100-D00-0
 62
     7
370
    50
100
AcDbLine
 10
375.785376
 20
387.317852
 30
0.0
 11
384.690246
 21
421.917916
 31
0.0
  0
LINE
  5
426
330
1F
100
AcDbEntity
  8
LC-001-100-D00-0
 62
     7
370
    50
100
AcDbLine
 10
440.476366
 20
426.638097
 30
0.0
 11
438.509442
 21
447.517858
 31
0.0
  0
LINE
  5
427
330
1F
100
AcDbEntity
  8
LC-001-100-D00-0
 62
     7
370
    50
100
AcDbLine
 10
448.08493
 20
389.142179
 30
0.0
 11
444.997375
 21
421.917916
 31
0.0
  0
LINE
  5
428
330
1F
100
AcDbEntity
  8
LC-001-100-D00-0
 62
     7
370
    50
100
AcDbLine
 10
444.49747
 20
427.224622
 30
0.0
 11
442.585798
 21
447.517858
 31
0.0
  0
LINE
  5
429
330
1F
100
AcDbEntity
  8
LC-001-100-D00-0
 62
     7
370
    50
100
AcDbLine
 10
447.258632
 20
387.317852
 30
0.0
 11
448.08493
 21
389.142179
 31
0.0
  0
LINE
  5
42A
330
1F
100
AcDbEntity
  8
LC-001-100-D00-0
 62
     7
370
    50
100
AcDbLine
 10
444.180428
 20
387.317852
 30
0.0
 11
440.921018
 21
421.917916
 31
0.0
  0
LINE
  5
42B
330
1F
100
AcDbEntity
  8
LC-001-100-D00-0
 62
     7
370
    50
100
AcDbLine
 10
402.387301
 20
387.317852
 30
0.0
 11
401.561002
 21
389.142179
 31
0.0
  0
LINE
  5
42C
330
1F
100
AcDbEntity
  8
LC-001-100-D00-0
 62
     7
370
    50
100
AcDbLine
 10
401.561002
 20
389.142179
 30
0.0
 11
404.64856
 21
421.917916
 31
0.0
  0
LINE
  5
42D
330
1F
100
AcDbEntity
  8
LC-001-100-D00-0
 62
     7
370
    50
100
AcDbLine
 10
405.148464
 20
427.224622
 30
0.0
 11
407.060134
 21
447.517858
 31
0.0
  0
LINE
  5
42E
330
1F
100
AcDbEntity
  8
LC-001-100-D00-0
 62
     7
370
    50
100
AcDbLine
 10
409.169568
 20
426.638097
 30
0.0
 11
411.136492
 21
447.517858
 31
0.0
  0
LINE
  5
42F
330
1F
100
AcDbEntity
  8
LC-001-100-D00-0
 62
     7
370
    50
100
AcDbLine
 10
405.465505
 20
387.317852
 30
0.0
 11
408.724914
 21
421.917916
 31
0.0
  0
LINE
  5
430
330
1F
100
AcDbEntity
  8
LC-001-100-D00-0
 62
     7
370
    50
100
AcDbLine
 10
438.254736
 20
426.638097
 30
0.0
 11
436.287812
 21
447.517858
 31
0.0
  0
LINE
  5
431
330
1F
100
AcDbEntity
  8
LC-001-100-D00-0
 62
     7
370
    50
100
AcDbLine
 10
411.391197
 20
426.638097
 30
0.0
 11
413.358121
 21
447.517858
 31
0.0
  0
LINE
  5
432
330
1F
100
AcDbEntity
  8
LC-001-100-D00-0
 62
     7
370
    50
100
AcDbLine
 10
423.672967
 20
426.638097
 30
0.0
 11
423.672967
 21
447.517858
 31
0.0
  0
LINE
  5
433
330
1F
100
AcDbEntity
  8
LC-001-100-D00-0
 62
     7
370
    50
100
AcDbLine
 10
425.972967
 20
426.638097
 30
0.0
 11
425.972967
 21
447.517858
 31
0.0
  0
LINE
  5
434
330
1F
100
AcDbEntity
  8
LC-001-100-D00-0
 62
     7
370
    50
100
AcDbLine
 10
459.874501
 20
387.317852
 30
0.0
 11
460.27106
 21
387.317852
 31
0.0
  0
LINE
  5
435
330
1F
100
AcDbEntity
  8
LC-001-100-D00-0
 62
     7
370
    50
100
AcDbLine
 10
459.076851
 20
387.317852
 30
0.0
 11
452.780156
 21
421.917916
 31
0.0
  0
LINE
  5
436
330
1F
100
AcDbEntity
  8
LC-001-100-D00-0
 62
     7
370
    50
100
AcDbLine
 10
389.374873
 20
387.317852
 30
0.0
 11
389.77143
 21
387.317852
 31
0.0
  0
LINE
  5
437
330
1F
100
AcDbEntity
  8
LC-001-100-D00-0
 62
     7
370
    50
100
AcDbLine
 10
390.569082
 20
387.317852
 30
0.0
 11
396.865776
 21
421.917916
 31
0.0
  0
LINE
  5
438
330
1F
100
AcDbEntity
  8
LC-001-100-D00-0
 62
     7
370
    50
100
AcDbLine
 10
442.848461
 20
387.317852
 30
0.0
 11
443.290765
 21
387.317852
 31
0.0
  0
LINE
  5
439
330
1F
100
AcDbEntity
  8
LC-001-100-D00-0
 62
     7
370
    50
100
AcDbLine
 10
441.958798
 20
387.317852
 30
0.0
 11
438.699388
 21
421.917916
 31
0.0
  0
LINE
  5
43A
330
1F
100
AcDbEntity
  8
LC-001-100-D00-0
 62
     7
370
    50
100
AcDbLine
 10
406.355167
 20
387.317852
 30
0.0
 11
406.797471
 21
387.317852
 31
0.0
  0
LINE
  5
43B
330
1F
100
AcDbEntity
  8
LC-001-100-D00-0
 62
     7
370
    50
100
AcDbLine
 10
407.687134
 20
387.317852
 30
0.0
 11
410.946543
 21
421.917916
 31
0.0
  0
LINE
  5
43C
330
1F
100
AcDbEntity
  8
LC-001-100-D00-0
 62
     7
370
    50
100
AcDbLine
 10
424.594014
 20
387.317852
 30
0.0
 11
425.051921
 21
387.317852
 31
0.0
  0
LINE
  5
43D
330
1F
100
AcDbEntity
  8
LC-001-100-D00-0
 62
     7
370
    50
100
AcDbLine
 10
423.672967
 20
387.317852
 30
0.0
 11
423.672967
 21
421.917916
 31
0.0
  0
LINE
  5
43E
330
1F
100
AcDbEntity
  8
LC-001-100-D00-0
 62
     7
370
    50
100
AcDbLine
 10
425.972967
 20
387.317852
 30
0.0
 11
425.972967
 21
421.917916
 31
0.0
  0
INSERT
  5
450
330
1F
100
AcDbEntity
  8
LC-001-100-D00-0
 62
     7
370
    50
100
AcDbBlockReference
  2
POLY23
 10
0.0
 20
0.0
 30
0.0
  0
LINE
  5
451
330
1F
100
AcDbEntity
  8
LC-001-100-D00-0
 62
     7
370
    50
100
AcDbLine
 10
436.623063
 20
378.617853
 30
0.0
 11
436.623063
 21
358.317853
 31
0.0
  0
LINE
  5
452
330
1F
100
AcDbEntity
  8
LC-001-100-D00-0
 62
     7
370
    50
100
AcDbLine
 10
413.022982
 20
358.317853
 30
0.0
 11
436.623063
 21
358.317853
 31
0.0
  0
LINE
  5
453
330
1F
100
AcDbEntity
  8
LC-001-100-D00-0
 62
     7
370
    50
100
AcDbLine
 10
413.022982
 20
358.317853
 30
0.0
 11
413.022982
 21
378.617853
 31
0.0
  0
INSERT
  5
465
330
1F
100
AcDbEntity
  8
LC-001-100-D00-0
 62
     7
370
    50
100
AcDbBlockReference
  2
POLY24
 10
0.0
 20
0.0
 30
0.0
  0
LINE
  5
466
330
1F
100
AcDbEntity
  8
LC-001-100-D00-0
 62
     7
370
    50
100
AcDbLine
 10
468.215688
 20
391.317852
 30
0.0
 11
472.831095
 21
391.317852
 31
0.0
  0
ARC
  5
467
330
1F
100
AcDbEntity
  8
LC-001-100-D00-0
 62
     7
370
    50
100
AcDbCircle
 10
472.640126
 20
389.519324
 30
0.0
 40
3.909123549999826
100
AcDbArc
 50
134.722413
 51
143.07819
  0
ARC
  5
468
330
1F
100
AcDbEntity
  8
LC-001-100-D00-0
 62
     7
370
    50
100
AcDbCircle
 10
469.947966
 20
387.614346
 30
0.0
 40
4.275269783586301
100
AcDbArc
 50
84.186935
 51
95.813065
  0
ARC
  5
469
330
1F
100
AcDbEntity
  8
LC-001-100-D00-0
 62
     7
370
    50
100
AcDbCircle
 10
473.505985
 20
389.51947
 30
0.0
 40
3.908902739490948
100
AcDbArc
 50
134.722177
 51
143.078426
  0
LINE
  5
46A
330
1F
100
AcDbEntity
  8
LC-001-100-D00-0
 62
     7
370
    50
100
AcDbLine
 10
470.800652
 20
392.317854
 30
0.0
 11
472.57373
 21
392.317854
 31
0.0
  0
INSERT
  5
476
330
1F
100
AcDbEntity
  8
LC-001-100-D00-0
 62
     7
370
    50
100
AcDbBlockReference
  2
POLY25
 10
0.0
 20
0.0
 30
0.0
  0
LINE
  5
477
330
1F
100
AcDbEntity
  8
LC-001-100-D00-0
 62
     7
370
    50
100
AcDbLine
 10
470.503238
 20
392.02185
 30
0.0
 11
470.503238
 21
392.317854
 31
0.0
  0
INSERT
  5
483
330
1F
100
AcDbEntity
  8
LC-001-100-D00-0
 62
     7
370
    50
100
AcDbBlockReference
  2
POLY26
 10
0.0
 20
0.0
 30
0.0
  0
LINE
  5
484
330
1F
100
AcDbEntity
  8
LC-001-100-D00-0
 62
     7
370
    50
100
AcDbLine
 10
470.503238
 20
392.317854
 30
0.0
 11
469.934626
 21
392.317854
 31
0.0
  0
LINE
  5
485
330
1F
100
AcDbEntity
  8
LC-001-100-D00-0
 62
     7
370
    50
100
AcDbLine
 10
468.869679
 20
392.317854
 30
0.0
 11
469.934626
 21
392.317854
 31
0.0
  0
LINE
  5
486
330
1F
100
AcDbEntity
  8
LC-001-100-D00-0
 62
     7
370
    50
100
AcDbLine
 10
470.800652
 20
392.317854
 30
0.0
 11
470.503238
 21
392.317854
 31
0.0
  0
INSERT
  5
48F
330
1F
100
AcDbEntity
  8
LC-001-100-D00-0
 62
     7
370
    25
100
AcDbBlockReference
  2
KLON21
 10
0.0
 20
0.0
 30
0.0
  0
INSERT
  5
496
330
1F
100
AcDbEntity
  8
LC-001-100-D00-0
 62
     7
370
    25
100
AcDbBlockReference
  2
KLON22
 10
0.0
 20
0.0
 30
0.0
  0
INSERT
  5
4C2
330
1F
100
AcDbEntity
  8
LC-001-100-D00-0
 62
     7
370
    25
100
AcDbBlockReference
  2
KLON23
 10
0.0
 20
0.0
 30
0.0
  0
INSERT
  5
4EA
330
1F
100
AcDbEntity
  8
LC-001-100-D00-0
 62
     7
370
    25
100
AcDbBlockReference
  2
KLON24
 10
0.0
 20
0.0
 30
0.0
  0
INSERT
  5
4F1
330
1F
100
AcDbEntity
  8
LC-001-100-D00-0
 62
     7
370
    25
100
AcDbBlockReference
  2
KLON25
 10
0.0
 20
0.0
 30
0.0
  0
INSERT
  5
4F9
330
1F
100
AcDbEntity
  8
LC-001-100-D00-0
 62
     7
370
    25
100
AcDbBlockReference
  2
KLON26
 10
0.0
 20
0.0
 30
0.0
  0
INSERT
  5
506
330
1F
100
AcDbEntity
  8
LC-001-100-D00-0
 62
     7
370
    25
100
AcDbBlockReference
  2
KLON27
 10
0.0
 20
0.0
 30
0.0
  0
INSERT
  5
510
330
1F
100
AcDbEntity
  8
LC-001-100-D00-0
 62
     7
370
    25
100
AcDbBlockReference
  2
KLON28
 10
0.0
 20
0.0
 30
0.0
  0
INSERT
  5
517
330
1F
100
AcDbEntity
  8
LC-001-100-D00-0
 62
     7
370
    25
100
AcDbBlockReference
  2
KLON29
 10
0.0
 20
0.0
 30
0.0
  0
INSERT
  5
51E
330
1F
100
AcDbEntity
  8
LC-001-100-D00-0
 62
     7
370
    25
100
AcDbBlockReference
  2
KLON30
 10
0.0
 20
0.0
 30
0.0
  0
INSERT
  5
525
330
1F
100
AcDbEntity
  8
LC-001-100-D00-0
 62
     7
370
    25
100
AcDbBlockReference
  2
KLON31
 10
0.0
 20
0.0
 30
0.0
  0
LINE
  5
526
330
1F
100
AcDbEntity
  8
LC-001-100-D00-0
 62
     7
370
    25
100
AcDbLine
 10
491.822971
 20
295.969916
 30
0.0
 11
499.822966
 21
303.969912
 31
0.0
  0
INSERT
  5
542
330
1F
100
AcDbEntity
  8
LC-001-100-D00-0
 62
     7
370
    25
100
AcDbBlockReference
  2
KLON32
 10
0.0
 20
0.0
 30
0.0
  0
LINE
  5
545
330
1F
100
AcDbEntity
  8
LC-002-102-D00-0
 62
     7
370
    25
100
AcDbLine
 10
424.822966
 20
464.553559
 30
0.0
 11
424.822966
 21
217.383154
 31
0.0
  0
LINE
  5
546
330
1F
100
AcDbEntity
  8
LC-002-102-D00-0
 62
     7
370
    25
100
AcDbLine
 10
330.822966
 20
355.858355
 30
0.0
 11
330.822966
 21
394.535495
 31
0.0
  0
LINE
  5
547
330
1F
100
AcDbEntity
  8
LC-002-102-D00-0
 62
     7
370
    25
100
AcDbLine
 10
518.822966
 20
355.900628
 30
0.0
 11
518.822966
 21
383.407206
 31
0.0
  0
LINE
  5
549
330
1F
100
AcDbEntity
  8
LC-003-002-----0
 62
     7
370
    50
100
AcDbLine
 10
184.822959
 20
390.673976
 30
0.0
 11
184.822959
 21
385.973976
 31
0.0
  0
LINE
  5
54A
330
1F
100
AcDbEntity
  8
LC-003-002-----0
 62
     7
370
    50
100
AcDbLine
 10
194.822959
 20
390.673976
 30
0.0
 11
194.822959
 21
385.973976
 31
0.0
  0
LINE
  5
54B
330
1F
100
AcDbEntity
  8
LC-003-002-----0
 62
     7
370
    50
100
AcDbLine
 10
204.822959
 20
390.673976
 30
0.0
 11
204.822959
 21
385.973976
 31
0.0
  0
LINE
  5
54C
330
1F
100
AcDbEntity
  8
LC-003-002-----0
 62
     7
370
    50
100
AcDbLine
 10
214.822959
 20
390.673976
 30
0.0
 11
214.822959
 21
385.973976
 31
0.0
  0
LINE
  5
54D
330
1F
100
AcDbEntity
  8
LC-003-002-----0
 62
     7
370
    50
100
AcDbLine
 10
224.822959
 20
390.673976
 30
0.0
 11
224.822959
 21
385.973976
 31
0.0
  0
LINE
  5
54E
330
1F
100
AcDbEntity
  8
LC-003-002-----0
 62
     7
370
    50
100
AcDbLine
 10
234.822959
 20
390.673976
 30
0.0
 11
234.822959
 21
385.973976
 31
0.0
  0
LINE
  5
54F
330
1F
100
AcDbEntity
  8
LC-003-002-----0
 62
     7
370
    50
100
AcDbLine
 10
244.822959
 20
390.673976
 30
0.0
 11
244.822959
 21
385.973976
 31
0.0
  0
LINE
  5
550
330
1F
100
AcDbEntity
  8
LC-003-002-----0
 62
     7
370
    50
100
AcDbLine
 10
254.822959
 20
390.673976
 30
0.0
 11
254.822959
 21
385.973976
 31
0.0
  0
LINE
  5
551
330
1F
100
AcDbEntity
  8
LC-003-002-----0
 62
     7
370
    50
100
AcDbLine
 10
264.822959
 20
390.673976
 30
0.0
 11
264.822959
 21
385.973976
 31
0.0
  0
INSERT
  5
570
330
1F
100
AcDbEntity
  8
LC-004-005-----0
 62
     7
370
    25
100
AcDbBlockReference
  2
*X159
 10
0.0
 20
0.0
 30
0.0
  0
INSERT
  5
58E
330
1F
100
AcDbEntity
  8
LC-004-005-----0
 62
     7
370
    25
100
AcDbBlockReference
  2
*X260
 10
0.0
 20
0.0
 30
0.0
  0
INSERT
  5
5AC
330
1F
100
AcDbEntity
  8
LC-004-005-----0
 62
     7
370
    25
100
AcDbBlockReference
  2
*X361
 10
0.0
 20
0.0
 30
0.0
  0
INSERT
  5
5CA
330
1F
100
AcDbEntity
  8
LC-004-005-----0
 62
     7
370
    25
100
AcDbBlockReference
  2
*X462
 10
0.0
 20
0.0
 30
0.0
  0
INSERT
  5
5E8
330
1F
100
AcDbEntity
  8
LC-004-005-----0
 62
     7
370
    25
100
AcDbBlockReference
  2
*X563
 10
0.0
 20
0.0
 30
0.0
  0
LINE
  5
5E9
330
1F
100
AcDbEntity
  8
LC-003-002-----0
 62
     7
370
    50
100
AcDbLine
 10
274.822959
 20
390.673976
 30
0.0
 11
274.822959
 21
385.973976
 31
0.0
  0
LINE
  5
5EA
330
1F
100
AcDbEntity
  8
LC-003-002-----0
 62
     7
370
    50
100
AcDbLine
 10
284.822959
 20
390.673976
 30
0.0
 11
284.822959
 21
385.973976
 31
0.0
  0
INSERT
  5
608
330
1F
100
AcDbEntity
  8
LC-004-005-----0
 62
     7
370
    25
100
AcDbBlockReference
  2
*X664
 10
0.0
 20
0.0
 30
0.0
  0
LINE
  5
609
330
1F
100
AcDbEntity
  8
LC-003-002-----0
 62
     7
370
    50
100
AcDbLine
 10
294.822959
 20
390.673976
 30
0.0
 11
294.822959
 21
385.973976
 31
0.0
  0
INSERT
  5
62C
330
1F
100
AcDbEntity
  8
LC-004-005-----0
 62
     7
370
    25
100
AcDbBlockReference
  2
*X765
 10
0.0
 20
0.0
 30
0.0
  0
LINE
  5
62D
330
1F
100
AcDbEntity
  8
LC-003-002-----0
 62
     7
370
    50
100
AcDbLine
 10
304.822959
 20
388.165712
 30
0.0
 11
304.822959
 21
383.235788
 31
0.0
  0
LINE
  5
62E
330
1F
100
AcDbEntity
  8
LC-003-002-----0
 62
     7
370
    50
100
AcDbLine
 10
314.822959
 20
384.52595
 30
0.0
 11
314.822959
 21
379.596086
 31
0.0
  0
INSERT
  5
651
330
1F
100
AcDbEntity
  8
LC-004-005-----0
 62
     7
370
    25
100
AcDbBlockReference
  2
*X866
 10
0.0
 20
0.0
 30
0.0
  0
LINE
  5
652
330
1F
100
AcDbEntity
  8
LC-003-002-----0
 62
     7
370
    50
100
AcDbLine
 10
324.822959
 20
381.923974
 30
0.0
 11
324.822959
 21
377.293975
 31
0.0
  0
DIMENSION
  5
656
330
1F
100
AcDbEntity
  8
LC-005-003-----0
 62
     7
370
    25
100
AcDbDimension
  2
*D67
 10
601.82296
 20
486.148321
 30
0.0
 11
422.8617
 21
516.948321
 31
0.0
 70
   160
  1
%%c<>
 71
     5
 42
354.000002
  3
LC-DIM-L-0140-02-02
100
AcDbAlignedDimension
 13
247.822958
 23
382.97397
 33
0.0
 14
601.82296
 24
382.97397
 34
0.0
100
AcDbRotatedDimension
  0
DIMENSION
  5
664
330
1F
100
AcDbEntity
  8
LC-005-003-----0
 62
     7
370
    25
100
AcDbDimension
  2
*D68
 10
674.822959
 20
544.89
 30
0.0
 11
422.8617
 21
575.69
 31
0.0
 70
   160
 71
     5
 42
500.0
  3
LC-DIM-L-0140-02-02
100
AcDbAlignedDimension
 13
174.822959
 23
385.973976
 33
0.0
 14
674.822959
 24
385.973976
 34
0.0
100
AcDbRotatedDimension
  0
DIMENSION
  5
671
330
1F
100
AcDbEntity
  8
LC-005-003-----0
 62
     7
370
    25
100
AcDbDimension
  2
*D69
 10
229.5326
 20
283.973968
 30
0.0
 11
198.7326
 21
333.649966
 31
0.0
 70
   160
 71
     5
 42
102.000007
 53
90.0
  3
LC-DIM-L-0140-02-02
100
AcDbAlignedDimension
 13
174.822959
 23
385.973976
 33
0.0
 14
355.604247
 24
283.973968
 34
0.0
 50
90.0
100
AcDbRotatedDimension
  0
DIMENSION
  5
67E
330
1F
100
AcDbEntity
  8
LC-005-003-----0
 62
     7
370
    25
100
AcDbDimension
  2
*D70
 10
284.992663
 20
217.973978
 30
0.0
 11
254.192663
 21
250.722225
 31
0.0
 70
   160
 71
     5
 42
65.999999
 53
90.0
  3
LC-DIM-L-0140-02-02
100
AcDbAlignedDimension
 13
352.822966
 23
283.973977
 33
0.0
 14
371.028739
 24
217.973978
 34
0.0
 50
90.0
100
AcDbRotatedDimension
  0
DIMENSION
  5
68B
330
1F
100
AcDbEntity
  8
LC-005-003-----0
 62
     7
370
    25
100
AcDbDimension
  2
*D71
 10
504.822957
 20
114.515976
 30
0.0
 11
412.290988
 21
145.315976
 31
0.0
 70
   160
  1
%%c<>
 71
     5
 42
159.999996
  3
LC-DIM-L-0140-02-02
100
AcDbAlignedDimension
 13
344.82296
 23
293.973968
 33
0.0
 14
504.822957
 24
293.973968
 34
0.0
100
AcDbRotatedDimension
  0
LINE
  5
698
330
1F
100
AcDbEntity
  8
LC-003-002-----0
 62
     7
370
    50
100
AcDbLine
 10
664.822974
 20
390.673976
 30
0.0
 11
664.822974
 21
385.973976
 31
0.0
  0
LINE
  5
699
330
1F
100
AcDbEntity
  8
LC-003-002-----0
 62
     7
370
    50
100
AcDbLine
 10
654.822974
 20
390.673976
 30
0.0
 11
654.822974
 21
385.973976
 31
0.0
  0
LINE
  5
69A
330
1F
100
AcDbEntity
  8
LC-003-002-----0
 62
     7
370
    50
100
AcDbLine
 10
644.822974
 20
390.673976
 30
0.0
 11
644.822974
 21
385.973976
 31
0.0
  0
LINE
  5
69B
330
1F
100
AcDbEntity
  8
LC-003-002-----0
 62
     7
370
    50
100
AcDbLine
 10
634.822974
 20
390.673976
 30
0.0
 11
634.822974
 21
385.973976
 31
0.0
  0
LINE
  5
69C
330
1F
100
AcDbEntity
  8
LC-003-002-----0
 62
     7
370
    50
100
AcDbLine
 10
624.822974
 20
390.673976
 30
0.0
 11
624.822974
 21
385.973976
 31
0.0
  0
LINE
  5
69D
330
1F
100
AcDbEntity
  8
LC-003-002-----0
 62
     7
370
    50
100
AcDbLine
 10
614.822974
 20
390.673976
 30
0.0
 11
614.822974
 21
385.973976
 31
0.0
  0
LINE
  5
69E
330
1F
100
AcDbEntity
  8
LC-003-002-----0
 62
     7
370
    50
100
AcDbLine
 10
604.822974
 20
390.673976
 30
0.0
 11
604.822974
 21
385.973976
 31
0.0
  0
LINE
  5
69F
330
1F
100
AcDbEntity
  8
LC-003-002-----0
 62
     7
370
    50
100
AcDbLine
 10
594.822974
 20
390.673976
 30
0.0
 11
594.822974
 21
385.973976
 31
0.0
  0
LINE
  5
6A0
330
1F
100
AcDbEntity
  8
LC-003-002-----0
 62
     7
370
    50
100
AcDbLine
 10
584.822974
 20
390.673976
 30
0.0
 11
584.822974
 21
385.973976
 31
0.0
  0
INSERT
  5
6BE
330
1F
100
AcDbEntity
  8
LC-004-005-----0
 62
     7
370
    25
100
AcDbBlockReference
  2
*X972
 10
0.0
 20
0.0
 30
0.0
  0
INSERT
  5
6DC
330
1F
100
AcDbEntity
  8
LC-004-005-----0
 62
     7
370
    25
100
AcDbBlockReference
  2
*X1073
 10
0.0
 20
0.0
 30
0.0
  0
INSERT
  5
6FA
330
1F
100
AcDbEntity
  8
LC-004-005-----0
 62
     7
370
    25
100
AcDbBlockReference
  2
*X1174
 10
0.0
 20
0.0
 30
0.0
  0
INSERT
  5
718
330
1F
100
AcDbEntity
  8
LC-004-005-----0
 62
     7
370
    25
100
AcDbBlockReference
  2
*X1275
 10
0.0
 20
0.0
 30
0.0
  0
INSERT
  5
736
330
1F
100
AcDbEntity
  8
LC-004-005-----0
 62
     7
370
    25
100
AcDbBlockReference
  2
*X1376
 10
0.0
 20
0.0
 30
0.0
  0
LINE
  5
737
330
1F
100
AcDbEntity
  8
LC-003-002-----0
 62
     7
370
    50
100
AcDbLine
 10
574.822974
 20
390.673976
 30
0.0
 11
574.822974
 21
385.973976
 31
0.0
  0
LINE
  5
738
330
1F
100
AcDbEntity
  8
LC-003-002-----0
 62
     7
370
    50
100
AcDbLine
 10
564.822974
 20
390.673976
 30
0.0
 11
564.822974
 21
385.973976
 31
0.0
  0
INSERT
  5
756
330
1F
100
AcDbEntity
  8
LC-004-005-----0
 62
     7
370
    25
100
AcDbBlockReference
  2
*X1477
 10
0.0
 20
0.0
 30
0.0
  0
LINE
  5
757
330
1F
100
AcDbEntity
  8
LC-003-002-----0
 62
     7
370
    50
100
AcDbLine
 10
554.822974
 20
390.673976
 30
0.0
 11
554.822974
 21
385.973976
 31
0.0
  0
INSERT
  5
771
330
1F
100
AcDbEntity
  8
LC-004-005-----0
 62
     7
370
    25
100
AcDbBlockReference
  2
*X1578
 10
0.0
 20
0.0
 30
0.0
  0
LINE
  5
772
330
1F
100
AcDbEntity
  8
LC-003-002-----0
 62
     7
370
    50
100
AcDbLine
 10
544.822974
 20
388.165712
 30
0.0
 11
544.822974
 21
383.235788
 31
0.0
  0
LINE
  5
773
330
1F
100
AcDbEntity
  8
LC-003-002-----0
 62
     7
370
    50
100
AcDbLine
 10
534.822974
 20
384.52595
 30
0.0
 11
534.822974
 21
379.596086
 31
0.0
  0
INSERT
  5
78D
330
1F
100
AcDbEntity
  8
LC-004-005-----0
 62
     7
370
    25
100
AcDbBlockReference
  2
*X1679
 10
0.0
 20
0.0
 30
0.0
  0
LINE
  5
78E
330
1F
100
AcDbEntity
  8
LC-003-002-----0
 62
     7
370
    50
100
AcDbLine
 10
524.822974
 20
381.923974
 30
0.0
 11
524.822974
 21
377.293975
 31
0.0
  0
DIMENSION
  5
78F
330
1F
100
AcDbEntity
  8
LC-005-003-----0
 62
     7
370
    25
100
AcDbDimension
  2
*D80
 10
487.322966
 20
172.583154
 30
0.0
 11
424.388621
 21
203.383154
 31
0.0
 70
   160
  1
DN125
 71
     5
 42
125.0
  3
LC-DIM-L-0140-02-02
100
AcDbAlignedDimension
 13
362.322966
 23
222.473976
 33
0.0
 14
487.322966
 24
222.473976
 34
0.0
100
AcDbRotatedDimension
  0
ENDSEC
  0
SECTION
  2
OBJECTS
  0
DICTIONARY
  5
C
330
0
100
AcDbDictionary
281
     1
  3
ACAD_GROUP
350
D
  3
ACAD_LAYOUT
350
1A
  3
ACAD_MLINESTYLE
350
17
  3
ACAD_PLOTSETTINGS
350
19
  3
ACAD_PLOTSTYLENAME
350
E
  0
DICTIONARY
  5
D
102
{ACAD_REACTORS
330
C
102
}
330
C
100
AcDbDictionary
281
     1
  0
DICTIONARY
  5
1A
102
{ACAD_REACTORS
330
C
102
}
330
C
100
AcDbDictionary
281
     1
  3
Layout1
350
1E
  3
Layout2
350
26
  3
Model
350
22
  0
DICTIONARY
  5
17
102
{ACAD_REACTORS
330
C
102
}
330
C
100
AcDbDictionary
281
     1
  3
Standard
350
18
  0
DICTIONARY
  5
19
102
{ACAD_REACTORS
330
C
102
}
330
C
100
AcDbDictionary
281
     1
  0
ACDBDICTIONARYWDFLT
  5
E
102
{ACAD_REACTORS
330
C
102
}
330
C
100
AcDbDictionary
281
     1
  3
Normal
350
F
100
AcDbDictionaryWithDefault
340
F
  0
LAYOUT
  5
1E
102
{ACAD_REACTORS
330
1A
102
}
330
1A
100
AcDbPlotSettings
  1

  2

  4

  6

 40
0.0
 41
0.0
 42
0.0
 43
0.0
 44
0.0
 45
0.0
 46
0.0
 47
0.0
 48
0.0
 49
0.0
140
0.0
141
0.0
142
1.0
143
1.0
 70
   688
 72
     0
 73
     0
 74
     5
  7

 75
    16
147
1.0
148
0.0
149
0.0
100
AcDbLayout
  1
Layout1
 70
     1
 71
     1
 10
19.384664
 20
11.753976
 11
859.384664
 21
605.753976
 12
0.0
 22
0.0
 32
0.0
 14
19.384664
 24
11.753976
 34
0.0
 15
859.384664
 25
605.753976
 35
0.0
146
0.0
 13
0.0
 23
0.0
 33
0.0
 16
1.0
 26
0.0
 36
0.0
 17
0.0
 27
1.0
 37
0.0
 76
     0
330
1B
  0
LAYOUT
  5
26
102
{ACAD_REACTORS
330
1A
102
}
330
1A
100
AcDbPlotSettings
  1

  2

  4

  6

 40
0.0
 41
0.0
 42
0.0
 43
0.0
 44
0.0
 45
0.0
 46
0.0
 47
0.0
 48
0.0
 49
0.0
140
0.0
141
0.0
142
1.0
143
1.0
 70
   688
 72
     0
 73
     0
 74
     5
  7

 75
    16
147
1.0
148
0.0
149
0.0
100
AcDbLayout
  1
Layout2
 70
     1
 71
     2
 10
0.0
 20
0.0
 11
0.0
 21
0.0
 12
0.0
 22
0.0
 32
0.0
 14
0.0
 24
0.0
 34
0.0
 15
0.0
 25
0.0
 35
0.0
146
0.0
 13
0.0
 23
0.0
 33
0.0
 16
1.0
 26
0.0
 36
0.0
 17
0.0
 27
1.0
 37
0.0
 76
     0
330
23
  0
LAYOUT
  5
22
102
{ACAD_REACTORS
330
1A
102
}
330
1A
100
AcDbPlotSettings
  1

  2

  4

  6

 40
0.0
 41
0.0
 42
0.0
 43
0.0
 44
0.0
 45
0.0
 46
0.0
 47
0.0
 48
0.0
 49
0.0
140
0.0
141
0.0
142
1.0
143
1.0
 70
  1776
 72
     0
 73
     0
 74
     0
  7

 75
     0
147
1.0
148
0.0
149
0.0
100
AcDbLayout
  1
Model
 70
     1
 71
     0
 10
19.384664
 20
11.753976
 11
859.384664
 21
605.753976
 12
19.384664
 22
11.753976
 32
0.0
 14
19.384664
 24
11.753976
 34
0.0
 15
859.384664
 25
605.753976
 35
0.0
146
0.0
 13
0.0
 23
0.0
 33
0.0
 16
1.0
 26
0.0
 36
0.0
 17
0.0
 27
1.0
 37
0.0
 76
     0
330
1F
  0
MLINESTYLE
  5
18
102
{ACAD_REACTORS
330
17
102
}
330
17
100
AcDbMlineStyle
  2
Standard
 70
     0
  3

 62
   256
 51
90.0
 52
90.0
 71
     2
 49
0.5
 62
   256
  6
BYLAYER
 49
-0.5
 62
   256
  6
BYLAYER
  0
ACDBPLACEHOLDER
  5
F
102
{ACAD_REACTORS
330
E
102
}
330
E
  0
ENDSEC
  0
EOF
