  0
SECTION
  2
HEADER
  9
$ACADVER
  1
AC1009
  9
$INSBASE
 10
310.369624
 20
128.4
 30
0.0
  9
$EXTMIN
 10
310.369624
 20
128.4
 30
0.0
  9
$EXTMAX
 10
1150.369624
 20
722.4
 30
0.0
  9
$LIMMIN
 10
310.369624
 20
128.4
  9
$LIMMAX
 10
1150.369624
 20
722.4
  9
$ORTHOMODE
 70
     0
  9
$REGENMODE
 70
     1
  9
$FILLMODE
 70
     1
  9
$QTEXTMODE
 70
     0
  9
$MIRRTEXT
 70
     1
  9
$DRAGMODE
 70
     2
  9
$LTSCALE
 40
2.0
  9
$OSMODE
 70
     0
  9
$ATTMODE
 70
     1
  9
$TEXTSIZE
 40
0.2
  9
$TRACEWID
 40
0.05
  9
$TEXTSTYLE
  7
STANDARD
  9
$CLAYER
  8
0
  9
$CELTYPE
  6
BYLAYER
  9
$CECOLOR
 62
     7
  9
$DIMSCALE
 40
2.0
  9
$DIMASZ
 40
3.5
  9
$DIMEXO
 40
0.0625
  9
$DIMDLI
 40
0.38
  9
$DIMRND
 40
0.0
  9
$DIMDLE
 40
0.0
  9
$DIMEXE
 40
0.18
  9
$DIMTP
 40
0.0
  9
$DIMTM
 40
0.0
  9
$DIMTXT
 40
3.5
  9
$DIMCEN
 40
0.09
  9
$DIMTSZ
 40
0.0
  9
$DIMTOL
 70
     0
  9
$DIMLIM
 70
     0
  9
$DIMTIH
 70
     1
  9
$DIMTOH
 70
     1
  9
$DIMSE1
 70
     0
  9
$DIMSE2
 70
     0
  9
$DIMTAD
 70
     1
  9
$DIMZIN
 70
     0
  9
$DIMBLK
  1

  9
$DIMASO
 70
     1
  9
$DIMSHO
 70
     1
  9
$DIMPOST
  1

  9
$DIMAPOST
  1

  9
$DIMALT
 70
     0
  9
$DIMALTD
 70
     2
  9
$DIMALTF
 40
25.4
  9
$DIMLFAC
 40
1.0
  9
$DIMTOFL
 70
     0
  9
$DIMTVP
 40
0.0
  9
$DIMTIX
 70
     0
  9
$DIMSOXD
 70
     0
  9
$DIMSAH
 70
     0
  9
$DIMBLK1
  1

  9
$DIMBLK2
  1

  9
$DIMSTYLE
  2
STANDARD
  9
$DIMCLRD
 70
     0
  9
$DIMCLRE
 70
     0
  9
$DIMCLRT
 70
     0
  9
$DIMTFAC
 40
1.0
  9
$DIMGAP
 40
0.09
  9
$LUNITS
 70
     2
  9
$LUPREC
 70
     2
  9
$AXISMODE
 70
     0
  9
$AXISUNIT
 10
0.0
 20
0.0
  9
$SKETCHINC
 40
0.1
  9
$FILLETRAD
 40
0.0
  9
$AUNITS
 70
     0
  9
$AUPREC
 70
     0
  9
$MENU
  1
acad
  9
$ELEVATION
 40
0.0
  9
$PELEVATION
 40
0.0
  9
$THICKNESS
 40
0.0
  9
$LIMCHECK
 70
     0
  9
$BLIPMODE
 70
     1
  9
$CHAMFERA
 40
0.0
  9
$CHAMFERB
 40
0.0
  9
$SKPOLY
 70
     0
  9
$TDCREATE
 40
0.000000000
  9
$TDUPDATE
 40
0.000000000
  9
$TDINDWG
 40
0.0000000000
  9
$TDUSRTIMER
 40
0.0000000000
  9
$USRTIMER
 70
     1
  9
$ANGBASE
 50
0.0
  9
$ANGDIR
 70
     0
  9
$PDMODE
 70
     0
  9
$PDSIZE
 40
0.0
  9
$PLINEWID
 40
0.0
  9
$COORDS
 70
     0
  9
$SPLFRAME
 70
     0
  9
$SPLINETYPE
 70
     6
  9
$SPLINESEGS
 70
     8
  9
$ATTDIA
 70
     0
  9
$ATTREQ
 70
     1
  9
$HANDLING
 70
     1
  9
$HANDSEED
  5
515
  9
$SURFTAB1
 70
     6
  9
$SURFTAB2
 70
     6
  9
$SURFTYPE
 70
     6
  9
$SURFU
 70
     6
  9
$SURFV
 70
     6
  9
$UCSNAME
  2

  9
$UCSORG
 10
0.0
 20
0.0
 30
0.0
  9
$UCSXDIR
 10
1.0
 20
0.0
 30
0.0
  9
$UCSYDIR
 10
0.0
 20
1.0
 30
0.0
  9
$PUCSNAME
  2

  9
$PUCSORG
 10
0.0
 20
0.0
 30
0.0
  9
$PUCSXDIR
 10
1.0
 20
0.0
 30
0.0
  9
$PUCSYDIR
 10
0.0
 20
1.0
 30
0.0
  9
$USERI1
 70
     0
  9
$USERI2
 70
     0
  9
$USERI3
 70
     0
  9
$USERI4
 70
     0
  9
$USERI5
 70
     0
  9
$USERR1
 40
0.0
  9
$USERR2
 40
0.0
  9
$USERR3
 40
0.0
  9
$USERR4
 40
0.0
  9
$USERR5
 40
0.0
  9
$WORLDVIEW
 70
     1
  9
$SHADEDGE
 70
     3
  9
$SHADEDIF
 70
    70
  9
$TILEMODE
 70
     1
  9
$MAXACTVP
 70
    16
  9
$PINSBASE
 10
0.0
 20
0.0
 30
0.0
  9
$PLIMCHECK
 70
     0
  9
$PEXTMIN
 10
1.000000E+20
 20
1.000000E+20
 30
1.000000E+20
  9
$PEXTMAX
 10
-1.000000E+20
 20
-1.000000E+20
 30
-1.000000E+20
  9
$PLIMMIN
 10
310.369624
 20
128.4
  9
$PLIMMAX
 10
1150.369624
 20
722.4
  9
$UNITMODE
 70
     0
  9
$VISRETAIN
 70
     0
  9
$PLINEGEN
 70
     1
  9
$PSLTSCALE
 70
     0
  9
$TREEDEPTH
 70
  3020
  9
$DWGCODEPAGE
  3
dos850
  0
ENDSEC
  0
SECTION
  2
TABLES
  0
TABLE
  2
VPORT
 70
     1
  0
VPORT
  2
*ACTIVE
 70
     0
 10
0.0
 20
0.0
 11
1.0
 21
1.0
 12
420.0
 22
297.0
 13
0.0
 23
0.0
 14
1.0
 24
1.0
 15
0.0
 25
0.0
 16
0.0
 26
0.0
 36
1.0
 17
310.369624
 27
128.4
 37
0.0
 40
594.0
 41
1.604229
 42
50.0
 43
0.0
 44
0.0
 50
0.0
 51
0.0
 71
     0
 72
   100
 73
     1
 74
     1
 75
     0
 76
     0
 77
     0
 78
     0
  0
ENDTAB
  0
TABLE
  2
LTYPE
 70
     3
  0
LTYPE
  2
CONTINUOUS
 70
    64
  3
Solid line
 72
    65
 73
     0
 40
0.0
  0
LTYPE
  2
DASHED
 70
    64
  3
__ __ __ __ __
 72
    65
 73
     2
 40
6.25
 49
5.0
 49
-1.25
  0
LTYPE
  2
DASHDOT
 70
    64
  3
__ . __ . __ . __ . __
 72
    65
 73
     4
 40
7.5
 49
5.0
 49
-1.25
 49
0.0
 49
-1.25
  0
ENDTAB
  0
TABLE
  2
LAYER
 70
    12
  0
LAYER
  2
0
 70
     0
 62
     7
  6
CONTINUOUS
  0
LAYER
  2
LC-INFO-1-2-MM-A3-0
 70
     1
 62
    -1
  6
CONTINUOUS
  0
LAYER
  2
LC-003-005-----0
 70
     0
 62
     2
  6
CONTINUOUS
  0
LAYER
  2
LC-001-002-----0
 70
     0
 62
     1
  6
CONTINUOUS
  0
LAYER
  2
LC-005-003-MTH-0
 70
     0
 62
     2
  6
CONTINUOUS
  0
LAYER
  2
LC-006-003-MTG-0
 70
     0
 62
     2
  6
CONTINUOUS
  0
LAYER
  2
LC-004-003-----0
 70
     0
 62
     2
  6
CONTINUOUS
  0
LAYER
  2
LC-002-000-----0
 70
     0
 62
     7
  6
CONTINUOUS
  0
LAYER
  2
LC-008-000-----0
 70
     0
 62
     7
  6
CONTINUOUS
  0
LAYER
  2
LC-007-002-RND-0
 70
     0
 62
     1
  6
CONTINUOUS
  0
LAYER
  2
LC-009-006-MLN-0
 70
     0
 62
     2
  6
DASHDOT
  0
LAYER
  2
LC-000
 70
     0
 62
     7
  6
CONTINUOUS
  0
ENDTAB
  0
TABLE
  2
STYLE
 70
     3
  0
STYLE
  2
STANDARD
 70
     0
 40
0.0
 41
1.0
 50
0.0
 71
     0
 42
0.0
  3
txt
  4

  0
STYLE
  2
LC-TXTSTYLE-150-400-0-0-A1
 70
    64
 40
0.0
 41
1.0
 50
15.0
 71
     0
 42
3.5
  3
Arial
  4

  0
STYLE
  2
LC-STANDARD
 70
    64
 40
0.0
 41
1.0
 50
0.0
 71
     0
 42
3.5
  3
MONOTXT
  4

  0
ENDTAB
  0
TABLE
  2
VIEW
 70
     0
  0
ENDTAB
  0
TABLE
  2
UCS
 70
     0
  0
ENDTAB
  0
TABLE
  2
APPID
 70
     1
  0
APPID
  2
ACAD
 70
     0
  0
ENDTAB
  0
TABLE
  2
DIMSTYLE
 70
     3
  0
DIMSTYLE
  2
STANDARD
 70
     0
  3

  4

  5

  6

  7

 40
1.0
 41
0.18
 42
0.0625
 43
0.38
 44
0.18
 45
0.0
 46
0.0
 47
0.0
 48
0.0
 71
     0
 72
     0
 73
     1
 74
     1
 75
     0
 76
     0
 77
     0
 78
     0
140
0.18
141
0.09
142
0.0
143
25.4
144
1.0
145
0.0
146
1.0
147
0.09
170
     0
171
     2
172
     0
173
     0
174
     0
175
     0
176
     0
177
     0
178
     0
  0
DIMSTYLE
  2
LC-STANDARD
 70
     0
  3

  4

  5

  6

  7

 40
1.0
 41
3.5
 42
0.0
 43
7.5
 44
1.8
 45
0.0
 46
0.0
 47
0.0
 48
0.0
 71
     0
 72
     0
 73
     0
 74
     0
 75
     0
 76
     0
 77
     1
 78
     8
140
3.5
141
0.0
142
0.0
143
25.4
144
1.0
145
0.0
146
0.71
147
1.5
170
     0
171
     2
172
     1
173
     0
174
     0
175
     0
176
     0
177
     0
178
     3
  0
DIMSTYLE
  2
LC-DIM-L-0140-02-02
 70
     0
  3

  4

  5

  6

  7

 40
2.0
 41
3.5
 42
0.0
 43
7.5
 44
1.8
 45
0.0
 46
0.0
 47
0.0
 48
0.0
 71
     0
 72
     0
 73
     0
 74
     0
 75
     0
 76
     0
 77
     1
 78
     8
140
14.0
141
0.0
142
0.0
143
25.4
144
1.0
145
0.0
146
0.71
147
1.5
170
     0
171
     2
172
     0
173
     0
174
     0
175
     0
176
     2
177
     2
178
     8
  0
ENDTAB
  0
ENDSEC
  0
SECTION
  2
BLOCKS
  0
BLOCK
  8
0
  5
23
  2
SYM1
 70
    64
 10
311.457947
 20
125.5
 30
0.0
  3
SYM1
  0
ENDBLK
  8
0
  5
24
  0
BLOCK
  8
0
  5
26
  2
SYM2
 70
    64
 10
311.457947
 20
125.5
 30
0.0
  3
SYM2
  0
ENDBLK
  8
0
  5
27
  0
BLOCK
  8
0
  5
29
  2
SYM3
 70
    64
 10
311.457947
 20
125.5
 30
0.0
  3
SYM3
  0
ENDBLK
  8
0
  5
2A
  0
BLOCK
  8
0
  5
2C
  2
SYM4
 70
    64
 10
311.457947
 20
125.5
 30
0.0
  3
SYM4
  0
ENDBLK
  8
0
  5
2D
  0
BLOCK
  8
0
  5
2F
  2
SYM5
 70
    64
 10
311.457947
 20
125.5
 30
0.0
  3
SYM5
  0
ENDBLK
  8
0
  5
30
  0
BLOCK
  8
0
  5
32
  2
SYM6
 70
    64
 10
311.457947
 20
125.5
 30
0.0
  3
SYM6
  0
ENDBLK
  8
0
  5
33
  0
BLOCK
  8
0
  5
35
  2
*X6
 70
    65
 10
631.392689
 20
406.920872
 30
0.0
  3
*X6
  0
LINE
  8
LC-003-005-----0
  6
CONTINUOUS
  5
37
 10
658.892689
 20
540.360412
 30
0.0
 11
657.332229
 21
541.920872
 31
0.0
  0
LINE
  8
LC-003-005-----0
  6
CONTINUOUS
  5
38
 10
658.892689
 20
537.531985
 30
0.0
 11
654.892689
 21
541.531985
 31
0.0
  0
LINE
  8
LC-003-005-----0
  6
CONTINUOUS
  5
39
 10
658.892689
 20
534.703558
 30
0.0
 11
654.892689
 21
538.703558
 31
0.0
  0
LINE
  8
LC-003-005-----0
  6
CONTINUOUS
  5
3A
 10
661.892689
 20
528.875131
 30
0.0
 11
660.346948
 21
530.420872
 31
0.0
  0
LINE
  8
LC-003-005-----0
  6
CONTINUOUS
  5
3B
 10
658.892689
 20
531.875131
 30
0.0
 11
654.892689
 21
535.875131
 31
0.0
  0
LINE
  8
LC-003-005-----0
  6
CONTINUOUS
  5
3C
 10
661.892689
 20
526.046704
 30
0.0
 11
654.892689
 21
533.046704
 31
0.0
  0
LINE
  8
LC-003-005-----0
  6
CONTINUOUS
  5
3D
 10
661.892689
 20
523.218277
 30
0.0
 11
654.291576
 21
530.819389
 31
0.0
  0
LINE
  8
LC-003-005-----0
  6
CONTINUOUS
  5
3E
 10
661.892689
 20
520.38985
 30
0.0
 11
652.581515
 21
529.701023
 31
0.0
  0
LINE
  8
LC-003-005-----0
  6
CONTINUOUS
  5
3F
 10
661.892689
 20
517.561423
 30
0.0
 11
658.892689
 21
520.561423
 31
0.0
  0
LINE
  8
LC-003-005-----0
  6
CONTINUOUS
  5
40
 10
656.833239
 20
522.620872
 30
0.0
 11
649.833239
 21
529.620872
 31
0.0
  0
LINE
  8
LC-003-005-----0
  6
CONTINUOUS
  5
41
 10
661.892689
 20
514.732995
 30
0.0
 11
658.892689
 21
517.732995
 31
0.0
  0
LINE
  8
LC-003-005-----0
  6
CONTINUOUS
  5
42
 10
653.22904
 20
523.396644
 30
0.0
 11
647.004812
 21
529.620872
 31
0.0
  0
LINE
  8
LC-003-005-----0
  6
CONTINUOUS
  5
43
 10
661.892689
 20
511.904568
 30
0.0
 11
658.892689
 21
514.904568
 31
0.0
  0
LINE
  8
LC-003-005-----0
  6
CONTINUOUS
  5
44
 10
647.929306
 20
525.867951
 30
0.0
 11
644.176385
 21
529.620872
 31
0.0
  0
LINE
  8
LC-003-005-----0
  6
CONTINUOUS
  5
45
 10
661.892689
 20
509.076141
 30
0.0
 11
658.892689
 21
512.076141
 31
0.0
  0
LINE
  8
LC-003-005-----0
  6
CONTINUOUS
  5
46
 10
644.347958
 20
526.620872
 30
0.0
 11
641.347958
 21
529.620872
 31
0.0
  0
LINE
  8
LC-003-005-----0
  6
CONTINUOUS
  5
47
 10
661.892689
 20
506.247714
 30
0.0
 11
658.892689
 21
509.247714
 31
0.0
  0
LINE
  8
LC-003-005-----0
  6
CONTINUOUS
  5
48
 10
641.519531
 20
526.620872
 30
0.0
 11
638.519531
 21
529.620872
 31
0.0
  0
LINE
  8
LC-003-005-----0
  6
CONTINUOUS
  5
49
 10
661.892689
 20
503.419287
 30
0.0
 11
658.892689
 21
506.419287
 31
0.0
  0
LINE
  8
LC-003-005-----0
  6
CONTINUOUS
  5
4A
 10
638.691103
 20
526.620872
 30
0.0
 11
635.691103
 21
529.620872
 31
0.0
  0
LINE
  8
LC-003-005-----0
  6
CONTINUOUS
  5
4B
 10
661.892689
 20
500.59086
 30
0.0
 11
658.892689
 21
503.59086
 31
0.0
  0
LINE
  8
LC-003-005-----0
  6
CONTINUOUS
  5
4C
 10
635.862676
 20
526.620872
 30
0.0
 11
632.862676
 21
529.620872
 31
0.0
  0
LINE
  8
LC-003-005-----0
  6
CONTINUOUS
  5
4D
 10
661.892689
 20
497.762433
 30
0.0
 11
658.892689
 21
500.762433
 31
0.0
  0
LINE
  8
LC-003-005-----0
  6
CONTINUOUS
  5
4E
 10
633.034249
 20
526.620872
 30
0.0
 11
631.889912
 21
527.765209
 31
0.0
  0
LINE
  8
LC-003-005-----0
  6
CONTINUOUS
  5
4F
 10
661.892689
 20
494.934006
 30
0.0
 11
658.892689
 21
497.934006
 31
0.0
  0
LINE
  8
LC-003-005-----0
  6
CONTINUOUS
  5
50
 10
661.892689
 20
492.105578
 30
0.0
 11
658.892689
 21
495.105578
 31
0.0
  0
LINE
  8
LC-003-005-----0
  6
CONTINUOUS
  5
51
 10
661.892689
 20
489.277151
 30
0.0
 11
658.892689
 21
492.277151
 31
0.0
  0
LINE
  8
LC-003-005-----0
  6
CONTINUOUS
  5
52
 10
661.892689
 20
486.448724
 30
0.0
 11
658.892689
 21
489.448724
 31
0.0
  0
LINE
  8
LC-003-005-----0
  6
CONTINUOUS
  5
53
 10
661.892689
 20
483.620297
 30
0.0
 11
658.892689
 21
486.620297
 31
0.0
  0
LINE
  8
LC-003-005-----0
  6
CONTINUOUS
  5
54
 10
661.892689
 20
480.79187
 30
0.0
 11
658.892689
 21
483.79187
 31
0.0
  0
LINE
  8
LC-003-005-----0
  6
CONTINUOUS
  5
55
 10
661.892689
 20
477.963443
 30
0.0
 11
658.892689
 21
480.963443
 31
0.0
  0
LINE
  8
LC-003-005-----0
  6
CONTINUOUS
  5
56
 10
661.892689
 20
475.135016
 30
0.0
 11
658.892689
 21
478.135016
 31
0.0
  0
LINE
  8
LC-003-005-----0
  6
CONTINUOUS
  5
57
 10
661.892689
 20
472.306589
 30
0.0
 11
658.892689
 21
475.306589
 31
0.0
  0
LINE
  8
LC-003-005-----0
  6
CONTINUOUS
  5
58
 10
661.892689
 20
469.478161
 30
0.0
 11
658.892689
 21
472.478161
 31
0.0
  0
LINE
  8
LC-003-005-----0
  6
CONTINUOUS
  5
59
 10
661.892689
 20
466.649734
 30
0.0
 11
658.892689
 21
469.649734
 31
0.0
  0
LINE
  8
LC-003-005-----0
  6
CONTINUOUS
  5
5A
 10
661.892689
 20
463.821307
 30
0.0
 11
658.892689
 21
466.821307
 31
0.0
  0
LINE
  8
LC-003-005-----0
  6
CONTINUOUS
  5
5B
 10
661.892689
 20
460.99288
 30
0.0
 11
658.892689
 21
463.99288
 31
0.0
  0
LINE
  8
LC-003-005-----0
  6
CONTINUOUS
  5
5C
 10
661.892689
 20
458.164453
 30
0.0
 11
658.892689
 21
461.164453
 31
0.0
  0
LINE
  8
LC-003-005-----0
  6
CONTINUOUS
  5
5D
 10
661.892689
 20
455.336026
 30
0.0
 11
658.892689
 21
458.336026
 31
0.0
  0
LINE
  8
LC-003-005-----0
  6
CONTINUOUS
  5
5E
 10
661.892689
 20
452.507599
 30
0.0
 11
658.892689
 21
455.507599
 31
0.0
  0
LINE
  8
LC-003-005-----0
  6
CONTINUOUS
  5
5F
 10
661.892689
 20
449.679172
 30
0.0
 11
658.892689
 21
452.679172
 31
0.0
  0
LINE
  8
LC-003-005-----0
  6
CONTINUOUS
  5
60
 10
661.892689
 20
446.850744
 30
0.0
 11
658.892689
 21
449.850744
 31
0.0
  0
LINE
  8
LC-003-005-----0
  6
CONTINUOUS
  5
61
 10
661.892689
 20
444.022317
 30
0.0
 11
658.892689
 21
447.022317
 31
0.0
  0
LINE
  8
LC-003-005-----0
  6
CONTINUOUS
  5
62
 10
661.892689
 20
441.19389
 30
0.0
 11
658.892689
 21
444.19389
 31
0.0
  0
LINE
  8
LC-003-005-----0
  6
CONTINUOUS
  5
63
 10
661.892689
 20
438.365463
 30
0.0
 11
658.892689
 21
441.365463
 31
0.0
  0
LINE
  8
LC-003-005-----0
  6
CONTINUOUS
  5
64
 10
661.892689
 20
435.537036
 30
0.0
 11
658.892689
 21
438.537036
 31
0.0
  0
LINE
  8
LC-003-005-----0
  6
CONTINUOUS
  5
65
 10
661.892689
 20
432.708609
 30
0.0
 11
658.892689
 21
435.708609
 31
0.0
  0
LINE
  8
LC-003-005-----0
  6
CONTINUOUS
  5
66
 10
661.892689
 20
429.880182
 30
0.0
 11
658.892689
 21
432.880182
 31
0.0
  0
LINE
  8
LC-003-005-----0
  6
CONTINUOUS
  5
67
 10
661.892689
 20
427.051755
 30
0.0
 11
658.892689
 21
430.051755
 31
0.0
  0
LINE
  8
LC-003-005-----0
  6
CONTINUOUS
  5
68
 10
661.892689
 20
424.223327
 30
0.0
 11
658.892689
 21
427.223327
 31
0.0
  0
LINE
  8
LC-003-005-----0
  6
CONTINUOUS
  5
69
 10
661.892689
 20
421.3949
 30
0.0
 11
658.892689
 21
424.3949
 31
0.0
  0
LINE
  8
LC-003-005-----0
  6
CONTINUOUS
  5
6A
 10
661.892689
 20
418.566473
 30
0.0
 11
658.892689
 21
421.566473
 31
0.0
  0
LINE
  8
LC-003-005-----0
  6
CONTINUOUS
  5
6B
 10
661.892689
 20
415.738046
 30
0.0
 11
658.892689
 21
418.738046
 31
0.0
  0
LINE
  8
LC-003-005-----0
  6
CONTINUOUS
  5
6C
 10
661.892689
 20
412.909619
 30
0.0
 11
658.892689
 21
415.909619
 31
0.0
  0
LINE
  8
LC-003-005-----0
  6
CONTINUOUS
  5
6D
 10
661.892689
 20
410.081192
 30
0.0
 11
658.892689
 21
413.081192
 31
0.0
  0
LINE
  8
LC-003-005-----0
  6
CONTINUOUS
  5
6E
 10
661.892689
 20
407.252765
 30
0.0
 11
659.503258
 21
409.642195
 31
0.0
  0
ENDBLK
  8
0
  5
6F
  0
BLOCK
  8
0
  5
71
  2
OBJ1
 70
    64
 10
0.0
 20
0.0
 30
0.0
  3
OBJ1
  0
LINE
  8
LC-003-005-----0
  6
CONTINUOUS
  5
72
 10
880.457469
 20
529.448113
 30
0.0
 11
882.565448
 21
531.556092
 31
0.0
  0
ENDBLK
  8
0
  5
73
  0
BLOCK
  8
0
  5
75
  2
SYM7
 70
    64
 10
311.457947
 20
125.5
 30
0.0
  3
SYM7
  0
ENDBLK
  8
0
  5
76
  0
BLOCK
  8
0
  5
78
  2
OBJ2
 70
    64
 10
0.0
 20
0.0
 30
0.0
  3
OBJ2
  0
LINE
  8
LC-003-005-----0
  6
CONTINUOUS
  5
79
 10
930.457469
 20
529.448113
 30
0.0
 11
932.565448
 21
531.556092
 31
0.0
  0
ENDBLK
  8
0
  5
7A
  0
BLOCK
  8
0
  5
7C
  2
OBJ3
 70
    64
 10
0.0
 20
0.0
 30
0.0
  3
OBJ3
  0
LINE
  8
LC-003-005-----0
  6
CONTINUOUS
  5
7D
 10
980.457469
 20
529.448113
 30
0.0
 11
982.565448
 21
531.556092
 31
0.0
  0
ENDBLK
  8
0
  5
7E
  0
BLOCK
  8
0
  5
80
  2
OBJ4
 70
    64
 10
0.0
 20
0.0
 30
0.0
  3
OBJ4
  0
LINE
  8
LC-003-005-----0
  6
CONTINUOUS
  5
81
 10
580.034848
 20
529.983479
 30
0.0
 11
582.030082
 21
531.978712
 31
0.0
  0
LINE
  8
LC-003-005-----0
  6
CONTINUOUS
  5
82
 10
582.32791
 20
529.448113
 30
0.0
 11
582.565448
 21
529.685651
 31
0.0
  0
ENDBLK
  8
0
  5
83
  0
BLOCK
  8
0
  5
85
  2
OBJ5
 70
    64
 10
0.0
 20
0.0
 30
0.0
  3
OBJ5
  0
LINE
  8
LC-003-005-----0
  6
CONTINUOUS
  5
86
 10
530.034849
 20
529.983479
 30
0.0
 11
532.030082
 21
531.978712
 31
0.0
  0
LINE
  8
LC-003-005-----0
  6
CONTINUOUS
  5
87
 10
532.32791
 20
529.448113
 30
0.0
 11
532.565448
 21
529.685651
 31
0.0
  0
ENDBLK
  8
0
  5
88
  0
BLOCK
  8
0
  5
8A
  2
OBJ6
 70
    64
 10
0.0
 20
0.0
 30
0.0
  3
OBJ6
  0
LINE
  8
LC-003-005-----0
  6
CONTINUOUS
  5
8B
 10
480.034849
 20
529.983479
 30
0.0
 11
482.030082
 21
531.978712
 31
0.0
  0
LINE
  8
LC-003-005-----0
  6
CONTINUOUS
  5
8C
 10
482.32791
 20
529.448113
 30
0.0
 11
482.565448
 21
529.685651
 31
0.0
  0
ENDBLK
  8
0
  5
8D
  0
BLOCK
  8
0
  5
8F
  2
SYM8
 70
    64
 10
311.457947
 20
125.5
 30
0.0
  3
SYM8
  0
ENDBLK
  8
0
  5
90
  0
BLOCK
  8
0
  5
92
  2
*X15
 70
    65
 10
800.892689
 20
406.920872
 30
0.0
  3
*X15
  0
LINE
  8
LC-003-005-----0
  6
CONTINUOUS
  5
93
 10
831.278549
 20
529.194898
 30
0.0
 11
830.852575
 21
529.620872
 31
0.0
  0
LINE
  8
LC-003-005-----0
  6
CONTINUOUS
  5
94
 10
830.680832
 20
526.964188
 30
0.0
 11
828.024148
 21
529.620872
 31
0.0
  0
LINE
  8
LC-003-005-----0
  6
CONTINUOUS
  5
95
 10
828.195721
 20
526.620872
 30
0.0
 11
825.195721
 21
529.620872
 31
0.0
  0
LINE
  8
LC-003-005-----0
  6
CONTINUOUS
  5
96
 10
825.367294
 20
526.620872
 30
0.0
 11
822.367294
 21
529.620872
 31
0.0
  0
LINE
  8
LC-003-005-----0
  6
CONTINUOUS
  5
97
 10
822.538867
 20
526.620872
 30
0.0
 11
819.538867
 21
529.620872
 31
0.0
  0
LINE
  8
LC-003-005-----0
  6
CONTINUOUS
  5
98
 10
807.892689
 20
541.26705
 30
0.0
 11
807.238867
 21
541.920872
 31
0.0
  0
LINE
  8
LC-003-005-----0
  6
CONTINUOUS
  5
99
 10
819.710439
 20
526.620872
 30
0.0
 11
816.710439
 21
529.620872
 31
0.0
  0
LINE
  8
LC-003-005-----0
  6
CONTINUOUS
  5
9A
 10
807.892689
 20
538.438623
 30
0.0
 11
804.410439
 21
541.920872
 31
0.0
  0
LINE
  8
LC-003-005-----0
  6
CONTINUOUS
  5
9B
 10
816.882012
 20
526.620872
 30
0.0
 11
813.882012
 21
529.620872
 31
0.0
  0
LINE
  8
LC-003-005-----0
  6
CONTINUOUS
  5
9C
 10
807.892689
 20
535.610196
 30
0.0
 11
803.892689
 21
539.610196
 31
0.0
  0
LINE
  8
LC-003-005-----0
  6
CONTINUOUS
  5
9D
 10
814.822269
 20
525.852189
 30
0.0
 11
811.053585
 21
529.620872
 31
0.0
  0
LINE
  8
LC-003-005-----0
  6
CONTINUOUS
  5
9E
 10
807.892689
 20
532.781769
 30
0.0
 11
803.892689
 21
536.781769
 31
0.0
  0
LINE
  8
LC-003-005-----0
  6
CONTINUOUS
  5
9F
 10
812.893323
 20
524.952707
 30
0.0
 11
803.892689
 21
533.953342
 31
0.0
  0
LINE
  8
LC-003-005-----0
  6
CONTINUOUS
  5
A0
 10
810.964378
 20
524.053225
 30
0.0
 11
803.892689
 21
531.124914
 31
0.0
  0
LINE
  8
LC-003-005-----0
  6
CONTINUOUS
  5
A1
 10
809.035433
 20
523.153743
 30
0.0
 11
801.768304
 21
530.420872
 31
0.0
  0
LINE
  8
LC-003-005-----0
  6
CONTINUOUS
  5
A2
 10
806.739877
 20
522.620872
 30
0.0
 11
800.892689
 21
528.46806
 31
0.0
  0
LINE
  8
LC-003-005-----0
  6
CONTINUOUS
  5
A3
 10
803.91145
 20
522.620872
 30
0.0
 11
800.892689
 21
525.639633
 31
0.0
  0
LINE
  8
LC-003-005-----0
  6
CONTINUOUS
  5
A4
 10
803.892689
 20
519.811206
 30
0.0
 11
800.892689
 21
522.811206
 31
0.0
  0
LINE
  8
LC-003-005-----0
  6
CONTINUOUS
  5
A5
 10
803.892689
 20
516.982779
 30
0.0
 11
800.892689
 21
519.982779
 31
0.0
  0
LINE
  8
LC-003-005-----0
  6
CONTINUOUS
  5
A6
 10
803.892689
 20
514.154352
 30
0.0
 11
800.892689
 21
517.154352
 31
0.0
  0
LINE
  8
LC-003-005-----0
  6
CONTINUOUS
  5
A7
 10
803.892689
 20
511.325925
 30
0.0
 11
800.892689
 21
514.325925
 31
0.0
  0
LINE
  8
LC-003-005-----0
  6
CONTINUOUS
  5
A8
 10
803.892689
 20
508.497497
 30
0.0
 11
800.892689
 21
511.497497
 31
0.0
  0
LINE
  8
LC-003-005-----0
  6
CONTINUOUS
  5
A9
 10
803.892689
 20
505.66907
 30
0.0
 11
800.892689
 21
508.66907
 31
0.0
  0
LINE
  8
LC-003-005-----0
  6
CONTINUOUS
  5
AA
 10
803.892689
 20
502.840643
 30
0.0
 11
800.892689
 21
505.840643
 31
0.0
  0
LINE
  8
LC-003-005-----0
  6
CONTINUOUS
  5
AB
 10
803.892689
 20
500.012216
 30
0.0
 11
800.892689
 21
503.012216
 31
0.0
  0
LINE
  8
LC-003-005-----0
  6
CONTINUOUS
  5
AC
 10
803.892689
 20
497.183789
 30
0.0
 11
800.892689
 21
500.183789
 31
0.0
  0
LINE
  8
LC-003-005-----0
  6
CONTINUOUS
  5
AD
 10
803.892689
 20
494.355362
 30
0.0
 11
800.892689
 21
497.355362
 31
0.0
  0
LINE
  8
LC-003-005-----0
  6
CONTINUOUS
  5
AE
 10
803.892689
 20
491.526935
 30
0.0
 11
800.892689
 21
494.526935
 31
0.0
  0
LINE
  8
LC-003-005-----0
  6
CONTINUOUS
  5
AF
 10
803.892689
 20
488.698508
 30
0.0
 11
800.892689
 21
491.698508
 31
0.0
  0
LINE
  8
LC-003-005-----0
  6
CONTINUOUS
  5
B0
 10
803.892689
 20
485.87008
 30
0.0
 11
800.892689
 21
488.87008
 31
0.0
  0
LINE
  8
LC-003-005-----0
  6
CONTINUOUS
  5
B1
 10
803.892689
 20
483.041653
 30
0.0
 11
800.892689
 21
486.041653
 31
0.0
  0
LINE
  8
LC-003-005-----0
  6
CONTINUOUS
  5
B2
 10
803.892689
 20
480.213226
 30
0.0
 11
800.892689
 21
483.213226
 31
0.0
  0
LINE
  8
LC-003-005-----0
  6
CONTINUOUS
  5
B3
 10
803.892689
 20
477.384799
 30
0.0
 11
800.892689
 21
480.384799
 31
0.0
  0
LINE
  8
LC-003-005-----0
  6
CONTINUOUS
  5
B4
 10
803.892689
 20
474.556372
 30
0.0
 11
800.892689
 21
477.556372
 31
0.0
  0
LINE
  8
LC-003-005-----0
  6
CONTINUOUS
  5
B5
 10
803.892689
 20
471.727945
 30
0.0
 11
800.892689
 21
474.727945
 31
0.0
  0
LINE
  8
LC-003-005-----0
  6
CONTINUOUS
  5
B6
 10
803.892689
 20
468.899518
 30
0.0
 11
800.892689
 21
471.899518
 31
0.0
  0
LINE
  8
LC-003-005-----0
  6
CONTINUOUS
  5
B7
 10
803.892689
 20
466.071091
 30
0.0
 11
800.892689
 21
469.071091
 31
0.0
  0
LINE
  8
LC-003-005-----0
  6
CONTINUOUS
  5
B8
 10
803.892689
 20
463.242663
 30
0.0
 11
800.892689
 21
466.242663
 31
0.0
  0
LINE
  8
LC-003-005-----0
  6
CONTINUOUS
  5
B9
 10
803.892689
 20
460.414236
 30
0.0
 11
800.892689
 21
463.414236
 31
0.0
  0
LINE
  8
LC-003-005-----0
  6
CONTINUOUS
  5
BA
 10
803.892689
 20
457.585809
 30
0.0
 11
800.892689
 21
460.585809
 31
0.0
  0
LINE
  8
LC-003-005-----0
  6
CONTINUOUS
  5
BB
 10
803.892689
 20
454.757382
 30
0.0
 11
800.892689
 21
457.757382
 31
0.0
  0
LINE
  8
LC-003-005-----0
  6
CONTINUOUS
  5
BC
 10
803.892689
 20
451.928955
 30
0.0
 11
800.892689
 21
454.928955
 31
0.0
  0
LINE
  8
LC-003-005-----0
  6
CONTINUOUS
  5
BD
 10
803.892689
 20
449.100528
 30
0.0
 11
800.892689
 21
452.100528
 31
0.0
  0
LINE
  8
LC-003-005-----0
  6
CONTINUOUS
  5
BE
 10
803.892689
 20
446.272101
 30
0.0
 11
800.892689
 21
449.272101
 31
0.0
  0
LINE
  8
LC-003-005-----0
  6
CONTINUOUS
  5
BF
 10
803.892689
 20
443.443674
 30
0.0
 11
800.892689
 21
446.443674
 31
0.0
  0
LINE
  8
LC-003-005-----0
  6
CONTINUOUS
  5
C0
 10
803.892689
 20
440.615246
 30
0.0
 11
800.892689
 21
443.615246
 31
0.0
  0
LINE
  8
LC-003-005-----0
  6
CONTINUOUS
  5
C1
 10
803.892689
 20
437.786819
 30
0.0
 11
800.892689
 21
440.786819
 31
0.0
  0
LINE
  8
LC-003-005-----0
  6
CONTINUOUS
  5
C2
 10
803.892689
 20
434.958392
 30
0.0
 11
800.892689
 21
437.958392
 31
0.0
  0
LINE
  8
LC-003-005-----0
  6
CONTINUOUS
  5
C3
 10
803.892689
 20
432.129965
 30
0.0
 11
800.892689
 21
435.129965
 31
0.0
  0
LINE
  8
LC-003-005-----0
  6
CONTINUOUS
  5
C4
 10
803.892689
 20
429.301538
 30
0.0
 11
800.892689
 21
432.301538
 31
0.0
  0
LINE
  8
LC-003-005-----0
  6
CONTINUOUS
  5
C5
 10
803.892689
 20
426.473111
 30
0.0
 11
800.892689
 21
429.473111
 31
0.0
  0
LINE
  8
LC-003-005-----0
  6
CONTINUOUS
  5
C6
 10
803.892689
 20
423.644684
 30
0.0
 11
800.892689
 21
426.644684
 31
0.0
  0
LINE
  8
LC-003-005-----0
  6
CONTINUOUS
  5
C7
 10
803.892689
 20
420.816257
 30
0.0
 11
800.892689
 21
423.816257
 31
0.0
  0
LINE
  8
LC-003-005-----0
  6
CONTINUOUS
  5
C8
 10
803.892689
 20
417.987829
 30
0.0
 11
800.892689
 21
420.987829
 31
0.0
  0
LINE
  8
LC-003-005-----0
  6
CONTINUOUS
  5
C9
 10
803.892689
 20
415.159402
 30
0.0
 11
800.892689
 21
418.159402
 31
0.0
  0
LINE
  8
LC-003-005-----0
  6
CONTINUOUS
  5
CA
 10
803.892689
 20
412.330975
 30
0.0
 11
800.892689
 21
415.330975
 31
0.0
  0
LINE
  8
LC-003-005-----0
  6
CONTINUOUS
  5
CB
 10
803.381636
 20
410.0136
 30
0.0
 11
800.892689
 21
412.502548
 31
0.0
  0
LINE
  8
LC-003-005-----0
  6
CONTINUOUS
  5
CC
 10
802.78392
 20
407.78289
 30
0.0
 11
800.892689
 21
409.674121
 31
0.0
  0
ENDBLK
  8
0
  5
CD
  0
BLOCK
  8
0
  5
CF
  2
SYM9
 70
    64
 10
311.457947
 20
125.5
 30
0.0
  3
SYM9
  0
ENDBLK
  8
0
  5
D0
  0
BLOCK
  8
0
  5
D2
  2
SYM10
 70
    64
 10
311.457947
 20
125.5
 30
0.0
  3
SYM10
  0
ENDBLK
  8
0
  5
D3
  0
BLOCK
  8
0
  5
D5
  2
SYM11
 70
    64
 10
311.457947
 20
125.5
 30
0.0
  3
SYM11
  0
ENDBLK
  8
0
  5
D6
  0
BLOCK
  8
0
  5
D8
  2
SYM12
 70
    64
 10
311.457947
 20
125.5
 30
0.0
  3
SYM12
  0
ENDBLK
  8
0
  5
D9
  0
BLOCK
  8
0
  5
DB
  2
OBJ7
 70
    64
 10
0.0
 20
0.0
 30
0.0
  3
OBJ7
  0
LINE
  8
LC-003-005-----0
  6
CONTINUOUS
  5
DC
 10
633.472378
 20
573.546872
 30
0.0
 11
632.156145
 21
574.863106
 31
0.0
  0
LINE
  8
LC-003-005-----0
  6
CONTINUOUS
  5
DD
 10
634.886593
 20
573.546872
 30
0.0
 11
632.886593
 21
575.546872
 31
0.0
  0
LINE
  8
LC-003-005-----0
  6
CONTINUOUS
  5
DE
 10
636.300806
 20
573.546872
 30
0.0
 11
634.300806
 21
575.546872
 31
0.0
  0
LINE
  8
LC-003-005-----0
  6
CONTINUOUS
  5
DF
 10
637.71502
 20
573.546872
 30
0.0
 11
635.71502
 21
575.546872
 31
0.0
  0
LINE
  8
LC-003-005-----0
  6
CONTINUOUS
  5
E0
 10
639.129232
 20
573.546872
 30
0.0
 11
637.129232
 21
575.546872
 31
0.0
  0
LINE
  8
LC-003-005-----0
  6
CONTINUOUS
  5
E1
 10
640.543447
 20
573.546872
 30
0.0
 11
638.543447
 21
575.546872
 31
0.0
  0
LINE
  8
LC-003-005-----0
  6
CONTINUOUS
  5
E2
 10
641.957659
 20
573.546872
 30
0.0
 11
639.957659
 21
575.546872
 31
0.0
  0
LINE
  8
LC-003-005-----0
  6
CONTINUOUS
  5
E3
 10
643.371874
 20
573.546872
 30
0.0
 11
641.371874
 21
575.546872
 31
0.0
  0
LINE
  8
LC-003-005-----0
  6
CONTINUOUS
  5
E4
 10
644.786088
 20
573.546872
 30
0.0
 11
642.786088
 21
575.546872
 31
0.0
  0
LINE
  8
LC-003-005-----0
  6
CONTINUOUS
  5
E5
 10
646.200301
 20
573.546872
 30
0.0
 11
644.200301
 21
575.546872
 31
0.0
  0
LINE
  8
LC-003-005-----0
  6
CONTINUOUS
  5
E6
 10
647.614514
 20
573.546872
 30
0.0
 11
645.614514
 21
575.546872
 31
0.0
  0
LINE
  8
LC-003-005-----0
  6
CONTINUOUS
  5
E7
 10
649.028728
 20
573.546872
 30
0.0
 11
647.028728
 21
575.546872
 31
0.0
  0
LINE
  8
LC-003-005-----0
  6
CONTINUOUS
  5
E8
 10
650.442942
 20
573.546872
 30
0.0
 11
648.442942
 21
575.546872
 31
0.0
  0
LINE
  8
LC-003-005-----0
  6
CONTINUOUS
  5
E9
 10
651.857155
 20
573.546872
 30
0.0
 11
649.857155
 21
575.546872
 31
0.0
  0
LINE
  8
LC-003-005-----0
  6
CONTINUOUS
  5
EA
 10
653.271368
 20
573.546872
 30
0.0
 11
651.271368
 21
575.546872
 31
0.0
  0
LINE
  8
LC-003-005-----0
  6
CONTINUOUS
  5
EB
 10
654.685583
 20
573.546872
 30
0.0
 11
652.685583
 21
575.546872
 31
0.0
  0
LINE
  8
LC-003-005-----0
  6
CONTINUOUS
  5
EC
 10
656.099796
 20
573.546872
 30
0.0
 11
654.099796
 21
575.546872
 31
0.0
  0
LINE
  8
LC-003-005-----0
  6
CONTINUOUS
  5
ED
 10
657.51401
 20
573.546872
 30
0.0
 11
655.51401
 21
575.546872
 31
0.0
  0
LINE
  8
LC-003-005-----0
  6
CONTINUOUS
  5
EE
 10
658.928223
 20
573.546872
 30
0.0
 11
656.928223
 21
575.546872
 31
0.0
  0
LINE
  8
LC-003-005-----0
  6
CONTINUOUS
  5
EF
 10
660.342437
 20
573.546872
 30
0.0
 11
658.342437
 21
575.546872
 31
0.0
  0
LINE
  8
LC-003-005-----0
  6
CONTINUOUS
  5
F0
 10
661.756649
 20
573.546872
 30
0.0
 11
659.756649
 21
575.546872
 31
0.0
  0
LINE
  8
LC-003-005-----0
  6
CONTINUOUS
  5
F1
 10
663.170864
 20
573.546872
 30
0.0
 11
661.170864
 21
575.546872
 31
0.0
  0
LINE
  8
LC-003-005-----0
  6
CONTINUOUS
  5
F2
 10
665.670864
 20
571.046872
 30
0.0
 11
664.906145
 21
571.811591
 31
0.0
  0
LINE
  8
LC-003-005-----0
  6
CONTINUOUS
  5
F3
 10
664.585077
 20
573.546872
 30
0.0
 11
662.585077
 21
575.546872
 31
0.0
  0
LINE
  8
LC-003-005-----0
  6
CONTINUOUS
  5
F4
 10
667.085077
 20
571.046872
 30
0.0
 11
664.906145
 21
573.225804
 31
0.0
  0
LINE
  8
LC-003-005-----0
  6
CONTINUOUS
  5
F5
 10
667.132864
 20
572.413298
 30
0.0
 11
663.999291
 21
575.546872
 31
0.0
  0
LINE
  8
LC-001-002-----0
  6
DASHED
  5
F8
 10
667.156145
 20
572.390018
 30
0.0
 11
667.132864
 21
572.413298
 31
0.0
  0
LINE
  8
LC-003-005-----0
  6
CONTINUOUS
  5
F9
 10
667.132864
 20
573.827512
 30
0.0
 11
665.156145
 21
575.804231
 31
0.0
  0
LINE
  8
LC-001-002-----0
  6
DASHED
  5
FA
 10
667.156145
 20
573.804231
 30
0.0
 11
667.132864
 21
573.827512
 31
0.0
  0
LINE
  8
LC-003-005-----0
  6
CONTINUOUS
  5
FB
 10
667.132864
 20
575.241726
 30
0.0
 11
665.156145
 21
577.218445
 31
0.0
  0
LINE
  8
LC-001-002-----0
  6
DASHED
  5
FC
 10
667.156145
 20
575.218445
 30
0.0
 11
667.132864
 21
575.241726
 31
0.0
  0
LINE
  8
LC-003-005-----0
  6
CONTINUOUS
  5
FD
 10
667.132864
 20
576.655939
 30
0.0
 11
665.741932
 21
578.046872
 31
0.0
  0
LINE
  8
LC-001-002-----0
  6
DASHED
  5
FE
 10
667.156145
 20
576.632658
 30
0.0
 11
667.132864
 21
576.655939
 31
0.0
  0
ENDBLK
  8
0
  5
FF
  0
BLOCK
  8
0
  5
101
  2
SYM13
 70
    64
 10
311.457947
 20
125.5
 30
0.0
  3
SYM13
  0
ENDBLK
  8
0
  5
102
  0
BLOCK
  8
0
  5
104
  2
SYM14
 70
    64
 10
632.156145
 20
575.546872
 30
0.0
  3
SYM14
  0
ENDBLK
  8
0
  5
105
  0
BLOCK
  8
0
  5
107
  2
OBJ8
 70
    64
 10
0.0
 20
0.0
 30
0.0
  3
OBJ8
  0
LINE
  8
LC-003-005-----0
  6
CONTINUOUS
  5
108
 10
796.972378
 20
571.046872
 30
0.0
 11
795.656145
 21
572.363106
 31
0.0
  0
LINE
  8
LC-003-005-----0
  6
CONTINUOUS
  5
109
 10
797.906145
 20
571.527319
 30
0.0
 11
795.656145
 21
573.777319
 31
0.0
  0
LINE
  8
LC-003-005-----0
  6
CONTINUOUS
  5
10A
 10
797.906145
 20
572.941533
 30
0.0
 11
795.656145
 21
575.191533
 31
0.0
  0
LINE
  8
LC-003-005-----0
  6
CONTINUOUS
  5
10B
 10
798.71502
 20
573.546872
 30
0.0
 11
795.656145
 21
576.605746
 31
0.0
  0
LINE
  8
LC-003-005-----0
  6
CONTINUOUS
  5
10C
 10
797.656145
 20
576.01996
 30
0.0
 11
795.656145
 21
578.01996
 31
0.0
  0
LINE
  8
LC-003-005-----0
  6
CONTINUOUS
  5
10D
 10
800.129232
 20
573.546872
 30
0.0
 11
798.129232
 21
575.546872
 31
0.0
  0
LINE
  8
LC-003-005-----0
  6
CONTINUOUS
  5
10E
 10
797.656145
 20
577.434174
 30
0.0
 11
797.043447
 21
578.046872
 31
0.0
  0
LINE
  8
LC-003-005-----0
  6
CONTINUOUS
  5
10F
 10
801.543447
 20
573.546872
 30
0.0
 11
799.543447
 21
575.546872
 31
0.0
  0
LINE
  8
LC-003-005-----0
  6
CONTINUOUS
  5
110
 10
802.957659
 20
573.546872
 30
0.0
 11
800.957659
 21
575.546872
 31
0.0
  0
LINE
  8
LC-003-005-----0
  6
CONTINUOUS
  5
111
 10
804.371874
 20
573.546872
 30
0.0
 11
802.371874
 21
575.546872
 31
0.0
  0
LINE
  8
LC-003-005-----0
  6
CONTINUOUS
  5
112
 10
805.786088
 20
573.546872
 30
0.0
 11
803.786088
 21
575.546872
 31
0.0
  0
LINE
  8
LC-003-005-----0
  6
CONTINUOUS
  5
113
 10
807.200301
 20
573.546872
 30
0.0
 11
805.200301
 21
575.546872
 31
0.0
  0
LINE
  8
LC-003-005-----0
  6
CONTINUOUS
  5
114
 10
808.614514
 20
573.546872
 30
0.0
 11
806.614514
 21
575.546872
 31
0.0
  0
LINE
  8
LC-003-005-----0
  6
CONTINUOUS
  5
115
 10
810.028728
 20
573.546872
 30
0.0
 11
808.028728
 21
575.546872
 31
0.0
  0
LINE
  8
LC-003-005-----0
  6
CONTINUOUS
  5
116
 10
811.442942
 20
573.546872
 30
0.0
 11
809.442942
 21
575.546872
 31
0.0
  0
LINE
  8
LC-003-005-----0
  6
CONTINUOUS
  5
117
 10
812.857155
 20
573.546872
 30
0.0
 11
810.857155
 21
575.546872
 31
0.0
  0
LINE
  8
LC-003-005-----0
  6
CONTINUOUS
  5
118
 10
814.271368
 20
573.546872
 30
0.0
 11
812.271368
 21
575.546872
 31
0.0
  0
LINE
  8
LC-003-005-----0
  6
CONTINUOUS
  5
119
 10
815.685583
 20
573.546872
 30
0.0
 11
813.685583
 21
575.546872
 31
0.0
  0
LINE
  8
LC-003-005-----0
  6
CONTINUOUS
  5
11A
 10
817.099796
 20
573.546872
 30
0.0
 11
815.099796
 21
575.546872
 31
0.0
  0
LINE
  8
LC-003-005-----0
  6
CONTINUOUS
  5
11B
 10
818.51401
 20
573.546872
 30
0.0
 11
816.51401
 21
575.546872
 31
0.0
  0
LINE
  8
LC-003-005-----0
  6
CONTINUOUS
  5
11C
 10
819.928223
 20
573.546872
 30
0.0
 11
817.928223
 21
575.546872
 31
0.0
  0
LINE
  8
LC-003-005-----0
  6
CONTINUOUS
  5
11D
 10
821.342437
 20
573.546872
 30
0.0
 11
819.342437
 21
575.546872
 31
0.0
  0
LINE
  8
LC-003-005-----0
  6
CONTINUOUS
  5
11E
 10
822.756649
 20
573.546872
 30
0.0
 11
820.756649
 21
575.546872
 31
0.0
  0
LINE
  8
LC-003-005-----0
  6
CONTINUOUS
  5
11F
 10
824.170864
 20
573.546872
 30
0.0
 11
822.170864
 21
575.546872
 31
0.0
  0
LINE
  8
LC-003-005-----0
  6
CONTINUOUS
  5
120
 10
825.585077
 20
573.546872
 30
0.0
 11
823.585077
 21
575.546872
 31
0.0
  0
LINE
  8
LC-003-005-----0
  6
CONTINUOUS
  5
121
 10
826.99929
 20
573.546872
 30
0.0
 11
824.99929
 21
575.546872
 31
0.0
  0
LINE
  8
LC-003-005-----0
  6
CONTINUOUS
  5
122
 10
828.413505
 20
573.546872
 30
0.0
 11
826.413505
 21
575.546872
 31
0.0
  0
LINE
  8
LC-003-005-----0
  6
CONTINUOUS
  5
123
 10
829.827718
 20
573.546872
 30
0.0
 11
827.827718
 21
575.546872
 31
0.0
  0
LINE
  8
LC-003-005-----0
  6
CONTINUOUS
  5
124
 10
830.656144
 20
574.132658
 30
0.0
 11
829.241932
 21
575.546872
 31
0.0
  0
ENDBLK
  8
0
  5
125
  0
BLOCK
  8
0
  5
127
  2
SYM15
 70
    64
 10
311.457947
 20
125.5
 30
0.0
  3
SYM15
  0
ENDBLK
  8
0
  5
128
  0
BLOCK
  8
0
  5
12A
  2
*D25
 70
    65
 10
0.0
 20
0.0
 30
0.0
  3
*D25
  0
LINE
  8
LC-005-003-MTH-0
  6
CONTINUOUS
  5
12C
 10
577.892689
 20
529.220872
 30
0.0
 11
577.892689
 21
644.0
 31
0.0
  0
LINE
  8
LC-005-003-MTH-0
  6
CONTINUOUS
  5
12D
 10
884.892689
 20
529.220872
 30
0.0
 11
884.892689
 21
644.0
 31
0.0
  0
LINE
  8
LC-006-003-MTG-0
  6
CONTINUOUS
  5
12F
 10
577.892689
 20
627.2
 30
0.0
 11
884.892689
 21
627.2
 31
0.0
  0
LINE
  8
LC-004-003-----0
  6
CONTINUOUS
  5
131
 10
605.653145
 20
630.854733
 30
0.0
 11
577.892689
 21
627.2
 31
0.0
  0
LINE
  8
LC-004-003-----0
  6
CONTINUOUS
  5
132
 10
577.892689
 20
627.2
 30
0.0
 11
605.653145
 21
623.545267
 31
0.0
  0
LINE
  8
LC-004-003-----0
  6
CONTINUOUS
  5
133
 10
605.653145
 20
623.545267
 30
0.0
 11
605.653145
 21
630.854733
 31
0.0
  0
LINE
  8
LC-004-003-----0
  6
CONTINUOUS
  5
134
 10
605.715426
 20
629.904503
 30
0.0
 11
585.172689
 21
627.2
 31
0.0
  0
LINE
  8
LC-004-003-----0
  6
CONTINUOUS
  5
135
 10
585.172689
 20
627.2
 30
0.0
 11
605.715426
 21
624.495497
 31
0.0
  0
LINE
  8
LC-004-003-----0
  6
CONTINUOUS
  5
136
 10
605.777707
 20
628.954272
 30
0.0
 11
592.452689
 21
627.2
 31
0.0
  0
LINE
  8
LC-004-003-----0
  6
CONTINUOUS
  5
137
 10
592.452689
 20
627.2
 30
0.0
 11
605.777707
 21
625.445728
 31
0.0
  0
LINE
  8
LC-004-003-----0
  6
CONTINUOUS
  5
138
 10
605.839989
 20
628.004041
 30
0.0
 11
599.732688
 21
627.2
 31
0.0
  0
LINE
  8
LC-004-003-----0
  6
CONTINUOUS
  5
139
 10
599.732688
 20
627.2
 30
0.0
 11
605.839989
 21
626.395959
 31
0.0
  0
LINE
  8
LC-004-003-----0
  6
CONTINUOUS
  5
13A
 10
857.132232
 20
623.545267
 30
0.0
 11
884.892689
 21
627.2
 31
0.0
  0
LINE
  8
LC-004-003-----0
  6
CONTINUOUS
  5
13B
 10
884.892689
 20
627.2
 30
0.0
 11
857.132232
 21
630.854733
 31
0.0
  0
LINE
  8
LC-004-003-----0
  6
CONTINUOUS
  5
13C
 10
857.132232
 20
630.854733
 30
0.0
 11
857.132232
 21
623.545267
 31
0.0
  0
LINE
  8
LC-004-003-----0
  6
CONTINUOUS
  5
13D
 10
857.069951
 20
624.495497
 30
0.0
 11
877.612689
 21
627.2
 31
0.0
  0
LINE
  8
LC-004-003-----0
  6
CONTINUOUS
  5
13E
 10
877.612689
 20
627.2
 30
0.0
 11
857.069951
 21
629.904503
 31
0.0
  0
LINE
  8
LC-004-003-----0
  6
CONTINUOUS
  5
13F
 10
857.00767
 20
625.445728
 30
0.0
 11
870.332689
 21
627.2
 31
0.0
  0
LINE
  8
LC-004-003-----0
  6
CONTINUOUS
  5
140
 10
870.332689
 20
627.2
 30
0.0
 11
857.00767
 21
628.954272
 31
0.0
  0
LINE
  8
LC-004-003-----0
  6
CONTINUOUS
  5
141
 10
856.945388
 20
626.395959
 30
0.0
 11
863.052689
 21
627.2
 31
0.0
  0
LINE
  8
LC-004-003-----0
  6
CONTINUOUS
  5
142
 10
863.052689
 20
627.2
 30
0.0
 11
856.945388
 21
628.004041
 31
0.0
  0
TEXT
  8
LC-004-003-----0
  6
CONTINUOUS
 62
     8
  5
143
 10
709.337548
 20
635.027554
 30
0.0
 40
28.0
  1
307
 41
0.9
 51
15.0
  7
LC-TXTSTYLE-150-400-0-0-A0
 72
     1
 11
735.740848
 21
635.027554
 31
0.0
  0
ENDBLK
  8
0
  5
144
  0
BLOCK
  8
0
  5
146
  2
*D26
 70
    65
 10
0.0
 20
0.0
 30
0.0
  3
*D26
  0
LINE
  8
LC-005-003-MTH-0
  6
CONTINUOUS
  5
147
 10
658.892689
 20
411.920872
 30
0.0
 11
658.892689
 21
464.8
 31
0.0
  0
LINE
  8
LC-005-003-MTH-0
  6
CONTINUOUS
  5
148
 10
803.892689
 20
411.920872
 30
0.0
 11
803.892689
 21
464.8
 31
0.0
  0
LINE
  8
LC-006-003-MTG-0
  6
CONTINUOUS
  5
149
 10
658.892689
 20
448.0
 30
0.0
 11
803.892689
 21
448.0
 31
0.0
  0
LINE
  8
LC-004-003-----0
  6
CONTINUOUS
  5
14A
 10
686.653145
 20
451.654733
 30
0.0
 11
658.892689
 21
448.0
 31
0.0
  0
LINE
  8
LC-004-003-----0
  6
CONTINUOUS
  5
14B
 10
658.892689
 20
448.0
 30
0.0
 11
686.653145
 21
444.345267
 31
0.0
  0
LINE
  8
LC-004-003-----0
  6
CONTINUOUS
  5
14C
 10
686.653145
 20
444.345267
 30
0.0
 11
686.653145
 21
451.654733
 31
0.0
  0
LINE
  8
LC-004-003-----0
  6
CONTINUOUS
  5
14D
 10
686.715426
 20
450.704503
 30
0.0
 11
666.172689
 21
448.0
 31
0.0
  0
LINE
  8
LC-004-003-----0
  6
CONTINUOUS
  5
14E
 10
666.172689
 20
448.0
 30
0.0
 11
686.715426
 21
445.295497
 31
0.0
  0
LINE
  8
LC-004-003-----0
  6
CONTINUOUS
  5
14F
 10
686.777707
 20
449.754272
 30
0.0
 11
673.452689
 21
448.0
 31
0.0
  0
LINE
  8
LC-004-003-----0
  6
CONTINUOUS
  5
150
 10
673.452689
 20
448.0
 30
0.0
 11
686.777707
 21
446.245728
 31
0.0
  0
LINE
  8
LC-004-003-----0
  6
CONTINUOUS
  5
151
 10
686.839989
 20
448.804041
 30
0.0
 11
680.732688
 21
448.0
 31
0.0
  0
LINE
  8
LC-004-003-----0
  6
CONTINUOUS
  5
152
 10
680.732688
 20
448.0
 30
0.0
 11
686.839989
 21
447.195959
 31
0.0
  0
LINE
  8
LC-004-003-----0
  6
CONTINUOUS
  5
153
 10
776.132232
 20
444.345267
 30
0.0
 11
803.892689
 21
448.0
 31
0.0
  0
LINE
  8
LC-004-003-----0
  6
CONTINUOUS
  5
154
 10
803.892689
 20
448.0
 30
0.0
 11
776.132232
 21
451.654733
 31
0.0
  0
LINE
  8
LC-004-003-----0
  6
CONTINUOUS
  5
155
 10
776.132232
 20
451.654733
 30
0.0
 11
776.132232
 21
444.345267
 31
0.0
  0
LINE
  8
LC-004-003-----0
  6
CONTINUOUS
  5
156
 10
776.069951
 20
445.295497
 30
0.0
 11
796.612689
 21
448.0
 31
0.0
  0
LINE
  8
LC-004-003-----0
  6
CONTINUOUS
  5
157
 10
796.612689
 20
448.0
 30
0.0
 11
776.069951
 21
450.704503
 31
0.0
  0
LINE
  8
LC-004-003-----0
  6
CONTINUOUS
  5
158
 10
776.00767
 20
446.245728
 30
0.0
 11
789.332689
 21
448.0
 31
0.0
  0
LINE
  8
LC-004-003-----0
  6
CONTINUOUS
  5
159
 10
789.332689
 20
448.0
 30
0.0
 11
776.00767
 21
449.754272
 31
0.0
  0
LINE
  8
LC-004-003-----0
  6
CONTINUOUS
  5
15A
 10
775.945388
 20
447.195959
 30
0.0
 11
782.052689
 21
448.0
 31
0.0
  0
LINE
  8
LC-004-003-----0
  6
CONTINUOUS
  5
15B
 10
782.052689
 20
448.0
 30
0.0
 11
775.945388
 21
448.804041
 31
0.0
  0
TEXT
  8
LC-004-003-----0
  6
CONTINUOUS
 62
     8
  5
15C
 10
697.469398
 20
455.827554
 30
0.0
 40
28.0
  1
Ø145
 41
0.9
 51
15.0
  7
LC-TXTSTYLE-150-400-0-0-A0
 72
     1
 11
735.740848
 21
455.827554
 31
0.0
  0
ENDBLK
  8
0
  5
15D
  0
BLOCK
  8
0
  5
15F
  2
BLK1
 70
    64
 10
0.0
 20
0.0
 30
0.0
  3
BLK1
  0
ENDBLK
  8
0
  5
160
  0
BLOCK
  8
0
  5
162
  2
*X28
 70
    65
 10
591.359941
 20
517.120872
 30
0.0
  3
*X28
  0
LINE
  8
LC-003-005-----0
  6
CONTINUOUS
  5
163
 10
596.316831
 20
517.120872
 30
0.0
 11
597.9476
 21
518.75164
 31
0.0
  0
LINE
  8
LC-003-005-----0
  6
CONTINUOUS
  5
164
 10
593.488404
 20
517.120872
 30
0.0
 11
597.9476
 21
521.580067
 31
0.0
  0
LINE
  8
LC-003-005-----0
  6
CONTINUOUS
  5
165
 10
591.359941
 20
517.820836
 30
0.0
 11
592.659977
 21
519.120872
 31
0.0
  0
LINE
  8
LC-003-005-----0
  6
CONTINUOUS
  5
166
 10
592.859941
 20
519.320836
 30
0.0
 11
597.9476
 21
524.408494
 31
0.0
  0
LINE
  8
LC-003-005-----0
  6
CONTINUOUS
  5
167
 10
592.859941
 20
522.149263
 30
0.0
 11
597.9476
 21
527.236922
 31
0.0
  0
LINE
  8
LC-003-005-----0
  6
CONTINUOUS
  5
168
 10
592.859941
 20
524.97769
 30
0.0
 11
597.9476
 21
530.065349
 31
0.0
  0
LINE
  8
LC-003-005-----0
  6
CONTINUOUS
  5
169
 10
592.859941
 20
527.806118
 30
0.0
 11
597.9476
 21
532.893776
 31
0.0
  0
LINE
  8
LC-003-005-----0
  6
CONTINUOUS
  5
16A
 10
592.859941
 20
530.634545
 30
0.0
 11
597.9476
 21
535.722203
 31
0.0
  0
LINE
  8
LC-003-005-----0
  6
CONTINUOUS
  5
16B
 10
592.859941
 20
533.462972
 30
0.0
 11
597.9476
 21
538.55063
 31
0.0
  0
LINE
  8
LC-003-005-----0
  6
CONTINUOUS
  5
16C
 10
592.859941
 20
536.291399
 30
0.0
 11
597.9476
 21
541.379057
 31
0.0
  0
LINE
  8
LC-003-005-----0
  6
CONTINUOUS
  5
16D
 10
592.859941
 20
539.119826
 30
0.0
 11
597.404294
 21
543.664178
 31
0.0
  0
LINE
  8
LC-003-005-----0
  6
CONTINUOUS
  5
16E
 10
592.859941
 20
541.948253
 30
0.0
 11
595.03256
 21
544.120872
 31
0.0
  0
ENDBLK
  8
0
  5
16F
  0
BLOCK
  8
0
  5
171
  2
*X29
 70
    65
 10
614.7716
 20
517.120872
 30
0.0
  3
*X29
  0
LINE
  8
LC-003-005-----0
  6
CONTINUOUS
  5
172
 10
618.944248
 20
517.120872
 30
0.0
 11
620.944248
 21
519.120872
 31
0.0
  0
LINE
  8
LC-003-005-----0
  6
CONTINUOUS
  5
173
 10
616.115821
 20
517.120872
 30
0.0
 11
619.859941
 21
520.864992
 31
0.0
  0
LINE
  8
LC-003-005-----0
  6
CONTINUOUS
  5
174
 10
614.7716
 20
518.605077
 30
0.0
 11
619.859941
 21
523.693419
 31
0.0
  0
LINE
  8
LC-003-005-----0
  6
CONTINUOUS
  5
175
 10
614.7716
 20
521.433505
 30
0.0
 11
619.859941
 21
526.521846
 31
0.0
  0
LINE
  8
LC-003-005-----0
  6
CONTINUOUS
  5
176
 10
614.7716
 20
524.261932
 30
0.0
 11
619.859941
 21
529.350273
 31
0.0
  0
LINE
  8
LC-003-005-----0
  6
CONTINUOUS
  5
177
 10
614.7716
 20
527.090359
 30
0.0
 11
619.859941
 21
532.178701
 31
0.0
  0
LINE
  8
LC-003-005-----0
  6
CONTINUOUS
  5
178
 10
614.7716
 20
529.918786
 30
0.0
 11
619.859941
 21
535.007128
 31
0.0
  0
LINE
  8
LC-003-005-----0
  6
CONTINUOUS
  5
179
 10
614.7716
 20
532.747213
 30
0.0
 11
619.859941
 21
537.835555
 31
0.0
  0
LINE
  8
LC-003-005-----0
  6
CONTINUOUS
  5
17A
 10
614.7716
 20
535.57564
 30
0.0
 11
619.859941
 21
540.663982
 31
0.0
  0
LINE
  8
LC-003-005-----0
  6
CONTINUOUS
  5
17B
 10
614.7716
 20
538.404067
 30
0.0
 11
619.859941
 21
543.492409
 31
0.0
  0
LINE
  8
LC-003-005-----0
  6
CONTINUOUS
  5
17C
 10
614.7716
 20
541.232494
 30
0.0
 11
617.659977
 21
544.120872
 31
0.0
  0
ENDBLK
  8
0
  5
17D
  0
BLOCK
  8
0
  5
17F
  2
*X30
 70
    65
 10
596.359941
 20
414.979561
 30
0.0
  3
*X30
  0
LINE
  8
LC-003-005-----0
  6
CONTINUOUS
  5
180
 10
600.309941
 20
531.060908
 30
0.0
 11
598.249978
 21
533.120872
 31
0.0
  0
LINE
  8
LC-003-005-----0
  6
CONTINUOUS
  5
181
 10
600.309941
 20
528.232481
 30
0.0
 11
596.390746
 21
532.151677
 31
0.0
  0
LINE
  8
LC-003-005-----0
  6
CONTINUOUS
  5
182
 10
600.309941
 20
525.404054
 30
0.0
 11
596.359941
 21
529.354054
 31
0.0
  0
LINE
  8
LC-003-005-----0
  6
CONTINUOUS
  5
183
 10
600.309941
 20
522.575627
 30
0.0
 11
596.359941
 21
526.525627
 31
0.0
  0
LINE
  8
LC-003-005-----0
  6
CONTINUOUS
  5
184
 10
600.309941
 20
519.7472
 30
0.0
 11
596.359941
 21
523.6972
 31
0.0
  0
LINE
  8
LC-003-005-----0
  6
CONTINUOUS
  5
185
 10
600.309941
 20
516.918773
 30
0.0
 11
596.359941
 21
520.868773
 31
0.0
  0
LINE
  8
LC-003-005-----0
  6
CONTINUOUS
  5
186
 10
600.309941
 20
514.090346
 30
0.0
 11
596.359941
 21
518.040346
 31
0.0
  0
LINE
  8
LC-003-005-----0
  6
CONTINUOUS
  5
187
 10
600.309941
 20
511.261919
 30
0.0
 11
596.359941
 21
515.211919
 31
0.0
  0
LINE
  8
LC-003-005-----0
  6
CONTINUOUS
  5
188
 10
600.309941
 20
508.433491
 30
0.0
 11
596.359941
 21
512.383491
 31
0.0
  0
LINE
  8
LC-003-005-----0
  6
CONTINUOUS
  5
189
 10
600.309941
 20
505.605064
 30
0.0
 11
596.359941
 21
509.555064
 31
0.0
  0
LINE
  8
LC-003-005-----0
  6
CONTINUOUS
  5
18A
 10
600.309941
 20
502.776637
 30
0.0
 11
596.359941
 21
506.726637
 31
0.0
  0
LINE
  8
LC-003-005-----0
  6
CONTINUOUS
  5
18B
 10
600.309941
 20
499.94821
 30
0.0
 11
596.359941
 21
503.89821
 31
0.0
  0
LINE
  8
LC-003-005-----0
  6
CONTINUOUS
  5
18C
 10
600.309941
 20
497.119783
 30
0.0
 11
596.359941
 21
501.069783
 31
0.0
  0
LINE
  8
LC-003-005-----0
  6
CONTINUOUS
  5
18D
 10
600.309941
 20
494.291356
 30
0.0
 11
596.359941
 21
498.241356
 31
0.0
  0
LINE
  8
LC-003-005-----0
  6
CONTINUOUS
  5
18E
 10
600.309941
 20
491.462929
 30
0.0
 11
596.359941
 21
495.412929
 31
0.0
  0
LINE
  8
LC-003-005-----0
  6
CONTINUOUS
  5
18F
 10
600.309941
 20
488.634502
 30
0.0
 11
596.359941
 21
492.584502
 31
0.0
  0
LINE
  8
LC-003-005-----0
  6
CONTINUOUS
  5
190
 10
600.309941
 20
485.806074
 30
0.0
 11
596.359941
 21
489.756074
 31
0.0
  0
LINE
  8
LC-003-005-----0
  6
CONTINUOUS
  5
191
 10
600.309941
 20
482.977647
 30
0.0
 11
596.359941
 21
486.927647
 31
0.0
  0
LINE
  8
LC-003-005-----0
  6
CONTINUOUS
  5
192
 10
600.309941
 20
480.14922
 30
0.0
 11
596.359941
 21
484.09922
 31
0.0
  0
LINE
  8
LC-003-005-----0
  6
CONTINUOUS
  5
193
 10
600.309941
 20
477.320793
 30
0.0
 11
596.359941
 21
481.270793
 31
0.0
  0
LINE
  8
LC-003-005-----0
  6
CONTINUOUS
  5
194
 10
600.309941
 20
474.492366
 30
0.0
 11
596.359941
 21
478.442366
 31
0.0
  0
LINE
  8
LC-003-005-----0
  6
CONTINUOUS
  5
195
 10
600.309941
 20
471.663939
 30
0.0
 11
596.359941
 21
475.613939
 31
0.0
  0
LINE
  8
LC-003-005-----0
  6
CONTINUOUS
  5
196
 10
600.309941
 20
468.835512
 30
0.0
 11
596.359941
 21
472.785512
 31
0.0
  0
LINE
  8
LC-003-005-----0
  6
CONTINUOUS
  5
197
 10
600.309941
 20
466.007085
 30
0.0
 11
596.359941
 21
469.957085
 31
0.0
  0
LINE
  8
LC-003-005-----0
  6
CONTINUOUS
  5
198
 10
600.309941
 20
463.178657
 30
0.0
 11
596.359941
 21
467.128657
 31
0.0
  0
LINE
  8
LC-003-005-----0
  6
CONTINUOUS
  5
199
 10
600.309941
 20
460.35023
 30
0.0
 11
596.359941
 21
464.30023
 31
0.0
  0
LINE
  8
LC-003-005-----0
  6
CONTINUOUS
  5
19A
 10
600.309941
 20
457.521803
 30
0.0
 11
596.359941
 21
461.471803
 31
0.0
  0
LINE
  8
LC-003-005-----0
  6
CONTINUOUS
  5
19B
 10
600.309941
 20
454.693376
 30
0.0
 11
596.359941
 21
458.643376
 31
0.0
  0
LINE
  8
LC-003-005-----0
  6
CONTINUOUS
  5
19C
 10
600.309941
 20
451.864949
 30
0.0
 11
596.359941
 21
455.814949
 31
0.0
  0
LINE
  8
LC-003-005-----0
  6
CONTINUOUS
  5
19D
 10
600.309941
 20
449.036522
 30
0.0
 11
596.359941
 21
452.986522
 31
0.0
  0
LINE
  8
LC-003-005-----0
  6
CONTINUOUS
  5
19E
 10
600.309941
 20
446.208095
 30
0.0
 11
596.359941
 21
450.158095
 31
0.0
  0
LINE
  8
LC-003-005-----0
  6
CONTINUOUS
  5
19F
 10
600.309941
 20
443.379668
 30
0.0
 11
596.359941
 21
447.329668
 31
0.0
  0
LINE
  8
LC-003-005-----0
  6
CONTINUOUS
  5
1A0
 10
600.309941
 20
440.55124
 30
0.0
 11
596.359941
 21
444.50124
 31
0.0
  0
LINE
  8
LC-003-005-----0
  6
CONTINUOUS
  5
1A1
 10
600.309941
 20
437.722813
 30
0.0
 11
596.359941
 21
441.672813
 31
0.0
  0
LINE
  8
LC-003-005-----0
  6
CONTINUOUS
  5
1A2
 10
600.309941
 20
434.894386
 30
0.0
 11
596.359941
 21
438.844386
 31
0.0
  0
LINE
  8
LC-003-005-----0
  6
CONTINUOUS
  5
1A3
 10
600.309941
 20
432.065959
 30
0.0
 11
596.359941
 21
436.015959
 31
0.0
  0
LINE
  8
LC-003-005-----0
  6
CONTINUOUS
  5
1A4
 10
600.309941
 20
429.237532
 30
0.0
 11
596.359941
 21
433.187532
 31
0.0
  0
LINE
  8
LC-003-005-----0
  6
CONTINUOUS
  5
1A5
 10
600.309941
 20
426.409105
 30
0.0
 11
596.359941
 21
430.359105
 31
0.0
  0
LINE
  8
LC-003-005-----0
  6
CONTINUOUS
  5
1A6
 10
600.309941
 20
423.580678
 30
0.0
 11
596.359941
 21
427.530678
 31
0.0
  0
LINE
  8
LC-003-005-----0
  6
CONTINUOUS
  5
1A7
 10
600.309941
 20
420.752251
 30
0.0
 11
596.359941
 21
424.702251
 31
0.0
  0
LINE
  8
LC-003-005-----0
  6
CONTINUOUS
  5
1A8
 10
600.309941
 20
417.923823
 30
0.0
 11
596.359941
 21
421.873823
 31
0.0
  0
LINE
  8
LC-003-005-----0
  6
CONTINUOUS
  5
1A9
 10
600.309941
 20
415.095396
 30
0.0
 11
596.359941
 21
419.045396
 31
0.0
  0
LINE
  8
LC-003-005-----0
  6
CONTINUOUS
  5
1AA
 10
597.59735
 20
414.979561
 30
0.0
 11
596.359941
 21
416.216969
 31
0.0
  0
ENDBLK
  8
0
  5
1AB
  0
BLOCK
  8
0
  5
1AD
  2
*X31
 70
    65
 10
612.409941
 20
414.979561
 30
0.0
  3
*X31
  0
LINE
  8
LC-003-005-----0
  6
CONTINUOUS
  5
1AE
 10
616.359941
 20
531.981471
 30
0.0
 11
615.220541
 21
533.120872
 31
0.0
  0
LINE
  8
LC-003-005-----0
  6
CONTINUOUS
  5
1AF
 10
616.359941
 20
529.153044
 30
0.0
 11
612.409941
 21
533.103044
 31
0.0
  0
LINE
  8
LC-003-005-----0
  6
CONTINUOUS
  5
1B0
 10
616.359941
 20
526.324617
 30
0.0
 11
612.409941
 21
530.274617
 31
0.0
  0
LINE
  8
LC-003-005-----0
  6
CONTINUOUS
  5
1B1
 10
616.359941
 20
523.49619
 30
0.0
 11
612.409941
 21
527.44619
 31
0.0
  0
LINE
  8
LC-003-005-----0
  6
CONTINUOUS
  5
1B2
 10
616.359941
 20
520.667763
 30
0.0
 11
612.409941
 21
524.617763
 31
0.0
  0
LINE
  8
LC-003-005-----0
  6
CONTINUOUS
  5
1B3
 10
616.359941
 20
517.839336
 30
0.0
 11
612.409941
 21
521.789336
 31
0.0
  0
LINE
  8
LC-003-005-----0
  6
CONTINUOUS
  5
1B4
 10
616.359941
 20
515.010908
 30
0.0
 11
612.409941
 21
518.960908
 31
0.0
  0
LINE
  8
LC-003-005-----0
  6
CONTINUOUS
  5
1B5
 10
616.359941
 20
512.182481
 30
0.0
 11
612.409941
 21
516.132481
 31
0.0
  0
LINE
  8
LC-003-005-----0
  6
CONTINUOUS
  5
1B6
 10
616.359941
 20
509.354054
 30
0.0
 11
612.409941
 21
513.304054
 31
0.0
  0
LINE
  8
LC-003-005-----0
  6
CONTINUOUS
  5
1B7
 10
616.359941
 20
506.525627
 30
0.0
 11
612.409941
 21
510.475627
 31
0.0
  0
LINE
  8
LC-003-005-----0
  6
CONTINUOUS
  5
1B8
 10
616.359941
 20
503.6972
 30
0.0
 11
612.409941
 21
507.6472
 31
0.0
  0
LINE
  8
LC-003-005-----0
  6
CONTINUOUS
  5
1B9
 10
616.359941
 20
500.868773
 30
0.0
 11
612.409941
 21
504.818773
 31
0.0
  0
LINE
  8
LC-003-005-----0
  6
CONTINUOUS
  5
1BA
 10
616.359941
 20
498.040346
 30
0.0
 11
612.409941
 21
501.990346
 31
0.0
  0
LINE
  8
LC-003-005-----0
  6
CONTINUOUS
  5
1BB
 10
616.359941
 20
495.211919
 30
0.0
 11
612.409941
 21
499.161919
 31
0.0
  0
LINE
  8
LC-003-005-----0
  6
CONTINUOUS
  5
1BC
 10
616.359941
 20
492.383491
 30
0.0
 11
612.409941
 21
496.333491
 31
0.0
  0
LINE
  8
LC-003-005-----0
  6
CONTINUOUS
  5
1BD
 10
616.359941
 20
489.555064
 30
0.0
 11
612.409941
 21
493.505064
 31
0.0
  0
LINE
  8
LC-003-005-----0
  6
CONTINUOUS
  5
1BE
 10
616.359941
 20
486.726637
 30
0.0
 11
612.409941
 21
490.676637
 31
0.0
  0
LINE
  8
LC-003-005-----0
  6
CONTINUOUS
  5
1BF
 10
616.359941
 20
483.89821
 30
0.0
 11
612.409941
 21
487.84821
 31
0.0
  0
LINE
  8
LC-003-005-----0
  6
CONTINUOUS
  5
1C0
 10
616.359941
 20
481.069783
 30
0.0
 11
612.409941
 21
485.019783
 31
0.0
  0
LINE
  8
LC-003-005-----0
  6
CONTINUOUS
  5
1C1
 10
616.359941
 20
478.241356
 30
0.0
 11
612.409941
 21
482.191356
 31
0.0
  0
LINE
  8
LC-003-005-----0
  6
CONTINUOUS
  5
1C2
 10
616.359941
 20
475.412929
 30
0.0
 11
612.409941
 21
479.362929
 31
0.0
  0
LINE
  8
LC-003-005-----0
  6
CONTINUOUS
  5
1C3
 10
616.359941
 20
472.584502
 30
0.0
 11
612.409941
 21
476.534502
 31
0.0
  0
LINE
  8
LC-003-005-----0
  6
CONTINUOUS
  5
1C4
 10
616.359941
 20
469.756074
 30
0.0
 11
612.409941
 21
473.706074
 31
0.0
  0
LINE
  8
LC-003-005-----0
  6
CONTINUOUS
  5
1C5
 10
616.359941
 20
466.927647
 30
0.0
 11
612.409941
 21
470.877647
 31
0.0
  0
LINE
  8
LC-003-005-----0
  6
CONTINUOUS
  5
1C6
 10
616.359941
 20
464.09922
 30
0.0
 11
612.409941
 21
468.04922
 31
0.0
  0
LINE
  8
LC-003-005-----0
  6
CONTINUOUS
  5
1C7
 10
616.359941
 20
461.270793
 30
0.0
 11
612.409941
 21
465.220793
 31
0.0
  0
LINE
  8
LC-003-005-----0
  6
CONTINUOUS
  5
1C8
 10
616.359941
 20
458.442366
 30
0.0
 11
612.409941
 21
462.392366
 31
0.0
  0
LINE
  8
LC-003-005-----0
  6
CONTINUOUS
  5
1C9
 10
616.359941
 20
455.613939
 30
0.0
 11
612.409941
 21
459.563939
 31
0.0
  0
LINE
  8
LC-003-005-----0
  6
CONTINUOUS
  5
1CA
 10
616.359941
 20
452.785512
 30
0.0
 11
612.409941
 21
456.735512
 31
0.0
  0
LINE
  8
LC-003-005-----0
  6
CONTINUOUS
  5
1CB
 10
616.359941
 20
449.957085
 30
0.0
 11
612.409941
 21
453.907085
 31
0.0
  0
LINE
  8
LC-003-005-----0
  6
CONTINUOUS
  5
1CC
 10
616.359941
 20
447.128657
 30
0.0
 11
612.409941
 21
451.078657
 31
0.0
  0
LINE
  8
LC-003-005-----0
  6
CONTINUOUS
  5
1CD
 10
616.359941
 20
444.30023
 30
0.0
 11
612.409941
 21
448.25023
 31
0.0
  0
LINE
  8
LC-003-005-----0
  6
CONTINUOUS
  5
1CE
 10
616.359941
 20
441.471803
 30
0.0
 11
612.409941
 21
445.421803
 31
0.0
  0
LINE
  8
LC-003-005-----0
  6
CONTINUOUS
  5
1CF
 10
616.359941
 20
438.643376
 30
0.0
 11
612.409941
 21
442.593376
 31
0.0
  0
LINE
  8
LC-003-005-----0
  6
CONTINUOUS
  5
1D0
 10
616.359941
 20
435.814949
 30
0.0
 11
612.409941
 21
439.764949
 31
0.0
  0
LINE
  8
LC-003-005-----0
  6
CONTINUOUS
  5
1D1
 10
616.359941
 20
432.986522
 30
0.0
 11
612.409941
 21
436.936522
 31
0.0
  0
LINE
  8
LC-003-005-----0
  6
CONTINUOUS
  5
1D2
 10
616.359941
 20
430.158095
 30
0.0
 11
612.409941
 21
434.108095
 31
0.0
  0
LINE
  8
LC-003-005-----0
  6
CONTINUOUS
  5
1D3
 10
616.359941
 20
427.329668
 30
0.0
 11
612.409941
 21
431.279668
 31
0.0
  0
LINE
  8
LC-003-005-----0
  6
CONTINUOUS
  5
1D4
 10
616.359941
 20
424.50124
 30
0.0
 11
612.409941
 21
428.45124
 31
0.0
  0
LINE
  8
LC-003-005-----0
  6
CONTINUOUS
  5
1D5
 10
616.359941
 20
421.672813
 30
0.0
 11
612.409941
 21
425.622813
 31
0.0
  0
LINE
  8
LC-003-005-----0
  6
CONTINUOUS
  5
1D6
 10
616.359941
 20
418.844386
 30
0.0
 11
612.409941
 21
422.794386
 31
0.0
  0
LINE
  8
LC-003-005-----0
  6
CONTINUOUS
  5
1D7
 10
616.359941
 20
416.015959
 30
0.0
 11
612.409941
 21
419.965959
 31
0.0
  0
LINE
  8
LC-003-005-----0
  6
CONTINUOUS
  5
1D8
 10
614.567912
 20
414.979561
 30
0.0
 11
612.409941
 21
417.137532
 31
0.0
  0
ENDBLK
  8
0
  5
1D9
  0
BLOCK
  8
0
  5
1DB
  2
BLK2
 70
    64
 10
0.0
 20
0.0
 30
0.0
  3
BLK2
  0
ENDBLK
  8
0
  5
1DC
  0
BLOCK
  8
0
  5
1DE
  2
BLK3
 70
    64
 10
0.0
 20
0.0
 30
0.0
  3
BLK3
  0
ENDBLK
  8
0
  5
1DF
  0
BLOCK
  8
0
  5
1E1
  2
BLK4
 70
    64
 10
0.0
 20
0.0
 30
0.0
  3
BLK4
  0
ENDBLK
  8
0
  5
1E2
  0
BLOCK
  8
0
  5
1E4
  2
*X35
 70
    65
 10
846.392688
 20
414.979561
 30
0.0
  3
*X35
  0
LINE
  8
LC-003-005-----0
  6
CONTINUOUS
  5
1E5
 10
850.342688
 20
515.787613
 30
0.0
 11
849.009429
 21
517.120872
 31
0.0
  0
LINE
  8
LC-003-005-----0
  6
CONTINUOUS
  5
1E6
 10
850.342688
 20
512.959186
 30
0.0
 11
846.619371
 21
516.682503
 31
0.0
  0
LINE
  8
LC-003-005-----0
  6
CONTINUOUS
  5
1E7
 10
850.342688
 20
510.130759
 30
0.0
 11
846.392688
 21
514.080759
 31
0.0
  0
LINE
  8
LC-003-005-----0
  6
CONTINUOUS
  5
1E8
 10
850.342688
 20
507.302331
 30
0.0
 11
846.392688
 21
511.252331
 31
0.0
  0
LINE
  8
LC-003-005-----0
  6
CONTINUOUS
  5
1E9
 10
850.342688
 20
504.473904
 30
0.0
 11
846.392688
 21
508.423904
 31
0.0
  0
LINE
  8
LC-003-005-----0
  6
CONTINUOUS
  5
1EA
 10
850.342688
 20
501.645477
 30
0.0
 11
846.392688
 21
505.595477
 31
0.0
  0
LINE
  8
LC-003-005-----0
  6
CONTINUOUS
  5
1EB
 10
850.342688
 20
498.81705
 30
0.0
 11
846.392688
 21
502.76705
 31
0.0
  0
LINE
  8
LC-003-005-----0
  6
CONTINUOUS
  5
1EC
 10
850.342688
 20
495.988623
 30
0.0
 11
846.392688
 21
499.938623
 31
0.0
  0
LINE
  8
LC-003-005-----0
  6
CONTINUOUS
  5
1ED
 10
850.342688
 20
493.160196
 30
0.0
 11
846.392688
 21
497.110196
 31
0.0
  0
LINE
  8
LC-003-005-----0
  6
CONTINUOUS
  5
1EE
 10
850.342688
 20
490.331769
 30
0.0
 11
846.392688
 21
494.281769
 31
0.0
  0
LINE
  8
LC-003-005-----0
  6
CONTINUOUS
  5
1EF
 10
850.342688
 20
487.503342
 30
0.0
 11
846.392688
 21
491.453342
 31
0.0
  0
LINE
  8
LC-003-005-----0
  6
CONTINUOUS
  5
1F0
 10
850.342688
 20
484.674914
 30
0.0
 11
846.392688
 21
488.624914
 31
0.0
  0
LINE
  8
LC-003-005-----0
  6
CONTINUOUS
  5
1F1
 10
850.342688
 20
481.846487
 30
0.0
 11
846.392688
 21
485.796487
 31
0.0
  0
LINE
  8
LC-003-005-----0
  6
CONTINUOUS
  5
1F2
 10
850.342688
 20
479.01806
 30
0.0
 11
846.392688
 21
482.96806
 31
0.0
  0
LINE
  8
LC-003-005-----0
  6
CONTINUOUS
  5
1F3
 10
850.342688
 20
476.189633
 30
0.0
 11
846.392688
 21
480.139633
 31
0.0
  0
LINE
  8
LC-003-005-----0
  6
CONTINUOUS
  5
1F4
 10
850.342688
 20
473.361206
 30
0.0
 11
846.392688
 21
477.311206
 31
0.0
  0
LINE
  8
LC-003-005-----0
  6
CONTINUOUS
  5
1F5
 10
850.342688
 20
470.532779
 30
0.0
 11
846.392688
 21
474.482779
 31
0.0
  0
LINE
  8
LC-003-005-----0
  6
CONTINUOUS
  5
1F6
 10
850.342688
 20
467.704352
 30
0.0
 11
846.392688
 21
471.654352
 31
0.0
  0
LINE
  8
LC-003-005-----0
  6
CONTINUOUS
  5
1F7
 10
850.342688
 20
464.875925
 30
0.0
 11
846.392688
 21
468.825925
 31
0.0
  0
LINE
  8
LC-003-005-----0
  6
CONTINUOUS
  5
1F8
 10
850.342688
 20
462.047497
 30
0.0
 11
846.392688
 21
465.997497
 31
0.0
  0
LINE
  8
LC-003-005-----0
  6
CONTINUOUS
  5
1F9
 10
850.342688
 20
459.21907
 30
0.0
 11
846.392688
 21
463.16907
 31
0.0
  0
LINE
  8
LC-003-005-----0
  6
CONTINUOUS
  5
1FA
 10
850.342688
 20
456.390643
 30
0.0
 11
846.392688
 21
460.340643
 31
0.0
  0
LINE
  8
LC-003-005-----0
  6
CONTINUOUS
  5
1FB
 10
850.342688
 20
453.562216
 30
0.0
 11
846.392688
 21
457.512216
 31
0.0
  0
LINE
  8
LC-003-005-----0
  6
CONTINUOUS
  5
1FC
 10
850.342688
 20
450.733789
 30
0.0
 11
846.392688
 21
454.683789
 31
0.0
  0
LINE
  8
LC-003-005-----0
  6
CONTINUOUS
  5
1FD
 10
850.342688
 20
447.905362
 30
0.0
 11
846.392688
 21
451.855362
 31
0.0
  0
LINE
  8
LC-003-005-----0
  6
CONTINUOUS
  5
1FE
 10
850.342688
 20
445.076935
 30
0.0
 11
846.392688
 21
449.026935
 31
0.0
  0
LINE
  8
LC-003-005-----0
  6
CONTINUOUS
  5
1FF
 10
850.342688
 20
442.248508
 30
0.0
 11
846.392688
 21
446.198508
 31
0.0
  0
LINE
  8
LC-003-005-----0
  6
CONTINUOUS
  5
200
 10
850.342688
 20
439.42008
 30
0.0
 11
846.392688
 21
443.37008
 31
0.0
  0
LINE
  8
LC-003-005-----0
  6
CONTINUOUS
  5
201
 10
850.342688
 20
436.591653
 30
0.0
 11
846.392688
 21
440.541653
 31
0.0
  0
LINE
  8
LC-003-005-----0
  6
CONTINUOUS
  5
202
 10
850.342688
 20
433.763226
 30
0.0
 11
846.392688
 21
437.713226
 31
0.0
  0
LINE
  8
LC-003-005-----0
  6
CONTINUOUS
  5
203
 10
850.342688
 20
430.934799
 30
0.0
 11
846.392688
 21
434.884799
 31
0.0
  0
LINE
  8
LC-003-005-----0
  6
CONTINUOUS
  5
204
 10
850.342688
 20
428.106372
 30
0.0
 11
846.392688
 21
432.056372
 31
0.0
  0
LINE
  8
LC-003-005-----0
  6
CONTINUOUS
  5
205
 10
850.342688
 20
425.277945
 30
0.0
 11
846.392688
 21
429.227945
 31
0.0
  0
LINE
  8
LC-003-005-----0
  6
CONTINUOUS
  5
206
 10
850.342688
 20
422.449518
 30
0.0
 11
846.392688
 21
426.399518
 31
0.0
  0
LINE
  8
LC-003-005-----0
  6
CONTINUOUS
  5
207
 10
850.342688
 20
419.621091
 30
0.0
 11
846.392688
 21
423.571091
 31
0.0
  0
LINE
  8
LC-003-005-----0
  6
CONTINUOUS
  5
208
 10
850.342688
 20
416.792663
 30
0.0
 11
846.392688
 21
420.742663
 31
0.0
  0
LINE
  8
LC-003-005-----0
  6
CONTINUOUS
  5
209
 10
849.327364
 20
414.979561
 30
0.0
 11
846.392688
 21
417.914236
 31
0.0
  0
ENDBLK
  8
0
  5
20A
  0
BLOCK
  8
0
  5
20C
  2
*X36
 70
    65
 10
862.442688
 20
414.979561
 30
0.0
  3
*X36
  0
LINE
  8
LC-003-005-----0
  6
CONTINUOUS
  5
20D
 10
866.392688
 20
513.879748
 30
0.0
 11
863.151565
 21
517.120872
 31
0.0
  0
LINE
  8
LC-003-005-----0
  6
CONTINUOUS
  5
20E
 10
866.392688
 20
511.051321
 30
0.0
 11
862.442688
 21
515.001321
 31
0.0
  0
LINE
  8
LC-003-005-----0
  6
CONTINUOUS
  5
20F
 10
866.392688
 20
508.222894
 30
0.0
 11
862.442688
 21
512.172894
 31
0.0
  0
LINE
  8
LC-003-005-----0
  6
CONTINUOUS
  5
210
 10
866.392688
 20
505.394467
 30
0.0
 11
862.442688
 21
509.344467
 31
0.0
  0
LINE
  8
LC-003-005-----0
  6
CONTINUOUS
  5
211
 10
866.392688
 20
502.56604
 30
0.0
 11
862.442688
 21
506.51604
 31
0.0
  0
LINE
  8
LC-003-005-----0
  6
CONTINUOUS
  5
212
 10
866.392688
 20
499.737613
 30
0.0
 11
862.442688
 21
503.687613
 31
0.0
  0
LINE
  8
LC-003-005-----0
  6
CONTINUOUS
  5
213
 10
866.392688
 20
496.909186
 30
0.0
 11
862.442688
 21
500.859186
 31
0.0
  0
LINE
  8
LC-003-005-----0
  6
CONTINUOUS
  5
214
 10
866.392688
 20
494.080759
 30
0.0
 11
862.442688
 21
498.030759
 31
0.0
  0
LINE
  8
LC-003-005-----0
  6
CONTINUOUS
  5
215
 10
866.392688
 20
491.252331
 30
0.0
 11
862.442688
 21
495.202331
 31
0.0
  0
LINE
  8
LC-003-005-----0
  6
CONTINUOUS
  5
216
 10
866.392688
 20
488.423904
 30
0.0
 11
862.442688
 21
492.373904
 31
0.0
  0
LINE
  8
LC-003-005-----0
  6
CONTINUOUS
  5
217
 10
866.392688
 20
485.595477
 30
0.0
 11
862.442688
 21
489.545477
 31
0.0
  0
LINE
  8
LC-003-005-----0
  6
CONTINUOUS
  5
218
 10
866.392688
 20
482.76705
 30
0.0
 11
862.442688
 21
486.71705
 31
0.0
  0
LINE
  8
LC-003-005-----0
  6
CONTINUOUS
  5
219
 10
866.392688
 20
479.938623
 30
0.0
 11
862.442688
 21
483.888623
 31
0.0
  0
LINE
  8
LC-003-005-----0
  6
CONTINUOUS
  5
21A
 10
866.392688
 20
477.110196
 30
0.0
 11
862.442688
 21
481.060196
 31
0.0
  0
LINE
  8
LC-003-005-----0
  6
CONTINUOUS
  5
21B
 10
866.392688
 20
474.281769
 30
0.0
 11
862.442688
 21
478.231769
 31
0.0
  0
LINE
  8
LC-003-005-----0
  6
CONTINUOUS
  5
21C
 10
866.392688
 20
471.453342
 30
0.0
 11
862.442688
 21
475.403342
 31
0.0
  0
LINE
  8
LC-003-005-----0
  6
CONTINUOUS
  5
21D
 10
866.392688
 20
468.624914
 30
0.0
 11
862.442688
 21
472.574914
 31
0.0
  0
LINE
  8
LC-003-005-----0
  6
CONTINUOUS
  5
21E
 10
866.392688
 20
465.796487
 30
0.0
 11
862.442688
 21
469.746487
 31
0.0
  0
LINE
  8
LC-003-005-----0
  6
CONTINUOUS
  5
21F
 10
866.392688
 20
462.96806
 30
0.0
 11
862.442688
 21
466.91806
 31
0.0
  0
LINE
  8
LC-003-005-----0
  6
CONTINUOUS
  5
220
 10
866.392688
 20
460.139633
 30
0.0
 11
862.442688
 21
464.089633
 31
0.0
  0
LINE
  8
LC-003-005-----0
  6
CONTINUOUS
  5
221
 10
866.392688
 20
457.311206
 30
0.0
 11
862.442688
 21
461.261206
 31
0.0
  0
LINE
  8
LC-003-005-----0
  6
CONTINUOUS
  5
222
 10
866.392688
 20
454.482779
 30
0.0
 11
862.442688
 21
458.432779
 31
0.0
  0
LINE
  8
LC-003-005-----0
  6
CONTINUOUS
  5
223
 10
866.392688
 20
451.654352
 30
0.0
 11
862.442688
 21
455.604352
 31
0.0
  0
LINE
  8
LC-003-005-----0
  6
CONTINUOUS
  5
224
 10
866.392688
 20
448.825925
 30
0.0
 11
862.442688
 21
452.775925
 31
0.0
  0
LINE
  8
LC-003-005-----0
  6
CONTINUOUS
  5
225
 10
866.392688
 20
445.997497
 30
0.0
 11
862.442688
 21
449.947497
 31
0.0
  0
LINE
  8
LC-003-005-----0
  6
CONTINUOUS
  5
226
 10
866.392688
 20
443.16907
 30
0.0
 11
862.442688
 21
447.11907
 31
0.0
  0
LINE
  8
LC-003-005-----0
  6
CONTINUOUS
  5
227
 10
866.392688
 20
440.340643
 30
0.0
 11
862.442688
 21
444.290643
 31
0.0
  0
LINE
  8
LC-003-005-----0
  6
CONTINUOUS
  5
228
 10
866.392688
 20
437.512216
 30
0.0
 11
862.442688
 21
441.462216
 31
0.0
  0
LINE
  8
LC-003-005-----0
  6
CONTINUOUS
  5
229
 10
866.392688
 20
434.683789
 30
0.0
 11
862.442688
 21
438.633789
 31
0.0
  0
LINE
  8
LC-003-005-----0
  6
CONTINUOUS
  5
22A
 10
866.392688
 20
431.855362
 30
0.0
 11
862.442688
 21
435.805362
 31
0.0
  0
LINE
  8
LC-003-005-----0
  6
CONTINUOUS
  5
22B
 10
866.392688
 20
429.026935
 30
0.0
 11
862.442688
 21
432.976935
 31
0.0
  0
LINE
  8
LC-003-005-----0
  6
CONTINUOUS
  5
22C
 10
866.392688
 20
426.198508
 30
0.0
 11
862.442688
 21
430.148508
 31
0.0
  0
LINE
  8
LC-003-005-----0
  6
CONTINUOUS
  5
22D
 10
866.392688
 20
423.37008
 30
0.0
 11
862.442688
 21
427.32008
 31
0.0
  0
LINE
  8
LC-003-005-----0
  6
CONTINUOUS
  5
22E
 10
866.392688
 20
420.541653
 30
0.0
 11
862.442688
 21
424.491653
 31
0.0
  0
LINE
  8
LC-003-005-----0
  6
CONTINUOUS
  5
22F
 10
866.392688
 20
417.713226
 30
0.0
 11
862.442688
 21
421.663226
 31
0.0
  0
LINE
  8
LC-003-005-----0
  6
CONTINUOUS
  5
230
 10
865.845307
 20
415.43218
 30
0.0
 11
862.442688
 21
418.834799
 31
0.0
  0
LINE
  8
LC-003-005-----0
  6
CONTINUOUS
  5
231
 10
863.469499
 20
414.979561
 30
0.0
 11
862.442688
 21
416.006372
 31
0.0
  0
ENDBLK
  8
0
  5
232
  0
BLOCK
  8
0
  5
234
  2
BLK5
 70
    64
 10
0.0
 20
0.0
 30
0.0
  3
BLK5
  0
ENDBLK
  8
0
  5
235
  0
BLOCK
  8
0
  5
237
  2
BLK6
 70
    64
 10
0.0
 20
0.0
 30
0.0
  3
BLK6
  0
ENDBLK
  8
0
  5
238
  0
BLOCK
  8
0
  5
23A
  2
*D39
 70
    65
 10
0.0
 20
0.0
 30
0.0
  3
*D39
  0
LINE
  8
LC-005-003-MTH-0
  6
CONTINUOUS
  5
23B
 10
479.892689
 20
527.720872
 30
0.0
 11
480.352081
 21
681.770576
 31
0.0
  0
LINE
  8
LC-005-003-MTH-0
  6
CONTINUOUS
  5
23C
 10
982.892689
 20
526.220872
 30
0.0
 11
983.352081
 21
680.270576
 31
0.0
  0
LINE
  8
LC-006-003-MTG-0
  6
CONTINUOUS
  5
23D
 10
480.301982
 20
664.970651
 30
0.0
 11
983.301982
 21
663.470651
 31
0.0
  0
LINE
  8
LC-004-003-----0
  6
CONTINUOUS
  5
23E
 10
508.073214
 20
668.542584
 30
0.0
 11
480.301982
 21
664.970651
 31
0.0
  0
LINE
  8
LC-004-003-----0
  6
CONTINUOUS
  5
23F
 10
480.301982
 20
664.970651
 30
0.0
 11
508.051416
 21
661.23315
 31
0.0
  0
LINE
  8
LC-004-003-----0
  6
CONTINUOUS
  5
240
 10
508.051416
 20
661.23315
 30
0.0
 11
508.073214
 21
668.542584
 31
0.0
  0
LINE
  8
LC-004-003-----0
  6
CONTINUOUS
  5
241
 10
508.132661
 20
667.592172
 30
0.0
 11
487.58195
 21
664.948941
 31
0.0
  0
LINE
  8
LC-004-003-----0
  6
CONTINUOUS
  5
242
 10
487.58195
 20
664.948941
 30
0.0
 11
508.116531
 21
662.18319
 31
0.0
  0
LINE
  8
LC-004-003-----0
  6
CONTINUOUS
  5
243
 10
508.192108
 20
666.64176
 30
0.0
 11
494.861917
 21
664.927232
 31
0.0
  0
LINE
  8
LC-004-003-----0
  6
CONTINUOUS
  5
244
 10
494.861917
 20
664.927232
 30
0.0
 11
508.181646
 21
663.133231
 31
0.0
  0
LINE
  8
LC-004-003-----0
  6
CONTINUOUS
  5
245
 10
508.251556
 20
665.691347
 30
0.0
 11
502.141885
 21
664.905522
 31
0.0
  0
LINE
  8
LC-004-003-----0
  6
CONTINUOUS
  5
246
 10
502.141885
 20
664.905522
 30
0.0
 11
508.24676
 21
664.083272
 31
0.0
  0
LINE
  8
LC-004-003-----0
  6
CONTINUOUS
  5
247
 10
955.530751
 20
659.898718
 30
0.0
 11
983.301982
 21
663.470651
 31
0.0
  0
LINE
  8
LC-004-003-----0
  6
CONTINUOUS
  5
248
 10
983.301982
 20
663.470651
 30
0.0
 11
955.552548
 21
667.208152
 31
0.0
  0
LINE
  8
LC-004-003-----0
  6
CONTINUOUS
  5
249
 10
955.552548
 20
667.208152
 30
0.0
 11
955.530751
 21
659.898718
 31
0.0
  0
LINE
  8
LC-004-003-----0
  6
CONTINUOUS
  5
24A
 10
955.471303
 20
660.84913
 30
0.0
 11
976.022014
 21
663.492361
 31
0.0
  0
LINE
  8
LC-004-003-----0
  6
CONTINUOUS
  5
24B
 10
976.022014
 20
663.492361
 30
0.0
 11
955.487433
 21
666.258112
 31
0.0
  0
LINE
  8
LC-004-003-----0
  6
CONTINUOUS
  5
24C
 10
955.411856
 20
661.799543
 30
0.0
 11
968.742047
 21
663.51407
 31
0.0
  0
LINE
  8
LC-004-003-----0
  6
CONTINUOUS
  5
24D
 10
968.742047
 20
663.51407
 30
0.0
 11
955.422319
 21
665.308071
 31
0.0
  0
LINE
  8
LC-004-003-----0
  6
CONTINUOUS
  5
24E
 10
955.352408
 20
662.749955
 30
0.0
 11
961.462079
 21
663.53578
 31
0.0
  0
LINE
  8
LC-004-003-----0
  6
CONTINUOUS
  5
24F
 10
961.462079
 20
663.53578
 30
0.0
 11
955.357204
 21
664.35803
 31
0.0
  0
TEXT
  8
LC-004-003-----0
  6
CONTINUOUS
 62
     8
  5
250
 10
709.778572
 20
672.12513
 30
0.0
 40
28.0
  1
503
 50
359.8
 41
0.9
 51
15.0
  7
LC-TXTSTYLE-150-400-0-0-A0
 72
     1
 11
736.181711
 21
672.032966
 31
0.0
  0
ENDBLK
  8
0
  5
251
  0
BLOCK
  8
0
  5
253
  2
*D40
 70
    65
 10
0.0
 20
0.0
 30
0.0
  3
*D40
  0
LINE
  8
LC-005-003-MTH-0
  6
CONTINUOUS
  5
254
 10
667.156145
 20
578.046872
 30
0.0
 11
667.156145
 21
604.8
 31
0.0
  0
LINE
  8
LC-005-003-MTH-0
  6
CONTINUOUS
  5
255
 10
795.629233
 20
578.046872
 30
0.0
 11
795.629233
 21
604.8
 31
0.0
  0
LINE
  8
LC-006-003-MTG-0
  6
CONTINUOUS
  5
256
 10
667.156145
 20
588.0
 30
0.0
 11
795.629233
 21
588.0
 31
0.0
  0
LINE
  8
LC-004-003-----0
  6
CONTINUOUS
  5
257
 10
694.916601
 20
591.654733
 30
0.0
 11
667.156145
 21
588.0
 31
0.0
  0
LINE
  8
LC-004-003-----0
  6
CONTINUOUS
  5
258
 10
667.156145
 20
588.0
 30
0.0
 11
694.916601
 21
584.345267
 31
0.0
  0
LINE
  8
LC-004-003-----0
  6
CONTINUOUS
  5
259
 10
694.916601
 20
584.345267
 30
0.0
 11
694.916601
 21
591.654733
 31
0.0
  0
LINE
  8
LC-004-003-----0
  6
CONTINUOUS
  5
25A
 10
694.978882
 20
590.704503
 30
0.0
 11
674.436145
 21
588.0
 31
0.0
  0
LINE
  8
LC-004-003-----0
  6
CONTINUOUS
  5
25B
 10
674.436145
 20
588.0
 30
0.0
 11
694.978882
 21
585.295497
 31
0.0
  0
LINE
  8
LC-004-003-----0
  6
CONTINUOUS
  5
25C
 10
695.041163
 20
589.754272
 30
0.0
 11
681.716145
 21
588.0
 31
0.0
  0
LINE
  8
LC-004-003-----0
  6
CONTINUOUS
  5
25D
 10
681.716145
 20
588.0
 30
0.0
 11
695.041163
 21
586.245728
 31
0.0
  0
LINE
  8
LC-004-003-----0
  6
CONTINUOUS
  5
25E
 10
695.103445
 20
588.804041
 30
0.0
 11
688.996145
 21
588.0
 31
0.0
  0
LINE
  8
LC-004-003-----0
  6
CONTINUOUS
  5
25F
 10
688.996145
 20
588.0
 30
0.0
 11
695.103445
 21
587.195959
 31
0.0
  0
LINE
  8
LC-004-003-----0
  6
CONTINUOUS
  5
260
 10
767.868776
 20
584.345267
 30
0.0
 11
795.629233
 21
588.0
 31
0.0
  0
LINE
  8
LC-004-003-----0
  6
CONTINUOUS
  5
261
 10
795.629233
 20
588.0
 30
0.0
 11
767.868776
 21
591.654733
 31
0.0
  0
LINE
  8
LC-004-003-----0
  6
CONTINUOUS
  5
262
 10
767.868776
 20
591.654733
 30
0.0
 11
767.868776
 21
584.345267
 31
0.0
  0
LINE
  8
LC-004-003-----0
  6
CONTINUOUS
  5
263
 10
767.806495
 20
585.295497
 30
0.0
 11
788.349233
 21
588.0
 31
0.0
  0
LINE
  8
LC-004-003-----0
  6
CONTINUOUS
  5
264
 10
788.349233
 20
588.0
 30
0.0
 11
767.806495
 21
590.704503
 31
0.0
  0
LINE
  8
LC-004-003-----0
  6
CONTINUOUS
  5
265
 10
767.744214
 20
586.245728
 30
0.0
 11
781.069233
 21
588.0
 31
0.0
  0
LINE
  8
LC-004-003-----0
  6
CONTINUOUS
  5
266
 10
781.069233
 20
588.0
 30
0.0
 11
767.744214
 21
589.754272
 31
0.0
  0
LINE
  8
LC-004-003-----0
  6
CONTINUOUS
  5
267
 10
767.681932
 20
587.195959
 30
0.0
 11
773.789233
 21
588.0
 31
0.0
  0
LINE
  8
LC-004-003-----0
  6
CONTINUOUS
  5
268
 10
773.789233
 20
588.0
 30
0.0
 11
767.681932
 21
588.804041
 31
0.0
  0
TEXT
  8
LC-004-003-----0
  6
CONTINUOUS
 62
     8
  5
269
 10
684.267748
 20
595.827554
 30
0.0
 40
28.0
  1
Ø128,5
 41
0.9
 51
15.0
  7
LC-TXTSTYLE-150-400-0-0-A0
 72
     1
 11
735.740848
 21
595.827554
 31
0.0
  0
ENDBLK
  8
0
  5
26A
  0
BLOCK
  8
0
  5
26C
  2
*X41
 70
    65
 10
791.112583
 20
355.497795
 30
0.0
  3
*X41
  0
LINE
  8
LC-003-005-----0
  6
CONTINUOUS
  5
26D
 10
819.391982
 20
371.375837
 30
0.0
 11
817.968235
 21
372.799585
 31
0.0
  0
LINE
  8
LC-003-005-----0
  6
DASHED
  5
26E
 10
818.956326
 20
366.154639
 30
0.0
 11
812.396099
 21
372.714867
 31
0.0
  0
LINE
  8
LC-003-005-----0
  6
DASHED
  5
26F
 10
818.238567
 20
364.043971
 30
0.0
 11
812.396099
 21
369.886439
 31
0.0
  0
LINE
  8
LC-003-005-----0
  6
CONTINUOUS
  5
270
 10
817.753516
 20
358.872168
 30
0.0
 11
816.396099
 21
360.229585
 31
0.0
  0
LINE
  8
LC-003-005-----0
  6
CONTINUOUS
  5
271
 10
815.417389
 20
358.379868
 30
0.0
 11
815.417167
 21
358.38009
 31
0.0
  0
ENDBLK
  8
0
  5
272
  0
BLOCK
  8
0
  5
274
  2
BLK7
 70
    64
 10
0.0
 20
0.0
 30
0.0
  3
BLK7
  0
ENDBLK
  8
0
  5
275
  0
BLOCK
  8
0
  5
277
  2
BLK8
 70
    64
 10
0.0
 20
0.0
 30
0.0
  3
BLK8
  0
ENDBLK
  8
0
  5
278
  0
BLOCK
  8
0
  5
27A
  2
BLK9
 70
    64
 10
0.0
 20
0.0
 30
0.0
  3
BLK9
  0
ENDBLK
  8
0
  5
27B
  0
BLOCK
  8
0
  5
27D
  2
BLK10
 70
    64
 10
0.0
 20
0.0
 30
0.0
  3
BLK10
  0
ENDBLK
  8
0
  5
27E
  0
BLOCK
  8
0
  5
280
  2
BLK11
 70
    64
 10
0.0
 20
0.0
 30
0.0
  3
BLK11
  0
ENDBLK
  8
0
  5
281
  0
BLOCK
  8
0
  5
283
  2
*X47
 70
    65
 10
803.412689
 20
357.849585
 30
0.0
  3
*X47
  0
LINE
  8
LC-003-005-----0
  6
DASHED
  5
284
 10
814.412689
 20
376.355131
 30
0.0
 11
811.912689
 21
378.855131
 31
0.0
  0
LINE
  8
LC-003-005-----0
  6
DASHED
  5
285
 10
811.107026
 20
379.660793
 30
0.0
 11
808.607026
 21
382.160793
 31
0.0
  0
LINE
  8
LC-003-005-----0
  6
DASHED
  5
286
 10
812.589808
 20
375.349585
 30
0.0
 11
811.912689
 21
376.026703
 31
0.0
  0
LINE
  8
LC-003-005-----0
  6
DASHED
  5
287
 10
809.396099
 20
378.543294
 30
0.0
 11
805.834787
 21
382.104605
 31
0.0
  0
LINE
  8
LC-003-005-----0
  6
CONTINUOUS
  5
288
 10
809.396099
 20
372.886439
 30
0.0
 11
803.428403
 21
378.854135
 31
0.0
  0
LINE
  8
LC-003-005-----0
  6
CONTINUOUS
  5
289
 10
809.396099
 20
370.058012
 30
0.0
 11
804.396099
 21
375.058012
 31
0.0
  0
LINE
  8
LC-003-005-----0
  6
DASHED
  5
28A
 10
809.396099
 20
364.401158
 30
0.0
 11
804.396099
 21
369.401158
 31
0.0
  0
LINE
  8
LC-003-005-----0
  6
DASHED
  5
28B
 10
809.396099
 20
361.572731
 30
0.0
 11
804.396099
 21
366.572731
 31
0.0
  0
LINE
  8
LC-003-005-----0
  6
CONTINUOUS
  5
28C
 10
806.34005
 20
358.971925
 30
0.0
 11
804.396099
 21
360.915877
 31
0.0
  0
LINE
  8
LC-003-005-----0
  6
CONTINUOUS
  5
28D
 10
804.546899
 20
357.936649
 30
0.0
 11
804.396099
 21
358.08745
 31
0.0
  0
ENDBLK
  8
0
  5
28E
  0
BLOCK
  8
0
  5
290
  2
*X48
 70
    65
 10
804.396099
 20
346.849585
 30
0.0
  3
*X48
  0
LINE
  8
LC-003-005-----0
  6
CONTINUOUS
  5
291
 10
805.054779
 20
346.849585
 30
0.0
 11
807.50315
 21
349.297956
 31
0.0
  0
LINE
  8
LC-003-005-----0
  6
CONTINUOUS
  5
292
 10
804.396099
 20
349.019332
 30
0.0
 11
806.396099
 21
351.019332
 31
0.0
  0
LINE
  8
LC-003-005-----0
  6
CONTINUOUS
  5
293
 10
806.776352
 20
351.399585
 30
0.0
 11
808.425972
 21
353.049205
 31
0.0
  0
LINE
  8
LC-003-005-----0
  6
CONTINUOUS
  5
294
 10
813.756635
 20
358.379868
 30
0.0
 11
816.396099
 21
361.019332
 31
0.0
  0
LINE
  8
LC-003-005-----0
  6
CONTINUOUS
  5
295
 10
804.396099
 20
351.847759
 30
0.0
 11
806.397925
 21
353.849585
 31
0.0
  0
LINE
  8
LC-003-005-----0
  6
CONTINUOUS
  5
296
 10
810.928208
 20
358.379868
 30
0.0
 11
815.535436
 21
362.987096
 31
0.0
  0
LINE
  8
LC-003-005-----0
  6
CONTINUOUS
  5
297
 10
804.396099
 20
354.676186
 30
0.0
 11
806.396099
 21
356.676186
 31
0.0
  0
LINE
  8
LC-003-005-----0
  6
CONTINUOUS
  5
298
 10
808.099781
 20
358.379868
 30
0.0
 11
814.549037
 21
364.829124
 31
0.0
  0
LINE
  8
LC-003-005-----0
  6
CONTINUOUS
  5
299
 10
822.519498
 20
372.799585
 30
0.0
 11
823.440302
 21
373.720389
 31
0.0
  0
LINE
  8
LC-003-005-----0
  6
CONTINUOUS
  5
29A
 10
804.396099
 20
357.504613
 30
0.0
 11
805.21231
 21
358.320825
 31
0.0
  0
LINE
  8
LC-003-005-----0
  6
CONTINUOUS
  5
29B
 10
809.396099
 20
362.504613
 30
0.0
 11
813.562639
 21
366.671153
 31
0.0
  0
LINE
  8
LC-003-005-----0
  6
CONTINUOUS
  5
29C
 10
819.69107
 20
372.799585
 30
0.0
 11
822.24107
 21
375.349585
 31
0.0
  0
LINE
  8
LC-003-005-----0
  6
CONTINUOUS
  5
29D
 10
809.396099
 20
365.33304
 30
0.0
 11
812.576241
 21
368.513182
 31
0.0
  0
LINE
  8
LC-003-005-----0
  6
CONTINUOUS
  5
29E
 10
816.862643
 20
372.799585
 30
0.0
 11
819.412643
 21
375.349585
 31
0.0
  0
LINE
  8
LC-003-005-----0
  6
CONTINUOUS
  5
29F
 10
809.396099
 20
368.161467
 30
0.0
 11
812.396099
 21
371.161467
 31
0.0
  0
LINE
  8
LC-003-005-----0
  6
CONTINUOUS
  5
2A0
 10
814.034216
 20
372.799585
 30
0.0
 11
816.584216
 21
375.349585
 31
0.0
  0
LINE
  8
LC-003-005-----0
  6
CONTINUOUS
  5
2A1
 10
809.396099
 20
370.989894
 30
0.0
 11
813.755789
 21
375.349585
 31
0.0
  0
LINE
  8
LC-003-005-----0
  6
CONTINUOUS
  5
2A2
 10
809.396099
 20
373.818322
 30
0.0
 11
811.912689
 21
376.334912
 31
0.0
  0
LINE
  8
LC-003-005-----0
  6
CONTINUOUS
  5
2A3
 10
809.396099
 20
376.646749
 30
0.0
 11
811.912689
 21
379.163339
 31
0.0
  0
LINE
  8
LC-003-005-----0
  6
CONTINUOUS
  5
2A4
 10
809.396099
 20
379.475176
 30
0.0
 11
809.581716
 21
379.660793
 31
0.0
  0
ENDBLK
  8
0
  5
2A5
  0
BLOCK
  8
0
  5
2A7
  2
*X49
 70
    65
 10
648.372689
 20
357.849585
 30
0.0
  3
*X49
  0
LINE
  8
LC-003-005-----0
  6
CONTINUOUS
  5
2A8
 10
659.336504
 20
378.696251
 30
0.0
 11
655.871962
 21
382.160793
 31
0.0
  0
LINE
  8
LC-003-005-----0
  6
DASHED
  5
2A9
 10
658.389279
 20
373.986621
 30
0.0
 11
653.389279
 21
378.986621
 31
0.0
  0
LINE
  8
LC-003-005-----0
  6
DASHED
  5
2AA
 10
652.715107
 20
379.660793
 30
0.0
 11
650.220877
 21
382.155023
 31
0.0
  0
LINE
  8
LC-003-005-----0
  6
DASHED
  5
2AB
 10
658.389279
 20
371.158194
 30
0.0
 11
653.389279
 21
376.158194
 31
0.0
  0
LINE
  8
LC-003-005-----0
  6
DASHED
  5
2AC
 10
650.872689
 20
378.674784
 30
0.0
 11
648.554186
 21
380.993287
 31
0.0
  0
LINE
  8
LC-003-005-----0
  6
CONTINUOUS
  5
2AD
 10
658.389279
 20
365.50134
 30
0.0
 11
653.389279
 21
370.50134
 31
0.0
  0
LINE
  8
LC-003-005-----0
  6
CONTINUOUS
  5
2AE
 10
648.541034
 20
375.349585
 30
0.0
 11
648.372689
 21
375.51793
 31
0.0
  0
LINE
  8
LC-003-005-----0
  6
CONTINUOUS
  5
2AF
 10
658.389279
 20
362.672913
 30
0.0
 11
653.389279
 21
367.672913
 31
0.0
  0
LINE
  8
LC-003-005-----0
  6
DASHED
  5
2B0
 10
656.417135
 20
358.988203
 30
0.0
 11
653.389279
 21
362.016059
 31
0.0
  0
ENDBLK
  8
0
  5
2B1
  0
BLOCK
  8
0
  5
2B3
  2
*X50
 70
    65
 10
639.345076
 20
346.849585
 30
0.0
  3
*X50
  0
LINE
  8
LC-003-005-----0
  6
CONTINUOUS
  5
2B4
 10
657.976568
 20
346.849585
 30
0.0
 11
658.389279
 21
347.262296
 31
0.0
  0
LINE
  8
LC-003-005-----0
  6
CONTINUOUS
  5
2B5
 10
655.16368
 20
346.865123
 30
0.0
 11
658.389279
 21
350.090723
 31
0.0
  0
LINE
  8
LC-003-005-----0
  6
CONTINUOUS
  5
2B6
 10
656.389279
 20
350.91915
 30
0.0
 11
658.389279
 21
352.91915
 31
0.0
  0
LINE
  8
LC-003-005-----0
  6
CONTINUOUS
  5
2B7
 10
654.499052
 20
351.85735
 30
0.0
 11
658.389279
 21
355.747577
 31
0.0
  0
LINE
  8
LC-003-005-----0
  6
CONTINUOUS
  5
2B8
 10
656.389279
 20
356.576004
 30
0.0
 11
657.928748
 21
358.115473
 31
0.0
  0
LINE
  8
LC-003-005-----0
  6
CONTINUOUS
  5
2B9
 10
655.364716
 20
358.379868
 30
0.0
 11
656.135597
 21
359.150749
 31
0.0
  0
LINE
  8
LC-003-005-----0
  6
CONTINUOUS
  5
2BA
 10
652.536289
 20
358.379868
 30
0.0
 11
654.342446
 21
360.186025
 31
0.0
  0
LINE
  8
LC-003-005-----0
  6
CONTINUOUS
  5
2BB
 10
649.707862
 20
358.379868
 30
0.0
 11
653.389279
 21
362.061285
 31
0.0
  0
LINE
  8
LC-003-005-----0
  6
CONTINUOUS
  5
2BC
 10
646.97108
 20
358.471513
 30
0.0
 11
653.389279
 21
364.889713
 31
0.0
  0
LINE
  8
LC-003-005-----0
  6
CONTINUOUS
  5
2BD
 10
646.389279
 20
360.71814
 30
0.0
 11
653.389279
 21
367.71814
 31
0.0
  0
LINE
  8
LC-003-005-----0
  6
CONTINUOUS
  5
2BE
 10
648.887119
 20
366.044406
 30
0.0
 11
653.389279
 21
370.546567
 31
0.0
  0
LINE
  8
LC-003-005-----0
  6
CONTINUOUS
  5
2BF
 10
650.389279
 20
370.374994
 30
0.0
 11
653.389279
 21
373.374994
 31
0.0
  0
LINE
  8
LC-003-005-----0
  6
CONTINUOUS
  5
2C0
 10
649.985443
 20
372.799585
 30
0.0
 11
653.389279
 21
376.203421
 31
0.0
  0
LINE
  8
LC-003-005-----0
  6
CONTINUOUS
  5
2C1
 10
647.157016
 20
372.799585
 30
0.0
 11
649.707016
 21
375.349585
 31
0.0
  0
LINE
  8
LC-003-005-----0
  6
CONTINUOUS
  5
2C2
 10
650.872689
 20
376.515258
 30
0.0
 11
653.389279
 21
379.031848
 31
0.0
  0
LINE
  8
LC-003-005-----0
  6
CONTINUOUS
  5
2C3
 10
644.328589
 20
372.799585
 30
0.0
 11
646.878589
 21
375.349585
 31
0.0
  0
LINE
  8
LC-003-005-----0
  6
CONTINUOUS
  5
2C4
 10
650.872689
 20
379.343685
 30
0.0
 11
651.189797
 21
379.660793
 31
0.0
  0
LINE
  8
LC-003-005-----0
  6
CONTINUOUS
  5
2C5
 10
641.500162
 20
372.799585
 30
0.0
 11
644.050162
 21
375.349585
 31
0.0
  0
LINE
  8
LC-003-005-----0
  6
CONTINUOUS
  5
2C6
 10
639.345076
 20
373.472926
 30
0.0
 11
641.221734
 21
375.349585
 31
0.0
  0
ENDBLK
  8
0
  5
2C7
  0
BLOCK
  8
0
  5
2C9
  2
*X51
 70
    65
 10
643.393396
 20
355.497795
 30
0.0
  3
*X51
  0
LINE
  8
LC-003-005-----0
  6
CONTINUOUS
  5
2CA
 10
650.389279
 20
370.672913
 30
0.0
 11
648.262607
 21
372.799585
 31
0.0
  0
LINE
  8
LC-003-005-----0
  6
DASHED
  5
2CB
 10
649.052358
 20
366.352979
 30
0.0
 11
643.393396
 21
372.011942
 31
0.0
  0
LINE
  8
LC-003-005-----0
  6
DASHED
  5
2CC
 10
648.06596
 20
364.510951
 30
0.0
 11
643.40093
 21
369.175981
 31
0.0
  0
LINE
  8
LC-003-005-----0
  6
CONTINUOUS
  5
2CD
 10
646.389279
 20
360.530777
 30
0.0
 11
644.893396
 21
362.026661
 31
0.0
  0
LINE
  8
LC-003-005-----0
  6
CONTINUOUS
  5
2CE
 10
645.691082
 20
358.400547
 30
0.0
 11
644.914075
 21
359.177554
 31
0.0
  0
ENDBLK
  8
0
  5
2CF
  0
BLOCK
  8
0
  5
2D1
  2
*X52
 70
    65
 10
796.892995
 20
389.640872
 30
0.0
  3
*X52
  0
LINE
  8
LC-003-005-----0
  6
CONTINUOUS
  5
2D2
 10
802.591232
 20
389.640872
 30
0.0
 11
803.392689
 21
390.442329
 31
0.0
  0
LINE
  8
LC-003-005-----0
  6
CONTINUOUS
  5
2D3
 10
799.762805
 20
389.640872
 30
0.0
 11
803.392689
 21
393.270756
 31
0.0
  0
LINE
  8
LC-003-005-----0
  6
CONTINUOUS
  5
2D4
 10
796.934378
 20
389.640872
 30
0.0
 11
803.392689
 21
396.099183
 31
0.0
  0
LINE
  8
LC-003-005-----0
  6
CONTINUOUS
  5
2D5
 10
796.892995
 20
392.427917
 30
0.0
 11
802.105951
 21
397.640872
 31
0.0
  0
LINE
  8
LC-003-005-----0
  6
CONTINUOUS
  5
2D6
 10
796.892995
 20
395.256344
 30
0.0
 11
799.277524
 21
397.640872
 31
0.0
  0
ENDBLK
  8
0
  5
2D7
  0
BLOCK
  8
0
  5
2D9
  2
*X53
 70
    65
 10
658.892383
 20
389.640872
 30
0.0
  3
*X53
  0
LINE
  8
LC-003-005-----0
  6
CONTINUOUS
  5
2DA
 10
711.42471
 20
394.640872
 30
0.0
 11
714.48991
 21
397.706072
 31
0.0
  0
LINE
  8
LC-003-005-----0
  6
CONTINUOUS
  5
2DB
 10
708.596283
 20
394.640872
 30
0.0
 11
712.596283
 21
398.640872
 31
0.0
  0
LINE
  8
LC-003-005-----0
  6
CONTINUOUS
  5
2DC
 10
705.767856
 20
394.640872
 30
0.0
 11
709.767856
 21
398.640872
 31
0.0
  0
LINE
  8
LC-003-005-----0
  6
CONTINUOUS
  5
2DD
 10
702.939429
 20
394.640872
 30
0.0
 11
706.939429
 21
398.640872
 31
0.0
  0
LINE
  8
LC-003-005-----0
  6
CONTINUOUS
  5
2DE
 10
700.111001
 20
394.640872
 30
0.0
 11
704.111001
 21
398.640872
 31
0.0
  0
LINE
  8
LC-003-005-----0
  6
CONTINUOUS
  5
2DF
 10
697.341521
 20
394.699819
 30
0.0
 11
701.282574
 21
398.640872
 31
0.0
  0
LINE
  8
LC-003-005-----0
  6
CONTINUOUS
  5
2E0
 10
695.454147
 20
395.640872
 30
0.0
 11
698.454147
 21
398.640872
 31
0.0
  0
LINE
  8
LC-003-005-----0
  6
CONTINUOUS
  5
2E1
 10
692.62572
 20
395.640872
 30
0.0
 11
694.62572
 21
397.640872
 31
0.0
  0
LINE
  8
LC-003-005-----0
  6
CONTINUOUS
  5
2E2
 10
689.797293
 20
395.640872
 30
0.0
 11
691.797293
 21
397.640872
 31
0.0
  0
LINE
  8
LC-003-005-----0
  6
CONTINUOUS
  5
2E3
 10
686.968866
 20
395.640872
 30
0.0
 11
688.968866
 21
397.640872
 31
0.0
  0
LINE
  8
LC-003-005-----0
  6
CONTINUOUS
  5
2E4
 10
684.140439
 20
395.640872
 30
0.0
 11
686.140439
 21
397.640872
 31
0.0
  0
LINE
  8
LC-003-005-----0
  6
CONTINUOUS
  5
2E5
 10
681.312012
 20
395.640872
 30
0.0
 11
683.312012
 21
397.640872
 31
0.0
  0
LINE
  8
LC-003-005-----0
  6
CONTINUOUS
  5
2E6
 10
678.483584
 20
395.640872
 30
0.0
 11
680.483584
 21
397.640872
 31
0.0
  0
LINE
  8
LC-003-005-----0
  6
CONTINUOUS
  5
2E7
 10
675.655157
 20
395.640872
 30
0.0
 11
677.655157
 21
397.640872
 31
0.0
  0
LINE
  8
LC-003-005-----0
  6
CONTINUOUS
  5
2E8
 10
672.82673
 20
395.640872
 30
0.0
 11
674.82673
 21
397.640872
 31
0.0
  0
LINE
  8
LC-003-005-----0
  6
CONTINUOUS
  5
2E9
 10
669.998303
 20
395.640872
 30
0.0
 11
671.998303
 21
397.640872
 31
0.0
  0
LINE
  8
LC-003-005-----0
  6
CONTINUOUS
  5
2EA
 10
667.169876
 20
395.640872
 30
0.0
 11
669.169876
 21
397.640872
 31
0.0
  0
LINE
  8
LC-003-005-----0
  6
CONTINUOUS
  5
2EB
 10
658.892383
 20
390.191806
 30
0.0
 11
660.392383
 21
391.691806
 31
0.0
  0
LINE
  8
LC-003-005-----0
  6
CONTINUOUS
  5
2EC
 10
664.341449
 20
395.640872
 30
0.0
 11
666.341449
 21
397.640872
 31
0.0
  0
LINE
  8
LC-003-005-----0
  6
CONTINUOUS
  5
2ED
 10
658.892383
 20
393.020233
 30
0.0
 11
660.392383
 21
394.520233
 31
0.0
  0
LINE
  8
LC-003-005-----0
  6
CONTINUOUS
  5
2EE
 10
661.513022
 20
395.640872
 30
0.0
 11
663.513022
 21
397.640872
 31
0.0
  0
LINE
  8
LC-003-005-----0
  6
CONTINUOUS
  5
2EF
 10
658.892383
 20
395.84866
 30
0.0
 11
660.684595
 21
397.640872
 31
0.0
  0
ENDBLK
  8
0
  5
2F0
  0
BLOCK
  8
0
  5
2F2
  2
BLK12
 70
    64
 10
0.0
 20
0.0
 30
0.0
  3
BLK12
  0
ENDBLK
  8
0
  5
2F3
  0
BLOCK
  8
0
  5
2F5
  2
*D55
 70
    65
 10
0.0
 20
0.0
 30
0.0
  3
*D55
  0
LINE
  8
LC-005-003-MTH-0
  6
CONTINUOUS
  5
2F6
 10
618.050439
 20
514.120872
 30
0.0
 11
532.0
 21
514.120872
 31
0.0
  0
LINE
  8
LC-005-003-MTH-0
  6
CONTINUOUS
  5
2F7
 10
578.830789
 20
547.120872
 30
0.0
 11
532.0
 21
547.120872
 31
0.0
  0
LINE
  8
LC-004-003-----0
  6
CONTINUOUS
  5
2F8
 10
552.454733
 20
486.360416
 30
0.0
 11
548.8
 21
514.120872
 31
0.0
  0
LINE
  8
LC-004-003-----0
  6
CONTINUOUS
  5
2F9
 10
548.8
 20
514.120872
 30
0.0
 11
545.145267
 21
486.360416
 31
0.0
  0
LINE
  8
LC-004-003-----0
  6
CONTINUOUS
  5
2FA
 10
545.145267
 20
486.360416
 30
0.0
 11
552.454733
 21
486.360416
 31
0.0
  0
LINE
  8
LC-004-003-----0
  6
CONTINUOUS
  5
2FB
 10
551.504503
 20
486.298134
 30
0.0
 11
548.8
 21
506.840872
 31
0.0
  0
LINE
  8
LC-004-003-----0
  6
CONTINUOUS
  5
2FC
 10
548.8
 20
506.840872
 30
0.0
 11
546.095497
 21
486.298134
 31
0.0
  0
LINE
  8
LC-004-003-----0
  6
CONTINUOUS
  5
2FD
 10
550.554272
 20
486.235853
 30
0.0
 11
548.8
 21
499.560872
 31
0.0
  0
LINE
  8
LC-004-003-----0
  6
CONTINUOUS
  5
2FE
 10
548.8
 20
499.560872
 30
0.0
 11
547.045728
 21
486.235853
 31
0.0
  0
LINE
  8
LC-004-003-----0
  6
CONTINUOUS
  5
2FF
 10
549.604041
 20
486.173572
 30
0.0
 11
548.8
 21
492.280872
 31
0.0
  0
LINE
  8
LC-004-003-----0
  6
CONTINUOUS
  5
300
 10
548.8
 20
492.280872
 30
0.0
 11
547.995959
 21
486.173572
 31
0.0
  0
LINE
  8
LC-004-003-----0
  6
CONTINUOUS
  5
301
 10
545.145267
 20
574.881328
 30
0.0
 11
548.8
 21
547.120872
 31
0.0
  0
LINE
  8
LC-004-003-----0
  6
CONTINUOUS
  5
302
 10
548.8
 20
547.120872
 30
0.0
 11
552.454733
 21
574.881328
 31
0.0
  0
LINE
  8
LC-004-003-----0
  6
CONTINUOUS
  5
303
 10
552.454733
 20
574.881328
 30
0.0
 11
545.145267
 21
574.881328
 31
0.0
  0
LINE
  8
LC-004-003-----0
  6
CONTINUOUS
  5
304
 10
546.095497
 20
574.94361
 30
0.0
 11
548.8
 21
554.400872
 31
0.0
  0
LINE
  8
LC-004-003-----0
  6
CONTINUOUS
  5
305
 10
548.8
 20
554.400872
 30
0.0
 11
551.504503
 21
574.94361
 31
0.0
  0
LINE
  8
LC-004-003-----0
  6
CONTINUOUS
  5
306
 10
547.045728
 20
575.005891
 30
0.0
 11
548.8
 21
561.680872
 31
0.0
  0
LINE
  8
LC-004-003-----0
  6
CONTINUOUS
  5
307
 10
548.8
 20
561.680872
 30
0.0
 11
550.554272
 21
575.005891
 31
0.0
  0
LINE
  8
LC-004-003-----0
  6
CONTINUOUS
  5
308
 10
547.995959
 20
575.068172
 30
0.0
 11
548.8
 21
568.960872
 31
0.0
  0
LINE
  8
LC-004-003-----0
  6
CONTINUOUS
  5
309
 10
548.8
 20
568.960872
 30
0.0
 11
549.604041
 21
575.068172
 31
0.0
  0
LINE
  8
LC-006-003-MTG-0
  6
CONTINUOUS
  5
30A
 10
548.8
 20
430.756472
 30
0.0
 11
548.8
 21
586.320872
 31
0.0
  0
TEXT
  8
LC-004-003-----0
  6
CONTINUOUS
 62
     8
  5
30B
 10
540.972446
 20
445.184632
 30
0.0
 40
28.0
  1
33
 50
90.0
 41
0.9
 51
15.0
  7
LC-TXTSTYLE-150-400-0-0-A0
 72
     2
 11
540.972446
 21
480.389032
 31
0.0
  0
ENDBLK
  8
0
  5
30C
  0
BLOCK
  8
0
  5
30E
  2
*D56
 70
    65
 10
0.0
 20
0.0
 30
0.0
  3
*D56
  0
LINE
  8
LC-005-003-MTH-0
  6
CONTINUOUS
  5
30F
 10
802.552944
 20
406.920872
 30
0.0
 11
957.6
 21
406.920872
 31
0.0
  0
LINE
  8
LC-005-003-MTH-0
  6
CONTINUOUS
  5
310
 10
878.793726
 20
547.020566
 30
0.0
 11
957.6
 21
547.020566
 31
0.0
  0
LINE
  8
LC-006-003-MTG-0
  6
CONTINUOUS
  5
311
 10
940.8
 20
406.920872
 30
0.0
 11
940.8
 21
547.020566
 31
0.0
  0
LINE
  8
LC-004-003-----0
  6
CONTINUOUS
  5
312
 10
937.145267
 20
434.681328
 30
0.0
 11
940.8
 21
406.920872
 31
0.0
  0
LINE
  8
LC-004-003-----0
  6
CONTINUOUS
  5
313
 10
940.8
 20
406.920872
 30
0.0
 11
944.454733
 21
434.681328
 31
0.0
  0
LINE
  8
LC-004-003-----0
  6
CONTINUOUS
  5
314
 10
944.454733
 20
434.681328
 30
0.0
 11
937.145267
 21
434.681328
 31
0.0
  0
LINE
  8
LC-004-003-----0
  6
CONTINUOUS
  5
315
 10
938.095497
 20
434.74361
 30
0.0
 11
940.8
 21
414.200872
 31
0.0
  0
LINE
  8
LC-004-003-----0
  6
CONTINUOUS
  5
316
 10
940.8
 20
414.200872
 30
0.0
 11
943.504503
 21
434.74361
 31
0.0
  0
LINE
  8
LC-004-003-----0
  6
CONTINUOUS
  5
317
 10
939.045728
 20
434.805891
 30
0.0
 11
940.8
 21
421.480872
 31
0.0
  0
LINE
  8
LC-004-003-----0
  6
CONTINUOUS
  5
318
 10
940.8
 20
421.480872
 30
0.0
 11
942.554272
 21
434.805891
 31
0.0
  0
LINE
  8
LC-004-003-----0
  6
CONTINUOUS
  5
319
 10
939.995959
 20
434.868172
 30
0.0
 11
940.8
 21
428.760872
 31
0.0
  0
LINE
  8
LC-004-003-----0
  6
CONTINUOUS
  5
31A
 10
940.8
 20
428.760872
 30
0.0
 11
941.604041
 21
434.868172
 31
0.0
  0
LINE
  8
LC-004-003-----0
  6
CONTINUOUS
  5
31B
 10
944.454733
 20
519.26011
 30
0.0
 11
940.8
 21
547.020566
 31
0.0
  0
LINE
  8
LC-004-003-----0
  6
CONTINUOUS
  5
31C
 10
940.8
 20
547.020566
 30
0.0
 11
937.145267
 21
519.26011
 31
0.0
  0
LINE
  8
LC-004-003-----0
  6
CONTINUOUS
  5
31D
 10
937.145267
 20
519.26011
 30
0.0
 11
944.454733
 21
519.26011
 31
0.0
  0
LINE
  8
LC-004-003-----0
  6
CONTINUOUS
  5
31E
 10
943.504503
 20
519.197829
 30
0.0
 11
940.8
 21
539.740566
 31
0.0
  0
LINE
  8
LC-004-003-----0
  6
CONTINUOUS
  5
31F
 10
940.8
 20
539.740566
 30
0.0
 11
938.095497
 21
519.197829
 31
0.0
  0
LINE
  8
LC-004-003-----0
  6
CONTINUOUS
  5
320
 10
942.554272
 20
519.135547
 30
0.0
 11
940.8
 21
532.460566
 31
0.0
  0
LINE
  8
LC-004-003-----0
  6
CONTINUOUS
  5
321
 10
940.8
 20
532.460566
 30
0.0
 11
939.045728
 21
519.135547
 31
0.0
  0
LINE
  8
LC-004-003-----0
  6
CONTINUOUS
  5
322
 10
941.604041
 20
519.073266
 30
0.0
 11
940.8
 21
525.180566
 31
0.0
  0
LINE
  8
LC-004-003-----0
  6
CONTINUOUS
  5
323
 10
940.8
 20
525.180566
 30
0.0
 11
939.995959
 21
519.073266
 31
0.0
  0
TEXT
  8
LC-004-003-----0
  6
CONTINUOUS
 62
     8
  5
324
 10
932.972446
 20
454.915579
 30
0.0
 40
28.0
  1
144
 50
90.0
 41
0.9
 51
15.0
  7
LC-TXTSTYLE-150-400-0-0-A0
 72
     1
 11
932.972446
 21
481.318879
 31
0.0
  0
ENDBLK
  8
0
  5
325
  0
ENDSEC
  0
SECTION
  2
ENTITIES
  0
VIEWPORT
  8
LC-000
  5
505
 67
     1
 68
     1
 10
420.0
 20
297.0
 30
0.0
 40
840.0
 41
594.0
 69
     1
1001
ACAD
1000
MVIEW
1002
{
1070
    16
1010
0.0
1020
0.0
1030
0.0
1010
0.0
1020
0.0
1030
1.0
1040
0.0
1040
594.0
1040
420.0
1040
297.0
1040
50.0
1040
0.0
1040
0.0
1070
     0
1070
   100
1070
     1
1070
     1
1070
     0
1070
     0
1070
     0
1070
     0
1040
0.0
1040
0.0
1040
0.0
1040
1.0
1040
1.0
1040
0.0
1040
0.0
1070
     0
1002
{
1002
}
1002
}
  0
VIEWPORT
  8
0
  5
506
 67
     1
 68
     1
 10
0.0
 20
0.0
 30
0.0
 40
0.0
 41
0.0
 69
     1
1001
ACAD
1000
MVIEW
1002
{
1070
    16
1010
0.0
1020
0.0
1030
0.0
1010
0.0
1020
0.0
1030
1.0
1040
0.0
1040
594.0
1040
0.0
1040
0.0
1040
50.0
1040
0.0
1040
0.0
1070
     0
1070
   100
1070
     0
1070
     1
1070
     0
1070
     0
1070
     0
1070
     0
1040
0.0
1040
0.0
1040
0.0
1040
0.5
1040
0.5
1040
0.5
1040
0.5
1070
     0
1002
{
1002
}
1002
}
  0
INSERT
  8
LC-002-000-----0
  6
CONTINUOUS
  5
327
  2
SYM1
 10
311.457947
 20
125.5
 30
0.0
  0
INSERT
  8
LC-002-000-----0
  6
CONTINUOUS
  5
328
  2
SYM2
 10
311.457947
 20
125.5
 30
0.0
  0
INSERT
  8
LC-002-000-----0
  6
CONTINUOUS
  5
329
  2
SYM3
 10
311.457947
 20
125.5
 30
0.0
  0
INSERT
  8
LC-002-000-----0
  6
CONTINUOUS
  5
32A
  2
SYM4
 10
311.457947
 20
125.5
 30
0.0
  0
INSERT
  8
LC-002-000-----0
  6
CONTINUOUS
  5
32B
  2
SYM5
 10
311.457947
 20
125.5
 30
0.0
  0
INSERT
  8
LC-002-000-----0
  6
CONTINUOUS
  5
32C
  2
SYM6
 10
311.457947
 20
125.5
 30
0.0
  0
INSERT
  8
LC-003-005-----0
  6
CONTINUOUS
  5
32D
  2
*X6
 10
631.392689
 20
406.920872
 30
0.0
  0
INSERT
  8
LC-003-005-----0
  6
CONTINUOUS
  5
32E
  2
OBJ1
 10
0.0
 20
0.0
 30
0.0
  0
INSERT
  8
LC-002-000-----0
  6
CONTINUOUS
  5
32F
  2
SYM7
 10
311.457947
 20
125.5
 30
0.0
  0
INSERT
  8
LC-003-005-----0
  6
CONTINUOUS
  5
330
  2
OBJ2
 10
0.0
 20
0.0
 30
0.0
  0
INSERT
  8
LC-003-005-----0
  6
CONTINUOUS
  5
331
  2
OBJ3
 10
0.0
 20
0.0
 30
0.0
  0
INSERT
  8
LC-003-005-----0
  6
CONTINUOUS
  5
332
  2
OBJ4
 10
0.0
 20
0.0
 30
0.0
  0
INSERT
  8
LC-003-005-----0
  6
CONTINUOUS
  5
333
  2
OBJ5
 10
0.0
 20
0.0
 30
0.0
  0
INSERT
  8
LC-003-005-----0
  6
CONTINUOUS
  5
334
  2
OBJ6
 10
0.0
 20
0.0
 30
0.0
  0
INSERT
  8
LC-002-000-----0
  6
CONTINUOUS
  5
335
  2
SYM8
 10
311.457947
 20
125.5
 30
0.0
  0
INSERT
  8
LC-003-005-----0
  6
CONTINUOUS
  5
336
  2
*X15
 10
800.892689
 20
406.920872
 30
0.0
  0
INSERT
  8
LC-002-000-----0
  6
CONTINUOUS
  5
337
  2
SYM9
 10
311.457947
 20
125.5
 30
0.0
  0
INSERT
  8
LC-002-000-----0
  6
CONTINUOUS
  5
338
  2
SYM10
 10
311.457947
 20
125.5
 30
0.0
  0
INSERT
  8
LC-002-000-----0
  6
CONTINUOUS
  5
339
  2
SYM11
 10
311.457947
 20
125.5
 30
0.0
  0
INSERT
  8
LC-002-000-----0
  6
CONTINUOUS
  5
33A
  2
SYM12
 10
311.457947
 20
125.5
 30
0.0
  0
INSERT
  8
LC-003-005-----0
  6
CONTINUOUS
  5
33B
  2
OBJ7
 10
0.0
 20
0.0
 30
0.0
  0
INSERT
  8
LC-002-000-----0
  6
CONTINUOUS
  5
33C
  2
SYM13
 10
311.457947
 20
125.5
 30
0.0
  0
INSERT
  8
LC-003-005-----0
  6
CONTINUOUS
  5
33D
  2
SYM14
 10
632.156145
 20
575.546872
 30
0.0
  0
INSERT
  8
LC-003-005-----0
  6
CONTINUOUS
  5
33E
  2
OBJ8
 10
0.0
 20
0.0
 30
0.0
  0
INSERT
  8
LC-002-000-----0
  6
CONTINUOUS
  5
33F
  2
SYM15
 10
311.457947
 20
125.5
 30
0.0
  0
DIMENSION
  8
LC-004-003-----0
  6
CONTINUOUS
  5
340
  2
*D25
 10
731.392689
 20
627.2
 30
0.0
 11
731.392689
 21
627.2
 31
0.0
 13
577.892689
 23
529.220872
 33
0.0
 14
884.892689
 24
529.220872
 34
0.0
  3
LC-DIM-L-0140-02-02
  0
DIMENSION
  8
LC-004-003-----0
  6
CONTINUOUS
  5
341
  2
*D26
 10
731.392689
 20
448.0
 30
0.0
 11
731.392689
 21
448.0
 31
0.0
  1
%%c<>
 13
658.892689
 23
411.920872
 33
0.0
 14
803.892689
 24
411.920872
 34
0.0
  3
LC-DIM-L-0140-02-02
  0
INSERT
  8
LC-008-000-----0
  5
343
  2
BLK1
 10
0.0
 20
0.0
 30
0.0
  0
INSERT
  8
LC-003-005-----0
  6
CONTINUOUS
  5
344
  2
*X28
 10
591.359941
 20
517.120872
 30
0.0
  0
INSERT
  8
LC-003-005-----0
  6
CONTINUOUS
  5
345
  2
*X29
 10
614.7716
 20
517.120872
 30
0.0
  0
INSERT
  8
LC-003-005-----0
  6
CONTINUOUS
  5
346
  2
*X30
 10
596.359941
 20
414.979561
 30
0.0
  0
INSERT
  8
LC-003-005-----0
  6
CONTINUOUS
  5
347
  2
*X31
 10
612.409941
 20
414.979561
 30
0.0
  0
INSERT
  8
LC-008-000-----0
  5
348
  2
BLK2
 10
0.0
 20
0.0
 30
0.0
  0
INSERT
  8
LC-008-000-----0
  5
349
  2
BLK3
 10
0.0
 20
0.0
 30
0.0
  0
INSERT
  8
LC-008-000-----0
  5
34A
  2
BLK4
 10
0.0
 20
0.0
 30
0.0
  0
INSERT
  8
LC-003-005-----0
  6
CONTINUOUS
  5
34B
  2
*X35
 10
846.392688
 20
414.979561
 30
0.0
  0
INSERT
  8
LC-003-005-----0
  6
CONTINUOUS
  5
34C
  2
*X36
 10
862.442688
 20
414.979561
 30
0.0
  0
INSERT
  8
LC-008-000-----0
  5
34D
  2
BLK5
 10
0.0
 20
0.0
 30
0.0
  0
INSERT
  8
LC-003-005-----0
  6
CONTINUOUS
  5
34E
  2
BLK6
 10
0.0
 20
0.0
 30
0.0
  0
DIMENSION
  8
LC-004-003-----0
  6
CONTINUOUS
  5
34F
  2
*D39
 10
731.801982
 20
664.220651
 30
0.0
 11
731.801982
 21
664.220651
 31
0.0
 70
     1
 13
479.892689
 23
527.720872
 33
0.0
 14
982.892689
 24
526.220872
 34
0.0
  3
LC-DIM-L-0140-02-02
  0
DIMENSION
  8
LC-004-003-----0
  6
CONTINUOUS
  5
350
  2
*D40
 10
731.392689
 20
588.0
 30
0.0
 11
731.392689
 21
588.0
 31
0.0
  1
%%c128,5
 13
667.156145
 23
578.046872
 33
0.0
 14
795.629233
 24
578.046872
 34
0.0
  3
LC-DIM-L-0140-02-02
  0
INSERT
  8
LC-003-005-----0
  6
CONTINUOUS
  5
351
  2
*X41
 10
791.112583
 20
355.497795
 30
0.0
  0
INSERT
  8
LC-002-000-----0
  5
352
  2
BLK7
 10
0.0
 20
0.0
 30
0.0
  0
INSERT
  8
LC-008-000-----0
  5
353
  2
BLK8
 10
0.0
 20
0.0
 30
0.0
  0
INSERT
  8
LC-002-000-----0
  5
354
  2
BLK9
 10
0.0
 20
0.0
 30
0.0
  0
INSERT
  8
LC-002-000-----0
  5
355
  2
BLK10
 10
0.0
 20
0.0
 30
0.0
  0
INSERT
  8
LC-002-000-----0
  5
356
  2
BLK11
 10
0.0
 20
0.0
 30
0.0
  0
INSERT
  8
LC-003-005-----0
  6
CONTINUOUS
  5
357
  2
*X47
 10
803.412689
 20
357.849585
 30
0.0
  0
INSERT
  8
LC-003-005-----0
  6
CONTINUOUS
  5
358
  2
*X48
 10
804.396099
 20
346.849585
 30
0.0
  0
INSERT
  8
LC-003-005-----0
  6
CONTINUOUS
  5
359
  2
*X49
 10
648.372689
 20
357.849585
 30
0.0
  0
INSERT
  8
LC-003-005-----0
  6
CONTINUOUS
  5
35A
  2
*X50
 10
639.345076
 20
346.849585
 30
0.0
  0
INSERT
  8
LC-003-005-----0
  6
CONTINUOUS
  5
35B
  2
*X51
 10
643.393396
 20
355.497795
 30
0.0
  0
INSERT
  8
LC-003-005-----0
  6
CONTINUOUS
  5
35C
  2
*X52
 10
796.892995
 20
389.640872
 30
0.0
  0
INSERT
  8
LC-003-005-----0
  6
CONTINUOUS
  5
35D
  2
*X53
 10
658.892383
 20
389.640872
 30
0.0
  0
INSERT
  8
LC-002-000-----0
  5
35E
  2
BLK12
 10
0.0
 20
0.0
 30
0.0
  0
DIMENSION
  8
LC-004-003-----0
  6
CONTINUOUS
  5
35F
  2
*D55
 10
548.8
 20
500.838
 30
0.0
 11
548.8
 21
500.838
 31
0.0
 13
618.050439
 23
514.120872
 33
0.0
 14
578.830789
 24
547.120872
 34
0.0
 50
90.0
  3
LC-DIM-L-0140-02-02
  0
DIMENSION
  8
LC-004-003-----0
  6
CONTINUOUS
  5
360
  2
*D56
 10
940.8
 20
476.970719
 30
0.0
 11
940.8
 21
476.970719
 31
0.0
  1
144
 13
802.552944
 23
406.920872
 33
0.0
 14
878.793726
 24
547.020566
 34
0.0
 50
90.0
  3
LC-DIM-L-0140-02-02
  0
LINE
  8
LC-001-002-----0
  6
CONTINUOUS
  5
361
 10
654.892689
 20
541.920975
 30
0.0
 11
658.892689
 21
541.920975
 31
0.0
  0
LINE
  8
LC-001-002-----0
  6
DASHED
  5
362
 10
803.892689
 20
522.620872
 30
0.0
 11
803.892689
 21
517.120872
 31
0.0
  0
LINE
  8
LC-001-002-----0
  6
CONTINUOUS
  5
363
 10
797.906145
 20
573.546872
 30
0.0
 11
830.656144
 21
573.546872
 31
0.0
  0
LINE
  8
LC-001-002-----0
  6
CONTINUOUS
  5
364
 10
667.156145
 20
571.046872
 30
0.0
 11
795.656145
 21
571.046872
 31
0.0
  0
LINE
  8
LC-001-002-----0
  6
CONTINUOUS
  5
365
 10
667.156145
 20
578.046872
 30
0.0
 11
795.629233
 21
578.046872
 31
0.0
  0
LINE
  8
LC-001-002-----0
  6
CONTINUOUS
  5
366
 10
661.892689
 20
530.420872
 30
0.0
 11
800.892689
 21
530.420872
 31
0.0
  0
LINE
  8
LC-001-002-----0
  6
DASHDOT
 62
     2
  5
368
 10
606.392689
 20
547.120872
 30
0.0
 11
606.392689
 21
406.920872
 31
0.0
  0
LINE
  8
LC-001-002-----0
  6
CONTINUOUS
  5
369
 10
616.359941
 20
532.120872
 30
0.0
 11
616.359941
 21
415.979561
 31
0.0
  0
LINE
  8
LC-001-002-----0
  6
CONTINUOUS
  5
36A
 10
615.359941
 20
533.120872
 30
0.0
 11
616.359941
 21
532.120872
 31
0.0
  0
LINE
  8
LC-001-002-----0
  6
CONTINUOUS
  5
36B
 10
619.8596
 20
519.120872
 30
0.0
 11
619.8596
 21
544.120872
 31
0.0
  0
LINE
  8
LC-001-002-----0
  6
CONTINUOUS
  5
36C
 10
597.359941
 20
414.979561
 30
0.0
 11
615.359941
 21
414.979561
 31
0.0
  0
LINE
  8
LC-001-002-----0
  6
CONTINUOUS
  5
36D
 10
616.359941
 20
415.979561
 30
0.0
 11
615.359941
 21
414.979561
 31
0.0
  0
LINE
  8
LC-001-002-----0
  6
CONTINUOUS
  5
36E
 10
596.359941
 20
415.979561
 30
0.0
 11
597.359941
 21
414.979561
 31
0.0
  0
LINE
  8
LC-001-002-----0
  6
CONTINUOUS
  5
36F
 10
800.892689
 20
530.420872
 30
0.0
 11
803.892689
 21
530.420872
 31
0.0
  0
LINE
  8
LC-001-002-----0
  6
CONTINUOUS
  5
370
 10
807.998645
 20
541.920872
 30
0.0
 11
803.892689
 21
541.920872
 31
0.0
  0
LINE
  8
LC-001-002-----0
  6
CONTINUOUS
  5
371
 10
658.892689
 20
541.920872
 30
0.0
 11
803.892689
 21
541.920872
 31
0.0
  0
LINE
  8
LC-001-002-----0
  6
CONTINUOUS
  5
372
 10
596.359941
 20
532.120872
 30
0.0
 11
597.359941
 21
533.120872
 31
0.0
  0
LINE
  8
LC-001-002-----0
  6
DASHED
  5
373
 10
649.632864
 20
573.546769
 30
0.0
 11
664.906145
 21
573.546769
 31
0.0
  0
LINE
  8
LC-001-002-----0
  6
CONTINUOUS
  5
374
 10
883.95459
 20
547.120872
 30
0.0
 11
884.892689
 21
529.220872
 31
0.0
  0
LINE
  8
LC-001-002-----0
  6
CONTINUOUS
  5
375
 10
883.95459
 20
547.120872
 30
0.0
 11
839.892689
 21
546.264493
 31
0.0
  0
LINE
  8
LC-001-002-----0
  6
CONTINUOUS
  5
376
 10
884.892689
 20
529.220872
 30
0.0
 11
881.974684
 21
529.220872
 31
0.0
  0
LINE
  8
LC-001-002-----0
  6
CONTINUOUS
  5
377
 10
884.195793
 20
526.220872
 30
0.0
 11
881.413643
 21
517.120872
 31
0.0
  0
LINE
  8
LC-001-002-----0
  6
CONTINUOUS
  5
378
 10
577.892689
 20
529.220872
 30
0.0
 11
580.810695
 21
529.220872
 31
0.0
  0
LINE
  8
LC-001-002-----0
  6
CONTINUOUS
  5
379
 10
880.897651
 20
529.220872
 30
0.0
 11
847.382991
 21
529.220872
 31
0.0
  0
LINE
  8
LC-001-002-----0
  6
CONTINUOUS
  5
37A
 10
847.382991
 20
526.220872
 30
0.0
 11
884.195793
 21
526.220872
 31
0.0
  0
LINE
  8
LC-001-002-----0
  6
CONTINUOUS
  5
37B
 10
581.887727
 20
529.220872
 30
0.0
 11
582.892688
 21
529.220872
 31
0.0
  0
LINE
  8
LC-001-002-----0
  6
CONTINUOUS
  5
37C
 10
582.892688
 20
526.220872
 30
0.0
 11
578.589586
 21
526.220872
 31
0.0
  0
ARC
  8
LC-001-002-----0
  6
CONTINUOUS
  5
37D
 10
881.436167
 20
530.620872
 30
0.0
 40
1.5
 50
291.03947
 51
248.96053
  0
LINE
  8
LC-001-002-----0
  6
CONTINUOUS
  5
37E
 10
847.382991
 20
529.220872
 30
0.0
 11
847.382991
 21
526.220872
 31
0.0
  0
LINE
  8
LC-001-002-----0
  6
CONTINUOUS
  5
37F
 10
807.892689
 20
541.920975
 30
0.0
 11
807.892689
 21
541.920872
 31
0.0
  0
LINE
  8
LC-001-002-----0
  6
CONTINUOUS
  5
380
 10
807.892689
 20
541.920872
 30
0.0
 11
807.892689
 21
532.620872
 31
0.0
  0
LINE
  8
LC-001-002-----0
  6
CONTINUOUS
  5
381
 10
600.309941
 20
414.979561
 30
0.0
 11
600.309941
 21
533.120872
 31
0.0
  0
LINE
  8
LC-001-002-----0
  6
CONTINUOUS
  5
382
 10
597.359941
 20
533.120872
 30
0.0
 11
600.309941
 21
533.120872
 31
0.0
  0
LINE
  8
LC-001-002-----0
  6
CONTINUOUS
  5
383
 10
612.409941
 20
533.120872
 30
0.0
 11
615.359941
 21
533.120872
 31
0.0
  0
LINE
  8
LC-001-002-----0
  6
CONTINUOUS
  5
384
 10
621.359941
 20
546.294283
 30
0.0
 11
622.892689
 21
546.264493
 31
0.0
  0
ARC
  8
LC-007-002-RND-0
  6
CONTINUOUS
  5
386
 10
597.359941
 20
414.420872
 30
0.0
 40
0.5
 50
90.0
 51
180.0
  0
LINE
  8
LC-001-002-----0
  6
CONTINUOUS
  5
387
 10
613.609941
 20
422.920872
 30
0.0
 11
612.599579
 21
424.670872
 31
0.0
  0
LINE
  8
LC-001-002-----0
  6
CONTINUOUS
 62
     2
  5
388
 10
589.162703
 20
546.920063
 30
0.0
 11
590.537148
 21
542.592553
 31
0.0
  0
LINE
  8
LC-001-002-----0
  6
CONTINUOUS
  5
389
 10
599.109941
 20
422.920872
 30
0.0
 11
600.120304
 21
424.670872
 31
0.0
  0
LINE
  8
LC-001-002-----0
  6
CONTINUOUS
  5
38A
 10
807.998645
 20
541.920872
 30
0.0
 11
848.892689
 21
541.921018
 31
0.0
  0
LINE
  8
LC-001-002-----0
  6
CONTINUOUS
  5
38B
 10
578.589586
 20
526.220872
 30
0.0
 11
581.371735
 21
517.120872
 31
0.0
  0
LINE
  8
LC-001-002-----0
  6
CONTINUOUS
 62
     2
  5
38C
 10
590.537148
 20
542.592553
 30
0.0
 11
588.219482
 21
539.798377
 31
0.0
  0
LINE
  8
LC-001-002-----0
  6
CONTINUOUS
  5
38D
 10
599.109941
 20
422.920872
 30
0.0
 11
613.609941
 21
422.920872
 31
0.0
  0
LINE
  8
LC-001-002-----0
  6
CONTINUOUS
  5
38E
 10
622.892689
 20
546.264493
 30
0.0
 11
839.892689
 21
546.264493
 31
0.0
  0
LINE
  8
LC-001-002-----0
  6
CONTINUOUS
  5
38F
 10
654.892689
 20
541.920975
 30
0.0
 11
654.892689
 21
541.920872
 31
0.0
  0
LINE
  8
LC-001-002-----0
  6
DASHED
  5
390
 10
654.892689
 20
541.920872
 30
0.0
 11
654.892689
 21
532.620872
 31
0.0
  0
LINE
  8
LC-001-002-----0
  6
CONTINUOUS
  5
391
 10
606.359941
 20
406.920872
 30
0.0
 11
597.359941
 21
406.920872
 31
0.0
  0
ARC
  8
LC-007-002-RND-0
  6
CONTINUOUS
  5
392
 10
597.359941
 20
407.420872
 30
0.0
 40
0.5
 50
180.0
 51
270.0
  0
LINE
  8
LC-001-002-----0
  6
CONTINUOUS
  5
393
 10
611.359941
 20
424.920872
 30
0.0
 11
612.166566
 21
424.920872
 31
0.0
  0
LINE
  8
LC-001-002-----0
  6
CONTINUOUS
  5
394
 10
654.892689
 20
541.920872
 30
0.0
 11
621.434455
 21
541.920991
 31
0.0
  0
LINE
  8
LC-001-002-----0
  6
CONTINUOUS
  5
395
 10
600.553317
 20
424.920872
 30
0.0
 11
611.359941
 21
424.920872
 31
0.0
  0
LINE
  8
LC-001-002-----0
  6
CONTINUOUS
  5
396
 10
613.609941
 20
422.920872
 30
0.0
 11
613.609941
 21
414.920872
 31
0.0
  0
LINE
  8
LC-001-002-----0
  6
CONTINUOUS
  5
397
 10
613.609941
 20
414.920872
 30
0.0
 11
615.359941
 21
414.920872
 31
0.0
  0
LINE
  8
LC-001-002-----0
  6
CONTINUOUS
  5
398
 10
615.859941
 20
414.420872
 30
0.0
 11
615.859941
 21
407.420872
 31
0.0
  0
LINE
  8
LC-001-002-----0
  6
CONTINUOUS
  5
399
 10
615.359941
 20
406.920872
 30
0.0
 11
606.359941
 21
406.920872
 31
0.0
  0
LINE
  8
LC-001-002-----0
  6
CONTINUOUS
  5
39A
 10
578.830789
 20
547.120872
 30
0.0
 11
577.892689
 21
529.220872
 31
0.0
  0
LINE
  8
LC-001-002-----0
  6
CONTINUOUS
  5
39B
 10
596.859941
 20
407.420872
 30
0.0
 11
596.859941
 21
414.420872
 31
0.0
  0
LINE
  8
LC-001-002-----0
  6
CONTINUOUS
  5
39C
 10
883.95459
 20
547.120872
 30
0.0
 11
731.392689
 21
547.120872
 31
0.0
  0
LINE
  8
LC-001-002-----0
  6
CONTINUOUS
  5
39D
 10
597.359941
 20
414.920872
 30
0.0
 11
613.609941
 21
414.920872
 31
0.0
  0
LINE
  8
LC-001-002-----0
  6
CONTINUOUS
  5
39E
 10
731.392689
 20
547.120872
 30
0.0
 11
578.830789
 21
547.120872
 31
0.0
  0
LINE
  8
LC-001-002-----0
  6
CONTINUOUS
  5
39F
 10
599.109941
 20
414.920872
 30
0.0
 11
599.109941
 21
422.920872
 31
0.0
  0
ARC
  8
LC-007-002-RND-0
  6
CONTINUOUS
  5
3A0
 10
615.359941
 20
414.420872
 30
0.0
 40
0.5
 50
0.0
 51
90.0
  0
LINE
  8
LC-001-002-----0
  6
CONTINUOUS
  5
3A1
 10
880.854172
 20
529.220872
 30
0.0
 11
847.382991
 21
529.220872
 31
0.0
  0
LINE
  8
LC-001-002-----0
  6
CONTINUOUS
  5
3A2
 10
847.382991
 20
526.220872
 30
0.0
 11
885.695793
 21
526.220872
 31
0.0
  0
CIRCLE
  8
LC-001-002-----0
  6
CONTINUOUS
  5
3A3
 10
881.392689
 20
530.620872
 30
0.0
 40
1.5
  0
LINE
  8
LC-001-002-----0
  6
CONTINUOUS
  5
3A4
 10
847.382991
 20
529.220872
 30
0.0
 11
847.382991
 21
526.220872
 31
0.0
  0
CIRCLE
  8
LC-001-002-----0
  6
CONTINUOUS
  5
3A5
 10
881.392689
 20
530.620872
 30
0.0
 40
1.5
  0
CIRCLE
  8
LC-001-002-----0
  6
CONTINUOUS
  5
3A6
 10
881.392689
 20
530.620872
 30
0.0
 40
1.5
  0
CIRCLE
  8
LC-001-002-----0
  6
CONTINUOUS
  5
3A7
 10
881.392689
 20
530.620872
 30
0.0
 40
1.5
  0
LINE
  8
LC-001-002-----0
  6
CONTINUOUS
  5
3A8
 10
885.695793
 20
526.220872
 30
0.0
 11
982.892689
 21
526.220872
 31
0.0
  0
LINE
  8
LC-001-002-----0
  6
CONTINUOUS
  5
3A9
 10
881.931206
 20
529.220872
 30
0.0
 11
930.854172
 21
529.220872
 31
0.0
  0
CIRCLE
  8
LC-001-002-----0
  6
CONTINUOUS
  5
3AA
 10
931.392689
 20
530.620872
 30
0.0
 40
1.5
  0
CIRCLE
  8
LC-001-002-----0
  6
CONTINUOUS
  5
3AB
 10
931.392689
 20
530.620872
 30
0.0
 40
1.5
  0
CIRCLE
  8
LC-001-002-----0
  6
CONTINUOUS
  5
3AC
 10
981.392689
 20
530.620872
 30
0.0
 40
1.5
  0
CIRCLE
  8
LC-001-002-----0
  6
CONTINUOUS
  5
3AD
 10
931.392689
 20
530.620872
 30
0.0
 40
1.5
  0
LINE
  8
LC-001-002-----0
  6
CONTINUOUS
  5
3AE
 10
982.892689
 20
529.220872
 30
0.0
 11
982.892689
 21
526.220872
 31
0.0
  0
LINE
  8
LC-003-005-----0
  6
CONTINUOUS
  5
3AF
 10
651.991564
 20
514.120872
 30
0.0
 11
658.892689
 21
521.021996
 31
0.0
  0
CIRCLE
  8
LC-001-002-----0
  6
CONTINUOUS
  5
3B0
 10
581.392689
 20
530.620872
 30
0.0
 40
1.5
  0
LINE
  8
LC-001-002-----0
  6
CONTINUOUS
  5
3B1
 10
981.931206
 20
529.220872
 30
0.0
 11
982.892689
 21
529.220872
 31
0.0
  0
LINE
  8
LC-001-002-----0
  6
CONTINUOUS
  5
3B2
 10
931.931206
 20
529.220872
 30
0.0
 11
980.854172
 21
529.220872
 31
0.0
  0
LINE
  8
LC-003-005-----0
  6
CONTINUOUS
  5
3B3
 10
643.506283
 20
514.120872
 30
0.0
 11
652.924203
 21
523.538792
 31
0.0
  0
CIRCLE
  8
LC-001-002-----0
  6
CONTINUOUS
  5
3B4
 10
581.392689
 20
530.620872
 30
0.0
 40
1.5
  0
CIRCLE
  8
LC-001-002-----0
  6
CONTINUOUS
  5
3B5
 10
581.392689
 20
530.620872
 30
0.0
 40
1.5
  0
CIRCLE
  8
LC-001-002-----0
  6
CONTINUOUS
  5
3B6
 10
581.392689
 20
530.620872
 30
0.0
 40
1.5
  0
LINE
  8
LC-001-002-----0
  6
CONTINUOUS
  5
3B7
 10
578.589586
 20
526.220872
 30
0.0
 11
479.892689
 21
526.220872
 31
0.0
  0
LINE
  8
LC-001-002-----0
  6
CONTINUOUS
  5
3B8
 10
580.854173
 20
529.220872
 30
0.0
 11
531.931206
 21
529.220872
 31
0.0
  0
CIRCLE
  8
LC-001-002-----0
  6
CONTINUOUS
  5
3B9
 10
531.392689
 20
530.620872
 30
0.0
 40
1.5
  0
CIRCLE
  8
LC-001-002-----0
  6
CONTINUOUS
  5
3BA
 10
531.392689
 20
530.620872
 30
0.0
 40
1.5
  0
CIRCLE
  8
LC-001-002-----0
  6
CONTINUOUS
  5
3BB
 10
481.392689
 20
530.620872
 30
0.0
 40
1.5
  0
CIRCLE
  8
LC-001-002-----0
  6
CONTINUOUS
  5
3BC
 10
531.392689
 20
530.620872
 30
0.0
 40
1.5
  0
LINE
  8
LC-001-002-----0
  6
CONTINUOUS
  5
3BD
 10
479.892689
 20
529.220872
 30
0.0
 11
479.892689
 21
526.220872
 31
0.0
  0
LINE
  8
LC-001-002-----0
  6
CONTINUOUS
  5
3BE
 10
480.854173
 20
529.220872
 30
0.0
 11
479.892689
 21
529.220872
 31
0.0
  0
LINE
  8
LC-001-002-----0
  6
CONTINUOUS
  5
3BF
 10
530.854173
 20
529.220872
 30
0.0
 11
481.931206
 21
529.220872
 31
0.0
  0
LINE
  8
LC-001-002-----0
  6
CONTINUOUS
  5
3C0
 10
654.892689
 20
522.620872
 30
0.0
 11
646.314662
 21
526.620872
 31
0.0
  0
LINE
  8
LC-001-002-----0
  6
CONTINUOUS
  5
3C1
 10
658.892689
 20
522.620872
 30
0.0
 11
654.892689
 21
522.620872
 31
0.0
  0
LINE
  8
LC-001-002-----0
  6
CONTINUOUS
  5
3C2
 10
802.552944
 20
406.920872
 30
0.0
 11
660.232435
 21
406.920872
 31
0.0
  0
ARC
  8
LC-007-002-RND-0
  6
CONTINUOUS
  5
3C3
 10
651.892689
 20
532.620872
 30
0.0
 40
3.0
 50
270.0
 51
0.0
  0
LINE
  8
LC-001-002-----0
  6
CONTINUOUS
  5
3C4
 10
807.892689
 20
541.920872
 30
0.0
 11
807.892689
 21
532.620872
 31
0.0
  0
LINE
  8
LC-001-002-----0
  6
CONTINUOUS
  5
3C5
 10
654.892689
 20
541.920872
 30
0.0
 11
654.892689
 21
532.620872
 31
0.0
  0
ARC
  8
LC-007-002-RND-0
  6
CONTINUOUS
  5
3C6
 10
615.359941
 20
407.420872
 30
0.0
 40
0.5
 50
270.0
 51
0.0
  0
LINE
  8
LC-001-002-----0
  6
CONTINUOUS
  5
3C7
 10
664.906145
 20
573.546769
 30
0.0
 11
649.632864
 21
573.546769
 31
0.0
  0
LINE
  8
LC-001-002-----0
  6
CONTINUOUS
  5
3C8
 10
803.892689
 20
411.920872
 30
0.0
 11
802.552944
 21
406.920872
 31
0.0
  0
LINE
  8
LC-001-002-----0
  6
CONTINUOUS
  5
3C9
 10
658.892689
 20
541.920975
 30
0.0
 11
658.892689
 21
541.920872
 31
0.0
  0
LINE
  8
LC-001-002-----0
  6
CONTINUOUS
  5
3CA
 10
658.892689
 20
541.920872
 30
0.0
 11
658.892689
 21
530.420872
 31
0.0
  0
LINE
  8
LC-001-002-----0
  6
CONTINUOUS
  5
3CB
 10
803.892689
 20
541.920975
 30
0.0
 11
803.892689
 21
541.920872
 31
0.0
  0
LINE
  8
LC-001-002-----0
  6
CONTINUOUS
  5
3CC
 10
803.892689
 20
541.920872
 30
0.0
 11
803.892689
 21
530.420872
 31
0.0
  0
LINE
  8
LC-001-002-----0
  6
CONTINUOUS
  5
3CD
 10
661.892689
 20
530.420872
 30
0.0
 11
661.892689
 21
406.920872
 31
0.0
  0
ARC
  8
LC-007-002-RND-0
  6
CONTINUOUS
  5
3CE
 10
600.553317
 20
424.420872
 30
0.0
 40
0.5
 50
90.0
 51
150.0
  0
LINE
  8
LC-001-002-----0
  6
CONTINUOUS
  5
3CF
 10
800.892689
 20
530.420872
 30
0.0
 11
800.892689
 21
406.920872
 31
0.0
  0
LINE
  8
LC-001-002-----0
  6
CONTINUOUS
  5
3D0
 10
651.892689
 20
529.620872
 30
0.0
 11
631.392689
 21
529.620872
 31
0.0
  0
LINE
  8
LC-001-002-----0
  6
CONTINUOUS
  5
3D1
 10
632.196536
 20
526.620872
 30
0.0
 11
631.392689
 21
529.620872
 31
0.0
  0
LINE
  8
LC-001-002-----0
  6
CONTINUOUS
  5
3D2
 10
646.314662
 20
526.620872
 30
0.0
 11
632.196536
 21
526.620872
 31
0.0
  0
LINE
  8
LC-001-002-----0
  6
CONTINUOUS
  5
3D3
 10
600.309941
 20
533.120872
 30
0.0
 11
600.359941
 21
533.120872
 31
0.0
  0
LINE
  8
LC-001-002-----0
  6
CONTINUOUS
  5
3D4
 10
661.892689
 20
530.420872
 30
0.0
 11
658.892689
 21
530.420872
 31
0.0
  0
LINE
  8
LC-001-002-----0
  6
CONTINUOUS
  5
3D5
 10
658.892689
 20
411.920872
 30
0.0
 11
660.232435
 21
406.920872
 31
0.0
  0
LINE
  8
LC-009-006-MLN-0
  6
DASHDOT
  5
3D7
 10
731.392689
 20
547.120872
 30
0.0
 11
731.392689
 21
489.982
 31
0.0
  0
ARC
  8
LC-007-002-RND-0
  6
CONTINUOUS
  5
3D8
 10
810.892689
 20
532.620872
 30
0.0
 40
3.0
 50
180.0
 51
270.0
  0
LINE
  8
LC-001-002-----0
  6
CONTINUOUS
  5
3D9
 10
810.892689
 20
529.620872
 30
0.0
 11
831.392689
 21
529.620872
 31
0.0
  0
LINE
  8
LC-001-002-----0
  6
CONTINUOUS
  5
3DA
 10
830.588842
 20
526.620872
 30
0.0
 11
831.392689
 21
529.620872
 31
0.0
  0
LINE
  8
LC-001-002-----0
  6
CONTINUOUS
  5
3DB
 10
816.470716
 20
526.620872
 30
0.0
 11
830.588842
 21
526.620872
 31
0.0
  0
LINE
  8
LC-001-002-----0
  6
CONTINUOUS
  5
3DC
 10
807.892689
 20
522.620872
 30
0.0
 11
816.470716
 21
526.620872
 31
0.0
  0
LINE
  8
LC-001-002-----0
  6
CONTINUOUS
  5
3DD
 10
803.892689
 20
522.620872
 30
0.0
 11
807.892689
 21
522.620872
 31
0.0
  0
LINE
  8
LC-001-002-----0
  6
CONTINUOUS
  5
3DE
 10
803.892689
 20
522.620872
 30
0.0
 11
803.892689
 21
411.920872
 31
0.0
  0
LINE
  8
LC-001-002-----0
  6
CONTINUOUS
  5
3DF
 10
658.892689
 20
522.620872
 30
0.0
 11
658.892689
 21
411.920872
 31
0.0
  0
ARC
  8
LC-007-002-RND-0
  6
CONTINUOUS
  5
3E0
 10
612.166566
 20
424.420872
 30
0.0
 40
0.5
 50
30.0
 51
90.0
  0
LINE
  8
LC-001-002-----0
  6
CONTINUOUS
  5
3E1
 10
615.7716
 20
517.120872
 30
0.0
 11
621.359941
 21
517.120872
 31
0.0
  0
LINE
  8
LC-001-002-----0
  6
CONTINUOUS
  5
3E2
 10
596.9476
 20
517.120872
 30
0.0
 11
592.859941
 21
517.120872
 31
0.0
  0
LINE
  8
LC-001-002-----0
  6
CONTINUOUS
  5
3E3
 10
612.409941
 20
533.120872
 30
0.0
 11
612.409941
 21
414.979561
 31
0.0
  0
LINE
  8
LC-001-002-----0
  6
CONTINUOUS
  5
3E4
 10
596.359941
 20
415.979561
 30
0.0
 11
596.359941
 21
532.120872
 31
0.0
  0
LINE
  8
LC-001-002-----0
  6
CONTINUOUS
 62
     2
  5
3E5
 10
597.947941
 20
414.979561
 30
0.0
 11
597.947941
 21
533.120872
 31
0.0
  0
LINE
  8
LC-001-002-----0
  6
CONTINUOUS
  5
3E6
 10
614.771941
 20
414.979561
 30
0.0
 11
614.771941
 21
533.120872
 31
0.0
  0
LINE
  8
LC-001-002-----0
  6
CONTINUOUS
  5
3E7
 10
612.359941
 20
533.120872
 30
0.0
 11
612.409941
 21
533.120872
 31
0.0
  0
LINE
  8
LC-001-002-----0
  6
CONTINUOUS
  5
3E8
 10
592.859941
 20
517.120872
 30
0.0
 11
591.359941
 21
517.120872
 31
0.0
  0
LINE
  8
LC-001-002-----0
  6
CONTINUOUS
  5
3E9
 10
591.359941
 20
517.120872
 30
0.0
 11
591.359941
 21
519.120872
 31
0.0
  0
LINE
  8
LC-001-002-----0
  6
CONTINUOUS
  5
3EA
 10
591.359941
 20
519.120872
 30
0.0
 11
592.859941
 21
519.120872
 31
0.0
  0
LINE
  8
LC-001-002-----0
  6
CONTINUOUS
  5
3EB
 10
619.859941
 20
519.120872
 30
0.0
 11
621.359941
 21
519.120872
 31
0.0
  0
LINE
  8
LC-001-002-----0
  6
CONTINUOUS
  5
3EC
 10
621.359941
 20
519.120872
 30
0.0
 11
621.359941
 21
517.120872
 31
0.0
  0
LINE
  8
LC-001-002-----0
  6
CONTINUOUS
  5
3ED
 10
621.359941
 20
517.120872
 30
0.0
 11
619.859941
 21
517.120872
 31
0.0
  0
LINE
  8
LC-001-002-----0
  6
CONTINUOUS
  5
3EE
 10
619.859941
 20
519.120872
 30
0.0
 11
619.859941
 21
544.120872
 31
0.0
  0
LINE
  8
LC-001-002-----0
  6
CONTINUOUS
  5
3EF
 10
592.859941
 20
519.120872
 30
0.0
 11
592.859941
 21
544.120872
 31
0.0
  0
LINE
  8
LC-001-002-----0
  6
CONTINUOUS
 62
     2
  5
3F0
 10
616.3596
 20
517.120872
 30
0.0
 11
616.3596
 21
544.120872
 31
0.0
  0
LINE
  8
LC-001-002-----0
  6
CONTINUOUS
  5
3F1
 10
614.7716
 20
518.120872
 30
0.0
 11
614.7716
 21
543.120872
 31
0.0
  0
LINE
  8
LC-001-002-----0
  6
CONTINUOUS
  5
3F2
 10
597.9476
 20
543.120872
 30
0.0
 11
597.9476
 21
518.120872
 31
0.0
  0
LINE
  8
LC-001-002-----0
  6
CONTINUOUS
 62
     2
  5
3F3
 10
596.3596
 20
517.120872
 30
0.0
 11
596.3596
 21
544.120872
 31
0.0
  0
LINE
  8
LC-001-002-----0
  6
CONTINUOUS
  5
3F4
 10
615.7716
 20
544.120872
 30
0.0
 11
619.859941
 21
544.120872
 31
0.0
  0
LINE
  8
LC-001-002-----0
  6
CONTINUOUS
  5
3F5
 10
615.7716
 20
544.120872
 30
0.0
 11
596.9476
 21
544.120872
 31
0.0
  0
LINE
  8
LC-001-002-----0
  6
CONTINUOUS
  5
3F6
 10
592.859941
 20
544.120872
 30
0.0
 11
592.859941
 21
544.120872
 31
0.0
  0
LINE
  8
LC-001-002-----0
  6
CONTINUOUS
  5
3F7
 10
615.7716
 20
517.120872
 30
0.0
 11
596.3596
 21
517.120872
 31
0.0
  0
LINE
  8
LC-001-002-----0
  6
CONTINUOUS
  5
3F8
 10
596.9476
 20
544.120872
 30
0.0
 11
597.9476
 21
543.120872
 31
0.0
  0
LINE
  8
LC-001-002-----0
  6
CONTINUOUS
  5
3F9
 10
614.7716
 20
543.120872
 30
0.0
 11
615.7716
 21
544.120872
 31
0.0
  0
LINE
  8
LC-001-002-----0
  6
CONTINUOUS
  5
3FA
 10
597.9476
 20
543.120872
 30
0.0
 11
614.7716
 21
543.120872
 31
0.0
  0
LINE
  8
LC-001-002-----0
  6
CONTINUOUS
  5
3FB
 10
658.892689
 20
522.620872
 30
0.0
 11
658.892689
 21
517.120872
 31
0.0
  0
LINE
  8
LC-001-002-----0
  6
CONTINUOUS
  5
3FC
 10
619.8596
 20
544.120872
 30
0.0
 11
619.8596
 21
544.120872
 31
0.0
  0
LINE
  8
LC-001-002-----0
  6
CONTINUOUS
  5
3FD
 10
592.859941
 20
544.120872
 30
0.0
 11
596.9476
 21
544.120872
 31
0.0
  0
LINE
  8
LC-001-002-----0
  6
CONTINUOUS
  5
3FE
 10
619.8596
 20
544.120872
 30
0.0
 11
619.859941
 21
544.120872
 31
0.0
  0
LINE
  8
LC-001-002-----0
  6
CONTINUOUS
  5
3FF
 10
596.9476
 20
517.120872
 30
0.0
 11
597.9476
 21
518.120872
 31
0.0
  0
LINE
  8
LC-003-005-----0
  6
CONTINUOUS
  5
400
 10
635.021001
 20
514.120872
 30
0.0
 11
647.137367
 21
526.237238
 31
0.0
  0
LINE
  8
LC-003-005-----0
  6
CONTINUOUS
  5
401
 10
650.521001
 20
529.620872
 30
0.0
 11
654.892689
 21
533.992559
 31
0.0
  0
LINE
  8
LC-003-005-----0
  6
CONTINUOUS
  5
402
 10
626.53572
 20
514.120872
 30
0.0
 11
639.03572
 21
526.620872
 31
0.0
  0
LINE
  8
LC-001-002-----0
  6
CONTINUOUS
  5
403
 10
614.7716
 20
518.120872
 30
0.0
 11
615.7716
 21
517.120872
 31
0.0
  0
LINE
  8
LC-001-002-----0
  6
CONTINUOUS
  5
404
 10
591.359941
 20
544.120872
 30
0.0
 11
592.859941
 21
544.120872
 31
0.0
  0
LINE
  8
LC-001-002-----0
  6
CONTINUOUS
  5
405
 10
621.359941
 20
544.120872
 30
0.0
 11
621.359941
 21
547.120872
 31
0.0
  0
LINE
  8
LC-001-002-----0
  6
CONTINUOUS
  5
406
 10
591.359941
 20
544.120872
 30
0.0
 11
591.359941
 21
547.120872
 31
0.0
  0
LINE
  8
LC-001-002-----0
  6
CONTINUOUS
  5
407
 10
620.359941
 20
546.120872
 30
0.0
 11
620.359941
 21
544.120872
 31
0.0
  0
LINE
  8
LC-001-002-----0
  6
CONTINUOUS
  5
408
 10
592.859941
 20
519.120872
 30
0.0
 11
592.859941
 21
544.120872
 31
0.0
  0
LINE
  8
LC-001-002-----0
  6
CONTINUOUS
  5
409
 10
591.359941
 20
517.120872
 30
0.0
 11
591.359941
 21
519.120872
 31
0.0
  0
LINE
  8
LC-001-002-----0
  6
CONTINUOUS
  5
40A
 10
591.359941
 20
519.120872
 30
0.0
 11
592.859941
 21
519.120872
 31
0.0
  0
LINE
  8
LC-001-002-----0
  6
CONTINUOUS
  5
40B
 10
621.359941
 20
519.120872
 30
0.0
 11
621.359941
 21
517.120872
 31
0.0
  0
LINE
  8
LC-001-002-----0
  6
CONTINUOUS
  5
40C
 10
619.8596
 20
519.120872
 30
0.0
 11
621.359941
 21
519.120872
 31
0.0
  0
LINE
  8
LC-001-002-----0
  6
CONTINUOUS
  5
40D
 10
591.359941
 20
517.120872
 30
0.0
 11
581.770764
 21
517.120872
 31
0.0
  0
LINE
  8
LC-001-002-----0
  6
CONTINUOUS
  5
40E
 10
592.859941
 20
544.120872
 30
0.0
 11
619.8596
 21
544.120872
 31
0.0
  0
LINE
  8
LC-001-002-----0
  6
CONTINUOUS
  5
40F
 10
619.8596
 20
544.120872
 30
0.0
 11
621.359941
 21
544.120872
 31
0.0
  0
LINE
  8
LC-001-002-----0
  6
CONTINUOUS
  5
410
 10
621.359941
 20
547.120872
 30
0.0
 11
591.359941
 21
547.120872
 31
0.0
  0
LINE
  8
LC-001-002-----0
  6
CONTINUOUS
  5
411
 10
582.892688
 20
529.220872
 30
0.0
 11
582.892688
 21
526.220872
 31
0.0
  0
LINE
  8
LC-001-002-----0
  6
CONTINUOUS
  5
412
 10
592.359941
 20
546.120872
 30
0.0
 11
620.359941
 21
546.120872
 31
0.0
  0
LINE
  8
LC-001-002-----0
  6
CONTINUOUS
  5
413
 10
592.359941
 20
544.120872
 30
0.0
 11
620.359941
 21
544.120872
 31
0.0
  0
LINE
  8
LC-001-002-----0
  6
CONTINUOUS
  5
414
 10
592.359941
 20
546.120872
 30
0.0
 11
592.359941
 21
544.120872
 31
0.0
  0
LINE
  8
LC-001-002-----0
  6
CONTINUOUS
  5
415
 10
600.359941
 20
544.120872
 30
0.0
 11
600.359941
 21
517.120872
 31
0.0
  0
LINE
  8
LC-001-002-----0
  6
CONTINUOUS
  5
416
 10
612.359941
 20
544.120872
 30
0.0
 11
612.359941
 21
517.120872
 31
0.0
  0
LINE
  8
LC-001-002-----0
  6
DASHED
 62
     2
  5
417
 10
601.859941
 20
543.120872
 30
0.0
 11
601.859941
 21
516.120872
 31
0.0
  0
LINE
  8
LC-001-002-----0
  6
CONTINUOUS
  5
418
 10
600.359941
 20
517.120872
 30
0.0
 11
612.359941
 21
517.120872
 31
0.0
  0
LINE
  8
LC-001-002-----0
  6
CONTINUOUS
  5
419
 10
611.359941
 20
516.120872
 30
0.0
 11
601.359941
 21
516.120872
 31
0.0
  0
LINE
  8
LC-001-002-----0
  6
DASHED
 62
     2
  5
41A
 10
601.859941
 20
543.120872
 30
0.0
 11
610.859941
 21
543.120872
 31
0.0
  0
LINE
  8
LC-001-002-----0
  6
DASHED
 62
     2
  5
41B
 10
610.859941
 20
543.120872
 30
0.0
 11
610.859941
 21
516.120872
 31
0.0
  0
LINE
  8
LC-001-002-----0
  6
CONTINUOUS
  5
41C
 10
600.359941
 20
517.120872
 30
0.0
 11
601.359941
 21
516.120872
 31
0.0
  0
LINE
  8
LC-001-002-----0
  6
CONTINUOUS
  5
41D
 10
612.359941
 20
517.120872
 30
0.0
 11
611.359941
 21
516.120872
 31
0.0
  0
LINE
  8
LC-001-002-----0
  6
CONTINUOUS
  5
41E
 10
866.392688
 20
516.120872
 30
0.0
 11
866.392688
 21
415.979561
 31
0.0
  0
LINE
  8
LC-001-002-----0
  6
CONTINUOUS
  5
41F
 10
865.392688
 20
517.120872
 30
0.0
 11
866.392688
 21
516.120872
 31
0.0
  0
LINE
  8
LC-001-002-----0
  6
CONTINUOUS
  5
420
 10
847.392688
 20
414.979561
 30
0.0
 11
865.392688
 21
414.979561
 31
0.0
  0
LINE
  8
LC-001-002-----0
  6
CONTINUOUS
  5
421
 10
866.392688
 20
415.979561
 30
0.0
 11
865.392688
 21
414.979561
 31
0.0
  0
LINE
  8
LC-001-002-----0
  6
CONTINUOUS
  5
422
 10
846.392688
 20
415.979561
 30
0.0
 11
847.392688
 21
414.979561
 31
0.0
  0
LINE
  8
LC-001-002-----0
  6
CONTINUOUS
  5
423
 10
846.392688
 20
516.5768
 30
0.0
 11
847.559455
 21
517.120872
 31
0.0
  0
LINE
  8
LC-001-002-----0
  6
CONTINUOUS
  5
424
 10
850.342688
 20
414.979561
 30
0.0
 11
850.342688
 21
517.120872
 31
0.0
  0
LINE
  8
LC-001-002-----0
  6
CONTINUOUS
  5
425
 10
862.442688
 20
517.120872
 30
0.0
 11
862.442688
 21
414.979561
 31
0.0
  0
LINE
  8
LC-001-002-----0
  6
CONTINUOUS
  5
426
 10
846.392688
 20
415.979561
 30
0.0
 11
846.392688
 21
516.5768
 31
0.0
  0
LINE
  8
LC-001-002-----0
  6
CONTINUOUS
 62
     2
  5
427
 10
847.980688
 20
414.979561
 30
0.0
 11
847.980688
 21
517.120872
 31
0.0
  0
LINE
  8
LC-001-002-----0
  6
CONTINUOUS
 62
     2
  5
428
 10
864.804688
 20
414.979561
 30
0.0
 11
864.804688
 21
517.120872
 31
0.0
  0
ARC
  8
LC-007-002-RND-0
  6
CONTINUOUS
  5
429
 10
847.392688
 20
414.420872
 30
0.0
 40
0.5
 50
90.0
 51
180.0
  0
LINE
  8
LC-001-002-----0
  6
CONTINUOUS
  5
42A
 10
863.642688
 20
422.920872
 30
0.0
 11
862.632326
 21
424.670872
 31
0.0
  0
LINE
  8
LC-001-002-----0
  6
CONTINUOUS
  5
42B
 10
849.142688
 20
422.920872
 30
0.0
 11
850.153051
 21
424.670872
 31
0.0
  0
LINE
  8
LC-001-002-----0
  6
CONTINUOUS
  5
42C
 10
849.142688
 20
422.920872
 30
0.0
 11
863.642688
 21
422.920872
 31
0.0
  0
LINE
  8
LC-001-002-----0
  6
CONTINUOUS
  5
42D
 10
856.392688
 20
406.920872
 30
0.0
 11
847.392688
 21
406.920872
 31
0.0
  0
ARC
  8
LC-007-002-RND-0
  6
CONTINUOUS
  5
42E
 10
847.392688
 20
407.420872
 30
0.0
 40
0.5
 50
180.0
 51
270.0
  0
LINE
  8
LC-001-002-----0
  6
CONTINUOUS
  5
42F
 10
861.392688
 20
424.920872
 30
0.0
 11
862.199313
 21
424.920872
 31
0.0
  0
LINE
  8
LC-001-002-----0
  6
CONTINUOUS
  5
430
 10
850.586064
 20
424.920872
 30
0.0
 11
861.392688
 21
424.920872
 31
0.0
  0
LINE
  8
LC-001-002-----0
  6
CONTINUOUS
  5
431
 10
863.642688
 20
422.920872
 30
0.0
 11
863.642688
 21
414.920872
 31
0.0
  0
LINE
  8
LC-001-002-----0
  6
CONTINUOUS
  5
432
 10
863.642688
 20
414.920872
 30
0.0
 11
865.392688
 21
414.920872
 31
0.0
  0
LINE
  8
LC-001-002-----0
  6
CONTINUOUS
  5
433
 10
865.892688
 20
414.420872
 30
0.0
 11
865.892688
 21
407.420872
 31
0.0
  0
LINE
  8
LC-001-002-----0
  6
CONTINUOUS
  5
434
 10
865.392688
 20
406.920872
 30
0.0
 11
856.392688
 21
406.920872
 31
0.0
  0
LINE
  8
LC-001-002-----0
  6
CONTINUOUS
  5
435
 10
846.892688
 20
407.420872
 30
0.0
 11
846.892688
 21
414.420872
 31
0.0
  0
LINE
  8
LC-001-002-----0
  6
CONTINUOUS
  5
436
 10
847.392688
 20
414.920872
 30
0.0
 11
863.642688
 21
414.920872
 31
0.0
  0
LINE
  8
LC-001-002-----0
  6
CONTINUOUS
  5
437
 10
849.142688
 20
414.920872
 30
0.0
 11
849.142688
 21
422.920872
 31
0.0
  0
ARC
  8
LC-007-002-RND-0
  6
CONTINUOUS
  5
438
 10
865.392688
 20
414.420872
 30
0.0
 40
0.5
 50
0.0
 51
90.0
  0
ARC
  8
LC-007-002-RND-0
  6
CONTINUOUS
  5
439
 10
865.392688
 20
407.420872
 30
0.0
 40
0.5
 50
270.0
 51
0.0
  0
ARC
  8
LC-007-002-RND-0
  6
CONTINUOUS
  5
43A
 10
850.586064
 20
424.420872
 30
0.0
 40
0.5
 50
90.0
 51
150.0
  0
ARC
  8
LC-007-002-RND-0
  6
CONTINUOUS
  5
43B
 10
862.199313
 20
424.420872
 30
0.0
 40
0.5
 50
30.0
 51
90.0
  0
LINE
  8
LC-001-002-----0
  6
DASHDOT
 62
     2
  5
43C
 10
856.392688
 20
517.120872
 30
0.0
 11
856.392688
 21
406.920872
 31
0.0
  0
LINE
  8
LC-001-002-----0
  6
DASHDOT
 62
     2
  5
43D
 10
731.392689
 20
557.308872
 30
0.0
 11
731.392689
 21
554.808872
 31
0.0
  0
LINE
  8
LC-001-002-----0
  6
CONTINUOUS
 62
     2
  5
43E
 10
588.219482
 20
539.798377
 30
0.0
 11
590.537148
 21
535.108153
 31
0.0
  0
LINE
  8
LC-001-002-----0
  6
CONTINUOUS
 62
     2
  5
43F
 10
590.537148
 20
535.108153
 30
0.0
 11
588.754328
 21
530.118553
 31
0.0
  0
LINE
  8
LC-001-002-----0
  6
CONTINUOUS
 62
     2
  5
440
 10
588.754328
 20
530.118553
 30
0.0
 11
591.250276
 21
525.528121
 31
0.0
  0
LINE
  8
LC-001-002-----0
  6
CONTINUOUS
  5
441
 10
613.892689
 20
555.808872
 30
0.0
 11
481.392689
 21
555.808872
 31
0.0
  0
LINE
  8
LC-001-002-----0
  6
CONTINUOUS
  5
442
 10
613.892689
 20
556.308872
 30
0.0
 11
481.392689
 21
556.308872
 31
0.0
  0
LINE
  8
LC-001-002-----0
  6
CONTINUOUS
  5
443
 10
481.392689
 20
555.808872
 30
0.0
 11
481.392689
 21
556.308872
 31
0.0
  0
LINE
  8
LC-001-002-----0
  6
CONTINUOUS
 62
     2
  5
444
 10
591.250276
 20
525.528121
 30
0.0
 11
588.93261
 21
521.137273
 31
0.0
  0
LINE
  8
LC-001-002-----0
  6
CONTINUOUS
  5
445
 10
848.892689
 20
555.808872
 30
0.0
 11
981.392689
 21
555.808872
 31
0.0
  0
LINE
  8
LC-001-002-----0
  6
CONTINUOUS
  5
446
 10
848.892689
 20
556.308872
 30
0.0
 11
981.392689
 21
556.308872
 31
0.0
  0
LINE
  8
LC-001-002-----0
  6
CONTINUOUS
  5
447
 10
981.392689
 20
555.808872
 30
0.0
 11
981.392689
 21
556.308872
 31
0.0
  0
LINE
  8
LC-001-002-----0
  6
DASHDOT
 62
     2
  5
448
 10
731.392689
 20
578.046872
 30
0.0
 11
731.392689
 21
571.046872
 31
0.0
  0
LINE
  8
LC-001-002-----0
  6
CONTINUOUS
 62
     2
  5
449
 10
588.93261
 20
521.137273
 30
0.0
 11
590.417185
 21
517.120872
 31
0.0
  0
LINE
  8
LC-001-002-----0
  6
CONTINUOUS
 62
     2
  5
44A
 10
622.892689
 20
546.264493
 30
0.0
 11
621.023361
 21
540.696505
 31
0.0
  0
LINE
  8
LC-001-002-----0
  6
CONTINUOUS
 62
     2
  5
44B
 10
621.023361
 20
540.696505
 30
0.0
 11
622.984463
 21
536.106073
 31
0.0
  0
LINE
  8
LC-001-002-----0
  6
CONTINUOUS
 62
     2
  5
44C
 10
622.984463
 20
536.106073
 30
0.0
 11
621.379925
 21
530.417929
 31
0.0
  0
LINE
  8
LC-001-002-----0
  6
CONTINUOUS
 62
     2
  5
44D
 10
621.379925
 20
530.417929
 30
0.0
 11
622.627899
 21
524.829577
 31
0.0
  0
LINE
  8
LC-001-002-----0
  6
CONTINUOUS
 62
     2
  5
44E
 10
622.627899
 20
524.829577
 30
0.0
 11
621.558207
 21
520.837897
 31
0.0
  0
LINE
  8
LC-001-002-----0
  6
CONTINUOUS
 62
     2
  5
44F
 10
621.558207
 20
520.837897
 30
0.0
 11
622.664973
 21
517.120872
 31
0.0
  0
LINE
  8
LC-009-006-MLN-0
  6
DASHDOT
  5
450
 10
731.392689
 20
448.996
 30
0.0
 11
731.392689
 21
406.920872
 31
0.0
  0
LINE
  8
LC-001-002-----0
  6
CONTINUOUS
 62
     2
  5
451
 10
703.273992
 20
637.458
 30
0.0
 11
703.273992
 21
652.458
 31
0.0
  0
LINE
  8
LC-001-002-----0
  6
CONTINUOUS
 62
     2
  5
452
 10
703.273992
 20
652.458
 30
0.0
 11
688.273992
 21
652.458
 31
0.0
  0
LINE
  8
LC-001-002-----0
  6
CONTINUOUS
 62
     2
  5
453
 10
688.273992
 20
637.458
 30
0.0
 11
688.273992
 21
652.458
 31
0.0
  0
LINE
  8
LC-001-002-----0
  6
CONTINUOUS
 62
     2
  5
454
 10
703.273992
 20
637.458
 30
0.0
 11
688.273992
 21
637.458
 31
0.0
  0
LINE
  8
LC-001-002-----0
  6
CONTINUOUS
  5
455
 10
578.830789
 20
547.120872
 30
0.0
 11
591.359941
 21
546.877358
 31
0.0
  0
LINE
  8
LC-001-002-----0
  6
CONTINUOUS
  5
456
 10
632.156145
 20
575.546872
 30
0.0
 11
665.156145
 21
575.546872
 31
0.0
  0
LINE
  8
LC-001-002-----0
  6
CONTINUOUS
  5
457
 10
632.156145
 20
573.546872
 30
0.0
 11
664.906145
 21
573.546872
 31
0.0
  0
LINE
  8
LC-001-002-----0
  6
CONTINUOUS
  5
458
 10
632.156145
 20
575.546872
 30
0.0
 11
632.156145
 21
573.546872
 31
0.0
  0
LINE
  8
LC-001-002-----0
  6
CONTINUOUS
  5
459
 10
830.656144
 20
575.546872
 30
0.0
 11
830.656144
 21
573.546872
 31
0.0
  0
LINE
  8
LC-001-002-----0
  6
CONTINUOUS
  5
45A
 10
795.656145
 20
578.046872
 30
0.0
 11
795.656145
 21
571.046872
 31
0.0
  0
LINE
  8
LC-001-002-----0
  6
CONTINUOUS
  5
45B
 10
667.156145
 20
578.046872
 30
0.0
 11
667.156145
 21
571.046872
 31
0.0
  0
LINE
  8
LC-001-002-----0
  6
CONTINUOUS
  5
45C
 10
665.156145
 20
578.046872
 30
0.0
 11
667.132864
 21
578.046872
 31
0.0
  0
LINE
  8
LC-001-002-----0
  6
DASHED
  5
45D
 10
667.132864
 20
578.046872
 30
0.0
 11
667.156145
 21
578.046872
 31
0.0
  0
LINE
  8
LC-001-002-----0
  6
CONTINUOUS
  5
45E
 10
795.632864
 20
578.046872
 30
0.0
 11
797.656145
 21
578.046872
 31
0.0
  0
LINE
  8
LC-001-002-----0
  6
CONTINUOUS
  5
45F
 10
664.906145
 20
571.046872
 30
0.0
 11
667.132864
 21
571.046872
 31
0.0
  0
LINE
  8
LC-001-002-----0
  6
DASHED
  5
460
 10
667.132864
 20
571.046872
 30
0.0
 11
667.156145
 21
571.046872
 31
0.0
  0
LINE
  8
LC-001-002-----0
  6
CONTINUOUS
  5
461
 10
795.632864
 20
571.046872
 30
0.0
 11
797.906145
 21
571.046872
 31
0.0
  0
LINE
  8
LC-001-002-----0
  6
CONTINUOUS
  5
462
 10
797.906145
 20
573.546872
 30
0.0
 11
797.906145
 21
571.046872
 31
0.0
  0
LINE
  8
LC-001-002-----0
  6
CONTINUOUS
  5
463
 10
664.906145
 20
573.546872
 30
0.0
 11
664.906145
 21
571.046872
 31
0.0
  0
LINE
  8
LC-001-002-----0
  6
CONTINUOUS
  5
464
 10
665.156145
 20
578.046872
 30
0.0
 11
665.156145
 21
575.546872
 31
0.0
  0
LINE
  8
LC-001-002-----0
  6
CONTINUOUS
  5
465
 10
797.656145
 20
575.546872
 30
0.0
 11
830.656144
 21
575.546872
 31
0.0
  0
LINE
  8
LC-001-002-----0
  6
CONTINUOUS
  5
466
 10
664.956145
 20
578.046872
 30
0.0
 11
664.956145
 21
575.746872
 31
0.0
  0
LINE
  8
LC-001-002-----0
  6
CONTINUOUS
  5
467
 10
797.856145
 20
578.046872
 30
0.0
 11
797.856145
 21
575.746872
 31
0.0
  0
LINE
  8
LC-001-002-----0
  6
CONTINUOUS
  5
468
 10
632.156145
 20
575.746872
 30
0.0
 11
664.956145
 21
575.746872
 31
0.0
  0
LINE
  8
LC-001-002-----0
  6
CONTINUOUS
  5
469
 10
797.656145
 20
578.046872
 30
0.0
 11
797.656145
 21
575.546872
 31
0.0
  0
LINE
  8
LC-001-002-----0
  6
CONTINUOUS
  5
46A
 10
830.656144
 20
575.746872
 30
0.0
 11
797.856145
 21
575.746872
 31
0.0
  0
LINE
  8
LC-001-002-----0
  6
CONTINUOUS
  5
46B
 10
632.156145
 20
575.546872
 30
0.0
 11
665.156145
 21
575.546872
 31
0.0
  0
LINE
  8
LC-001-002-----0
  6
CONTINUOUS
  5
46C
 10
632.156145
 20
575.746872
 30
0.0
 11
632.156145
 21
575.546872
 31
0.0
  0
LINE
  8
LC-001-002-----0
  6
CONTINUOUS
  5
46D
 10
665.156145
 20
578.046872
 30
0.0
 11
665.156145
 21
575.546872
 31
0.0
  0
LINE
  8
LC-001-002-----0
  6
CONTINUOUS
  5
46E
 10
664.956145
 20
578.046872
 30
0.0
 11
665.156145
 21
578.046872
 31
0.0
  0
LINE
  8
LC-001-002-----0
  6
CONTINUOUS
  5
46F
 10
830.656144
 20
575.546872
 30
0.0
 11
797.656145
 21
575.546872
 31
0.0
  0
LINE
  8
LC-001-002-----0
  6
CONTINUOUS
  5
470
 10
830.656144
 20
575.746872
 30
0.0
 11
830.656144
 21
575.546872
 31
0.0
  0
LINE
  8
LC-001-002-----0
  6
CONTINUOUS
  5
471
 10
797.656145
 20
578.046872
 30
0.0
 11
797.656145
 21
575.546872
 31
0.0
  0
LINE
  8
LC-001-002-----0
  6
CONTINUOUS
  5
472
 10
797.856145
 20
578.046872
 30
0.0
 11
797.656145
 21
578.046872
 31
0.0
  0
LINE
  8
LC-003-005-----0
  6
CONTINUOUS
  5
473
 10
642.03572
 20
529.620872
 30
0.0
 11
654.335722
 21
541.920874
 31
0.0
  0
LINE
  8
LC-003-005-----0
  6
CONTINUOUS
  5
474
 10
618.050439
 20
514.120872
 30
0.0
 11
631.848675
 21
527.919108
 31
0.0
  0
LINE
  8
LC-003-005-----0
  6
CONTINUOUS
  5
475
 10
633.550439
 20
529.620872
 30
0.0
 11
645.850471
 21
541.920904
 31
0.0
  0
LINE
  8
LC-003-005-----0
  6
CONTINUOUS
  5
476
 10
619.859941
 20
524.415656
 30
0.0
 11
637.36522
 21
541.920934
 31
0.0
  0
LINE
  8
LC-003-005-----0
  6
CONTINUOUS
  5
477
 10
619.8596
 20
532.900596
 30
0.0
 11
628.879968
 21
541.920964
 31
0.0
  0
LINE
  8
LC-003-005-----0
  6
CONTINUOUS
  5
478
 10
619.859941
 20
541.386219
 30
0.0
 11
621.959947
 21
543.486225
 31
0.0
  0
LINE
  8
LC-003-005-----0
  6
CONTINUOUS
  5
479
 10
587.109313
 20
517.120872
 30
0.0
 11
592.859941
 21
522.8715
 31
0.0
  0
LINE
  8
LC-003-005-----0
  6
CONTINUOUS
  5
47A
 10
580.728373
 20
519.225213
 30
0.0
 11
592.859941
 21
531.356782
 31
0.0
  0
LINE
  8
LC-003-005-----0
  6
CONTINUOUS
  5
47B
 10
578.741584
 20
525.723706
 30
0.0
 11
579.23875
 21
526.220872
 31
0.0
  0
LINE
  8
LC-003-005-----0
  6
CONTINUOUS
  5
47C
 10
582.23875
 20
529.220872
 30
0.0
 11
592.859941
 21
539.842063
 31
0.0
  0
LINE
  8
LC-003-005-----0
  6
CONTINUOUS
  5
47D
 10
578.121613
 20
533.589016
 30
0.0
 11
591.409001
 21
546.876404
 31
0.0
  0
LINE
  8
LC-003-005-----0
  6
CONTINUOUS
  5
47E
 10
578.590903
 20
542.543587
 30
0.0
 11
583.085494
 21
547.038178
 31
0.0
  0
LINE
  8
LC-001-002-----0
  6
CONTINUOUS
  5
47F
 10
848.892689
 20
556.308872
 30
0.0
 11
848.892689
 21
555.808872
 31
0.0
  0
LINE
  8
LC-001-002-----0
  6
CONTINUOUS
  5
480
 10
613.892689
 20
556.308872
 30
0.0
 11
613.892689
 21
555.808872
 31
0.0
  0
LINE
  8
LC-001-002-----0
  6
CONTINUOUS
  5
481
 10
613.892689
 20
556.308872
 30
0.0
 11
848.892689
 21
556.308872
 31
0.0
  0
LINE
  8
LC-001-002-----0
  6
CONTINUOUS
  5
482
 10
613.892689
 20
555.808872
 30
0.0
 11
848.892689
 21
555.808872
 31
0.0
  0
LINE
  8
LC-001-002-----0
  6
CONTINUOUS
  5
483
 10
848.892689
 20
546.439415
 30
0.0
 11
848.892689
 21
541.921018
 31
0.0
  0
LINE
  8
LC-003-005-----0
  6
CONTINUOUS
  5
484
 10
874.349876
 20
517.120872
 30
0.0
 11
883.449876
 21
526.220872
 31
0.0
  0
LINE
  8
LC-003-005-----0
  6
CONTINUOUS
  5
485
 10
865.864595
 20
517.120872
 30
0.0
 11
874.964595
 21
526.220872
 31
0.0
  0
LINE
  8
LC-003-005-----0
  6
CONTINUOUS
  5
486
 10
877.964595
 20
529.220872
 30
0.0
 11
880.067661
 21
531.323939
 31
0.0
  0
LINE
  8
LC-003-005-----0
  6
CONTINUOUS
  5
487
 10
880.689622
 20
531.945899
 30
0.0
 11
884.547683
 21
535.803961
 31
0.0
  0
LINE
  8
LC-003-005-----0
  6
CONTINUOUS
  5
488
 10
857.379313
 20
517.120872
 30
0.0
 11
866.479313
 21
526.220872
 31
0.0
  0
LINE
  8
LC-003-005-----0
  6
CONTINUOUS
  5
489
 10
869.479313
 20
529.220872
 30
0.0
 11
884.125133
 21
543.866692
 31
0.0
  0
LINE
  8
LC-003-005-----0
  6
CONTINUOUS
  5
48A
 10
848.894032
 20
517.120872
 30
0.0
 11
857.994032
 21
526.220872
 31
0.0
  0
LINE
  8
LC-003-005-----0
  6
CONTINUOUS
  5
48B
 10
860.994032
 20
529.220872
 30
0.0
 11
878.793726
 21
547.020566
 31
0.0
  0
LINE
  8
LC-003-005-----0
  6
CONTINUOUS
  5
48C
 10
837.40875
 20
514.120872
 30
0.0
 11
849.50875
 21
526.220872
 31
0.0
  0
LINE
  8
LC-003-005-----0
  6
CONTINUOUS
  5
48D
 10
852.50875
 20
529.220872
 30
0.0
 11
870.140258
 21
546.852379
 31
0.0
  0
LINE
  8
LC-003-005-----0
  6
CONTINUOUS
  5
48E
 10
828.923469
 20
514.120872
 30
0.0
 11
861.486789
 21
546.684192
 31
0.0
  0
LINE
  8
LC-003-005-----0
  6
CONTINUOUS
  5
48F
 10
820.438188
 20
514.120872
 30
0.0
 11
848.238331
 21
541.921015
 31
0.0
  0
LINE
  8
LC-003-005-----0
  6
CONTINUOUS
  5
490
 10
811.952906
 20
514.120872
 30
0.0
 11
824.452906
 21
526.620872
 31
0.0
  0
LINE
  8
LC-003-005-----0
  6
CONTINUOUS
  5
491
 10
827.452906
 20
529.620872
 30
0.0
 11
839.753019
 21
541.920985
 31
0.0
  0
LINE
  8
LC-003-005-----0
  6
CONTINUOUS
  5
492
 10
803.467625
 20
514.120872
 30
0.0
 11
815.528055
 21
526.181302
 31
0.0
  0
LINE
  8
LC-003-005-----0
  6
CONTINUOUS
  5
493
 10
818.967625
 20
529.620872
 30
0.0
 11
831.267708
 21
541.920955
 31
0.0
  0
LINE
  8
LC-003-005-----0
  6
CONTINUOUS
  5
494
 10
810.507212
 20
529.64574
 30
0.0
 11
822.782396
 21
541.920925
 31
0.0
  0
LINE
  8
LC-003-005-----0
  6
CONTINUOUS
  5
495
 10
807.892689
 20
535.516498
 30
0.0
 11
814.297085
 21
541.920895
 31
0.0
  0
LINE
  8
LC-003-005-----0
  6
CONTINUOUS
  5
496
 10
848.892689
 20
542.575373
 30
0.0
 11
852.83332
 21
546.516005
 31
0.0
  0
LINE
  8
LC-001-002-----0
  6
CONTINUOUS
 62
     2
  5
497
 10
703.683285
 20
674.478651
 30
0.0
 11
703.683285
 21
689.478651
 31
0.0
  0
LINE
  8
LC-001-002-----0
  6
CONTINUOUS
 62
     2
  5
498
 10
703.683285
 20
689.478651
 30
0.0
 11
688.683285
 21
689.478651
 31
0.0
  0
LINE
  8
LC-001-002-----0
  6
CONTINUOUS
 62
     2
  5
499
 10
688.683285
 20
674.478651
 30
0.0
 11
688.683285
 21
689.478651
 31
0.0
  0
LINE
  8
LC-001-002-----0
  6
CONTINUOUS
 62
     2
  5
49A
 10
703.683285
 20
674.478651
 30
0.0
 11
688.683285
 21
674.478651
 31
0.0
  0
LINE
  8
LC-001-002-----0
  6
CONTINUOUS
  5
49B
 10
658.389279
 20
376.160793
 30
0.0
 11
804.396099
 21
376.160793
 31
0.0
  0
LINE
  8
LC-001-002-----0
  6
CONTINUOUS
  5
49C
 10
808.446099
 20
348.299585
 30
0.0
 11
808.446099
 21
347.849585
 31
0.0
  0
LINE
  8
LC-001-002-----0
  6
CONTINUOUS
  5
49D
 10
818.141982
 20
372.799585
 30
0.0
 11
820.141982
 21
372.799585
 31
0.0
  0
LINE
  8
LC-001-002-----0
  6
CONTINUOUS
  5
49E
 10
820.141982
 20
372.799585
 30
0.0
 11
818.141982
 21
372.799585
 31
0.0
  0
LINE
  8
LC-001-002-----0
  6
CONTINUOUS
  5
49F
 10
796.892995
 20
389.640872
 30
0.0
 11
796.892995
 21
397.640872
 31
0.0
  0
LINE
  8
LC-001-002-----0
  6
DASHDOT
 62
     2
  5
4A0
 10
731.392689
 20
382.160793
 30
0.0
 11
731.392689
 21
346.808872
 31
0.0
  0
LINE
  8
LC-001-002-----0
  6
CONTINUOUS
  5
4A1
 10
660.392383
 20
397.640872
 30
0.0
 11
658.892383
 21
397.640872
 31
0.0
  0
LINE
  8
LC-001-002-----0
  6
CONTINUOUS
  5
4A2
 10
658.892383
 20
397.640872
 30
0.0
 11
658.892383
 21
389.640872
 31
0.0
  0
LINE
  8
LC-001-002-----0
  6
CONTINUOUS
  5
4A3
 10
658.892383
 20
389.640872
 30
0.0
 11
660.392383
 21
389.640872
 31
0.0
  0
LINE
  8
LC-001-002-----0
  6
CONTINUOUS
  5
4A4
 10
660.392383
 20
395.640872
 30
0.0
 11
696.091458
 21
395.640872
 31
0.0
  0
LINE
  8
LC-001-002-----0
  6
CONTINUOUS
  5
4A5
 10
660.392383
 20
389.640872
 30
0.0
 11
660.392383
 21
395.640872
 31
0.0
  0
LINE
  8
LC-001-002-----0
  6
CONTINUOUS
  5
4A6
 10
660.392383
 20
397.640872
 30
0.0
 11
696.091458
 21
397.640872
 31
0.0
  0
LINE
  8
LC-001-002-----0
  6
CONTINUOUS
  5
4A7
 10
660.392383
 20
389.640872
 30
0.0
 11
796.892995
 21
389.640872
 31
0.0
  0
LINE
  8
LC-001-002-----0
  6
CONTINUOUS
  5
4A8
 10
690.810342
 20
398.640872
 30
0.0
 11
697.823509
 21
398.640872
 31
0.0
  0
LINE
  8
LC-001-002-----0
  6
CONTINUOUS
  5
4A9
 10
712.797175
 20
398.640872
 30
0.0
 11
719.810342
 21
398.640872
 31
0.0
  0
LINE
  8
LC-001-002-----0
  6
CONTINUOUS
  5
4AA
 10
719.810342
 20
394.640872
 30
0.0
 11
712.797175
 21
394.640872
 31
0.0
  0
ARC
  8
LC-001-002-----0
  6
CONTINUOUS
  5
4AB
 10
719.810342
 20
396.640872
 30
0.0
 40
2.0
 50
270.0
 51
90.0
  0
ARC
  8
LC-001-002-----0
  6
CONTINUOUS
  5
4AC
 10
690.810342
 20
396.640872
 30
0.0
 40
2.0
 50
90.0
 51
150.0
  0
LINE
  8
LC-001-002-----0
  6
CONTINUOUS
  5
4AD
 10
697.823509
 20
394.640872
 30
0.0
 11
712.797175
 21
394.640872
 31
0.0
  0
LINE
  8
LC-001-002-----0
  6
CONTINUOUS
  5
4AE
 10
818.141982
 20
372.799585
 30
0.0
 11
820.141982
 21
372.799585
 31
0.0
  0
LINE
  8
LC-001-002-----0
  6
CONTINUOUS
  5
4AF
 10
712.797175
 20
398.640872
 30
0.0
 11
697.823509
 21
398.640872
 31
0.0
  0
ARC
  8
LC-001-002-----0
  6
CONTINUOUS
  5
4B0
 10
690.810342
 20
396.640872
 30
0.0
 40
2.0
 50
210.0
 51
270.0
  0
LINE
  8
LC-001-002-----0
  6
CONTINUOUS
  5
4B1
 10
721.542393
 20
397.640872
 30
0.0
 11
796.892995
 21
397.640872
 31
0.0
  0
LINE
  8
LC-001-002-----0
  6
DASHDOT
 62
     2
  5
4B2
 10
731.392689
 20
397.640872
 30
0.0
 11
731.392689
 21
389.640872
 31
0.0
  0
LINE
  8
LC-001-002-----0
  6
CONTINUOUS
  5
4B3
 10
803.892689
 20
346.808872
 30
0.0
 11
658.352184
 21
346.808872
 31
0.0
  0
LINE
  8
LC-001-002-----0
  6
CONTINUOUS
  5
4B4
 10
808.446099
 20
352.349585
 30
0.0
 11
808.446099
 21
352.849585
 31
0.0
  0
ARC
  8
LC-001-002-----0
  6
CONTINUOUS
  5
4B5
 10
805.252283
 20
369.637494
 30
0.0
 40
14.139699
 50
333.369494
 51
0.0
  0
ARC
  8
LC-007-002-RND-0
  6
CONTINUOUS
  5
4B6
 10
807.446099
 20
352.399585
 30
0.0
 40
1.0
 50
270.0
 51
0.0
  0
LINE
  8
LC-001-002-----0
  6
CONTINUOUS
  5
4B7
 10
811.912689
 20
379.660793
 30
0.0
 11
811.912689
 21
375.349585
 31
0.0
  0
LINE
  8
LC-001-002-----0
  6
CONTINUOUS
  5
4B8
 10
806.396099
 20
353.849585
 30
0.0
 11
806.396099
 21
357.379868
 31
0.0
  0
LINE
  8
LC-001-002-----0
  6
CONTINUOUS
  5
4B9
 10
823.440302
 20
372.799585
 30
0.0
 11
812.396099
 21
372.799585
 31
0.0
  0
LINE
  8
LC-001-002-----0
  6
CONTINUOUS
  5
4BA
 10
807.396099
 20
358.379868
 30
0.0
 11
816.891982
 21
358.379868
 31
0.0
  0
LINE
  8
LC-001-002-----0
  6
CONTINUOUS
  5
4BB
 10
804.396099
 20
346.849585
 30
0.0
 11
804.396099
 21
376.160793
 31
0.0
  0
LINE
  8
LC-001-002-----0
  6
CONTINUOUS
  5
4BC
 10
807.446099
 20
353.849585
 30
0.0
 11
806.396099
 21
353.849585
 31
0.0
  0
LINE
  8
LC-001-002-----0
  6
CONTINUOUS
  5
4BD
 10
806.412689
 20
382.160793
 30
0.0
 11
812.412689
 21
382.160793
 31
0.0
  0
ARC
  8
LC-007-002-RND-0
  6
CONTINUOUS
  5
4BE
 10
807.446099
 20
352.849585
 30
0.0
 40
1.0
 50
0.0
 51
90.0
  0
LINE
  8
LC-001-002-----0
  6
CONTINUOUS
  5
4BF
 10
814.412689
 20
380.160793
 30
0.0
 11
814.412689
 21
375.349585
 31
0.0
  0
ARC
  8
LC-007-002-RND-0
  6
CONTINUOUS
  5
4C0
 10
807.446099
 20
348.299585
 30
0.0
 40
1.0
 50
0.0
 51
90.0
  0
ARC
  8
LC-007-002-RND-0
  6
CONTINUOUS
  5
4C1
 10
807.446099
 20
347.849585
 30
0.0
 40
1.0
 50
270.0
 51
0.0
  0
LINE
  8
LC-001-002-----0
  6
CONTINUOUS
  5
4C2
 10
807.446099
 20
349.299585
 30
0.0
 11
806.396099
 21
349.299585
 31
0.0
  0
ARC
  8
LC-007-002-RND-0
  6
CONTINUOUS
  5
4C3
 10
806.412689
 20
379.160793
 30
0.0
 40
3.0
 50
90.0
 51
202.182268
  0
LINE
  8
LC-001-002-----0
  6
CONTINUOUS
  5
4C4
 10
807.446099
 20
346.849585
 30
0.0
 11
804.396099
 21
346.849585
 31
0.0
  0
LINE
  8
LC-001-002-----0
  6
CONTINUOUS
  5
4C5
 10
806.396099
 20
349.299585
 30
0.0
 11
806.396099
 21
351.399585
 31
0.0
  0
LINE
  8
LC-001-002-----0
  6
CONTINUOUS
  5
4C6
 10
816.396099
 20
361.379868
 30
0.0
 11
816.396099
 21
359.379868
 31
0.0
  0
LINE
  8
LC-001-002-----0
  6
CONTINUOUS
  5
4C7
 10
807.446099
 20
351.399585
 30
0.0
 11
806.396099
 21
351.399585
 31
0.0
  0
ARC
  8
LC-007-002-RND-0
  6
CONTINUOUS
  5
4C8
 10
812.412689
 20
380.160793
 30
0.0
 40
2.0
 50
0.0
 51
90.0
  0
LINE
  8
LC-001-002-----0
  6
CONTINUOUS
  5
4C9
 10
803.634727
 20
378.028131
 30
0.0
 11
804.396099
 21
376.160793
 31
0.0
  0
ARC
  8
LC-007-002-RND-0
  6
CONTINUOUS
  5
4CA
 10
815.396099
 20
359.379868
 30
0.0
 40
1.0
 50
270.0
 51
0.0
  0
LINE
  8
LC-001-002-----0
  6
CONTINUOUS
  5
4CB
 10
817.891982
 20
359.379868
 30
0.0
 11
817.891982
 21
363.299585
 31
0.0
  0
LINE
  8
LC-001-002-----0
  6
CONTINUOUS
  5
4CC
 10
823.440302
 20
372.799585
 30
0.0
 11
823.440302
 21
375.349585
 31
0.0
  0
LINE
  8
LC-001-002-----0
  6
CONTINUOUS
  5
4CD
 10
819.391982
 20
369.637494
 30
0.0
 11
819.391982
 21
372.799585
 31
0.0
  0
LINE
  8
LC-001-002-----0
  6
CONTINUOUS
  5
4CE
 10
806.396099
 20
357.379868
 30
0.0
 11
807.396099
 21
358.379868
 31
0.0
  0
LINE
  8
LC-001-002-----0
  6
CONTINUOUS
  5
4CF
 10
804.396099
 20
357.849585
 30
0.0
 11
809.396099
 21
360.736336
 31
0.0
  0
LINE
  8
LC-001-002-----0
  6
CONTINUOUS
  5
4D0
 10
811.912689
 20
379.660793
 30
0.0
 11
809.396099
 21
379.660793
 31
0.0
  0
LINE
  8
LC-001-002-----0
  6
CONTINUOUS
  5
4D1
 10
809.396099
 20
379.660793
 30
0.0
 11
809.396099
 21
360.736336
 31
0.0
  0
LINE
  8
LC-001-002-----0
  6
CONTINUOUS
  5
4D2
 10
812.396099
 20
368.849585
 30
0.0
 11
816.396099
 21
361.379868
 31
0.0
  0
ARC
  8
LC-007-002-RND-0
  6
CONTINUOUS
  5
4D3
 10
816.891982
 20
359.379868
 30
0.0
 40
1.0
 50
270.0
 51
0.0
  0
LINE
  8
LC-001-002-----0
  6
CONTINUOUS
  5
4D4
 10
823.440302
 20
375.349585
 30
0.0
 11
811.912689
 21
375.349585
 31
0.0
  0
LINE
  8
LC-001-002-----0
  6
CONTINUOUS
  5
4D5
 10
812.396099
 20
372.799585
 30
0.0
 11
812.396099
 21
368.849585
 31
0.0
  0
LINE
  8
LC-001-002-----0
  6
CONTINUOUS
  5
4D6
 10
654.339279
 20
352.349585
 30
0.0
 11
654.339279
 21
352.849585
 31
0.0
  0
ARC
  8
LC-001-002-----0
  6
CONTINUOUS
  5
4D7
 10
657.533095
 20
369.637494
 30
0.0
 40
14.139699
 50
180.0
 51
206.630506
  0
ARC
  8
LC-007-002-RND-0
  6
CONTINUOUS
  5
4D8
 10
655.339279
 20
352.399585
 30
0.0
 40
1.0
 50
180.0
 51
270.0
  0
LINE
  8
LC-001-002-----0
  6
CONTINUOUS
  5
4D9
 10
650.872689
 20
379.660793
 30
0.0
 11
650.872689
 21
375.349585
 31
0.0
  0
LINE
  8
LC-001-002-----0
  6
CONTINUOUS
  5
4DA
 10
656.389279
 20
353.849585
 30
0.0
 11
656.389279
 21
357.379868
 31
0.0
  0
LINE
  8
LC-001-002-----0
  6
CONTINUOUS
  5
4DB
 10
639.345076
 20
372.799585
 30
0.0
 11
650.389279
 21
372.799585
 31
0.0
  0
LINE
  8
LC-001-002-----0
  6
CONTINUOUS
  5
4DC
 10
655.389279
 20
358.379868
 30
0.0
 11
645.893396
 21
358.379868
 31
0.0
  0
LINE
  8
LC-001-002-----0
  6
CONTINUOUS
  5
4DD
 10
658.389279
 20
346.849585
 30
0.0
 11
658.389279
 21
376.160793
 31
0.0
  0
LINE
  8
LC-001-002-----0
  6
CONTINUOUS
  5
4DE
 10
655.339279
 20
353.849585
 30
0.0
 11
656.389279
 21
353.849585
 31
0.0
  0
ARC
  8
LC-007-002-RND-0
  6
CONTINUOUS
  5
4DF
 10
655.339279
 20
352.849585
 30
0.0
 40
1.0
 50
90.0
 51
180.0
  0
LINE
  8
LC-001-002-----0
  6
CONTINUOUS
  5
4E0
 10
648.372689
 20
380.160793
 30
0.0
 11
648.372689
 21
375.349585
 31
0.0
  0
LINE
  8
LC-001-002-----0
  6
CONTINUOUS
  5
4E1
 10
654.339279
 20
347.799585
 30
0.0
 11
654.339279
 21
348.299585
 31
0.0
  0
ARC
  8
LC-007-002-RND-0
  6
CONTINUOUS
  5
4E2
 10
655.339279
 20
348.299585
 30
0.0
 40
1.0
 50
90.0
 51
180.0
  0
ARC
  8
LC-007-002-RND-0
  6
CONTINUOUS
  5
4E3
 10
655.339279
 20
347.849585
 30
0.0
 40
1.0
 50
180.0
 51
270.0
  0
LINE
  8
LC-001-002-----0
  6
CONTINUOUS
  5
4E4
 10
655.339279
 20
349.299585
 30
0.0
 11
656.389279
 21
349.299585
 31
0.0
  0
ARC
  8
LC-007-002-RND-0
  6
CONTINUOUS
  5
4E5
 10
656.372689
 20
379.160793
 30
0.0
 40
3.0
 50
337.817732
 51
90.0
  0
LINE
  8
LC-001-002-----0
  6
CONTINUOUS
  5
4E6
 10
655.339279
 20
346.849585
 30
0.0
 11
658.389279
 21
346.849585
 31
0.0
  0
LINE
  8
LC-001-002-----0
  6
CONTINUOUS
  5
4E7
 10
656.389279
 20
349.299585
 30
0.0
 11
656.389279
 21
351.399585
 31
0.0
  0
LINE
  8
LC-001-002-----0
  6
CONTINUOUS
  5
4E8
 10
646.389279
 20
361.379868
 30
0.0
 11
646.389279
 21
359.379868
 31
0.0
  0
LINE
  8
LC-001-002-----0
  6
CONTINUOUS
  5
4E9
 10
655.339279
 20
351.399585
 30
0.0
 11
656.389279
 21
351.399585
 31
0.0
  0
ARC
  8
LC-007-002-RND-0
  6
CONTINUOUS
  5
4EA
 10
650.372689
 20
380.160793
 30
0.0
 40
2.0
 50
90.0
 51
180.0
  0
LINE
  8
LC-001-002-----0
  6
CONTINUOUS
  5
4EB
 10
659.150651
 20
378.028131
 30
0.0
 11
658.389279
 21
376.160793
 31
0.0
  0
ARC
  8
LC-007-002-RND-0
  6
CONTINUOUS
  5
4EC
 10
647.389279
 20
359.379868
 30
0.0
 40
1.0
 50
180.0
 51
270.0
  0
LINE
  8
LC-001-002-----0
  6
CONTINUOUS
  5
4ED
 10
644.893396
 20
359.379868
 30
0.0
 11
644.893396
 21
363.299585
 31
0.0
  0
LINE
  8
LC-001-002-----0
  6
CONTINUOUS
  5
4EE
 10
639.345076
 20
372.799585
 30
0.0
 11
639.345076
 21
375.349585
 31
0.0
  0
LINE
  8
LC-001-002-----0
  6
CONTINUOUS
  5
4EF
 10
643.393396
 20
369.637494
 30
0.0
 11
643.393396
 21
372.799585
 31
0.0
  0
LINE
  8
LC-001-002-----0
  6
CONTINUOUS
  5
4F0
 10
656.389279
 20
357.379868
 30
0.0
 11
655.389279
 21
358.379868
 31
0.0
  0
LINE
  8
LC-001-002-----0
  6
CONTINUOUS
  5
4F1
 10
658.389279
 20
357.849585
 30
0.0
 11
653.389279
 21
360.736336
 31
0.0
  0
LINE
  8
LC-001-002-----0
  6
CONTINUOUS
  5
4F2
 10
650.872689
 20
379.660793
 30
0.0
 11
653.389279
 21
379.660793
 31
0.0
  0
LINE
  8
LC-001-002-----0
  6
CONTINUOUS
  5
4F3
 10
653.389279
 20
379.660793
 30
0.0
 11
653.389279
 21
360.736336
 31
0.0
  0
LINE
  8
LC-001-002-----0
  6
CONTINUOUS
  5
4F4
 10
650.389279
 20
368.849585
 30
0.0
 11
646.389279
 21
361.379868
 31
0.0
  0
ARC
  8
LC-007-002-RND-0
  6
CONTINUOUS
  5
4F5
 10
645.893396
 20
359.379868
 30
0.0
 40
1.0
 50
180.0
 51
270.0
  0
LINE
  8
LC-001-002-----0
  6
CONTINUOUS
  5
4F6
 10
639.345076
 20
375.349585
 30
0.0
 11
650.872689
 21
375.349585
 31
0.0
  0
LINE
  8
LC-001-002-----0
  6
CONTINUOUS
  5
4F7
 10
650.389279
 20
372.799585
 30
0.0
 11
650.389279
 21
368.849585
 31
0.0
  0
LINE
  8
LC-001-002-----0
  6
CONTINUOUS
  5
4F8
 10
650.372689
 20
382.160793
 30
0.0
 11
807.235246
 21
382.160793
 31
0.0
  0
LINE
  8
LC-001-002-----0
  6
CONTINUOUS
  5
4F9
 10
697.823509
 20
394.640872
 30
0.0
 11
690.810342
 21
394.640872
 31
0.0
  0
ARC
  8
LC-001-002-----0
  6
CONTINUOUS
  5
4FA
 10
697.823509
 20
396.640872
 30
0.0
 40
2.0
 50
90.0
 51
150.0
  0
ARC
  8
LC-001-002-----0
  6
CONTINUOUS
  5
4FB
 10
697.823509
 20
396.640872
 30
0.0
 40
2.0
 50
210.0
 51
270.0
  0
ARC
  8
LC-001-002-----0
  6
CONTINUOUS
  5
4FC
 10
712.797175
 20
396.640872
 30
0.0
 40
2.0
 50
270.0
 51
90.0
  0
LINE
  8
LC-001-002-----0
  6
CONTINUOUS
  5
4FD
 10
803.392689
 20
397.640872
 30
0.0
 11
803.392689
 21
389.640872
 31
0.0
  0
LINE
  8
LC-001-002-----0
  6
CONTINUOUS
  5
4FE
 10
803.392689
 20
397.640872
 30
0.0
 11
796.892995
 21
397.640872
 31
0.0
  0
LINE
  8
LC-001-002-----0
  6
CONTINUOUS
  5
4FF
 10
796.892995
 20
389.640872
 30
0.0
 11
803.392689
 21
389.640872
 31
0.0
  0
LINE
  8
LC-001-002-----0
  6
CONTINUOUS
  5
500
 10
658.892689
 20
514.120872
 30
0.0
 11
616.359941
 21
514.120872
 31
0.0
  0
LINE
  8
LC-001-002-----0
  6
CONTINUOUS
  5
501
 10
803.892689
 20
514.120872
 30
0.0
 11
846.392688
 21
514.120872
 31
0.0
  0
LINE
  8
LC-001-002-----0
  6
CONTINUOUS
  5
502
 10
847.559455
 20
517.120872
 30
0.0
 11
881.413643
 21
517.120872
 31
0.0
  0
LINE
  8
LC-001-002-----0
  6
CONTINUOUS
  5
503
 10
622.664973
 20
517.120872
 30
0.0
 11
581.371735
 21
517.120872
 31
0.0
  0
ENDSEC
  0
EOF
