  0
SECTION
  2
HEADER
  9
$ACADVER
  1
AC1015
  9
$ACADMAINTVER
 70
     6
  9
$DWGCODEPAGE
  3
ANSI_1252
  9
$INSBASE
 10
0.0
 20
0.0
 30
0.0
  9
$EXTMIN
 10
-229.911745
 20
-109.319
 30
0.0
  9
$EXTMAX
 10
610.088255
 20
484.681
 30
0.0
  9
$LIMMIN
 10
-229.911745
 20
-109.319
  9
$LIMMAX
 10
610.088255
 20
484.681
  9
$ORTHOMODE
 70
     0
  9
$REGENMODE
 70
     1
  9
$FILLMODE
 70
     1
  9
$QTEXTMODE
 70
     0
  9
$MIRRTEXT
 70
     1
  9
$LTSCALE
 40
2.0
  9
$ATTMODE
 70
     1
  9
$TEXTSIZE
 40
2.5
  9
$TRACEWID
 40
1.0
  9
$TEXTSTYLE
  7
Standard
  9
$CLAYER
  8
0
  9
$CELTYPE
  6
ByLayer
  9
$CECOLOR
 62
     7
  9
$CELTSCALE
 40
1.0
  9
$DISPSILH
 70
     0
  9
$DIMSCALE
 40
2.0
  9
$DIMASZ
 40
3.5
  9
$DIMEXO
 40
0.625
  9
$DIMDLI
 40
3.75
  9
$DIMRND
 40
0.0
  9
$DIMDLE
 40
0.0
  9
$DIMEXE
 40
1.25
  9
$DIMTP
 40
0.0
  9
$DIMTM
 40
0.0
  9
$DIMTXT
 40
3.5
  9
$DIMCEN
 40
2.5
  9
$DIMTSZ
 40
0.0
  9
$DIMTOL
 70
     0
  9
$DIMLIM
 70
     0
  9
$DIMTIH
 70
     0
  9
$DIMTOH
 70
     0
  9
$DIMSE1
 70
     0
  9
$DIMSE2
 70
     0
  9
$DIMTAD
 70
     1
  9
$DIMZIN
 70
     8
  9
$DIMBLK
  1

  9
$DIMASO
 70
     1
  9
$DIMSHO
 70
     1
  9
$DIMPOST
  1

  9
$DIMAPOST
  1

  9
$DIMALT
 70
     0
  9
$DIMALTD
 70
     3
  9
$DIMALTF
 40
0.03937
  9
$DIMLFAC
 40
1.0
  9
$DIMTOFL
 70
     1
  9
$DIMTVP
 40
0.0
  9
$DIMTIX
 70
     0
  9
$DIMSOXD
 70
     0
  9
$DIMSAH
 70
     0
  9
$DIMBLK1
  1

  9
$DIMBLK2
  1

  9
$DIMSTYLE
  2
ISO-25
  9
$DIMCLRD
 70
     0
  9
$DIMCLRE
 70
     0
  9
$DIMCLRT
 70
     0
  9
$DIMTFAC
 40
1.0
  9
$DIMGAP
 40
0.625
  9
$DIMJUST
 70
     0
  9
$DIMSD1
 70
     0
  9
$DIMSD2
 70
     0
  9
$DIMTOLJ
 70
     0
  9
$DIMTZIN
 70
     8
  9
$DIMALTZ
 70
     0
  9
$DIMALTTZ
 70
     0
  9
$DIMUPT
 70
     0
  9
$DIMDEC
 70
     2
  9
$DIMTDEC
 70
     2
  9
$DIMALTU
 70
     2
  9
$DIMALTTD
 70
     3
  9
$DIMTXSTY
  7
Standard
  9
$DIMAUNIT
 70
     0
  9
$DIMADEC
 70
     0
  9
$DIMALTRND
 40
0.0
  9
$DIMAZIN
 70
     0
  9
$DIMDSEP
 70
    44
  9
$DIMATFIT
 70
     3
  9
$DIMFRAC
 70
     0
  9
$DIMLDRBLK
  1

  9
$DIMLUNIT
 70
     2
  9
$DIMLWD
 70
    -2
  9
$DIMLWE
 70
    -2
  9
$DIMTMOVE
 70
     0
  9
$LUNITS
 70
     2
  9
$LUPREC
 70
     4
  9
$SKETCHINC
 40
1.0
  9
$FILLETRAD
 40
10.0
  9
$AUNITS
 70
     0
  9
$AUPREC
 70
     0
  9
$MENU
  1
.
  9
$ELEVATION
 40
0.0
  9
$PELEVATION
 40
0.0
  9
$THICKNESS
 40
0.0
  9
$LIMCHECK
 70
     0
  9
$CHAMFERA
 40
10.0
  9
$CHAMFERB
 40
10.0
  9
$CHAMFERC
 40
20.0
  9
$CHAMFERD
 40
0.0
  9
$SKPOLY
 70
     0
  9
$TDCREATE
 40
2455743.296783866
  9
$TDUCREATE
 40
2455743.213450532
  9
$TDUPDATE
 40
2455743.296783878
  9
$TDUUPDATE
 40
2455743.213450544
  9
$TDINDWG
 40
0.0000000116
  9
$TDUSRTIMER
 40
0.0000000116
  9
$USRTIMER
 70
     1
  9
$ANGBASE
 50
0.0
  9
$ANGDIR
 70
     0
  9
$PDMODE
 70
     0
  9
$PDSIZE
 40
0.0
  9
$PLINEWID
 40
0.0
  9
$SPLFRAME
 70
     0
  9
$SPLINETYPE
 70
     6
  9
$SPLINESEGS
 70
     8
  9
$HANDSEED
  5
21A
  9
$SURFTAB1
 70
     6
  9
$SURFTAB2
 70
     6
  9
$SURFTYPE
 70
     6
  9
$SURFU
 70
     6
  9
$SURFV
 70
     6
  9
$UCSBASE
  2

  9
$UCSNAME
  2

  9
$UCSORG
 10
0.0
 20
0.0
 30
0.0
  9
$UCSXDIR
 10
1.0
 20
0.0
 30
0.0
  9
$UCSYDIR
 10
0.0
 20
1.0
 30
0.0
  9
$UCSORTHOREF
  2

  9
$UCSORTHOVIEW
 70
     0
  9
$UCSORGTOP
 10
0.0
 20
0.0
 30
0.0
  9
$UCSORGBOTTOM
 10
0.0
 20
0.0
 30
0.0
  9
$UCSORGLEFT
 10
0.0
 20
0.0
 30
0.0
  9
$UCSORGRIGHT
 10
0.0
 20
0.0
 30
0.0
  9
$UCSORGFRONT
 10
0.0
 20
0.0
 30
0.0
  9
$UCSORGBACK
 10
0.0
 20
0.0
 30
0.0
  9
$PUCSBASE
  2

  9
$PUCSNAME
  2

  9
$PUCSORG
 10
0.0
 20
0.0
 30
0.0
  9
$PUCSXDIR
 10
1.0
 20
0.0
 30
0.0
  9
$PUCSYDIR
 10
0.0
 20
1.0
 30
0.0
  9
$PUCSORTHOREF
  2

  9
$PUCSORTHOVIEW
 70
     0
  9
$PUCSORGTOP
 10
0.0
 20
0.0
 30
0.0
  9
$PUCSORGBOTTOM
 10
0.0
 20
0.0
 30
0.0
  9
$PUCSORGLEFT
 10
0.0
 20
0.0
 30
0.0
  9
$PUCSORGRIGHT
 10
0.0
 20
0.0
 30
0.0
  9
$PUCSORGFRONT
 10
0.0
 20
0.0
 30
0.0
  9
$PUCSORGBACK
 10
0.0
 20
0.0
 30
0.0
  9
$USERI1
 70
     0
  9
$USERI2
 70
     0
  9
$USERI3
 70
     0
  9
$USERI4
 70
     0
  9
$USERI5
 70
     0
  9
$USERR1
 40
0.0
  9
$USERR2
 40
0.0
  9
$USERR3
 40
0.0
  9
$USERR4
 40
0.0
  9
$USERR5
 40
0.0
  9
$WORLDVIEW
 70
     1
  9
$SHADEDGE
 70
     3
  9
$SHADEDIF
 70
    70
  9
$TILEMODE
 70
     1
  9
$MAXACTVP
 70
    64
  9
$PINSBASE
 10
0.0
 20
0.0
 30
0.0
  9
$PLIMCHECK
 70
     0
  9
$PEXTMIN
 10
-229.911745
 20
-109.319
 30
0.0
  9
$PEXTMAX
 10
610.088255
 20
484.681
 30
0.0
  9
$PLIMMIN
 10
-229.911745
 20
-109.319
  9
$PLIMMAX
 10
610.088255
 20
484.681
  9
$UNITMODE
 70
     0
  9
$VISRETAIN
 70
     1
  9
$PLINEGEN
 70
     0
  9
$PSLTSCALE
 70
     1
  9
$TREEDEPTH
 70
  3020
  9
$CMLSTYLE
  2
Standard
  9
$CMLJUST
 70
     0
  9
$CMLSCALE
 40
20.0
  9
$PROXYGRAPHICS
 70
     1
  9
$MEASUREMENT
 70
     1
  9
$CELWEIGHT
370
    -1
  9
$ENDCAPS
280
     0
  9
$JOINSTYLE
280
     0
  9
$LWDISPLAY
290
     0
  9
$INSUNITS
 70
     4
  9
$HYPERLINKBASE
  1

  9
$STYLESHEET
  1

  9
$XEDIT
290
     1
  9
$CEPSNTYPE
380
     0
  9
$PSTYLEMODE
290
     1
  9
$FINGERPRINTGUID
  2
{FAEB1C30-E019-11D5-929B-00C0DF256EC4}
  9
$VERSIONGUID
  2
{FAEB1C32-E019-11D5-929B-00C0DF256EC4}
  9
$EXTNAMES
290
     1
  9
$PSVPSCALE
 40
0.0
  9
$OLESTARTUP
290
     0
  0
ENDSEC
  0
SECTION
  2
CLASSES
  0
CLASS
  1
ACDBDICTIONARYWDFLT
  2
AcDbDictionaryWithDefault
  3
ObjectDBX Classes
 90
        0
280
     0
281
     0
  0
CLASS
  1
ACDBPLACEHOLDER
  2
AcDbPlaceHolder
  3
ObjectDBX Classes
 90
        0
280
     0
281
     0
  0
CLASS
  1
LAYOUT
  2
AcDbLayout
  3
ObjectDBX Classes
 90
        0
280
     0
281
     0
  0
ENDSEC
  0
SECTION
  2
TABLES
  0
TABLE
  2
VPORT
  5
8
330
0
100
AcDbSymbolTable
 70
     2
  0
VPORT
  5
29
330
8
100
AcDbSymbolTableRecord
100
AcDbViewportTableRecord
  2
*ACTIVE
 70
     0
 10
0.0
 20
0.0
 11
1.0
 21
1.0
 12
190.088255
 22
187.681
 13
0.0
 23
0.0
 14
1.0
 24
1.0
 15
0.0
 25
0.0
 16
0.0
 26
0.0
 36
1.0
 17
0.0
 27
0.0
 37
0.0
 40
594.0
 41
1.414141
 42
50.0
 43
0.0
 44
0.0
 50
0.0
 51
0.0
 71
    16
 72
   100
 73
     1
 74
     0
 75
     0
 76
     0
 77
     0
 78
     0
281
     0
 65
     0
110
0.0
120
0.0
130
0.0
111
1.0
121
0.0
131
0.0
112
0.0
122
1.0
132
0.0
 79
     0
146
0.0
  0
ENDTAB
  0
TABLE
  2
LTYPE
  5
5
330
0
100
AcDbSymbolTable
 70
     3
  0
LTYPE
  5
14
330
5
100
AcDbSymbolTableRecord
100
AcDbLinetypeTableRecord
  2
ByBlock
 70
     0
  3

 72
    65
 73
     0
 40
0.0
  0
LTYPE
  5
15
330
5
100
AcDbSymbolTableRecord
100
AcDbLinetypeTableRecord
  2
ByLayer
 70
     0
  3

 72
    65
 73
     0
 40
0.0
  0
LTYPE
  5
16
330
5
100
AcDbSymbolTableRecord
100
AcDbLinetypeTableRecord
  2
Continuous
 70
     0
  3
Solid line
 72
    65
 73
     0
 40
0.0
  0
LTYPE
  5
2A
330
5
100
AcDbSymbolTableRecord
100
AcDbLinetypeTableRecord
  2
DASHED
 70
     0
  3
__ __ __ __ __
 72
    65
 73
     2
 40
6.25
 49
5.0
 74
     4
 75
     0
340
0
 46
1.0
 50
0.0
 44
0.0
 45
0.0
 49
-1.25
 74
     4
 75
     0
340
0
 46
1.0
 50
0.0
 44
0.0
 45
0.0
  0
LTYPE
  5
AC
330
5
100
AcDbSymbolTableRecord
100
AcDbLinetypeTableRecord
  2
DASHDOT
 70
     0
  3
__ . __ . __ . __ . __
 72
    65
 73
     4
 40
7.5
 49
5.0
 74
     4
 75
     0
340
0
 46
1.0
 50
0.0
 44
0.0
 45
0.0
 49
-1.25
 74
     4
 75
     0
340
0
 46
1.0
 50
0.0
 44
0.0
 45
0.0
 49
0.0
 74
     4
 75
     0
340
0
 46
1.0
 50
0.0
 44
0.0
 45
0.0
 49
-1.25
 74
     4
 75
     0
340
0
 46
1.0
 50
0.0
 44
0.0
 45
0.0
  0
ENDTAB
  0
TABLE
  2
LAYER
  5
2
330
0
100
AcDbSymbolTable
 70
     7
  0
LAYER
  5
10
330
2
100
AcDbSymbolTableRecord
100
AcDbLayerTableRecord
  2
0
 70
     0
 62
     7
  6
Continuous
370
    -3
390
F
  0
LAYER
  5
2B
330
2
100
AcDbSymbolTableRecord
100
AcDbLayerTableRecord
  2
LC-INFO-1-2-mm-A3-0
 70
     1
 62
     7
  6
ByBlock
370
    -3
390
F
  0
LAYER
  5
2C
330
2
100
AcDbSymbolTableRecord
100
AcDbLayerTableRecord
  2
LC-CUT-HIDDEN
 70
     0
 62
     7
  6
DASHED
370
    -3
390
F
  0
LAYER
  5
2D
330
2
100
AcDbSymbolTableRecord
100
AcDbLayerTableRecord
  2
LC-VIEWPORT
 70
     0
 62
     7
  6
ByBlock
370
    -3
390
F
  0
LAYER
  5
2E
330
2
100
AcDbSymbolTableRecord
100
AcDbLayerTableRecord
  2
LC-3D-HIDDEN
 70
     0
 62
     9
  6
DASHED
370
    -3
390
F
  0
LAYER
  5
30
330
2
100
AcDbSymbolTableRecord
100
AcDbLayerTableRecord
  2
LC-001-100-D00-0
 70
     0
 62
     1
  6
ByBlock
370
    -3
390
F
  0
LAYER
  5
9F
330
2
100
AcDbSymbolTableRecord
100
AcDbLayerTableRecord
  2
Defpoints
 70
     0
 62
     7
  6
Continuous
290
     0
370
    -3
390
F
  0
ENDTAB
  0
TABLE
  2
STYLE
  5
3
330
0
100
AcDbSymbolTable
 70
     3
  0
STYLE
  5
11
330
3
100
AcDbSymbolTableRecord
100
AcDbTextStyleTableRecord
  2
Standard
 70
     0
 40
0.0
 41
1.0
 50
0.0
 71
     0
 42
2.5
  3
txt
  4

  0
STYLE
  5
2F
330
3
100
AcDbSymbolTableRecord
100
AcDbTextStyleTableRecord
  2
LCTX15-400-0-0-Arial
 70
     0
 40
0.0
 41
0.8
 50
0.0
 71
     0
 42
3.5
  3

  4

1001
ACAD
1000
Arial
1071
 16777218
  0
STYLE
  5
9C
330
3
100
AcDbSymbolTableRecord
100
AcDbTextStyleTableRecord
  2
LCTX15-400-0-0pDIN-Schrift
 70
     0
 40
2.5
 41
0.8
 50
15.0
 71
     0
 42
3.5
  3
STANDARD
  4

  0
ENDTAB
  0
TABLE
  2
VIEW
  5
6
330
0
100
AcDbSymbolTable
 70
     0
  0
ENDTAB
  0
TABLE
  2
UCS
  5
7
330
0
100
AcDbSymbolTable
 70
     0
  0
ENDTAB
  0
TABLE
  2
APPID
  5
9
330
0
100
AcDbSymbolTable
 70
     1
  0
APPID
  5
12
330
9
100
AcDbSymbolTableRecord
100
AcDbRegAppTableRecord
  2
ACAD
 70
     0
  0
ENDTAB
  0
TABLE
  2
DIMSTYLE
  5
A
330
0
100
AcDbSymbolTable
 70
     3
100
AcDbDimStyleTable
  0
DIMSTYLE
105
27
330
A
100
AcDbSymbolTableRecord
100
AcDbDimStyleTableRecord
  2
ISO-25
 70
     0
 41
2.5
 42
0.625
 43
3.75
 44
1.25
 73
     0
 74
     0
 77
     1
 78
     8
140
2.5
141
2.5
143
0.03937
147
0.625
171
     3
172
     1
271
     2
272
     2
274
     3
278
    44
283
     0
284
     8
340
11
  0
DIMSTYLE
105
9D
102
{ACAD_REACTORS
330
9E
330
193
330
1FC
102
}
330
A
100
AcDbSymbolTableRecord
100
AcDbDimStyleTableRecord
  2
LC-DIM-L-0140-02-02
 70
     0
 40
2.0
 41
14.0
 42
0.0
 43
7.5
 44
1.8
 73
     0
 74
     0
 77
     1
 78
     8
 79
     2
140
14.0
141
0.0
146
0.71
147
1.5
176
     2
177
     2
178
     2
179
     2
271
     2
278
    44
289
     1
340
9C
  0
DIMSTYLE
105
20B
102
{ACAD_REACTORS
330
20C
102
}
330
A
100
AcDbSymbolTableRecord
100
AcDbDimStyleTableRecord
  2
LC-DIM-L-0140-01-02
 70
     0
 40
2.0
 41
14.0
 42
0.0
 43
7.5
 44
1.8
 73
     0
 74
     0
 77
     1
 78
     8
 79
     2
140
14.0
141
0.0
146
0.71
147
1.5
176
     2
177
     2
178
     2
179
     1
271
     1
278
    44
289
     1
340
9C
  0
ENDTAB
  0
TABLE
  2
BLOCK_RECORD
  5
1
330
0
100
AcDbSymbolTable
 70
     9
  0
BLOCK_RECORD
  5
1F
330
1
100
AcDbSymbolTableRecord
100
AcDbBlockTableRecord
  2
*Model_Space
340
22
  0
BLOCK_RECORD
  5
1B
330
1
100
AcDbSymbolTableRecord
100
AcDbBlockTableRecord
  2
*Paper_Space
340
1E
  0
BLOCK_RECORD
  5
23
330
1
100
AcDbSymbolTableRecord
100
AcDbBlockTableRecord
  2
*Paper_Space0
340
26
  0
BLOCK_RECORD
  5
A0
330
1
100
AcDbSymbolTableRecord
100
AcDbBlockTableRecord
  2
*D1
340
0
  0
BLOCK_RECORD
  5
161
330
1
100
AcDbSymbolTableRecord
100
AcDbBlockTableRecord
  2
KLON1
340
0
102
{BLKREFS
331
16C
102
}
  0
BLOCK_RECORD
  5
172
330
1
100
AcDbSymbolTableRecord
100
AcDbBlockTableRecord
  2
KLON2
340
0
102
{BLKREFS
331
17D
102
}
  0
BLOCK_RECORD
  5
194
330
1
100
AcDbSymbolTableRecord
100
AcDbBlockTableRecord
  2
*D4
340
0
  0
BLOCK_RECORD
  5
1D7
330
1
100
AcDbSymbolTableRecord
100
AcDbBlockTableRecord
  2
KLON3
340
0
102
{BLKREFS
331
1EE
102
}
  0
BLOCK_RECORD
  5
1EF
330
1
100
AcDbSymbolTableRecord
100
AcDbBlockTableRecord
  2
KLON4
340
0
102
{BLKREFS
331
1F9
102
}
  0
BLOCK_RECORD
  5
1FD
330
1
100
AcDbSymbolTableRecord
100
AcDbBlockTableRecord
  2
*D7
340
0
  0
BLOCK_RECORD
  5
20D
330
1
100
AcDbSymbolTableRecord
100
AcDbBlockTableRecord
  2
*D8
340
0
  0
ENDTAB
  0
ENDSEC
  0
SECTION
  2
BLOCKS
  0
BLOCK
  5
20
330
1F
100
AcDbEntity
  8
0
100
AcDbBlockBegin
  2
*Model_Space
 70
     0
 71
     0
 10
0.0
 20
0.0
 30
0.0
  3
*Model_Space
  1

  0
ENDBLK
  5
21
330
1F
100
AcDbEntity
  8
0
100
AcDbBlockEnd
  0
BLOCK
  5
1C
330
1B
100
AcDbEntity
 67
     1
  8
0
100
AcDbBlockBegin
  2
*Paper_Space
 70
     0
 71
     0
 10
0.0
 20
0.0
 30
0.0
  3
*Paper_Space
  1

  0
ENDBLK
  5
1D
330
1B
100
AcDbEntity
 67
     1
  8
0
100
AcDbBlockEnd
  0
BLOCK
  5
24
330
23
100
AcDbEntity
  8
0
100
AcDbBlockBegin
  2
*Paper_Space0
 70
     0
 71
     0
 10
0.0
 20
0.0
 30
0.0
  3
*Paper_Space0
  1

  0
ENDBLK
  5
25
330
23
100
AcDbEntity
  8
0
100
AcDbBlockEnd
  0
BLOCK
  5
AA
330
A0
100
AcDbEntity
  8
0
100
AcDbBlockBegin
  2
*D1
 70
     1
 71
     0
 10
0.0
 20
0.0
 30
0.0
  3
*D1
  1

  0
LINE
  5
A1
330
A0
100
AcDbEntity
  8
LC-001-100-D00-0
 62
     2
370
    -2
100
AcDbLine
 10
175.541093
 20
225.386542
 30
0.0
 11
175.541093
 21
270.877
 31
0.0
  0
LINE
  5
A2
330
A0
100
AcDbEntity
  8
LC-001-100-D00-0
 62
     2
370
    -2
100
AcDbLine
 10
284.541093
 20
225.386542
 30
0.0
 11
284.541093
 21
270.877
 31
0.0
  0
LINE
  5
A3
330
A0
100
AcDbEntity
  8
LC-001-100-D00-0
 62
     2
370
    -2
100
AcDbLine
 10
203.541093
 20
267.277
 30
0.0
 11
256.541093
 21
267.277
 31
0.0
  0
SOLID
  5
A4
330
A0
100
AcDbEntity
  8
LC-001-100-D00-0
 62
     2
100
AcDbTrace
 10
203.541093
 20
271.943667
 30
0.0
 11
203.541093
 21
262.610333
 31
0.0
 12
175.541093
 22
267.277
 32
0.0
 13
175.541093
 23
267.277
 33
0.0
  0
SOLID
  5
A5
330
A0
100
AcDbEntity
  8
LC-001-100-D00-0
 62
     2
100
AcDbTrace
 10
256.541093
 20
262.610333
 30
0.0
 11
256.541093
 21
271.943667
 31
0.0
 12
284.541093
 22
267.277
 32
0.0
 13
284.541093
 23
267.277
 33
0.0
  0
MTEXT
  5
A6
330
A0
100
AcDbEntity
  8
LC-001-100-D00-0
 62
     2
100
AcDbMText
 10
226.348289
 20
298.077
 30
0.0
 40
28.0
 41
0.0
 71
     5
 72
     1
  1
\A1;109
  7
LCTX15-400-0-0pDIN-Schrift
 73
     1
 44
1.0
  0
POINT
  5
A7
330
A0
100
AcDbEntity
  8
Defpoints
 62
     0
100
AcDbPoint
 10
175.541093
 20
225.386542
 30
0.0
  0
POINT
  5
A8
330
A0
100
AcDbEntity
  8
Defpoints
 62
     0
100
AcDbPoint
 10
284.541093
 20
225.386542
 30
0.0
  0
POINT
  5
A9
330
A0
100
AcDbEntity
  8
Defpoints
 62
     0
100
AcDbPoint
 10
284.541093
 20
267.277
 30
0.0
  0
ENDBLK
  5
AB
330
A0
100
AcDbEntity
  8
0
100
AcDbBlockEnd
  0
BLOCK
  5
162
330
161
100
AcDbEntity
  8
0
100
AcDbBlockBegin
  2
KLON1
 70
     0
 71
     0
 10
0.0
 20
0.0
 30
0.0
  3
KLON1
  1

  4
KLON1
  0
LINE
  5
164
330
161
100
AcDbEntity
  8
LC-001-100-D00-0
 62
     7
370
    15
100
AcDbLine
 10
181.43205
 20
142.48675
 30
0.0
 11
181.246106
 21
142.54579
 31
0.0
  0
LINE
  5
165
330
161
100
AcDbEntity
  8
LC-001-100-D00-0
 62
     7
370
    15
100
AcDbLine
 10
181.246106
 20
142.54579
 30
0.0
 11
181.06731
 21
142.602562
 31
0.0
  0
LINE
  5
166
330
161
100
AcDbEntity
  8
LC-001-100-D00-0
 62
     7
370
    15
100
AcDbLine
 10
181.06731
 20
142.602562
 30
0.0
 11
180.90253
 21
142.654883
 31
0.0
  0
LINE
  5
167
330
161
100
AcDbEntity
  8
LC-001-100-D00-0
 62
     7
370
    15
100
AcDbLine
 10
180.90253
 20
142.654883
 30
0.0
 11
180.7581
 21
142.700743
 31
0.0
  0
LINE
  5
168
330
161
100
AcDbEntity
  8
LC-001-100-D00-0
 62
     7
370
    15
100
AcDbLine
 10
180.7581
 20
142.700743
 30
0.0
 11
180.639569
 21
142.738379
 31
0.0
  0
LINE
  5
169
330
161
100
AcDbEntity
  8
LC-001-100-D00-0
 62
     7
370
    15
100
AcDbLine
 10
180.639569
 20
142.738379
 30
0.0
 11
180.551492
 21
142.766345
 31
0.0
  0
LINE
  5
16A
330
161
100
AcDbEntity
  8
LC-001-100-D00-0
 62
     7
370
    15
100
AcDbLine
 10
180.551492
 20
142.766345
 30
0.0
 11
180.497255
 21
142.783566
 31
0.0
  0
LINE
  5
16B
330
161
100
AcDbEntity
  8
LC-001-100-D00-0
 62
     7
370
    15
100
AcDbLine
 10
180.497255
 20
142.783566
 30
0.0
 11
180.478942
 21
142.789381
 31
0.0
  0
ENDBLK
  5
163
330
161
100
AcDbEntity
  8
0
100
AcDbBlockEnd
  0
BLOCK
  5
173
330
172
100
AcDbEntity
  8
0
100
AcDbBlockBegin
  2
KLON2
 70
     0
 71
     0
 10
0.0
 20
0.0
 30
0.0
  3
KLON2
  1

  4
KLON2
  0
LINE
  5
175
330
172
100
AcDbEntity
  8
LC-001-100-D00-0
 62
     7
370
    15
100
AcDbLine
 10
279.603247
 20
142.789381
 30
0.0
 11
279.584933
 21
142.783566
 31
0.0
  0
LINE
  5
176
330
172
100
AcDbEntity
  8
LC-001-100-D00-0
 62
     7
370
    15
100
AcDbLine
 10
279.584933
 20
142.783566
 30
0.0
 11
279.530693
 21
142.766345
 31
0.0
  0
LINE
  5
177
330
172
100
AcDbEntity
  8
LC-001-100-D00-0
 62
     7
370
    15
100
AcDbLine
 10
279.530693
 20
142.766345
 30
0.0
 11
279.44262
 21
142.738379
 31
0.0
  0
LINE
  5
178
330
172
100
AcDbEntity
  8
LC-001-100-D00-0
 62
     7
370
    15
100
AcDbLine
 10
279.44262
 20
142.738379
 30
0.0
 11
279.324088
 21
142.700743
 31
0.0
  0
LINE
  5
179
330
172
100
AcDbEntity
  8
LC-001-100-D00-0
 62
     7
370
    15
100
AcDbLine
 10
279.324088
 20
142.700743
 30
0.0
 11
279.179655
 21
142.654883
 31
0.0
  0
LINE
  5
17A
330
172
100
AcDbEntity
  8
LC-001-100-D00-0
 62
     7
370
    15
100
AcDbLine
 10
279.179655
 20
142.654883
 30
0.0
 11
279.014878
 21
142.602562
 31
0.0
  0
LINE
  5
17B
330
172
100
AcDbEntity
  8
LC-001-100-D00-0
 62
     7
370
    15
100
AcDbLine
 10
279.014878
 20
142.602562
 30
0.0
 11
278.836079
 21
142.54579
 31
0.0
  0
LINE
  5
17C
330
172
100
AcDbEntity
  8
LC-001-100-D00-0
 62
     7
370
    15
100
AcDbLine
 10
278.836079
 20
142.54579
 30
0.0
 11
278.650139
 21
142.48675
 31
0.0
  0
ENDBLK
  5
174
330
172
100
AcDbEntity
  8
0
100
AcDbBlockEnd
  0
BLOCK
  5
1A0
330
194
100
AcDbEntity
  8
0
100
AcDbBlockBegin
  2
*D4
 70
     1
 71
     0
 10
0.0
 20
0.0
 30
0.0
  3
*D4
  1

  0
LINE
  5
195
330
194
100
AcDbEntity
  8
LC-001-100-D00-0
 62
     2
370
    -2
100
AcDbLine
 10
260.541093
 20
160.73675
 30
0.0
 11
337.844001
 21
160.73675
 31
0.0
  0
LINE
  5
196
330
194
100
AcDbEntity
  8
LC-001-100-D00-0
 62
     2
370
    -2
100
AcDbLine
 10
260.541093
 20
112.73675
 30
0.0
 11
337.844001
 21
112.73675
 31
0.0
  0
LINE
  5
197
330
194
100
AcDbEntity
  8
LC-001-100-D00-0
 62
     2
370
    -2
100
AcDbLine
 10
334.244001
 20
188.73675
 30
0.0
 11
334.244001
 21
216.73675
 31
0.0
  0
LINE
  5
198
330
194
100
AcDbEntity
  8
LC-001-100-D00-0
 62
     2
370
    -2
100
AcDbLine
 10
334.244001
 20
84.73675
 30
0.0
 11
334.244001
 21
56.73675
 31
0.0
  0
LINE
  5
199
330
194
100
AcDbEntity
  8
LC-001-100-D00-0
 62
     2
370
    -2
100
AcDbLine
 10
334.244001
 20
160.73675
 30
0.0
 11
334.244001
 21
112.73675
 31
0.0
  0
SOLID
  5
19A
330
194
100
AcDbEntity
  8
LC-001-100-D00-0
 62
     2
100
AcDbTrace
 10
329.577334
 20
188.73675
 30
0.0
 11
338.910667
 21
188.73675
 31
0.0
 12
334.244001
 22
160.73675
 32
0.0
 13
334.244001
 23
160.73675
 33
0.0
  0
SOLID
  5
19B
330
194
100
AcDbEntity
  8
LC-001-100-D00-0
 62
     2
100
AcDbTrace
 10
338.910667
 20
84.73675
 30
0.0
 11
329.577334
 21
84.73675
 31
0.0
 12
334.244001
 22
112.73675
 32
0.0
 13
334.244001
 23
112.73675
 33
0.0
  0
MTEXT
  5
19C
330
194
100
AcDbEntity
  8
LC-001-100-D00-0
 62
     2
100
AcDbMText
 10
303.444001
 20
149.071
 30
0.0
 40
28.0
 41
0.0
 71
     5
 72
     1
  1
\A1;48
  7
LCTX15-400-0-0pDIN-Schrift
 11
6.123031769111886E-17
 21
1.0
 31
0.0
 73
     1
 44
1.0
  0
POINT
  5
19D
330
194
100
AcDbEntity
  8
Defpoints
 62
     0
100
AcDbPoint
 10
260.541093
 20
160.73675
 30
0.0
  0
POINT
  5
19E
330
194
100
AcDbEntity
  8
Defpoints
 62
     0
100
AcDbPoint
 10
260.541093
 20
112.73675
 30
0.0
  0
POINT
  5
19F
330
194
100
AcDbEntity
  8
Defpoints
 62
     0
100
AcDbPoint
 10
334.244001
 20
112.73675
 30
0.0
  0
ENDBLK
  5
1A1
330
194
100
AcDbEntity
  8
0
100
AcDbBlockEnd
  0
BLOCK
  5
1D8
330
1D7
100
AcDbEntity
  8
0
100
AcDbBlockBegin
  2
KLON3
 70
     0
 71
     0
 10
0.0
 20
0.0
 30
0.0
  3
KLON3
  1

  4
KLON3
  0
LINE
  5
1DA
330
1D7
100
AcDbEntity
  8
LC-001-100-D00-0
 62
     7
370
    50
100
AcDbLine
 10
128.114813
 20
195.466734
 30
0.0
 11
129.614813
 21
196.966734
 31
0.0
  0
LINE
  5
1DB
330
1D7
100
AcDbEntity
  8
LC-001-100-D00-0
 62
     7
370
    50
100
AcDbLine
 10
128.114813
 20
199.956862
 30
0.0
 11
129.614813
 21
201.456862
 31
0.0
  0
LINE
  5
1DC
330
1D7
100
AcDbEntity
  8
LC-001-100-D00-0
 62
     7
370
    50
100
AcDbLine
 10
128.114813
 20
204.44699
 30
0.0
 11
129.614813
 21
205.94699
 31
0.0
  0
LINE
  5
1DD
330
1D7
100
AcDbEntity
  8
LC-001-100-D00-0
 62
     7
370
    50
100
AcDbLine
 10
128.114813
 20
208.937118
 30
0.0
 11
129.614813
 21
210.437118
 31
0.0
  0
LINE
  5
1DE
330
1D7
100
AcDbEntity
  8
LC-001-100-D00-0
 62
     7
370
    50
100
AcDbLine
 10
128.114813
 20
213.427246
 30
0.0
 11
129.614813
 21
214.927246
 31
0.0
  0
LINE
  5
1DF
330
1D7
100
AcDbEntity
  8
LC-001-100-D00-0
 62
     7
370
    50
100
AcDbLine
 10
128.114813
 20
217.917374
 30
0.0
 11
129.614813
 21
219.417374
 31
0.0
  0
LINE
  5
1E0
330
1D7
100
AcDbEntity
  8
LC-001-100-D00-0
 62
     7
370
    50
100
AcDbLine
 10
128.114813
 20
222.407502
 30
0.0
 11
129.614813
 21
223.907502
 31
0.0
  0
LINE
  5
1E1
330
1D7
100
AcDbEntity
  8
LC-001-100-D00-0
 62
     7
370
    50
100
AcDbLine
 10
128.114813
 20
226.89763
 30
0.0
 11
129.614813
 21
228.39763
 31
0.0
  0
LINE
  5
1E2
330
1D7
100
AcDbEntity
  8
LC-001-100-D00-0
 62
     7
370
    50
100
AcDbLine
 10
128.114813
 20
231.387758
 30
0.0
 11
129.614813
 21
232.887758
 31
0.0
  0
LINE
  5
1E3
330
1D7
100
AcDbEntity
  8
LC-001-100-D00-0
 62
     7
370
    50
100
AcDbLine
 10
126.123468
 20
233.886542
 30
0.0
 11
127.623468
 21
235.386542
 31
0.0
  0
LINE
  5
1E4
330
1D7
100
AcDbEntity
  8
LC-001-100-D00-0
 62
     7
370
    50
100
AcDbLine
 10
121.63334
 20
233.886542
 30
0.0
 11
123.13334
 21
235.386542
 31
0.0
  0
LINE
  5
1E5
330
1D7
100
AcDbEntity
  8
LC-001-100-D00-0
 62
     7
370
    50
100
AcDbLine
 10
102.143212
 20
218.886542
 30
0.0
 11
104.364813
 21
221.108143
 31
0.0
  0
LINE
  5
1E6
330
1D7
100
AcDbEntity
  8
LC-001-100-D00-0
 62
     7
370
    50
100
AcDbLine
 10
117.143212
 20
233.886542
 30
0.0
 11
118.643212
 21
235.386542
 31
0.0
  0
LINE
  5
1E7
330
1D7
100
AcDbEntity
  8
LC-001-100-D00-0
 62
     7
370
    50
100
AcDbLine
 10
98.864813
 20
220.098271
 30
0.0
 11
99.153084
 21
220.386542
 31
0.0
  0
LINE
  5
1E8
330
1D7
100
AcDbEntity
  8
LC-001-100-D00-0
 62
     7
370
    50
100
AcDbLine
 10
101.164813
 20
222.398271
 30
0.0
 11
104.364813
 21
225.598271
 31
0.0
  0
LINE
  5
1E9
330
1D7
100
AcDbEntity
  8
LC-001-100-D00-0
 62
     7
370
    50
100
AcDbLine
 10
112.653084
 20
233.886542
 30
0.0
 11
114.153084
 21
235.386542
 31
0.0
  0
LINE
  5
1EA
330
1D7
100
AcDbEntity
  8
LC-001-100-D00-0
 62
     7
370
    50
100
AcDbLine
 10
98.864813
 20
224.588399
 30
0.0
 11
99.662956
 21
225.386542
 31
0.0
  0
LINE
  5
1EB
330
1D7
100
AcDbEntity
  8
LC-001-100-D00-0
 62
     7
370
    50
100
AcDbLine
 10
102.864813
 20
228.588399
 30
0.0
 11
104.364813
 21
230.088399
 31
0.0
  0
LINE
  5
1EC
330
1D7
100
AcDbEntity
  8
LC-001-100-D00-0
 62
     7
370
    50
100
AcDbLine
 10
108.162956
 20
233.886542
 30
0.0
 11
109.662956
 21
235.386542
 31
0.0
  0
LINE
  5
1ED
330
1D7
100
AcDbEntity
  8
LC-001-100-D00-0
 62
     7
370
    50
100
AcDbLine
 10
102.864813
 20
233.078527
 30
0.0
 11
105.172828
 21
235.386542
 31
0.0
  0
ENDBLK
  5
1D9
330
1D7
100
AcDbEntity
  8
0
100
AcDbBlockEnd
  0
BLOCK
  5
1F0
330
1EF
100
AcDbEntity
  8
0
100
AcDbBlockBegin
  2
KLON4
 70
     0
 71
     0
 10
0.0
 20
0.0
 30
0.0
  3
KLON4
  1

  4
KLON4
  0
LINE
  5
1F2
330
1EF
100
AcDbEntity
  8
LC-001-100-D00-0
 62
     7
370
    50
100
AcDbLine
 10
141.364813
 20
195.24635
 30
0.0
 11
142.864813
 21
196.74635
 31
0.0
  0
LINE
  5
1F3
330
1EF
100
AcDbEntity
  8
LC-001-100-D00-0
 62
     7
370
    50
100
AcDbLine
 10
141.364813
 20
199.736478
 30
0.0
 11
142.864813
 21
201.236478
 31
0.0
  0
LINE
  5
1F4
330
1EF
100
AcDbEntity
  8
LC-001-100-D00-0
 62
     7
370
    50
100
AcDbLine
 10
141.364813
 20
204.226606
 30
0.0
 11
142.864813
 21
205.726606
 31
0.0
  0
LINE
  5
1F5
330
1EF
100
AcDbEntity
  8
LC-001-100-D00-0
 62
     7
370
    50
100
AcDbLine
 10
141.364813
 20
208.716734
 30
0.0
 11
142.864813
 21
210.216734
 31
0.0
  0
LINE
  5
1F6
330
1EF
100
AcDbEntity
  8
LC-001-100-D00-0
 62
     7
370
    50
100
AcDbLine
 10
141.364813
 20
213.206862
 30
0.0
 11
142.864813
 21
214.706862
 31
0.0
  0
LINE
  5
1F7
330
1EF
100
AcDbEntity
  8
LC-001-100-D00-0
 62
     7
370
    50
100
AcDbLine
 10
141.364813
 20
217.69699
 30
0.0
 11
144.564813
 21
220.89699
 31
0.0
  0
LINE
  5
1F8
330
1EF
100
AcDbEntity
  8
LC-001-100-D00-0
 62
     7
370
    50
100
AcDbLine
 10
141.364813
 20
222.187118
 30
0.0
 11
144.564237
 21
225.386542
 31
0.0
  0
ENDBLK
  5
1F1
330
1EF
100
AcDbEntity
  8
0
100
AcDbBlockEnd
  0
BLOCK
  5
209
330
1FD
100
AcDbEntity
  8
0
100
AcDbBlockBegin
  2
*D7
 70
     1
 71
     0
 10
0.0
 20
0.0
 30
0.0
  3
*D7
  1

  0
LINE
  5
1FE
330
1FD
100
AcDbEntity
  8
LC-001-100-D00-0
 62
     2
370
    -2
100
AcDbLine
 10
128.114813
 20
194.886542
 30
0.0
 11
86.443893
 21
194.886542
 31
0.0
  0
LINE
  5
1FF
330
1FD
100
AcDbEntity
  8
LC-001-100-D00-0
 62
     2
370
    -2
100
AcDbLine
 10
98.864813
 20
218.886542
 30
0.0
 11
86.443893
 21
218.886542
 31
0.0
  0
LINE
  5
200
330
1FD
100
AcDbEntity
  8
LC-001-100-D00-0
 62
     2
370
    -2
100
AcDbLine
 10
90.043893
 20
166.886542
 30
0.0
 11
90.043893
 21
138.886542
 31
0.0
  0
LINE
  5
201
330
1FD
100
AcDbEntity
  8
LC-001-100-D00-0
 62
     2
370
    -2
100
AcDbLine
 10
90.043893
 20
246.886542
 30
0.0
 11
90.043893
 21
274.886542
 31
0.0
  0
LINE
  5
202
330
1FD
100
AcDbEntity
  8
LC-001-100-D00-0
 62
     2
370
    -2
100
AcDbLine
 10
90.043893
 20
194.886542
 30
0.0
 11
90.043893
 21
218.886542
 31
0.0
  0
SOLID
  5
203
330
1FD
100
AcDbEntity
  8
LC-001-100-D00-0
 62
     2
100
AcDbTrace
 10
94.710559
 20
166.886542
 30
0.0
 11
85.377226
 21
166.886542
 31
0.0
 12
90.043893
 22
194.886542
 32
0.0
 13
90.043893
 23
194.886542
 33
0.0
  0
SOLID
  5
204
330
1FD
100
AcDbEntity
  8
LC-001-100-D00-0
 62
     2
100
AcDbTrace
 10
85.377226
 20
246.886542
 30
0.0
 11
94.710559
 21
246.886542
 31
0.0
 12
90.043893
 22
218.886542
 32
0.0
 13
90.043893
 23
218.886542
 33
0.0
  0
MTEXT
  5
205
330
1FD
100
AcDbEntity
  8
LC-001-100-D00-0
 62
     2
100
AcDbMText
 10
59.243893
 20
208.187603
 30
0.0
 40
28.0
 41
0.0
 71
     5
 72
     1
  1
\A1;24
  7
LCTX15-400-0-0pDIN-Schrift
 11
6.123031769111886E-17
 21
1.0
 31
0.0
 73
     1
 44
1.0
  0
POINT
  5
206
330
1FD
100
AcDbEntity
  8
Defpoints
 62
     0
100
AcDbPoint
 10
128.114813
 20
194.886542
 30
0.0
  0
POINT
  5
207
330
1FD
100
AcDbEntity
  8
Defpoints
 62
     0
100
AcDbPoint
 10
98.864813
 20
218.886542
 30
0.0
  0
POINT
  5
208
330
1FD
100
AcDbEntity
  8
Defpoints
 62
     0
100
AcDbPoint
 10
90.043893
 20
218.886542
 30
0.0
  0
ENDBLK
  5
20A
330
1FD
100
AcDbEntity
  8
0
100
AcDbBlockEnd
  0
BLOCK
  5
218
330
20D
100
AcDbEntity
  8
0
100
AcDbBlockBegin
  2
*D8
 70
     1
 71
     0
 10
0.0
 20
0.0
 30
0.0
  3
*D8
  1

  0
LINE
  5
20E
330
20D
100
AcDbEntity
  8
LC-001-100-D00-0
 62
     2
370
    -2
100
AcDbLine
 10
128.114813
 20
194.886542
 30
0.0
 11
46.754465
 21
194.886542
 31
0.0
  0
LINE
  5
20F
330
20D
100
AcDbEntity
  8
LC-001-100-D00-0
 62
     2
370
    -2
100
AcDbLine
 10
103.864813
 20
235.386542
 30
0.0
 11
46.754465
 21
235.386542
 31
0.0
  0
LINE
  5
210
330
20D
100
AcDbEntity
  8
LC-001-100-D00-0
 62
     2
370
    -2
100
AcDbLine
 10
50.354465
 20
166.886542
 30
0.0
 11
50.354465
 21
138.886542
 31
0.0
  0
LINE
  5
211
330
20D
100
AcDbEntity
  8
LC-001-100-D00-0
 62
     2
370
    -2
100
AcDbLine
 10
50.354465
 20
263.386542
 30
0.0
 11
50.354465
 21
277.332526
 31
0.0
  0
SOLID
  5
212
330
20D
100
AcDbEntity
  8
LC-001-100-D00-0
 62
     2
100
AcDbTrace
 10
55.021131
 20
166.886542
 30
0.0
 11
45.687798
 21
166.886542
 31
0.0
 12
50.354465
 22
194.886542
 32
0.0
 13
50.354465
 23
194.886542
 33
0.0
  0
SOLID
  5
213
330
20D
100
AcDbEntity
  8
LC-001-100-D00-0
 62
     2
100
AcDbTrace
 10
45.687798
 20
263.386542
 30
0.0
 11
55.021131
 21
263.386542
 31
0.0
 12
50.354465
 22
235.386542
 32
0.0
 13
50.354465
 23
235.386542
 33
0.0
  0
MTEXT
  5
214
330
20D
100
AcDbEntity
  8
LC-001-100-D00-0
 62
     2
100
AcDbMText
 10
19.554465
 20
238.765
 30
0.0
 40
28.0
 41
0.0
 71
     5
 72
     1
  1
\A1;40,5
  7
LCTX15-400-0-0pDIN-Schrift
 11
6.123031769111886E-17
 21
1.0
 31
0.0
 73
     1
 44
1.0
  0
POINT
  5
215
330
20D
100
AcDbEntity
  8
Defpoints
 62
     0
100
AcDbPoint
 10
128.114813
 20
194.886542
 30
0.0
  0
POINT
  5
216
330
20D
100
AcDbEntity
  8
Defpoints
 62
     0
100
AcDbPoint
 10
103.864813
 20
235.386542
 30
0.0
  0
POINT
  5
217
330
20D
100
AcDbEntity
  8
Defpoints
 62
     0
100
AcDbPoint
 10
50.354465
 20
235.386542
 30
0.0
  0
ENDBLK
  5
219
330
20D
100
AcDbEntity
  8
0
100
AcDbBlockEnd
  0
ENDSEC
  0
SECTION
  2
ENTITIES
  0
LINE
  5
31
330
1F
100
AcDbEntity
  8
LC-001-100-D00-0
 62
     7
370
    50
100
AcDbLine
 10
175.541092
 20
225.386542
 30
0.0
 11
175.541092
 21
223.886542
 31
0.0
  0
LINE
  5
32
330
1F
100
AcDbEntity
  8
LC-001-100-D00-0
 62
     7
370
    50
100
AcDbLine
 10
284.541093
 20
218.886542
 30
0.0
 11
284.541093
 21
220.386542
 31
0.0
  0
LINE
  5
33
330
1F
100
AcDbEntity
  8
LC-001-100-D00-0
 62
     7
370
    50
100
AcDbLine
 10
175.541092
 20
220.386542
 30
0.0
 11
175.541092
 21
218.886542
 31
0.0
  0
LINE
  5
34
330
1F
100
AcDbEntity
  8
LC-001-100-D00-0
 62
     7
370
    50
100
AcDbLine
 10
284.541093
 20
223.886542
 30
0.0
 11
284.541093
 21
225.386542
 31
0.0
  0
LINE
  5
35
330
1F
100
AcDbEntity
  8
LC-001-100-D00-0
 62
     7
370
    50
100
AcDbLine
 10
179.541092
 20
234.386542
 30
0.0
 11
179.541092
 21
225.386542
 31
0.0
  0
ARC
  5
36
330
1F
100
AcDbEntity
  8
LC-001-100-D00-0
 62
     7
370
    50
100
AcDbCircle
 10
180.541093
 20
234.386542
 30
0.0
 40
1.0
100
AcDbArc
 50
90.0
 51
180.0
  0
ARC
  5
37
330
1F
100
AcDbEntity
  8
LC-001-100-D00-0
 62
     7
370
    50
100
AcDbCircle
 10
279.541093
 20
234.386542
 30
0.0
 40
1.0
100
AcDbArc
 50
0.0
 51
90.0
  0
LINE
  5
38
330
1F
100
AcDbEntity
  8
LC-001-100-D00-0
 62
     7
370
    50
100
AcDbLine
 10
280.541092
 20
225.386542
 30
0.0
 11
280.541092
 21
234.386542
 31
0.0
  0
LINE
  5
39
330
1F
100
AcDbEntity
  8
LC-001-100-D00-0
 62
     7
370
    50
100
AcDbLine
 10
219.867557
 20
235.386542
 30
0.0
 11
219.867557
 21
235.486542
 31
0.0
  0
LINE
  5
3A
330
1F
100
AcDbEntity
  8
LC-001-100-D00-0
 62
     7
370
    50
100
AcDbLine
 10
214.128405
 20
235.486542
 30
0.0
 11
214.128405
 21
235.386542
 31
0.0
  0
LINE
  5
3B
330
1F
100
AcDbEntity
  8
LC-001-100-D00-0
 62
     7
370
    50
100
AcDbLine
 10
231.041093
 20
245.886543
 30
0.0
 11
229.041093
 21
245.886543
 31
0.0
  0
ARC
  5
3C
330
1F
100
AcDbEntity
  8
LC-001-100-D00-0
 62
     7
370
    50
100
AcDbCircle
 10
284.291093
 20
222.136542
 30
0.0
 40
1.75
100
AcDbArc
 50
270.0
 51
90.0
  0
ARC
  5
3D
330
1F
100
AcDbEntity
  8
LC-001-100-D00-0
 62
     7
370
    50
100
AcDbCircle
 10
175.791093
 20
222.136542
 30
0.0
 40
1.75
100
AcDbArc
 50
90.0
 51
270.0
  0
LINE
  5
3E
330
1F
100
AcDbEntity
  8
LC-001-100-D00-0
 62
     7
370
    50
100
AcDbLine
 10
199.541092
 20
223.886542
 30
0.0
 11
199.541092
 21
225.386542
 31
0.0
  0
LINE
  5
3F
330
1F
100
AcDbEntity
  8
LC-001-100-D00-0
 62
     7
370
    50
100
AcDbLine
 10
175.541092
 20
223.886542
 30
0.0
 11
199.541092
 21
223.886542
 31
0.0
  0
LINE
  5
40
330
1F
100
AcDbEntity
  8
LC-001-100-D00-0
 62
     7
370
    50
100
AcDbLine
 10
175.541092
 20
225.386542
 30
0.0
 11
199.541092
 21
225.386542
 31
0.0
  0
LINE
  5
41
330
1F
100
AcDbEntity
  8
LC-001-100-D00-0
 62
     7
370
    50
100
AcDbLine
 10
284.541093
 20
218.886542
 30
0.0
 11
260.541093
 21
218.886542
 31
0.0
  0
LINE
  5
42
330
1F
100
AcDbEntity
  8
LC-001-100-D00-0
 62
     7
370
    50
100
AcDbLine
 10
260.541093
 20
218.886542
 30
0.0
 11
260.541093
 21
220.386542
 31
0.0
  0
LINE
  5
43
330
1F
100
AcDbEntity
  8
LC-001-100-D00-0
 62
     7
370
    50
100
AcDbLine
 10
284.541093
 20
220.386542
 30
0.0
 11
260.541093
 21
220.386542
 31
0.0
  0
LINE
  5
44
330
1F
100
AcDbEntity
  8
LC-001-100-D00-0
 62
     7
370
    50
100
AcDbLine
 10
260.541093
 20
218.886542
 30
0.0
 11
199.541092
 21
218.886542
 31
0.0
  0
LINE
  5
45
330
1F
100
AcDbEntity
  8
LC-001-100-D00-0
 62
     7
370
    50
100
AcDbLine
 10
199.541092
 20
218.886542
 30
0.0
 11
199.541092
 21
220.386542
 31
0.0
  0
LINE
  5
46
330
1F
100
AcDbEntity
  8
LC-001-100-D00-0
 62
     7
370
    50
100
AcDbLine
 10
260.541093
 20
220.386542
 30
0.0
 11
199.541092
 21
220.386542
 31
0.0
  0
LINE
  5
47
330
1F
100
AcDbEntity
  8
LC-001-100-D00-0
 62
     7
370
    50
100
AcDbLine
 10
199.541092
 20
218.886542
 30
0.0
 11
175.541092
 21
218.886542
 31
0.0
  0
LINE
  5
48
330
1F
100
AcDbEntity
  8
LC-001-100-D00-0
 62
     7
370
    50
100
AcDbLine
 10
199.541092
 20
220.386542
 30
0.0
 11
175.541092
 21
220.386542
 31
0.0
  0
LINE
  5
49
330
1F
100
AcDbEntity
  8
LC-001-100-D00-0
 62
     7
370
    50
100
AcDbLine
 10
260.541093
 20
223.886542
 30
0.0
 11
260.541093
 21
225.386542
 31
0.0
  0
LINE
  5
4A
330
1F
100
AcDbEntity
  8
LC-001-100-D00-0
 62
     7
370
    50
100
AcDbLine
 10
199.541092
 20
223.886542
 30
0.0
 11
260.541093
 21
223.886542
 31
0.0
  0
LINE
  5
4B
330
1F
100
AcDbEntity
  8
LC-001-100-D00-0
 62
     7
370
    50
100
AcDbLine
 10
199.541092
 20
225.386542
 30
0.0
 11
260.541093
 21
225.386542
 31
0.0
  0
LINE
  5
4C
330
1F
100
AcDbEntity
  8
LC-001-100-D00-0
 62
     7
370
    50
100
AcDbLine
 10
260.541093
 20
223.886542
 30
0.0
 11
284.541093
 21
223.886542
 31
0.0
  0
LINE
  5
4D
330
1F
100
AcDbEntity
  8
LC-001-100-D00-0
 62
     7
370
    50
100
AcDbLine
 10
260.541093
 20
225.386542
 30
0.0
 11
284.541093
 21
225.386542
 31
0.0
  0
LINE
  5
4E
330
1F
100
AcDbEntity
  8
LC-001-100-D00-0
 62
     7
370
    50
100
AcDbLine
 10
199.541092
 20
234.386542
 30
0.0
 11
199.541092
 21
225.386542
 31
0.0
  0
LINE
  5
4F
330
1F
100
AcDbEntity
  8
LC-001-100-D00-0
 62
     7
370
    50
100
AcDbLine
 10
260.541093
 20
234.386542
 30
0.0
 11
199.541092
 21
234.386542
 31
0.0
  0
LINE
  5
50
330
1F
100
AcDbEntity
  8
LC-001-100-D00-0
 62
     7
370
    50
100
AcDbLine
 10
260.541093
 20
234.386542
 30
0.0
 11
260.541093
 21
225.386542
 31
0.0
  0
LINE
  5
51
330
1F
100
AcDbEntity
  8
LC-001-100-D00-0
 62
     7
370
    50
100
AcDbLine
 10
199.541092
 20
235.386542
 30
0.0
 11
260.541093
 21
235.386542
 31
0.0
  0
LINE
  5
52
330
1F
100
AcDbEntity
  8
LC-001-100-D00-0
 62
     7
370
    50
100
AcDbLine
 10
260.541093
 20
235.386542
 30
0.0
 11
260.541093
 21
234.386542
 31
0.0
  0
LINE
  5
53
330
1F
100
AcDbEntity
  8
LC-001-100-D00-0
 62
     7
370
    50
100
AcDbLine
 10
199.541092
 20
235.386542
 30
0.0
 11
199.541092
 21
234.386542
 31
0.0
  0
LINE
  5
54
330
1F
100
AcDbEntity
  8
LC-001-100-D00-0
 62
     7
370
    50
100
AcDbLine
 10
180.541094
 20
235.386542
 30
0.0
 11
199.541092
 21
235.386542
 31
0.0
  0
LINE
  5
55
330
1F
100
AcDbEntity
  8
LC-001-100-D00-0
 62
     7
370
    50
100
AcDbLine
 10
260.541093
 20
235.386542
 30
0.0
 11
279.541094
 21
235.386542
 31
0.0
  0
LINE
  5
56
330
1F
100
AcDbEntity
  8
LC-001-100-D00-0
 62
     7
370
    50
100
AcDbLine
 10
215.948768
 20
235.486542
 30
0.0
 11
215.948768
 21
235.386542
 31
0.0
  0
LINE
  5
57
330
1F
100
AcDbEntity
  8
LC-001-100-D00-0
 62
     7
370
    50
100
AcDbLine
 10
215.948768
 20
235.486542
 30
0.0
 11
216.096211
 21
235.486542
 31
0.0
  0
LINE
  5
58
330
1F
100
AcDbEntity
  8
LC-001-100-D00-0
 62
     7
370
    50
100
AcDbLine
 10
216.096211
 20
235.486542
 30
0.0
 11
216.096211
 21
235.386542
 31
0.0
  0
LINE
  5
59
330
1F
100
AcDbEntity
  8
LC-001-100-D00-0
 62
     7
370
    50
100
AcDbLine
 10
219.805628
 20
235.486542
 30
0.0
 11
219.805628
 21
235.386542
 31
0.0
  0
LINE
  5
5A
330
1F
100
AcDbEntity
  8
LC-001-100-D00-0
 62
     7
370
    50
100
AcDbLine
 10
219.805628
 20
235.486542
 30
0.0
 11
216.096211
 21
235.486542
 31
0.0
  0
LINE
  5
5B
330
1F
100
AcDbEntity
  8
LC-001-100-D00-0
 62
     7
370
    50
100
AcDbLine
 10
214.139566
 20
235.486542
 30
0.0
 11
214.139566
 21
235.386542
 31
0.0
  0
LINE
  5
5C
330
1F
100
AcDbEntity
  8
LC-001-100-D00-0
 62
     7
370
    50
100
AcDbLine
 10
215.948768
 20
235.486542
 30
0.0
 11
214.139566
 21
235.486542
 31
0.0
  0
LINE
  5
5D
330
1F
100
AcDbEntity
  8
LC-001-100-D00-0
 62
     7
370
    50
100
AcDbLine
 10
240.881369
 20
235.486542
 30
0.0
 11
240.881369
 21
235.386542
 31
0.0
  0
LINE
  5
5E
330
1F
100
AcDbEntity
  8
LC-001-100-D00-0
 62
     7
370
    50
100
AcDbLine
 10
241.924818
 20
235.486542
 30
0.0
 11
241.924818
 21
235.386542
 31
0.0
  0
LINE
  5
5F
330
1F
100
AcDbEntity
  8
LC-001-100-D00-0
 62
     7
370
    50
100
AcDbLine
 10
240.881369
 20
235.486542
 30
0.0
 11
241.924818
 21
235.486542
 31
0.0
  0
LINE
  5
60
330
1F
100
AcDbEntity
  8
LC-001-100-D00-0
 62
     7
370
    50
100
AcDbLine
 10
242.968267
 20
235.486542
 30
0.0
 11
242.968267
 21
235.386542
 31
0.0
  0
LINE
  5
61
330
1F
100
AcDbEntity
  8
LC-001-100-D00-0
 62
     7
370
    50
100
AcDbLine
 10
244.011716
 20
235.486542
 30
0.0
 11
244.011716
 21
235.386542
 31
0.0
  0
LINE
  5
62
330
1F
100
AcDbEntity
  8
LC-001-100-D00-0
 62
     7
370
    50
100
AcDbLine
 10
242.968267
 20
235.486542
 30
0.0
 11
244.011716
 21
235.486542
 31
0.0
  0
LINE
  5
63
330
1F
100
AcDbEntity
  8
LC-001-100-D00-0
 62
     7
370
    50
100
AcDbLine
 10
222.533233
 20
235.486542
 30
0.0
 11
222.533233
 21
235.386542
 31
0.0
  0
LINE
  5
64
330
1F
100
AcDbEntity
  8
LC-001-100-D00-0
 62
     7
370
    50
100
AcDbLine
 10
223.333214
 20
235.486542
 30
0.0
 11
223.333214
 21
235.386542
 31
0.0
  0
LINE
  5
65
330
1F
100
AcDbEntity
  8
LC-001-100-D00-0
 62
     7
370
    50
100
AcDbLine
 10
222.533233
 20
235.486542
 30
0.0
 11
223.333214
 21
235.486542
 31
0.0
  0
LINE
  5
66
330
1F
100
AcDbEntity
  8
LC-001-100-D00-0
 62
     7
370
    50
100
AcDbLine
 10
220.476145
 20
235.486542
 30
0.0
 11
220.476145
 21
235.386542
 31
0.0
  0
LINE
  5
67
330
1F
100
AcDbEntity
  8
LC-001-100-D00-0
 62
     7
370
    50
100
AcDbLine
 10
220.476145
 20
235.486542
 30
0.0
 11
222.533233
 21
235.486542
 31
0.0
  0
LINE
  5
68
330
1F
100
AcDbEntity
  8
LC-001-100-D00-0
 62
     7
370
    50
100
AcDbLine
 10
234.330828
 20
235.486542
 30
0.0
 11
234.330828
 21
235.386542
 31
0.0
  0
LINE
  5
69
330
1F
100
AcDbEntity
  8
LC-001-100-D00-0
 62
     7
370
    50
100
AcDbLine
 10
234.330828
 20
235.486542
 30
0.0
 11
235.432246
 21
235.486542
 31
0.0
  0
LINE
  5
6A
330
1F
100
AcDbEntity
  8
LC-001-100-D00-0
 62
     7
370
    50
100
AcDbLine
 10
235.432246
 20
235.486542
 30
0.0
 11
235.432246
 21
235.386542
 31
0.0
  0
LINE
  5
6B
330
1F
100
AcDbEntity
  8
LC-001-100-D00-0
 62
     7
370
    50
100
AcDbLine
 10
232.533777
 20
235.486542
 30
0.0
 11
232.533777
 21
235.386542
 31
0.0
  0
LINE
  5
6C
330
1F
100
AcDbEntity
  8
LC-001-100-D00-0
 62
     7
370
    50
100
AcDbLine
 10
233.577226
 20
235.486542
 30
0.0
 11
233.577226
 21
235.386542
 31
0.0
  0
LINE
  5
6D
330
1F
100
AcDbEntity
  8
LC-001-100-D00-0
 62
     7
370
    50
100
AcDbLine
 10
232.533777
 20
235.486542
 30
0.0
 11
233.577226
 21
235.486542
 31
0.0
  0
LINE
  5
6E
330
1F
100
AcDbEntity
  8
LC-001-100-D00-0
 62
     7
370
    50
100
AcDbLine
 10
230.041093
 20
235.486542
 30
0.0
 11
230.041093
 21
235.386542
 31
0.0
  0
LINE
  5
6F
330
1F
100
AcDbEntity
  8
LC-001-100-D00-0
 62
     7
370
    50
100
AcDbLine
 10
230.041093
 20
235.486542
 30
0.0
 11
232.359869
 21
235.486542
 31
0.0
  0
LINE
  5
70
330
1F
100
AcDbEntity
  8
LC-001-100-D00-0
 62
     7
370
    50
100
AcDbLine
 10
232.359869
 20
235.486542
 30
0.0
 11
232.359869
 21
235.386542
 31
0.0
  0
LINE
  5
71
330
1F
100
AcDbEntity
  8
LC-001-100-D00-0
 62
     7
370
    50
100
AcDbLine
 10
237.693052
 20
235.486542
 30
0.0
 11
237.693052
 21
235.386542
 31
0.0
  0
LINE
  5
72
330
1F
100
AcDbEntity
  8
LC-001-100-D00-0
 62
     7
370
    50
100
AcDbLine
 10
237.693052
 20
235.486542
 30
0.0
 11
240.243706
 21
235.486542
 31
0.0
  0
LINE
  5
73
330
1F
100
AcDbEntity
  8
LC-001-100-D00-0
 62
     7
370
    50
100
AcDbLine
 10
240.243706
 20
235.486542
 30
0.0
 11
240.243706
 21
235.386542
 31
0.0
  0
LINE
  5
74
330
1F
100
AcDbEntity
  8
LC-001-100-D00-0
 62
     7
370
    50
100
AcDbLine
 10
227.54841
 20
235.486542
 30
0.0
 11
227.54841
 21
235.386542
 31
0.0
  0
LINE
  5
75
330
1F
100
AcDbEntity
  8
LC-001-100-D00-0
 62
     7
370
    50
100
AcDbLine
 10
227.54841
 20
235.486542
 30
0.0
 11
229.867185
 21
235.486542
 31
0.0
  0
LINE
  5
76
330
1F
100
AcDbEntity
  8
LC-001-100-D00-0
 62
     7
370
    50
100
AcDbLine
 10
229.867185
 20
235.486542
 30
0.0
 11
229.867185
 21
235.386542
 31
0.0
  0
LINE
  5
77
330
1F
100
AcDbEntity
  8
LC-001-100-D00-0
 62
     7
370
    50
100
AcDbLine
 10
225.925267
 20
235.486542
 30
0.0
 11
225.925267
 21
235.386542
 31
0.0
  0
LINE
  5
78
330
1F
100
AcDbEntity
  8
LC-001-100-D00-0
 62
     7
370
    50
100
AcDbLine
 10
225.925267
 20
235.486542
 30
0.0
 11
226.968716
 21
235.486542
 31
0.0
  0
LINE
  5
79
330
1F
100
AcDbEntity
  8
LC-001-100-D00-0
 62
     7
370
    50
100
AcDbLine
 10
226.968716
 20
235.486542
 30
0.0
 11
226.968716
 21
235.386542
 31
0.0
  0
LINE
  5
7A
330
1F
100
AcDbEntity
  8
LC-001-100-D00-0
 62
     7
370
    50
100
AcDbLine
 10
223.838368
 20
235.486542
 30
0.0
 11
223.838368
 21
235.386542
 31
0.0
  0
LINE
  5
7B
330
1F
100
AcDbEntity
  8
LC-001-100-D00-0
 62
     7
370
    50
100
AcDbLine
 10
223.838368
 20
235.486542
 30
0.0
 11
224.881819
 21
235.486542
 31
0.0
  0
LINE
  5
7C
330
1F
100
AcDbEntity
  8
LC-001-100-D00-0
 62
     7
370
    50
100
AcDbLine
 10
224.881819
 20
235.486542
 30
0.0
 11
224.881819
 21
235.386542
 31
0.0
  0
LINE
  5
7D
330
1F
100
AcDbEntity
  8
LC-001-100-D00-0
 62
     7
370
    50
100
AcDbLine
 10
236.185847
 20
235.486542
 30
0.0
 11
236.185847
 21
235.386542
 31
0.0
  0
LINE
  5
7E
330
1F
100
AcDbEntity
  8
LC-001-100-D00-0
 62
     7
370
    50
100
AcDbLine
 10
237.229297
 20
235.486542
 30
0.0
 11
237.229297
 21
235.386542
 31
0.0
  0
LINE
  5
7F
330
1F
100
AcDbEntity
  8
LC-001-100-D00-0
 62
     7
370
    50
100
AcDbLine
 10
236.185847
 20
235.486542
 30
0.0
 11
237.229297
 21
235.486542
 31
0.0
  0
LINE
  5
80
330
1F
100
AcDbEntity
  8
LC-001-100-D00-0
 62
     7
370
    50
100
AcDbLine
 10
219.805628
 20
235.486542
 30
0.0
 11
219.867557
 21
235.486542
 31
0.0
  0
LINE
  5
81
330
1F
100
AcDbEntity
  8
LC-001-100-D00-0
 62
     7
370
    50
100
AcDbLine
 10
242.794359
 20
235.486542
 30
0.0
 11
242.794359
 21
235.386542
 31
0.0
  0
LINE
  5
82
330
1F
100
AcDbEntity
  8
LC-001-100-D00-0
 62
     7
370
    50
100
AcDbLine
 10
242.968267
 20
235.486542
 30
0.0
 11
242.794359
 21
235.486542
 31
0.0
  0
LINE
  5
83
330
1F
100
AcDbEntity
  8
LC-001-100-D00-0
 62
     7
370
    50
100
AcDbLine
 10
241.924818
 20
235.486542
 30
0.0
 11
242.794359
 21
235.486542
 31
0.0
  0
LINE
  5
84
330
1F
100
AcDbEntity
  8
LC-001-100-D00-0
 62
     7
370
    50
100
AcDbLine
 10
224.881819
 20
235.486542
 30
0.0
 11
225.925267
 21
235.486542
 31
0.0
  0
LINE
  5
85
330
1F
100
AcDbEntity
  8
LC-001-100-D00-0
 62
     7
370
    50
100
AcDbLine
 10
214.128405
 20
235.486542
 30
0.0
 11
214.139566
 21
235.486542
 31
0.0
  0
LINE
  5
86
330
1F
100
AcDbEntity
  8
LC-001-100-D00-0
 62
     7
370
    50
100
AcDbLine
 10
234.214889
 20
235.486542
 30
0.0
 11
234.214889
 21
235.386542
 31
0.0
  0
LINE
  5
87
330
1F
100
AcDbEntity
  8
LC-001-100-D00-0
 62
     7
370
    50
100
AcDbLine
 10
234.330828
 20
235.486542
 30
0.0
 11
234.214889
 21
235.486542
 31
0.0
  0
LINE
  5
88
330
1F
100
AcDbEntity
  8
LC-001-100-D00-0
 62
     7
370
    50
100
AcDbLine
 10
235.548184
 20
235.486542
 30
0.0
 11
235.548184
 21
235.386542
 31
0.0
  0
LINE
  5
89
330
1F
100
AcDbEntity
  8
LC-001-100-D00-0
 62
     7
370
    50
100
AcDbLine
 10
235.548184
 20
235.486542
 30
0.0
 11
235.432246
 21
235.486542
 31
0.0
  0
LINE
  5
8A
330
1F
100
AcDbEntity
  8
LC-001-100-D00-0
 62
     7
370
    50
100
AcDbLine
 10
233.693165
 20
235.486542
 30
0.0
 11
233.693165
 21
235.386542
 31
0.0
  0
LINE
  5
8B
330
1F
100
AcDbEntity
  8
LC-001-100-D00-0
 62
     7
370
    50
100
AcDbLine
 10
233.693165
 20
235.486542
 30
0.0
 11
233.577226
 21
235.486542
 31
0.0
  0
LINE
  5
8C
330
1F
100
AcDbEntity
  8
LC-001-100-D00-0
 62
     7
370
    50
100
AcDbLine
 10
236.069909
 20
235.486542
 30
0.0
 11
236.069909
 21
235.386542
 31
0.0
  0
LINE
  5
8D
330
1F
100
AcDbEntity
  8
LC-001-100-D00-0
 62
     7
370
    50
100
AcDbLine
 10
236.185847
 20
235.486542
 30
0.0
 11
236.069909
 21
235.486542
 31
0.0
  0
LINE
  5
8E
330
1F
100
AcDbEntity
  8
LC-001-100-D00-0
 62
     7
370
    50
100
AcDbLine
 10
235.548184
 20
235.486542
 30
0.0
 11
236.069909
 21
235.486542
 31
0.0
  0
LINE
  5
8F
330
1F
100
AcDbEntity
  8
LC-001-100-D00-0
 62
     7
370
    50
100
AcDbLine
 10
233.693165
 20
235.486542
 30
0.0
 11
234.214889
 21
235.486542
 31
0.0
  0
LINE
  5
90
330
1F
100
AcDbEntity
  8
LC-001-100-D00-0
 62
     7
370
    50
100
AcDbLine
 10
279.839732
 20
218.886542
 30
0.0
 11
279.839732
 21
194.886542
 31
0.0
  0
LINE
  5
91
330
1F
100
AcDbEntity
  8
LC-001-100-D00-0
 62
     7
370
    50
100
AcDbLine
 10
180.242453
 20
194.886542
 30
0.0
 11
279.839732
 21
194.886542
 31
0.0
  0
LINE
  5
92
330
1F
100
AcDbEntity
  8
LC-001-100-D00-0
 62
     7
370
    50
100
AcDbLine
 10
180.242453
 20
194.886542
 30
0.0
 11
180.242453
 21
218.886542
 31
0.0
  0
LINE
  5
93
330
1F
100
AcDbEntity
  8
LC-001-100-D00-0
 62
     7
370
    50
100
AcDbLine
 10
231.041093
 20
245.886543
 30
0.0
 11
231.041093
 21
239.636541
 31
0.0
  0
LINE
  5
94
330
1F
100
AcDbEntity
  8
LC-001-100-D00-0
 62
     7
370
    50
100
AcDbLine
 10
231.041093
 20
239.636541
 30
0.0
 11
229.041093
 21
239.636541
 31
0.0
  0
LINE
  5
95
330
1F
100
AcDbEntity
  8
LC-001-100-D00-0
 62
     7
370
    50
100
AcDbLine
 10
229.041093
 20
245.886543
 30
0.0
 11
229.041093
 21
239.636541
 31
0.0
  0
LINE
  5
96
330
1F
100
AcDbEntity
  8
LC-001-100-D00-0
 62
     7
370
    50
100
AcDbLine
 10
231.041093
 20
239.636541
 30
0.0
 11
231.041093
 21
235.486542
 31
0.0
  0
LINE
  5
97
330
1F
100
AcDbEntity
  8
LC-001-100-D00-0
 62
     7
370
    50
100
AcDbLine
 10
229.041093
 20
239.636541
 30
0.0
 11
229.041093
 21
235.486542
 31
0.0
  0
LINE
  5
98
330
1F
100
AcDbEntity
  8
LC-001-100-D00-0
 62
     7
370
    50
100
AcDbLine
 10
199.541092
 20
234.386542
 30
0.0
 11
179.541092
 21
234.386542
 31
0.0
  0
LINE
  5
99
330
1F
100
AcDbEntity
  8
LC-001-100-D00-0
 62
     7
370
    50
100
AcDbLine
 10
280.541092
 20
234.386542
 30
0.0
 11
260.541093
 21
234.386542
 31
0.0
  0
LINE
  5
9A
330
1F
100
AcDbEntity
  8
LC-001-100-D00-0
 62
     7
370
    50
100
AcDbLine
 10
199.541092
 20
223.886542
 30
0.0
 11
199.541092
 21
220.386542
 31
0.0
  0
LINE
  5
9B
330
1F
100
AcDbEntity
  8
LC-001-100-D00-0
 62
     7
370
    50
100
AcDbLine
 10
260.541093
 20
223.886542
 30
0.0
 11
260.541093
 21
220.386542
 31
0.0
  0
DIMENSION
  5
9E
330
1F
100
AcDbEntity
  8
LC-001-100-D00-0
 62
     7
370
    25
100
AcDbDimension
  2
*D1
 10
284.541093
 20
267.277
 30
0.0
 11
226.348289
 21
298.077
 31
0.0
 70
   160
 71
     5
 42
109.0
  3
LC-DIM-L-0140-02-02
100
AcDbAlignedDimension
 13
175.541093
 23
225.386542
 33
0.0
 14
284.541093
 24
225.386542
 34
0.0
100
AcDbRotatedDimension
  0
LINE
  5
AD
330
1F
100
AcDbEntity
  8
LC-001-100-D00-0
  6
DASHDOT
 62
     7
370
    25
100
AcDbLine
 10
230.041093
 20
246.236635
 30
0.0
 11
230.041093
 21
192.886542
 31
0.0
  0
ARC
  5
AE
330
1F
100
AcDbEntity
  8
LC-001-100-D00-0
 62
     7
370
    50
100
AcDbCircle
 10
199.541093
 20
136.73675
 30
0.0
 40
25.5
100
AcDbArc
 50
90.0
 51
270.0
  0
ARC
  5
AF
330
1F
100
AcDbEntity
  8
LC-001-100-D00-0
 62
     7
370
    50
100
AcDbCircle
 10
260.541093
 20
136.73675
 30
0.0
 40
25.50000000000001
100
AcDbArc
 50
270.0
 51
90.0
  0
LINE
  5
B0
330
1F
100
AcDbEntity
  8
LC-001-100-D00-0
 62
     7
370
    50
100
AcDbLine
 10
260.541093
 20
162.236749
 30
0.0
 11
199.541092
 21
162.236749
 31
0.0
  0
LINE
  5
B1
330
1F
100
AcDbEntity
  8
LC-001-100-D00-0
 62
     7
370
    50
100
AcDbLine
 10
199.541092
 20
111.23675
 30
0.0
 11
260.541093
 21
111.23675
 31
0.0
  0
LINE
  5
B2
330
1F
100
AcDbEntity
  8
LC-001-100-D00-0
 62
     7
370
    50
100
AcDbLine
 10
231.041093
 20
155.736749
 30
0.0
 11
229.041093
 21
155.736749
 31
0.0
  0
LINE
  5
B3
330
1F
100
AcDbEntity
  8
LC-001-100-D00-0
 62
     7
370
    50
100
AcDbLine
 10
231.041093
 20
143.23675
 30
0.0
 11
229.041093
 21
143.23675
 31
0.0
  0
LINE
  5
B4
330
1F
100
AcDbEntity
  8
LC-001-100-D00-0
 62
     7
370
    50
100
AcDbLine
 10
229.041093
 20
155.736749
 30
0.0
 11
229.041093
 21
143.23675
 31
0.0
  0
LINE
  5
B5
330
1F
100
AcDbEntity
  8
LC-001-100-D00-0
 62
     7
370
    50
100
AcDbLine
 10
231.041093
 20
155.736749
 30
0.0
 11
231.041093
 21
143.23675
 31
0.0
  0
ARC
  5
B6
330
1F
100
AcDbEntity
  8
LC-001-100-D00-0
 62
     7
370
    25
100
AcDbCircle
 10
219.757291
 20
130.924942
 30
0.0
 40
0.1102660974595072
100
AcDbArc
 50
296.000008
 51
25.999781
  0
LINE
  5
B7
330
1F
100
AcDbEntity
  8
LC-001-100-D00-0
 62
     7
370
    25
100
AcDbLine
 10
219.805628
 20
130.825836
 30
0.0
 11
216.096211
 21
129.016632
 31
0.0
  0
ARC
  5
B8
330
1F
100
AcDbEntity
  8
LC-001-100-D00-0
 62
     7
370
    25
100
AcDbCircle
 10
216.047875
 20
129.115739
 30
0.0
 40
0.1102665468555751
100
AcDbArc
 50
206.000134
 51
295.999667
  0
LINE
  5
B9
330
1F
100
AcDbEntity
  8
LC-001-100-D00-0
 62
     7
370
    25
100
AcDbLine
 10
215.948768
 20
129.067401
 30
0.0
 11
214.139566
 21
132.776818
 31
0.0
  0
ARC
  5
BA
330
1F
100
AcDbEntity
  8
LC-001-100-D00-0
 62
     7
370
    25
100
AcDbCircle
 10
214.238671
 20
132.825155
 30
0.0
 40
0.1102654288750879
100
AcDbArc
 50
115.999894
 51
205.999894
  0
LINE
  5
BB
330
1F
100
AcDbEntity
  8
LC-001-100-D00-0
 62
     7
370
    25
100
AcDbLine
 10
214.190334
 20
132.924261
 30
0.0
 11
217.899751
 21
134.733465
 31
0.0
  0
ARC
  5
BC
330
1F
100
AcDbEntity
  8
LC-001-100-D00-0
 62
     7
370
    25
100
AcDbCircle
 10
217.948088
 20
134.634358
 30
0.0
 40
0.1102660974595511
100
AcDbArc
 50
26.000362
 51
115.999667
  0
LINE
  5
BD
330
1F
100
AcDbEntity
  8
LC-001-100-D00-0
 62
     7
370
    25
100
AcDbLine
 10
216.140335
 20
133.633482
 30
0.0
 11
217.799664
 21
134.442789
 31
0.0
  0
LINE
  5
BE
330
1F
100
AcDbEntity
  8
LC-001-100-D00-0
 62
     7
370
    25
100
AcDbLine
 10
216.140335
 20
133.633482
 30
0.0
 11
214.481009
 21
132.824174
 31
0.0
  0
ARC
  5
BF
330
1F
100
AcDbEntity
  8
LC-001-100-D00-0
 62
     7
370
    25
100
AcDbCircle
 10
214.529347
 20
132.725067
 30
0.0
 40
0.1102665468555496
100
AcDbArc
 50
116.000134
 51
205.999667
  0
LINE
  5
C0
330
1F
100
AcDbEntity
  8
LC-001-100-D00-0
 62
     7
370
    25
100
AcDbLine
 10
214.430239
 20
132.67673
 30
0.0
 11
216.048855
 21
129.358076
 31
0.0
  0
ARC
  5
C1
330
1F
100
AcDbEntity
  8
LC-001-100-D00-0
 62
     7
370
    25
100
AcDbCircle
 10
216.147962
 20
129.406414
 30
0.0
 40
0.1102658672482041
100
AcDbArc
 50
206.000362
 51
296.000362
  0
LINE
  5
C2
330
1F
100
AcDbEntity
  8
LC-001-100-D00-0
 62
     7
370
    25
100
AcDbLine
 10
217.855627
 20
130.116615
 30
0.0
 11
216.1963
 21
129.307308
 31
0.0
  0
LINE
  5
C3
330
1F
100
AcDbEntity
  8
LC-001-100-D00-0
 62
     7
370
    25
100
AcDbLine
 10
217.855627
 20
130.116615
 30
0.0
 11
219.514953
 21
130.925923
 31
0.0
  0
ARC
  5
C4
330
1F
100
AcDbEntity
  8
LC-001-100-D00-0
 62
     7
370
    25
100
AcDbCircle
 10
219.466616
 20
131.025029
 30
0.0
 40
0.1102656480616424
100
AcDbArc
 50
295.9999
 51
25.9999
  0
ARC
  5
C5
330
1F
100
AcDbEntity
  8
LC-001-100-D00-0
 62
     7
370
    25
100
AcDbCircle
 10
217.848
 20
134.343683
 30
0.0
 40
0.1102658782729241
100
AcDbArc
 50
25.999667
 51
115.999894
  0
LINE
  5
C6
330
1F
100
AcDbEntity
  8
LC-001-100-D00-0
 62
     7
370
    25
100
AcDbLine
 10
219.856398
 20
130.97328
 30
0.0
 11
218.047194
 21
134.682697
 31
0.0
  0
LINE
  5
C7
330
1F
100
AcDbEntity
  8
LC-001-100-D00-0
 62
     7
370
    25
100
AcDbLine
 10
218.756415
 20
132.732694
 30
0.0
 11
217.947107
 21
134.392019
 31
0.0
  0
LINE
  5
C8
330
1F
100
AcDbEntity
  8
LC-001-100-D00-0
 62
     7
370
    25
100
AcDbLine
 10
218.756415
 20
132.732694
 30
0.0
 11
219.565721
 21
131.073366
 31
0.0
  0
LINE
  5
C9
330
1F
100
AcDbEntity
  8
LC-001-100-D00-0
 62
     7
370
    25
100
AcDbLine
 10
215.791227
 20
132.737632
 30
0.0
 11
217.061209
 21
133.357042
 31
0.0
  0
ARC
  5
CA
330
1F
100
AcDbEntity
  8
LC-001-100-D00-0
 62
     7
370
    25
100
AcDbCircle
 10
217.108855
 20
133.259351
 30
0.0
 40
0.1086910272079203
100
AcDbArc
 50
296.000076
 51
116.000076
  0
LINE
  5
CB
330
1F
100
AcDbEntity
  8
LC-001-100-D00-0
 62
     7
370
    25
100
AcDbLine
 10
217.156502
 20
133.161661
 30
0.0
 11
215.886522
 21
132.542251
 31
0.0
  0
ARC
  5
CC
330
1F
100
AcDbEntity
  8
LC-001-100-D00-0
 62
     7
370
    25
100
AcDbCircle
 10
215.838875
 20
132.639941
 30
0.0
 40
0.1086910272081443
100
AcDbArc
 50
115.99996
 51
296.000191
  0
LINE
  5
CD
330
1F
100
AcDbEntity
  8
LC-001-100-D00-0
 62
     7
370
    25
100
AcDbLine
 10
216.23563
 20
133.4381
 30
0.0
 11
217.310227
 21
133.962217
 31
0.0
  0
ARC
  5
CE
330
1F
100
AcDbEntity
  8
LC-001-100-D00-0
 62
     7
370
    25
100
AcDbCircle
 10
217.357875
 20
133.864526
 30
0.0
 40
0.1086910272081443
100
AcDbArc
 50
295.99996
 51
115.99996
  0
ARC
  5
CF
330
1F
100
AcDbEntity
  8
LC-001-100-D00-0
 62
     7
370
    25
100
AcDbCircle
 10
215.208679
 20
132.816293
 30
0.0
 40
0.1086910272081443
100
AcDbArc
 50
115.99996
 51
295.99996
  0
LINE
  5
D0
330
1F
100
AcDbEntity
  8
LC-001-100-D00-0
 62
     7
370
    25
100
AcDbLine
 10
216.23563
 20
133.4381
 30
0.0
 11
215.161031
 21
132.913984
 31
0.0
  0
LINE
  5
D1
330
1F
100
AcDbEntity
  8
LC-001-100-D00-0
 62
     7
370
    25
100
AcDbLine
 10
216.330923
 20
133.242719
 30
0.0
 11
215.256326
 21
132.718602
 31
0.0
  0
LINE
  5
D2
330
1F
100
AcDbEntity
  8
LC-001-100-D00-0
 62
     7
370
    25
100
AcDbLine
 10
216.330923
 20
133.242719
 30
0.0
 11
217.405522
 21
133.766835
 31
0.0
  0
LINE
  5
D3
330
1F
100
AcDbEntity
  8
LC-001-100-D00-0
 62
     7
370
    25
100
AcDbLine
 10
228.591859
 20
134.019924
 30
0.0
 11
228.591859
 21
131.063477
 31
0.0
  0
LINE
  5
D4
330
1F
100
AcDbEntity
  8
LC-001-100-D00-0
 62
     7
370
    25
100
AcDbLine
 10
228.591859
 20
131.063477
 30
0.0
 11
229.867185
 21
131.063477
 31
0.0
  0
LINE
  5
D5
330
1F
100
AcDbEntity
  8
LC-001-100-D00-0
 62
     7
370
    25
100
AcDbLine
 10
229.867185
 20
131.063477
 30
0.0
 11
229.867185
 21
130.020028
 31
0.0
  0
LINE
  5
D6
330
1F
100
AcDbEntity
  8
LC-001-100-D00-0
 62
     7
370
    25
100
AcDbLine
 10
227.54841
 20
130.020028
 30
0.0
 11
229.867185
 21
130.020028
 31
0.0
  0
LINE
  5
D7
330
1F
100
AcDbEntity
  8
LC-001-100-D00-0
 62
     7
370
    25
100
AcDbLine
 10
227.54841
 20
134.019924
 30
0.0
 11
227.54841
 21
130.020028
 31
0.0
  0
LINE
  5
D8
330
1F
100
AcDbEntity
  8
LC-001-100-D00-0
 62
     7
370
    25
100
AcDbLine
 10
227.54841
 20
134.019924
 30
0.0
 11
228.591859
 21
134.019924
 31
0.0
  0
LINE
  5
D9
330
1F
100
AcDbEntity
  8
LC-001-100-D00-0
 62
     7
370
    25
100
AcDbLine
 10
235.548184
 20
132.976476
 30
0.0
 11
236.069909
 21
132.976476
 31
0.0
  0
ARC
  5
DA
330
1F
100
AcDbEntity
  8
LC-001-100-D00-0
 62
     7
370
    25
100
AcDbCircle
 10
235.548185
 20
132.860537
 30
0.0
 40
0.1159384999999986
100
AcDbArc
 50
90.0
 51
180.0
  0
LINE
  5
DB
330
1F
100
AcDbEntity
  8
LC-001-100-D00-0
 62
     7
370
    25
100
AcDbLine
 10
235.432246
 20
132.860537
 30
0.0
 11
235.432246
 21
130.020028
 31
0.0
  0
LINE
  5
DC
330
1F
100
AcDbEntity
  8
LC-001-100-D00-0
 62
     7
370
    25
100
AcDbLine
 10
234.330828
 20
130.020028
 30
0.0
 11
235.432246
 21
130.020028
 31
0.0
  0
LINE
  5
DD
330
1F
100
AcDbEntity
  8
LC-001-100-D00-0
 62
     7
370
    25
100
AcDbLine
 10
234.330828
 20
132.860537
 30
0.0
 11
234.330828
 21
130.020028
 31
0.0
  0
ARC
  5
DE
330
1F
100
AcDbEntity
  8
LC-001-100-D00-0
 62
     7
370
    25
100
AcDbCircle
 10
234.214889
 20
132.860537
 30
0.0
 40
0.1159387737142197
100
AcDbArc
 50
360.0
 51
90.0
  0
LINE
  5
DF
330
1F
100
AcDbEntity
  8
LC-001-100-D00-0
 62
     7
370
    25
100
AcDbLine
 10
233.693165
 20
132.976476
 30
0.0
 11
234.214889
 21
132.976476
 31
0.0
  0
ARC
  5
E0
330
1F
100
AcDbEntity
  8
LC-001-100-D00-0
 62
     7
370
    25
100
AcDbCircle
 10
233.693165
 20
132.860537
 30
0.0
 40
0.1159387737141913
100
AcDbArc
 50
90.0
 51
180.0
  0
LINE
  5
E1
330
1F
100
AcDbEntity
  8
LC-001-100-D00-0
 62
     7
370
    25
100
AcDbLine
 10
233.577226
 20
132.860537
 30
0.0
 11
233.577226
 21
130.020028
 31
0.0
  0
LINE
  5
E2
330
1F
100
AcDbEntity
  8
LC-001-100-D00-0
 62
     7
370
    25
100
AcDbLine
 10
232.533777
 20
130.020028
 30
0.0
 11
233.577226
 21
130.020028
 31
0.0
  0
LINE
  5
E3
330
1F
100
AcDbEntity
  8
LC-001-100-D00-0
 62
     7
370
    25
100
AcDbLine
 10
232.533777
 20
133.219945
 30
0.0
 11
232.533777
 21
130.020028
 31
0.0
  0
LINE
  5
E4
330
1F
100
AcDbEntity
  8
LC-001-100-D00-0
 62
     7
370
    25
100
AcDbLine
 10
233.333756
 20
134.019924
 30
0.0
 11
234.321668
 21
134.019924
 31
0.0
  0
ARC
  5
E5
330
1F
100
AcDbEntity
  8
LC-001-100-D00-0
 62
     7
370
    25
100
AcDbCircle
 10
234.321668
 20
133.219945
 30
0.0
 40
0.7999796482206667
100
AcDbArc
 50
45.584676
 51
90.0
  0
ARC
  5
E6
330
1F
100
AcDbEntity
  8
LC-001-100-D00-0
 62
     7
370
    25
100
AcDbCircle
 10
235.441406
 20
133.219945
 30
0.0
 40
0.7999792778609276
100
AcDbArc
 50
90.0
 51
134.415291
  0
LINE
  5
E7
330
1F
100
AcDbEntity
  8
LC-001-100-D00-0
 62
     7
370
    25
100
AcDbLine
 10
235.441406
 20
134.019924
 30
0.0
 11
236.429318
 21
134.019924
 31
0.0
  0
ARC
  5
E8
330
1F
100
AcDbEntity
  8
LC-001-100-D00-0
 62
     7
370
    25
100
AcDbCircle
 10
236.429318
 20
133.219944
 30
0.0
 40
0.7999795269898584
100
AcDbArc
 50
0.0
 51
90.0
  0
LINE
  5
E9
330
1F
100
AcDbEntity
  8
LC-001-100-D00-0
 62
     7
370
    25
100
AcDbLine
 10
237.229297
 20
133.219944
 30
0.0
 11
237.229297
 21
130.020029
 31
0.0
  0
LINE
  5
EA
330
1F
100
AcDbEntity
  8
LC-001-100-D00-0
 62
     7
370
    25
100
AcDbLine
 10
236.185847
 20
130.020029
 30
0.0
 11
237.229297
 21
130.020029
 31
0.0
  0
LINE
  5
EB
330
1F
100
AcDbEntity
  8
LC-001-100-D00-0
 62
     7
370
    25
100
AcDbLine
 10
236.185847
 20
132.860538
 30
0.0
 11
236.185847
 21
130.020029
 31
0.0
  0
ARC
  5
EC
330
1F
100
AcDbEntity
  8
LC-001-100-D00-0
 62
     7
370
    25
100
AcDbCircle
 10
236.06991
 20
132.860538
 30
0.0
 40
0.1159379999999999
100
AcDbArc
 50
0.0
 51
90.0
  0
ARC
  5
ED
330
1F
100
AcDbEntity
  8
LC-001-100-D00-0
 62
     7
370
    25
100
AcDbCircle
 10
233.333756
 20
133.219945
 30
0.0
 40
0.7999792512194688
100
AcDbArc
 50
90.0
 51
180.0
  0
LINE
  5
EE
330
1F
100
AcDbEntity
  8
LC-001-100-D00-0
 62
     7
370
    25
100
AcDbLine
 10
218.561033
 20
132.6374
 30
0.0
 11
218.036916
 21
133.711998
 31
0.0
  0
LINE
  5
EF
330
1F
100
AcDbEntity
  8
LC-001-100-D00-0
 62
     7
370
    25
100
AcDbLine
 10
218.561033
 20
132.6374
 30
0.0
 11
219.085149
 21
131.562802
 31
0.0
  0
ARC
  5
F0
330
1F
100
AcDbEntity
  8
LC-001-100-D00-0
 62
     7
370
    25
100
AcDbCircle
 10
218.987459
 20
131.515155
 30
0.0
 40
0.1086910272081188
100
AcDbArc
 50
205.99996
 51
25.99996
  0
LINE
  5
F1
330
1F
100
AcDbEntity
  8
LC-001-100-D00-0
 62
     7
370
    25
100
AcDbLine
 10
218.365653
 20
132.542106
 30
0.0
 11
217.841536
 21
133.616704
 31
0.0
  0
LINE
  5
F2
330
1F
100
AcDbEntity
  8
LC-001-100-D00-0
 62
     7
370
    25
100
AcDbLine
 10
218.365653
 20
132.542106
 30
0.0
 11
218.889767
 21
131.467508
 31
0.0
  0
ARC
  5
F3
330
1F
100
AcDbEntity
  8
LC-001-100-D00-0
 62
     7
370
    25
100
AcDbCircle
 10
217.939226
 20
133.664351
 30
0.0
 40
0.1086910272081188
100
AcDbArc
 50
25.99996
 51
205.99996
  0
LINE
  5
F4
330
1F
100
AcDbEntity
  8
LC-001-100-D00-0
 62
     7
370
    25
100
AcDbLine
 10
231.084542
 20
134.019924
 30
0.0
 11
231.084542
 21
131.063477
 31
0.0
  0
LINE
  5
F5
330
1F
100
AcDbEntity
  8
LC-001-100-D00-0
 62
     7
370
    25
100
AcDbLine
 10
231.084542
 20
131.063477
 30
0.0
 11
232.359869
 21
131.063477
 31
0.0
  0
LINE
  5
F6
330
1F
100
AcDbEntity
  8
LC-001-100-D00-0
 62
     7
370
    25
100
AcDbLine
 10
232.359869
 20
131.063477
 30
0.0
 11
232.359869
 21
130.020028
 31
0.0
  0
LINE
  5
F7
330
1F
100
AcDbEntity
  8
LC-001-100-D00-0
 62
     7
370
    25
100
AcDbLine
 10
230.041093
 20
130.020028
 30
0.0
 11
232.359869
 21
130.020028
 31
0.0
  0
LINE
  5
F8
330
1F
100
AcDbEntity
  8
LC-001-100-D00-0
 62
     7
370
    25
100
AcDbLine
 10
230.041093
 20
134.019924
 30
0.0
 11
230.041093
 21
130.020028
 31
0.0
  0
LINE
  5
F9
330
1F
100
AcDbEntity
  8
LC-001-100-D00-0
 62
     7
370
    25
100
AcDbLine
 10
230.041093
 20
134.019924
 30
0.0
 11
231.084542
 21
134.019924
 31
0.0
  0
LINE
  5
FA
330
1F
100
AcDbEntity
  8
LC-001-100-D00-0
 62
     7
370
    25
100
AcDbLine
 10
240.243706
 20
131.52269
 30
0.0
 11
238.736501
 21
131.52269
 31
0.0
  0
LINE
  5
FB
330
1F
100
AcDbEntity
  8
LC-001-100-D00-0
 62
     7
370
    25
100
AcDbLine
 10
238.736501
 20
131.52269
 30
0.0
 11
238.736501
 21
131.063477
 31
0.0
  0
LINE
  5
FC
330
1F
100
AcDbEntity
  8
LC-001-100-D00-0
 62
     7
370
    25
100
AcDbLine
 10
238.736501
 20
131.063477
 30
0.0
 11
240.243706
 21
131.063477
 31
0.0
  0
LINE
  5
FD
330
1F
100
AcDbEntity
  8
LC-001-100-D00-0
 62
     7
370
    25
100
AcDbLine
 10
240.243706
 20
131.063477
 30
0.0
 11
240.243706
 21
130.020028
 31
0.0
  0
LINE
  5
FE
330
1F
100
AcDbEntity
  8
LC-001-100-D00-0
 62
     7
370
    25
100
AcDbLine
 10
237.693052
 20
130.020028
 30
0.0
 11
240.243706
 21
130.020028
 31
0.0
  0
LINE
  5
FF
330
1F
100
AcDbEntity
  8
LC-001-100-D00-0
 62
     7
370
    25
100
AcDbLine
 10
237.693052
 20
134.019924
 30
0.0
 11
237.693052
 21
130.020028
 31
0.0
  0
LINE
  5
100
330
1F
100
AcDbEntity
  8
LC-001-100-D00-0
 62
     7
370
    25
100
AcDbLine
 10
237.693052
 20
134.019924
 30
0.0
 11
240.243706
 21
134.019924
 31
0.0
  0
LINE
  5
101
330
1F
100
AcDbEntity
  8
LC-001-100-D00-0
 62
     7
370
    25
100
AcDbLine
 10
240.243706
 20
134.019924
 30
0.0
 11
240.243706
 21
132.976467
 31
0.0
  0
LINE
  5
102
330
1F
100
AcDbEntity
  8
LC-001-100-D00-0
 62
     7
370
    25
100
AcDbLine
 10
238.736501
 20
132.976467
 30
0.0
 11
240.243706
 21
132.976467
 31
0.0
  0
LINE
  5
103
330
1F
100
AcDbEntity
  8
LC-001-100-D00-0
 62
     7
370
    25
100
AcDbLine
 10
238.736501
 20
132.976467
 30
0.0
 11
238.736501
 21
132.512712
 31
0.0
  0
LINE
  5
104
330
1F
100
AcDbEntity
  8
LC-001-100-D00-0
 62
     7
370
    25
100
AcDbLine
 10
240.243706
 20
132.512712
 30
0.0
 11
238.736501
 21
132.512712
 31
0.0
  0
LINE
  5
105
330
1F
100
AcDbEntity
  8
LC-001-100-D00-0
 62
     7
370
    25
100
AcDbLine
 10
240.243706
 20
132.512712
 30
0.0
 11
240.243706
 21
131.52269
 31
0.0
  0
LINE
  5
106
330
1F
100
AcDbEntity
  8
LC-001-100-D00-0
 62
     7
370
    25
100
AcDbLine
 10
242.968267
 20
132.802559
 30
0.0
 11
242.968267
 21
132.396773
 31
0.0
  0
ARC
  5
107
330
1F
100
AcDbEntity
  8
LC-001-100-D00-0
 62
     7
370
    25
100
AcDbCircle
 10
242.794359
 20
132.802559
 30
0.0
 40
0.1739079999999831
100
AcDbArc
 50
0.0
 51
90.0
  0
LINE
  5
108
330
1F
100
AcDbEntity
  8
LC-001-100-D00-0
 62
     7
370
    25
100
AcDbLine
 10
241.924818
 20
132.976467
 30
0.0
 11
242.794359
 21
132.976467
 31
0.0
  0
LINE
  5
109
330
1F
100
AcDbEntity
  8
LC-001-100-D00-0
 62
     7
370
    25
100
AcDbLine
 10
241.924818
 20
132.976467
 30
0.0
 11
241.924818
 21
132.222865
 31
0.0
  0
LINE
  5
10A
330
1F
100
AcDbEntity
  8
LC-001-100-D00-0
 62
     7
370
    25
100
AcDbLine
 10
241.924818
 20
132.222865
 30
0.0
 11
242.794359
 21
132.222865
 31
0.0
  0
ARC
  5
10B
330
1F
100
AcDbEntity
  8
LC-001-100-D00-0
 62
     7
370
    25
100
AcDbCircle
 10
242.794359
 20
132.396773
 30
0.0
 40
0.1739080000000115
100
AcDbArc
 50
270.0
 51
0.0
  0
LINE
  5
10C
330
1F
100
AcDbEntity
  8
LC-001-100-D00-0
 62
     7
370
    25
100
AcDbLine
 10
241.924818
 20
131.063477
 30
0.0
 11
242.794359
 21
131.063477
 31
0.0
  0
LINE
  5
10D
330
1F
100
AcDbEntity
  8
LC-001-100-D00-0
 62
     7
370
    25
100
AcDbLine
 10
241.924818
 20
131.063477
 30
0.0
 11
241.924818
 21
130.020028
 31
0.0
  0
LINE
  5
10E
330
1F
100
AcDbEntity
  8
LC-001-100-D00-0
 62
     7
370
    25
100
AcDbLine
 10
240.881369
 20
130.020028
 30
0.0
 11
241.924818
 21
130.020028
 31
0.0
  0
LINE
  5
10F
330
1F
100
AcDbEntity
  8
LC-001-100-D00-0
 62
     7
370
    25
100
AcDbLine
 10
244.011714
 20
133.219946
 30
0.0
 11
244.011715
 21
132.228387
 31
0.0
  0
ARC
  5
110
330
1F
100
AcDbEntity
  8
LC-001-100-D00-0
 62
     7
370
    25
100
AcDbCircle
 10
243.211736
 20
132.228387
 30
0.0
 40
0.7999791995470947
100
AcDbArc
 50
318.770702
 51
0.0
  0
ARC
  5
111
330
1F
100
AcDbEntity
  8
LC-001-100-D00-0
 62
     7
370
    25
100
AcDbCircle
 10
243.211736
 20
131.173895
 30
0.0
 40
0.7999792512175077
100
AcDbArc
 50
0.0
 51
41.229305
  0
LINE
  5
112
330
1F
100
AcDbEntity
  8
LC-001-100-D00-0
 62
     7
370
    25
100
AcDbLine
 10
244.011715
 20
131.173895
 30
0.0
 11
244.011716
 21
130.020028
 31
0.0
  0
LINE
  5
113
330
1F
100
AcDbEntity
  8
LC-001-100-D00-0
 62
     7
370
    25
100
AcDbLine
 10
242.968267
 20
130.020028
 30
0.0
 11
244.011716
 21
130.020028
 31
0.0
  0
LINE
  5
114
330
1F
100
AcDbEntity
  8
LC-001-100-D00-0
 62
     7
370
    25
100
AcDbLine
 10
242.968267
 20
130.889569
 30
0.0
 11
242.968267
 21
130.020028
 31
0.0
  0
ARC
  5
115
330
1F
100
AcDbEntity
  8
LC-001-100-D00-0
 62
     7
370
    25
100
AcDbCircle
 10
242.794359
 20
130.889569
 30
0.0
 40
0.1739080000000399
100
AcDbArc
 50
0.0
 51
90.0
  0
LINE
  5
116
330
1F
100
AcDbEntity
  8
LC-001-100-D00-0
 62
     7
370
    25
100
AcDbLine
 10
240.881369
 20
134.019924
 30
0.0
 11
240.881369
 21
130.020028
 31
0.0
  0
LINE
  5
117
330
1F
100
AcDbEntity
  8
LC-001-100-D00-0
 62
     7
370
    25
100
AcDbLine
 10
240.881369
 20
134.019924
 30
0.0
 11
243.211736
 21
134.019924
 31
0.0
  0
ARC
  5
118
330
1F
100
AcDbEntity
  8
LC-001-100-D00-0
 62
     7
370
    25
100
AcDbCircle
 10
243.211736
 20
133.219946
 30
0.0
 40
0.7999785085906979
100
AcDbArc
 50
0.0
 51
90.0
  0
ARC
  5
119
330
1F
100
AcDbEntity
  8
LC-001-100-D00-0
 62
     7
370
    25
100
AcDbCircle
 10
222.533234
 20
130.820007
 30
0.0
 40
0.7999791256096955
100
AcDbArc
 50
270.0
 51
0.0
  0
LINE
  5
11A
330
1F
100
AcDbEntity
  8
LC-001-100-D00-0
 62
     7
370
    25
100
AcDbLine
 10
220.476145
 20
130.020029
 30
0.0
 11
222.533233
 21
130.020028
 31
0.0
  0
ARC
  5
11B
330
1F
100
AcDbEntity
  8
LC-001-100-D00-0
 62
     7
370
    25
100
AcDbCircle
 10
222.533234
 20
133.219945
 30
0.0
 40
0.7999793764808203
100
AcDbArc
 50
0.0
 51
90.0
  0
LINE
  5
11C
330
1F
100
AcDbEntity
  8
LC-001-100-D00-0
 62
     7
370
    25
100
AcDbLine
 10
223.333214
 20
133.219945
 30
0.0
 11
223.333214
 21
130.820007
 31
0.0
  0
LINE
  5
11D
330
1F
100
AcDbEntity
  8
LC-001-100-D00-0
 62
     7
370
    25
100
AcDbLine
 10
222.347735
 20
132.767777
 30
0.0
 11
222.347735
 21
131.237385
 31
0.0
  0
ARC
  5
11E
330
1F
100
AcDbEntity
  8
LC-001-100-D00-0
 62
     7
370
    25
100
AcDbCircle
 10
222.173826
 20
132.767777
 30
0.0
 40
0.1739080000000115
100
AcDbArc
 50
0.0
 51
90.0
  0
LINE
  5
11F
330
1F
100
AcDbEntity
  8
LC-001-100-D00-0
 62
     7
370
    25
100
AcDbLine
 10
221.577562
 20
132.941685
 30
0.0
 11
222.173827
 21
132.941685
 31
0.0
  0
LINE
  5
120
330
1F
100
AcDbEntity
  8
LC-001-100-D00-0
 62
     7
370
    25
100
AcDbLine
 10
221.577562
 20
132.941685
 30
0.0
 11
221.577562
 21
131.063477
 31
0.0
  0
LINE
  5
121
330
1F
100
AcDbEntity
  8
LC-001-100-D00-0
 62
     7
370
    25
100
AcDbLine
 10
221.577562
 20
131.063477
 30
0.0
 11
222.173827
 21
131.063477
 31
0.0
  0
ARC
  5
122
330
1F
100
AcDbEntity
  8
LC-001-100-D00-0
 62
     7
370
    25
100
AcDbCircle
 10
222.173826
 20
131.237385
 30
0.0
 40
0.1739080000000115
100
AcDbArc
 50
270.0
 51
0.0
  0
LINE
  5
123
330
1F
100
AcDbEntity
  8
LC-001-100-D00-0
 62
     7
370
    25
100
AcDbLine
 10
220.476145
 20
134.019924
 30
0.0
 11
222.533233
 21
134.019925
 31
0.0
  0
LINE
  5
124
330
1F
100
AcDbEntity
  8
LC-001-100-D00-0
 62
     7
370
    25
100
AcDbLine
 10
220.476145
 20
134.019924
 30
0.0
 11
220.476145
 21
130.020029
 31
0.0
  0
LINE
  5
125
330
1F
100
AcDbEntity
  8
LC-001-100-D00-0
 62
     7
370
    25
100
AcDbLine
 10
225.925267
 20
130.020029
 30
0.0
 11
226.968716
 21
130.020029
 31
0.0
  0
LINE
  5
126
330
1F
100
AcDbEntity
  8
LC-001-100-D00-0
 62
     7
370
    25
100
AcDbLine
 10
225.925267
 20
131.179425
 30
0.0
 11
225.925267
 21
130.020029
 31
0.0
  0
LINE
  5
127
330
1F
100
AcDbEntity
  8
LC-001-100-D00-0
 62
     7
370
    25
100
AcDbLine
 10
224.881819
 20
131.179425
 30
0.0
 11
225.925267
 21
131.179425
 31
0.0
  0
LINE
  5
128
330
1F
100
AcDbEntity
  8
LC-001-100-D00-0
 62
     7
370
    25
100
AcDbLine
 10
224.881819
 20
131.179425
 30
0.0
 11
224.881819
 21
130.020029
 31
0.0
  0
LINE
  5
129
330
1F
100
AcDbEntity
  8
LC-001-100-D00-0
 62
     7
370
    25
100
AcDbLine
 10
223.838368
 20
130.020029
 30
0.0
 11
224.881819
 21
130.020029
 31
0.0
  0
LINE
  5
12A
330
1F
100
AcDbEntity
  8
LC-001-100-D00-0
 62
     7
370
    25
100
AcDbLine
 10
223.838368
 20
133.219945
 30
0.0
 11
223.838368
 21
130.020029
 31
0.0
  0
ARC
  5
12B
330
1F
100
AcDbEntity
  8
LC-001-100-D00-0
 62
     7
370
    25
100
AcDbCircle
 10
226.168737
 20
133.219945
 30
0.0
 40
0.7999792501741467
100
AcDbArc
 50
0.0
 51
90.0
  0
LINE
  5
12C
330
1F
100
AcDbEntity
  8
LC-001-100-D00-0
 62
     7
370
    25
100
AcDbLine
 10
226.968716
 20
133.219945
 30
0.0
 11
226.968716
 21
130.020029
 31
0.0
  0
LINE
  5
12D
330
1F
100
AcDbEntity
  8
LC-001-100-D00-0
 62
     7
370
    25
100
AcDbLine
 10
225.055726
 20
132.976475
 30
0.0
 11
225.751359
 21
132.976475
 31
0.0
  0
ARC
  5
12E
330
1F
100
AcDbEntity
  8
LC-001-100-D00-0
 62
     7
370
    25
100
AcDbCircle
 10
225.055726
 20
132.802567
 30
0.0
 40
0.1739080000000399
100
AcDbArc
 50
90.0
 51
180.0
  0
LINE
  5
12F
330
1F
100
AcDbEntity
  8
LC-001-100-D00-0
 62
     7
370
    25
100
AcDbLine
 10
224.881819
 20
132.802567
 30
0.0
 11
224.881819
 21
132.229915
 31
0.0
  0
LINE
  5
130
330
1F
100
AcDbEntity
  8
LC-001-100-D00-0
 62
     7
370
    25
100
AcDbLine
 10
224.881819
 20
132.229915
 30
0.0
 11
225.925267
 21
132.229915
 31
0.0
  0
LINE
  5
131
330
1F
100
AcDbEntity
  8
LC-001-100-D00-0
 62
     7
370
    25
100
AcDbLine
 10
225.925267
 20
132.802567
 30
0.0
 11
225.925267
 21
132.229915
 31
0.0
  0
ARC
  5
132
330
1F
100
AcDbEntity
  8
LC-001-100-D00-0
 62
     7
370
    25
100
AcDbCircle
 10
225.751359
 20
132.802567
 30
0.0
 40
0.1739080000000115
100
AcDbArc
 50
0.0
 51
90.0
  0
LINE
  5
133
330
1F
100
AcDbEntity
  8
LC-001-100-D00-0
 62
     7
370
    25
100
AcDbLine
 10
224.638348
 20
134.019924
 30
0.0
 11
226.168737
 21
134.019924
 31
0.0
  0
ARC
  5
134
330
1F
100
AcDbEntity
  8
LC-001-100-D00-0
 62
     7
370
    25
100
AcDbCircle
 10
224.638348
 20
133.219945
 30
0.0
 40
0.7999791256097524
100
AcDbArc
 50
90.0
 51
180.0
  0
LINE
  5
135
330
1F
100
AcDbEntity
  8
LC-001-100-D00-0
 62
     7
370
    25
100
AcDbLine
 10
216.907481
 20
132.556487
 30
0.0
 11
216.516718
 21
132.3659
 31
0.0
  0
ARC
  5
136
330
1F
100
AcDbEntity
  8
LC-001-100-D00-0
 62
     7
370
    25
100
AcDbCircle
 10
216.859834
 20
132.654178
 30
0.0
 40
0.1086905778112353
100
AcDbArc
 50
296.000076
 51
116.000076
  0
LINE
  5
137
330
1F
100
AcDbEntity
  8
LC-001-100-D00-0
 62
     7
370
    25
100
AcDbLine
 10
216.421424
 20
132.56128
 30
0.0
 11
216.812188
 21
132.751868
 31
0.0
  0
ARC
  5
138
330
1F
100
AcDbEntity
  8
LC-001-100-D00-0
 62
     7
370
    25
100
AcDbCircle
 10
216.469071
 20
132.46359
 30
0.0
 40
0.1086905778114478
100
AcDbArc
 50
116.000191
 51
295.99996
  0
ARC
  5
139
330
1F
100
AcDbEntity
  8
LC-001-100-D00-0
 62
     7
370
    25
100
AcDbCircle
 10
217.777111
 20
132.013196
 30
0.0
 40
0.1086910272078568
100
AcDbArc
 50
206.000076
 51
26.000076
  0
ARC
  5
13A
330
1F
100
AcDbEntity
  8
LC-001-100-D00-0
 62
     7
370
    25
100
AcDbCircle
 10
217.586523
 20
132.403959
 30
0.0
 40
0.108691027208111
100
AcDbArc
 50
26.000191
 51
205.99996
  0
LINE
  5
13B
330
1F
100
AcDbEntity
  8
LC-001-100-D00-0
 62
     7
370
    25
100
AcDbLine
 10
217.684213
 20
132.451607
 30
0.0
 11
217.874801
 21
132.060844
 31
0.0
  0
LINE
  5
13C
330
1F
100
AcDbEntity
  8
LC-001-100-D00-0
 62
     7
370
    25
100
AcDbLine
 10
217.679421
 20
131.965549
 30
0.0
 11
217.488833
 21
132.356312
 31
0.0
  0
ARC
  5
13D
330
1F
100
AcDbEntity
  8
LC-001-100-D00-0
 62
     7
370
    25
100
AcDbCircle
 10
216.056737
 20
130.085746
 30
0.0
 40
0.1086910272081188
100
AcDbArc
 50
205.99996
 51
25.99996
  0
LINE
  5
13E
330
1F
100
AcDbEntity
  8
LC-001-100-D00-0
 62
     7
370
    25
100
AcDbLine
 10
215.434929
 20
131.112697
 30
0.0
 11
215.959046
 21
130.038099
 31
0.0
  0
LINE
  5
13F
330
1F
100
AcDbEntity
  8
LC-001-100-D00-0
 62
     7
370
    25
100
AcDbLine
 10
215.434929
 20
131.112697
 30
0.0
 11
214.910813
 21
132.187295
 31
0.0
  0
LINE
  5
140
330
1F
100
AcDbEntity
  8
LC-001-100-D00-0
 62
     7
370
    25
100
AcDbLine
 10
215.630312
 20
131.207991
 30
0.0
 11
216.154428
 21
130.133393
 31
0.0
  0
LINE
  5
141
330
1F
100
AcDbEntity
  8
LC-001-100-D00-0
 62
     7
370
    25
100
AcDbLine
 10
215.630312
 20
131.207991
 30
0.0
 11
215.106195
 21
132.282589
 31
0.0
  0
ARC
  5
142
330
1F
100
AcDbEntity
  8
LC-001-100-D00-0
 62
     7
370
    25
100
AcDbCircle
 10
215.008504
 20
132.234942
 30
0.0
 40
0.1086910272081188
100
AcDbArc
 50
25.99996
 51
205.99996
  0
ARC
  5
143
330
1F
100
AcDbEntity
  8
LC-001-100-D00-0
 62
     7
370
    25
100
AcDbCircle
 10
218.382284
 20
131.764175
 30
0.0
 40
0.1086905778111774
100
AcDbArc
 50
206.000076
 51
26.000076
  0
ARC
  5
144
330
1F
100
AcDbEntity
  8
LC-001-100-D00-0
 62
     7
370
    25
100
AcDbCircle
 10
217.762874
 20
133.034155
 30
0.0
 40
0.1086910272081443
100
AcDbArc
 50
25.99996
 51
205.99996
  0
LINE
  5
145
330
1F
100
AcDbEntity
  8
LC-001-100-D00-0
 62
     7
370
    25
100
AcDbLine
 10
217.860565
 20
133.081802
 30
0.0
 11
218.479974
 21
131.811822
 31
0.0
  0
LINE
  5
146
330
1F
100
AcDbEntity
  8
LC-001-100-D00-0
 62
     7
370
    25
100
AcDbLine
 10
217.974888
 20
132.351518
 30
0.0
 11
217.665182
 21
132.986508
 31
0.0
  0
LINE
  5
147
330
1F
100
AcDbEntity
  8
LC-001-100-D00-0
 62
     7
370
    25
100
AcDbLine
 10
217.974888
 20
132.351518
 30
0.0
 11
218.284594
 21
131.716528
 31
0.0
  0
LINE
  5
148
330
1F
100
AcDbEntity
  8
LC-001-100-D00-0
 62
     7
370
    25
100
AcDbLine
 10
216.316544
 20
131.784548
 30
0.0
 11
216.507131
 21
131.393785
 31
0.0
  0
LINE
  5
149
330
1F
100
AcDbEntity
  8
LC-001-100-D00-0
 62
     7
370
    25
100
AcDbLine
 10
216.216456
 20
131.493873
 30
0.0
 11
216.311749
 21
131.298491
 31
0.0
  0
LINE
  5
14A
330
1F
100
AcDbEntity
  8
LC-001-100-D00-0
 62
     7
370
    25
100
AcDbLine
 10
216.216456
 20
131.493873
 30
0.0
 11
216.121161
 21
131.689254
 31
0.0
  0
ARC
  5
14B
330
1F
100
AcDbEntity
  8
LC-001-100-D00-0
 62
     7
370
    25
100
AcDbCircle
 10
216.218852
 20
131.736901
 30
0.0
 40
0.1086905778114885
100
AcDbArc
 50
25.99996
 51
206.000191
  0
ARC
  5
14C
330
1F
100
AcDbEntity
  8
LC-001-100-D00-0
 62
     7
370
    25
100
AcDbCircle
 10
216.40944
 20
131.346138
 30
0.0
 40
0.1086910272082402
100
AcDbArc
 50
205.99996
 51
25.99996
  0
LINE
  5
14D
330
1F
100
AcDbEntity
  8
LC-001-100-D00-0
 62
     7
370
    25
100
AcDbLine
 10
217.574539
 20
131.188816
 30
0.0
 11
217.183776
 21
130.998229
 31
0.0
  0
ARC
  5
14E
330
1F
100
AcDbEntity
  8
LC-001-100-D00-0
 62
     7
370
    25
100
AcDbCircle
 10
217.136129
 20
131.095919
 30
0.0
 40
0.1086910272081699
100
AcDbArc
 50
115.99996
 51
296.000191
  0
LINE
  5
14F
330
1F
100
AcDbEntity
  8
LC-001-100-D00-0
 62
     7
370
    25
100
AcDbLine
 10
217.479246
 20
131.384198
 30
0.0
 11
217.088481
 21
131.19361
 31
0.0
  0
ARC
  5
150
330
1F
100
AcDbEntity
  8
LC-001-100-D00-0
 62
     7
370
    25
100
AcDbCircle
 10
217.526892
 20
131.286507
 30
0.0
 40
0.1086908080227073
100
AcDbArc
 50
295.999839
 51
115.999839
  0
ARC
  5
151
330
1F
100
AcDbEntity
  8
LC-001-100-D00-0
 62
     7
370
    25
100
AcDbCircle
 10
216.233088
 20
130.715942
 30
0.0
 40
0.108690577811241
100
AcDbArc
 50
206.000076
 51
26.000076
  0
LINE
  5
152
330
1F
100
AcDbEntity
  8
LC-001-100-D00-0
 62
     7
370
    25
100
AcDbLine
 10
215.825694
 20
131.303285
 30
0.0
 11
216.135398
 21
130.668295
 31
0.0
  0
LINE
  5
153
330
1F
100
AcDbEntity
  8
LC-001-100-D00-0
 62
     7
370
    25
100
AcDbLine
 10
215.825694
 20
131.303285
 30
0.0
 11
215.515986
 21
131.938275
 31
0.0
  0
LINE
  5
154
330
1F
100
AcDbEntity
  8
LC-001-100-D00-0
 62
     7
370
    25
100
AcDbLine
 10
216.330778
 20
130.763589
 30
0.0
 11
215.711368
 21
132.033569
 31
0.0
  0
ARC
  5
155
330
1F
100
AcDbEntity
  8
LC-001-100-D00-0
 62
     7
370
    25
100
AcDbCircle
 10
215.613678
 20
131.985922
 30
0.0
 40
0.1086910272082079
100
AcDbArc
 50
25.99996
 51
205.99996
  0
LINE
  5
156
330
1F
100
AcDbEntity
  8
LC-001-100-D00-0
 62
     7
370
    25
100
AcDbLine
 10
217.665039
 20
130.507378
 30
0.0
 11
216.590442
 21
129.983262
 31
0.0
  0
LINE
  5
157
330
1F
100
AcDbEntity
  8
LC-001-100-D00-0
 62
     7
370
    25
100
AcDbLine
 10
217.665039
 20
130.507378
 30
0.0
 11
218.739636
 21
131.031495
 31
0.0
  0
ARC
  5
158
330
1F
100
AcDbEntity
  8
LC-001-100-D00-0
 62
     7
370
    25
100
AcDbCircle
 10
218.787284
 20
130.933804
 30
0.0
 40
0.1086910272081823
100
AcDbArc
 50
295.99996
 51
115.99996
  0
LINE
  5
159
330
1F
100
AcDbEntity
  8
LC-001-100-D00-0
 62
     7
370
    25
100
AcDbLine
 10
217.760332
 20
130.311998
 30
0.0
 11
218.834931
 21
130.836113
 31
0.0
  0
LINE
  5
15A
330
1F
100
AcDbEntity
  8
LC-001-100-D00-0
 62
     7
370
    25
100
AcDbLine
 10
217.760332
 20
130.311998
 30
0.0
 11
216.685735
 21
129.787881
 31
0.0
  0
ARC
  5
15B
330
1F
100
AcDbEntity
  8
LC-001-100-D00-0
 62
     7
370
    25
100
AcDbCircle
 10
216.638088
 20
129.885571
 30
0.0
 40
0.1086910272081823
100
AcDbArc
 50
115.99996
 51
295.99996
  0
LINE
  5
15C
330
1F
100
AcDbEntity
  8
LC-001-100-D00-0
 62
     7
370
    25
100
AcDbLine
 10
218.204735
 20
131.012464
 30
0.0
 11
216.934755
 21
130.393055
 31
0.0
  0
ARC
  5
15D
330
1F
100
AcDbEntity
  8
LC-001-100-D00-0
 62
     7
370
    25
100
AcDbCircle
 10
218.157088
 20
131.110155
 30
0.0
 40
0.1086910272079203
100
AcDbArc
 50
296.000076
 51
116.000076
  0
LINE
  5
15E
330
1F
100
AcDbEntity
  8
LC-001-100-D00-0
 62
     7
370
    25
100
AcDbLine
 10
218.10944
 20
131.207846
 30
0.0
 11
216.839461
 21
130.588436
 31
0.0
  0
ARC
  5
15F
330
1F
100
AcDbEntity
  8
LC-001-100-D00-0
 62
     7
370
    25
100
AcDbCircle
 10
216.887108
 20
130.490745
 30
0.0
 40
0.1086910272081443
100
AcDbArc
 50
115.99996
 51
296.000191
  0
LINE
  5
160
330
1F
100
AcDbEntity
  8
LC-001-100-D00-0
 62
     7
370
    50
100
AcDbLine
 10
181.43205
 20
143.48675
 30
0.0
 11
181.43205
 21
142.48675
 31
0.0
  0
INSERT
  5
16C
330
1F
100
AcDbEntity
  8
LC-001-100-D00-0
 62
     7
370
    50
100
AcDbBlockReference
  2
KLON1
 10
0.0
 20
0.0
 30
0.0
  0
ARC
  5
16D
330
1F
100
AcDbEntity
  8
LC-001-100-D00-0
 62
     7
370
    50
100
AcDbCircle
 10
181.432048
 20
142.48675
 30
0.0
 40
1.0
100
AcDbArc
 50
90.0
 51
162.384269
  0
LINE
  5
16E
330
1F
100
AcDbEntity
  8
LC-001-100-D00-0
 62
     7
370
    50
100
AcDbLine
 10
231.041093
 20
143.48675
 30
0.0
 11
278.650139
 21
143.48675
 31
0.0
  0
LINE
  5
16F
330
1F
100
AcDbEntity
  8
LC-001-100-D00-0
 62
     7
370
    50
100
AcDbLine
 10
278.650139
 20
142.48675
 30
0.0
 11
278.650139
 21
143.48675
 31
0.0
  0
LINE
  5
170
330
1F
100
AcDbEntity
  8
LC-001-100-D00-0
 62
     7
370
    50
100
AcDbLine
 10
278.650139
 20
142.48675
 30
0.0
 11
181.43205
 21
142.48675
 31
0.0
  0
LINE
  5
171
330
1F
100
AcDbEntity
  8
LC-001-100-D00-0
 62
     7
370
    50
100
AcDbLine
 10
181.43205
 20
143.48675
 30
0.0
 11
229.041093
 21
143.48675
 31
0.0
  0
INSERT
  5
17D
330
1F
100
AcDbEntity
  8
LC-001-100-D00-0
 62
     7
370
    50
100
AcDbBlockReference
  2
KLON2
 10
0.0
 20
0.0
 30
0.0
  0
ARC
  5
17E
330
1F
100
AcDbEntity
  8
LC-001-100-D00-0
 62
     7
370
    50
100
AcDbCircle
 10
278.650138
 20
142.48675
 30
0.0
 40
1.000000000000022
100
AcDbArc
 50
17.615731
 51
90.0
  0
ARC
  5
17F
330
1F
100
AcDbEntity
  8
LC-001-100-D00-0
 62
     7
370
    50
100
AcDbCircle
 10
199.541093
 20
136.73675
 30
0.0
 40
19.00000000000002
100
AcDbArc
 50
162.384269
 51
270.0
  0
ARC
  5
180
330
1F
100
AcDbEntity
  8
LC-001-100-D00-0
 62
     7
370
    50
100
AcDbCircle
 10
260.541093
 20
136.73675
 30
0.0
 40
19.00000000000003
100
AcDbArc
 50
270.0
 51
17.615731
  0
LINE
  5
181
330
1F
100
AcDbEntity
  8
LC-001-100-D00-0
 62
     7
370
    50
100
AcDbLine
 10
199.541092
 20
117.73675
 30
0.0
 11
260.541093
 21
117.73675
 31
0.0
  0
LINE
  5
182
330
1F
100
AcDbEntity
  8
LC-001-100-D00-0
 62
     7
370
    50
100
AcDbLine
 10
260.541093
 20
117.73675
 30
0.0
 11
260.541093
 21
116.73675
 31
0.0
  0
ARC
  5
183
330
1F
100
AcDbEntity
  8
LC-001-100-D00-0
 62
     7
370
    50
100
AcDbCircle
 10
260.541093
 20
136.73675
 30
0.0
 40
20.0
100
AcDbArc
 50
270.0
 51
17.615731
  0
LINE
  5
184
330
1F
100
AcDbEntity
  8
LC-001-100-D00-0
 62
     7
370
    50
100
AcDbLine
 10
199.541092
 20
117.73675
 30
0.0
 11
199.541092
 21
116.73675
 31
0.0
  0
ARC
  5
185
330
1F
100
AcDbEntity
  8
LC-001-100-D00-0
 62
     7
370
    50
100
AcDbCircle
 10
199.541093
 20
136.73675
 30
0.0
 40
20.00000000000002
100
AcDbArc
 50
162.384269
 51
270.0
  0
LINE
  5
186
330
1F
100
AcDbEntity
  8
LC-001-100-D00-0
 62
     7
370
    50
100
AcDbLine
 10
260.541093
 20
116.73675
 30
0.0
 11
199.541092
 21
116.73675
 31
0.0
  0
LINE
  5
187
330
1F
100
AcDbEntity
  8
LC-001-100-D00-0
 62
     7
370
    50
100
AcDbLine
 10
199.541092
 20
155.23675
 30
0.0
 11
229.041093
 21
155.23675
 31
0.0
  0
ARC
  5
188
330
1F
100
AcDbEntity
  8
LC-001-100-D00-0
 62
     7
370
    50
100
AcDbCircle
 10
199.541093
 20
136.73675
 30
0.0
 40
18.5
100
AcDbArc
 50
90.0
 51
158.600734
  0
ARC
  5
189
330
1F
100
AcDbEntity
  8
LC-001-100-D00-0
 62
     7
370
    50
100
AcDbCircle
 10
260.541093
 20
136.73675
 30
0.0
 40
18.50000000000003
100
AcDbArc
 50
21.399266
 51
90.0
  0
LINE
  5
18A
330
1F
100
AcDbEntity
  8
LC-001-100-D00-0
 62
     7
370
    50
100
AcDbLine
 10
231.041093
 20
155.23675
 30
0.0
 11
260.541093
 21
155.23675
 31
0.0
  0
LINE
  5
18B
330
1F
100
AcDbEntity
  8
LC-001-100-D00-0
 62
     7
370
    50
100
AcDbLine
 10
260.541093
 20
160.73675
 30
0.0
 11
199.541092
 21
160.73675
 31
0.0
  0
ARC
  5
18C
330
1F
100
AcDbEntity
  8
LC-001-100-D00-0
 62
     7
370
    50
100
AcDbCircle
 10
260.541093
 20
136.73675
 30
0.0
 40
24.0
100
AcDbArc
 50
270.0
 51
90.0
  0
LINE
  5
18D
330
1F
100
AcDbEntity
  8
LC-001-100-D00-0
 62
     7
370
    50
100
AcDbLine
 10
199.541092
 20
112.73675
 30
0.0
 11
260.541093
 21
112.73675
 31
0.0
  0
ARC
  5
18E
330
1F
100
AcDbEntity
  8
LC-001-100-D00-0
 62
     7
370
    50
100
AcDbCircle
 10
199.541093
 20
136.73675
 30
0.0
 40
24.0
100
AcDbArc
 50
90.0
 51
270.0
  0
LINE
  5
18F
330
1F
100
AcDbEntity
  8
LC-001-100-D00-0
 62
     7
370
    50
100
AcDbLine
 10
199.541092
 20
112.73675
 30
0.0
 11
199.541092
 21
111.23675
 31
0.0
  0
LINE
  5
190
330
1F
100
AcDbEntity
  8
LC-001-100-D00-0
 62
     7
370
    50
100
AcDbLine
 10
199.541092
 20
160.73675
 30
0.0
 11
199.541092
 21
162.236749
 31
0.0
  0
LINE
  5
191
330
1F
100
AcDbEntity
  8
LC-001-100-D00-0
 62
     7
370
    50
100
AcDbLine
 10
260.541093
 20
160.73675
 30
0.0
 11
260.541093
 21
162.236749
 31
0.0
  0
LINE
  5
192
330
1F
100
AcDbEntity
  8
LC-001-100-D00-0
 62
     7
370
    50
100
AcDbLine
 10
260.541093
 20
112.73675
 30
0.0
 11
260.541093
 21
111.23675
 31
0.0
  0
DIMENSION
  5
193
330
1F
100
AcDbEntity
  8
LC-001-100-D00-0
 62
     7
370
    25
100
AcDbDimension
  2
*D4
 10
334.244001
 20
112.73675
 30
0.0
 11
303.444001
 21
149.071
 31
0.0
 70
   160
 71
     5
 42
48.0
 53
90.0
  3
LC-DIM-L-0140-02-02
100
AcDbAlignedDimension
 13
260.541093
 23
160.73675
 33
0.0
 14
260.541093
 24
112.73675
 34
0.0
 50
90.0
100
AcDbRotatedDimension
  0
LINE
  5
1A2
330
1F
100
AcDbEntity
  8
LC-001-100-D00-0
 62
     7
370
    50
100
AcDbLine
 10
120.872688
 20
235.386542
 30
0.0
 11
120.872688
 21
235.486542
 31
0.0
  0
LINE
  5
1A3
330
1F
100
AcDbEntity
  8
LC-001-100-D00-0
 62
     7
370
    50
100
AcDbLine
 10
115.133536
 20
235.486542
 30
0.0
 11
115.133536
 21
235.386542
 31
0.0
  0
CIRCLE
  5
1A4
330
1F
100
AcDbEntity
  8
LC-001-100-D00-0
 62
     7
370
    50
100
AcDbCircle
 10
146.614813
 20
222.136542
 30
0.0
 40
1.75
  0
CIRCLE
  5
1A5
330
1F
100
AcDbEntity
  8
LC-001-100-D00-0
 62
     7
370
    50
100
AcDbCircle
 10
99.114813
 20
222.136542
 30
0.0
 40
1.750000000000014
  0
LINE
  5
1A6
330
1F
100
AcDbEntity
  8
LC-001-100-D00-0
 62
     7
370
    50
100
AcDbLine
 10
118.350929
 20
235.486542
 30
0.0
 11
118.350929
 21
235.386542
 31
0.0
  0
LINE
  5
1A7
330
1F
100
AcDbEntity
  8
LC-001-100-D00-0
 62
     7
370
    50
100
AcDbLine
 10
118.350929
 20
235.386542
 30
0.0
 11
119.104531
 21
235.386542
 31
0.0
  0
LINE
  5
1A8
330
1F
100
AcDbEntity
  8
LC-001-100-D00-0
 62
     7
370
    50
100
AcDbLine
 10
119.104531
 20
235.386542
 30
0.0
 11
119.104531
 21
235.486542
 31
0.0
  0
LINE
  5
1A9
330
1F
100
AcDbEntity
  8
LC-001-100-D00-0
 62
     7
370
    50
100
AcDbLine
 10
119.104531
 20
235.486542
 30
0.0
 11
120.147987
 21
235.486542
 31
0.0
  0
LINE
  5
1AA
330
1F
100
AcDbEntity
  8
LC-001-100-D00-0
 62
     7
370
    50
100
AcDbLine
 10
120.147987
 20
235.486542
 30
0.0
 11
120.147987
 21
235.386542
 31
0.0
  0
LINE
  5
1AB
330
1F
100
AcDbEntity
  8
LC-001-100-D00-0
 62
     7
370
    50
100
AcDbLine
 10
120.147987
 20
235.386542
 30
0.0
 11
128.614813
 21
235.386542
 31
0.0
  0
ARC
  5
1AC
330
1F
100
AcDbEntity
  8
LC-001-100-D00-0
 62
     7
370
    50
100
AcDbCircle
 10
128.614813
 20
234.386542
 30
0.0
 40
1.0
100
AcDbArc
 50
0.0
 51
90.0
  0
LINE
  5
1AD
330
1F
100
AcDbEntity
  8
LC-001-100-D00-0
 62
     7
370
    50
100
AcDbLine
 10
129.614813
 20
234.386542
 30
0.0
 11
129.614813
 21
194.886542
 31
0.0
  0
LINE
  5
1AE
330
1F
100
AcDbEntity
  8
LC-001-100-D00-0
 62
     7
370
    50
100
AcDbLine
 10
129.614813
 20
194.886542
 30
0.0
 11
128.114813
 21
194.886542
 31
0.0
  0
LINE
  5
1AF
330
1F
100
AcDbEntity
  8
LC-001-100-D00-0
 62
     7
370
    50
100
AcDbLine
 10
128.114813
 20
233.886541
 30
0.0
 11
128.114813
 21
194.886542
 31
0.0
  0
LINE
  5
1B0
330
1F
100
AcDbEntity
  8
LC-001-100-D00-0
 62
     7
370
    50
100
AcDbLine
 10
104.364813
 20
233.886541
 30
0.0
 11
128.114813
 21
233.886541
 31
0.0
  0
LINE
  5
1B1
330
1F
100
AcDbEntity
  8
LC-001-100-D00-0
 62
     7
370
    50
100
AcDbLine
 10
104.364813
 20
233.886541
 30
0.0
 11
104.364813
 21
218.886542
 31
0.0
  0
LINE
  5
1B2
330
1F
100
AcDbEntity
  8
LC-001-100-D00-0
 62
     7
370
    50
100
AcDbLine
 10
104.364813
 20
218.886542
 30
0.0
 11
98.864813
 21
218.886542
 31
0.0
  0
LINE
  5
1B3
330
1F
100
AcDbEntity
  8
LC-001-100-D00-0
 62
     7
370
    50
100
AcDbLine
 10
98.864813
 20
220.386542
 30
0.0
 11
98.864813
 21
218.886542
 31
0.0
  0
LINE
  5
1B4
330
1F
100
AcDbEntity
  8
LC-001-100-D00-0
 62
     7
370
    50
100
AcDbLine
 10
101.164813
 20
220.386542
 30
0.0
 11
98.864813
 21
220.386542
 31
0.0
  0
LINE
  5
1B5
330
1F
100
AcDbEntity
  8
LC-001-100-D00-0
 62
     7
370
    50
100
AcDbLine
 10
101.164813
 20
223.886542
 30
0.0
 11
101.164813
 21
220.386542
 31
0.0
  0
LINE
  5
1B6
330
1F
100
AcDbEntity
  8
LC-001-100-D00-0
 62
     7
370
    50
100
AcDbLine
 10
101.164813
 20
223.886542
 30
0.0
 11
98.864813
 21
223.886542
 31
0.0
  0
LINE
  5
1B7
330
1F
100
AcDbEntity
  8
LC-001-100-D00-0
 62
     7
370
    50
100
AcDbLine
 10
98.864813
 20
223.886542
 30
0.0
 11
98.864813
 21
225.386542
 31
0.0
  0
LINE
  5
1B8
330
1F
100
AcDbEntity
  8
LC-001-100-D00-0
 62
     7
370
    50
100
AcDbLine
 10
102.864813
 20
225.386542
 30
0.0
 11
98.864813
 21
225.386542
 31
0.0
  0
LINE
  5
1B9
330
1F
100
AcDbEntity
  8
LC-001-100-D00-0
 62
     7
370
    50
100
AcDbLine
 10
102.864813
 20
234.386542
 30
0.0
 11
102.864813
 21
225.386542
 31
0.0
  0
ARC
  5
1BA
330
1F
100
AcDbEntity
  8
LC-001-100-D00-0
 62
     7
370
    50
100
AcDbCircle
 10
103.864813
 20
234.386542
 30
0.0
 40
1.0
100
AcDbArc
 50
90.0
 51
180.0
  0
LINE
  5
1BB
330
1F
100
AcDbEntity
  8
LC-001-100-D00-0
 62
     7
370
    50
100
AcDbLine
 10
103.864814
 20
235.386542
 30
0.0
 11
117.191541
 21
235.386542
 31
0.0
  0
LINE
  5
1BC
330
1F
100
AcDbEntity
  8
LC-001-100-D00-0
 62
     7
370
    50
100
AcDbLine
 10
117.191541
 20
235.486542
 30
0.0
 11
117.191541
 21
235.386542
 31
0.0
  0
LINE
  5
1BD
330
1F
100
AcDbEntity
  8
LC-001-100-D00-0
 62
     7
370
    50
100
AcDbLine
 10
117.191541
 20
235.486542
 30
0.0
 11
118.350929
 21
235.486542
 31
0.0
  0
LINE
  5
1BE
330
1F
100
AcDbEntity
  8
LC-001-100-D00-0
 62
     7
370
    50
100
AcDbLine
 10
146.864813
 20
218.886542
 30
0.0
 11
146.864813
 21
220.386542
 31
0.0
  0
LINE
  5
1BF
330
1F
100
AcDbEntity
  8
LC-001-100-D00-0
 62
     7
370
    50
100
AcDbLine
 10
146.864813
 20
218.886542
 30
0.0
 11
142.864813
 21
218.886542
 31
0.0
  0
LINE
  5
1C0
330
1F
100
AcDbEntity
  8
LC-001-100-D00-0
 62
     7
370
    50
100
AcDbLine
 10
142.864813
 20
194.886542
 30
0.0
 11
142.864813
 21
218.886542
 31
0.0
  0
LINE
  5
1C1
330
1F
100
AcDbEntity
  8
LC-001-100-D00-0
 62
     7
370
    50
100
AcDbLine
 10
142.864813
 20
194.886542
 30
0.0
 11
141.364813
 21
194.886542
 31
0.0
  0
LINE
  5
1C2
330
1F
100
AcDbEntity
  8
LC-001-100-D00-0
 62
     7
370
    50
100
AcDbLine
 10
141.364813
 20
194.886542
 30
0.0
 11
141.364813
 21
225.386542
 31
0.0
  0
LINE
  5
1C3
330
1F
100
AcDbEntity
  8
LC-001-100-D00-0
 62
     7
370
    50
100
AcDbLine
 10
146.864813
 20
225.386542
 30
0.0
 11
141.364813
 21
225.386542
 31
0.0
  0
LINE
  5
1C4
330
1F
100
AcDbEntity
  8
LC-001-100-D00-0
 62
     7
370
    50
100
AcDbLine
 10
146.864813
 20
225.386542
 30
0.0
 11
146.864813
 21
223.886542
 31
0.0
  0
LINE
  5
1C5
330
1F
100
AcDbEntity
  8
LC-001-100-D00-0
 62
     7
370
    50
100
AcDbLine
 10
144.564813
 20
220.386542
 30
0.0
 11
144.564813
 21
223.886542
 31
0.0
  0
LINE
  5
1C6
330
1F
100
AcDbEntity
  8
LC-001-100-D00-0
 62
     7
370
    50
100
AcDbLine
 10
146.864813
 20
220.386542
 30
0.0
 11
144.564813
 21
220.386542
 31
0.0
  0
LINE
  5
1C7
330
1F
100
AcDbEntity
  8
LC-001-100-D00-0
 62
     7
370
    50
100
AcDbLine
 10
146.864813
 20
223.886542
 30
0.0
 11
144.564813
 21
223.886542
 31
0.0
  0
LINE
  5
1C8
330
1F
100
AcDbEntity
  8
LC-001-100-D00-0
 62
     7
370
    50
100
AcDbLine
 10
119.104531
 20
235.486542
 30
0.0
 11
118.350929
 21
235.486542
 31
0.0
  0
LINE
  5
1C9
330
1F
100
AcDbEntity
  8
LC-001-100-D00-0
 62
     7
370
    50
100
AcDbLine
 10
116.148091
 20
235.486542
 30
0.0
 11
116.148091
 21
235.386542
 31
0.0
  0
LINE
  5
1CA
330
1F
100
AcDbEntity
  8
LC-001-100-D00-0
 62
     7
370
    50
100
AcDbLine
 10
117.191541
 20
235.486542
 30
0.0
 11
116.148091
 21
235.486542
 31
0.0
  0
LINE
  5
1CB
330
1F
100
AcDbEntity
  8
LC-001-100-D00-0
 62
     7
370
    50
100
AcDbLine
 10
129.614813
 20
218.886542
 30
0.0
 11
141.364813
 21
218.886542
 31
0.0
  0
LINE
  5
1CC
330
1F
100
AcDbEntity
  8
LC-001-100-D00-0
 62
     7
370
    50
100
AcDbLine
 10
129.364813
 20
239.636541
 30
0.0
 11
129.364813
 21
235.04798
 31
0.0
  0
LINE
  5
1CD
330
1F
100
AcDbEntity
  8
LC-001-100-D00-0
 62
     7
370
    50
100
AcDbLine
 10
141.864812
 20
225.386542
 30
0.0
 11
141.864812
 21
239.636541
 31
0.0
  0
ARC
  5
1CE
330
1F
100
AcDbEntity
  8
LC-001-100-D00-0
 62
     7
370
    50
100
AcDbCircle
 10
135.614813
 20
239.636542
 30
0.0
 40
6.25
100
AcDbArc
 50
0.0
 51
180.0
  0
LINE
  5
1CF
330
1F
100
AcDbEntity
  8
LC-001-100-D00-0
 62
     7
370
    50
100
AcDbLine
 10
128.114813
 20
218.886542
 30
0.0
 11
104.364813
 21
218.886542
 31
0.0
  0
LINE
  5
1D0
330
1F
100
AcDbEntity
  8
LC-001-100-D00-0
 62
     7
370
    50
100
AcDbLine
 10
120.81076
 20
235.486542
 30
0.0
 11
120.81076
 21
235.386542
 31
0.0
  0
LINE
  5
1D1
330
1F
100
AcDbEntity
  8
LC-001-100-D00-0
 62
     7
370
    50
100
AcDbLine
 10
120.147988
 20
235.486542
 30
0.0
 11
120.81076
 21
235.486542
 31
0.0
  0
LINE
  5
1D2
330
1F
100
AcDbEntity
  8
LC-001-100-D00-0
 62
     7
370
    50
100
AcDbLine
 10
115.144695
 20
235.486542
 30
0.0
 11
115.144695
 21
235.386542
 31
0.0
  0
LINE
  5
1D3
330
1F
100
AcDbEntity
  8
LC-001-100-D00-0
 62
     7
370
    50
100
AcDbLine
 10
116.148091
 20
235.486542
 30
0.0
 11
115.144695
 21
235.486542
 31
0.0
  0
LINE
  5
1D4
330
1F
100
AcDbEntity
  8
LC-001-100-D00-0
 62
     7
370
    50
100
AcDbLine
 10
120.81076
 20
235.486542
 30
0.0
 11
120.872688
 21
235.486542
 31
0.0
  0
LINE
  5
1D5
330
1F
100
AcDbEntity
  8
LC-001-100-D00-0
 62
     7
370
    50
100
AcDbLine
 10
115.133536
 20
235.486542
 30
0.0
 11
115.144695
 21
235.486542
 31
0.0
  0
LINE
  5
1D6
330
1F
100
AcDbEntity
  8
LC-001-100-D00-0
 62
     7
370
    50
100
AcDbLine
 10
129.614813
 20
194.886542
 30
0.0
 11
141.364813
 21
194.886542
 31
0.0
  0
INSERT
  5
1EE
330
1F
100
AcDbEntity
  8
LC-001-100-D00-0
 62
     7
370
    50
100
AcDbBlockReference
  2
KLON3
 10
0.0
 20
0.0
 30
0.0
  0
INSERT
  5
1F9
330
1F
100
AcDbEntity
  8
LC-001-100-D00-0
 62
     7
370
    50
100
AcDbBlockReference
  2
KLON4
 10
0.0
 20
0.0
 30
0.0
  0
LINE
  5
1FA
330
1F
100
AcDbEntity
  8
LC-001-100-D00-0
 62
     7
370
    50
100
AcDbLine
 10
99.153512
 20
220.38697
 30
0.0
 11
100.864385
 21
222.097843
 31
0.0
  0
LINE
  5
1FB
330
1F
100
AcDbEntity
  8
LC-001-100-D00-0
 62
     7
370
    50
100
AcDbLine
 10
145.040383
 20
221.37256
 30
0.0
 11
147.378795
 21
223.710972
 31
0.0
  0
DIMENSION
  5
1FC
330
1F
100
AcDbEntity
  8
LC-001-100-D00-0
 62
     7
370
    25
100
AcDbDimension
  2
*D7
 10
90.043893
 20
218.886542
 30
0.0
 11
59.243893
 21
208.187603
 31
0.0
 70
   160
 71
     5
 42
24.0
 53
90.0
  3
LC-DIM-L-0140-02-02
100
AcDbAlignedDimension
 13
128.114813
 23
194.886542
 33
0.0
 14
98.864813
 24
218.886542
 34
0.0
 50
90.0
100
AcDbRotatedDimension
  0
DIMENSION
  5
20C
330
1F
100
AcDbEntity
  8
LC-001-100-D00-0
 62
     7
370
    25
100
AcDbDimension
  2
*D8
 10
50.354465
 20
235.386542
 30
0.0
 11
19.554465
 21
238.765
 31
0.0
 70
   160
  1
40,5
 71
     5
 42
40.5
 53
90.0
  3
LC-DIM-L-0140-01-02
100
AcDbAlignedDimension
 13
128.114813
 23
194.886542
 33
0.0
 14
103.864813
 24
235.386542
 34
0.0
 50
90.0
100
AcDbRotatedDimension
  0
ENDSEC
  0
SECTION
  2
OBJECTS
  0
DICTIONARY
  5
C
330
0
100
AcDbDictionary
281
     1
  3
ACAD_GROUP
350
D
  3
ACAD_LAYOUT
350
1A
  3
ACAD_MLINESTYLE
350
17
  3
ACAD_PLOTSETTINGS
350
19
  3
ACAD_PLOTSTYLENAME
350
E
  0
DICTIONARY
  5
D
102
{ACAD_REACTORS
330
C
102
}
330
C
100
AcDbDictionary
281
     1
  0
DICTIONARY
  5
1A
102
{ACAD_REACTORS
330
C
102
}
330
C
100
AcDbDictionary
281
     1
  3
Layout1
350
1E
  3
Layout2
350
26
  3
Model
350
22
  0
DICTIONARY
  5
17
102
{ACAD_REACTORS
330
C
102
}
330
C
100
AcDbDictionary
281
     1
  3
Standard
350
18
  0
DICTIONARY
  5
19
102
{ACAD_REACTORS
330
C
102
}
330
C
100
AcDbDictionary
281
     1
  0
ACDBDICTIONARYWDFLT
  5
E
102
{ACAD_REACTORS
330
C
102
}
330
C
100
AcDbDictionary
281
     1
  3
Normal
350
F
100
AcDbDictionaryWithDefault
340
F
  0
LAYOUT
  5
1E
102
{ACAD_REACTORS
330
1A
102
}
330
1A
100
AcDbPlotSettings
  1

  2

  4

  6

 40
0.0
 41
0.0
 42
0.0
 43
0.0
 44
0.0
 45
0.0
 46
0.0
 47
0.0
 48
0.0
 49
0.0
140
0.0
141
0.0
142
1.0
143
1.0
 70
   688
 72
     0
 73
     0
 74
     5
  7

 75
    16
147
1.0
148
0.0
149
0.0
100
AcDbLayout
  1
Layout1
 70
     1
 71
     1
 10
-229.911745
 20
-109.319
 11
610.088255
 21
484.681
 12
0.0
 22
0.0
 32
0.0
 14
-229.911745
 24
-109.319
 34
0.0
 15
610.088255
 25
484.681
 35
0.0
146
0.0
 13
0.0
 23
0.0
 33
0.0
 16
1.0
 26
0.0
 36
0.0
 17
0.0
 27
1.0
 37
0.0
 76
     0
330
1B
  0
LAYOUT
  5
26
102
{ACAD_REACTORS
330
1A
102
}
330
1A
100
AcDbPlotSettings
  1

  2

  4

  6

 40
0.0
 41
0.0
 42
0.0
 43
0.0
 44
0.0
 45
0.0
 46
0.0
 47
0.0
 48
0.0
 49
0.0
140
0.0
141
0.0
142
1.0
143
1.0
 70
   688
 72
     0
 73
     0
 74
     5
  7

 75
    16
147
1.0
148
0.0
149
0.0
100
AcDbLayout
  1
Layout2
 70
     1
 71
     2
 10
0.0
 20
0.0
 11
0.0
 21
0.0
 12
0.0
 22
0.0
 32
0.0
 14
0.0
 24
0.0
 34
0.0
 15
0.0
 25
0.0
 35
0.0
146
0.0
 13
0.0
 23
0.0
 33
0.0
 16
1.0
 26
0.0
 36
0.0
 17
0.0
 27
1.0
 37
0.0
 76
     0
330
23
  0
LAYOUT
  5
22
102
{ACAD_REACTORS
330
1A
102
}
330
1A
100
AcDbPlotSettings
  1

  2

  4

  6

 40
0.0
 41
0.0
 42
0.0
 43
0.0
 44
0.0
 45
0.0
 46
0.0
 47
0.0
 48
0.0
 49
0.0
140
0.0
141
0.0
142
1.0
143
1.0
 70
  1776
 72
     0
 73
     0
 74
     0
  7

 75
     0
147
1.0
148
0.0
149
0.0
100
AcDbLayout
  1
Model
 70
     1
 71
     0
 10
-229.911745
 20
-109.319
 11
610.088255
 21
484.681
 12
0.0
 22
0.0
 32
0.0
 14
-229.911745
 24
-109.319
 34
0.0
 15
610.088255
 25
484.681
 35
0.0
146
0.0
 13
0.0
 23
0.0
 33
0.0
 16
1.0
 26
0.0
 36
0.0
 17
0.0
 27
1.0
 37
0.0
 76
     0
330
1F
  0
MLINESTYLE
  5
18
102
{ACAD_REACTORS
330
17
102
}
330
17
100
AcDbMlineStyle
  2
Standard
 70
     0
  3

 62
   256
 51
90.0
 52
90.0
 71
     2
 49
0.5
 62
   256
  6
BYLAYER
 49
-0.5
 62
   256
  6
BYLAYER
  0
ACDBPLACEHOLDER
  5
F
102
{ACAD_REACTORS
330
E
102
}
330
E
  0
ENDSEC
  0
EOF
