  0
SECTION
  2
HEADER
  9
$ACADVER
  1
AC1009
  9
$DWGCODEPAGE
  3
dos850
  9
$INSBASE
 10
185.822675
 20
122.406503
 30
0.0
  9
$EXTMIN
 10
-24.177325
 20
-26.093497
 30
0.0
  9
$EXTMAX
 10
815.822675
 20
567.906503
 30
0.0
  9
$LIMMIN
 10
-24.177325
 20
-26.093497
  9
$LIMMAX
 10
815.822675
 20
567.906503
  9
$ORTHOMODE
 70
     0
  9
$REGENMODE
 70
     1
  9
$FILLMODE
 70
     1
  9
$QTEXTMODE
 70
     0
  9
$MIRRTEXT
 70
     1
  9
$DRAGMODE
 70
     2
  9
$LTSCALE
 40
2.0
  9
$OSMODE
 70
     0
  9
$ATTMODE
 70
     1
  9
$TEXTSIZE
 40
0.2
  9
$TRACEWID
 40
0.05
  9
$TEXTSTYLE
  7
STANDARD
  9
$CLAYER
  8
0
  9
$CELTYPE
  6
BYBLOCK
  9
$CECOLOR
 62
     7
  9
$DIMSCALE
 40
2.0
  9
$DIMASZ
 40
3.5
  9
$DIMEXO
 40
0.0625
  9
$DIMDLI
 40
0.38
  9
$DIMRND
 40
0.0
  9
$DIMDLE
 40
0.0
  9
$DIMEXE
 40
0.18
  9
$DIMTP
 40
0.0
  9
$DIMTM
 40
0.0
  9
$DIMTXT
 40
3.5
  9
$DIMCEN
 40
0.09
  9
$DIMTSZ
 40
0.0
  9
$DIMTOL
 70
     0
  9
$DIMLIM
 70
     0
  9
$DIMTIH
 70
     1
  9
$DIMTOH
 70
     1
  9
$DIMSE1
 70
     0
  9
$DIMSE2
 70
     0
  9
$DIMTAD
 70
     1
  9
$DIMZIN
 70
     0
  9
$DIMBLK
  1

  9
$DIMASO
 70
     1
  9
$DIMSHO
 70
     1
  9
$DIMPOST
  1

  9
$DIMAPOST
  1

  9
$DIMALT
 70
     0
  9
$DIMALTD
 70
     2
  9
$DIMALTF
 40
25.4
  9
$DIMLFAC
 40
1.0
  9
$DIMTOFL
 70
     0
  9
$DIMTVP
 40
0.0
  9
$DIMTIX
 70
     0
  9
$DIMSOXD
 70
     0
  9
$DIMSAH
 70
     0
  9
$DIMBLK1
  1

  9
$DIMBLK2
  1

  9
$DIMSTYLE
  2
STANDARD
  9
$DIMCLRD
 70
     0
  9
$DIMCLRE
 70
     0
  9
$DIMCLRT
 70
     0
  9
$DIMTFAC
 40
1.0
  9
$DIMGAP
 40
0.09
  9
$LUNITS
 70
     2
  9
$LUPREC
 70
     6
  9
$AXISMODE
 70
     0
  9
$AXISUNIT
 10
0.0
 20
0.0
  9
$SKETCHINC
 40
0.1
  9
$FILLETRAD
 40
0.0
  9
$AUNITS
 70
     0
  9
$AUPREC
 70
     0
  9
$MENU
  1
acad
  9
$ELEVATION
 40
0.0
  9
$PELEVATION
 40
0.0
  9
$THICKNESS
 40
0.0
  9
$LIMCHECK
 70
     0
  9
$BLIPMODE
 70
     1
  9
$CHAMFERA
 40
0.0
  9
$CHAMFERB
 40
0.0
  9
$SKPOLY
 70
     0
  9
$TDCREATE
 40
0.000000000
  9
$TDUPDATE
 40
0.000000000
  9
$TDINDWG
 40
0.0000000000
  9
$TDUSRTIMER
 40
0.0000000000
  9
$USRTIMER
 70
     1
  9
$ANGBASE
 50
0.0
  9
$ANGDIR
 70
     0
  9
$PDMODE
 70
     0
  9
$PDSIZE
 40
0.0
  9
$PLINEWID
 40
0.0
  9
$COORDS
 70
     0
  9
$SPLFRAME
 70
     0
  9
$SPLINETYPE
 70
     6
  9
$SPLINESEGS
 70
     8
  9
$ATTDIA
 70
     0
  9
$ATTREQ
 70
     1
  9
$HANDLING
 70
     1
  9
$HANDSEED
  5
323
  9
$SURFTAB1
 70
     6
  9
$SURFTAB2
 70
     6
  9
$SURFTYPE
 70
     6
  9
$SURFU
 70
     6
  9
$SURFV
 70
     6
  9
$UCSNAME
  2

  9
$UCSORG
 10
0.0
 20
0.0
 30
0.0
  9
$UCSXDIR
 10
1.0
 20
0.0
 30
0.0
  9
$UCSYDIR
 10
0.0
 20
1.0
 30
0.0
  9
$PUCSNAME
  2

  9
$PUCSORG
 10
0.0
 20
0.0
 30
0.0
  9
$PUCSXDIR
 10
1.0
 20
0.0
 30
0.0
  9
$PUCSYDIR
 10
0.0
 20
1.0
 30
0.0
  9
$USERI1
 70
     0
  9
$USERI2
 70
     0
  9
$USERI3
 70
     0
  9
$USERI4
 70
     0
  9
$USERI5
 70
     0
  9
$USERR1
 40
0.0
  9
$USERR2
 40
0.0
  9
$USERR3
 40
0.0
  9
$USERR4
 40
0.0
  9
$USERR5
 40
0.0
  9
$WORLDVIEW
 70
     1
  9
$SHADEDGE
 70
     3
  9
$SHADEDIF
 70
    70
  9
$TILEMODE
 70
     1
  9
$MAXACTVP
 70
    16
  9
$PINSBASE
 10
0.0
 20
0.0
 30
0.0
  9
$PLIMCHECK
 70
     0
  9
$PEXTMIN
 10
-24.177325
 20
-26.093497
 30
0.0
  9
$PEXTMAX
 10
815.822675
 20
567.906503
 30
0.0
  9
$PLIMMIN
 10
-24.177325
 20
-26.093497
  9
$PLIMMAX
 10
815.822675
 20
567.906503
  9
$UNITMODE
 70
     0
  9
$VISRETAIN
 70
     0
  9
$PLINEGEN
 70
     1
  9
$PSLTSCALE
 70
     0
  9
$TREEDEPTH
 70
  3020
  0
ENDSEC
  0
SECTION
  2
TABLES
  0
TABLE
  2
VPORT
 70
     1
  0
VPORT
  2
*ACTIVE
 70
     0
 10
0.0
 20
0.0
 11
1.0
 21
1.0
 12
420.0
 22
297.0
 13
0.0
 23
0.0
 14
1.0
 24
1.0
 15
0.0
 25
0.0
 16
0.0
 26
0.0
 36
1.0
 17
-24.177325
 27
-26.093497
 37
0.0
 40
594.0
 41
1.604229
 42
50.0
 43
0.0
 44
0.0
 50
0.0
 51
0.0
 71
     0
 72
   100
 73
     1
 74
     1
 75
     0
 76
     0
 77
     0
 78
     0
  0
ENDTAB
  0
TABLE
  2
LTYPE
 70
     3
  0
LTYPE
  2
CONTINUOUS
 70
    64
  3
Solid line
 72
    65
 73
     0
 40
0.0
  0
LTYPE
  2
CENTER
 70
    64
  3
LC-Solid line
 72
    65
 73
     4
 40
4.0
 49
2.0
 49
-0.9
 49
0.2
 49
-0.9
  0
LTYPE
  2
DASHDOT
 70
    64
  3
LC-Solid line
 72
    65
 73
     4
 40
4.0
 49
2.0
 49
-0.9
 49
0.2
 49
-0.9
  0
ENDTAB
  0
TABLE
  2
LAYER
 70
    15
  0
LAYER
  2
0
 70
     0
 62
     7
  6
CONTINUOUS
  0
LAYER
  2
LC-INFO-1-2-MM-A3-0
 70
     1
 62
   255
  6
BYBLOCK
  0
LAYER
  2
LC-3D-HIDDEN
 70
     0
 62
     9
  6
BYBLOCK
  0
LAYER
  2
LC-CUT-HIDDEN
 70
     0
 62
     9
  6
BYBLOCK
  0
LAYER
  2
LC-VIEWPORT
 70
     0
 62
     7
  6
BYBLOCK
  0
LAYER
  2
LC-001-100-D03-0
 70
     0
 62
     1
  6
BYBLOCK
  0
LAYER
  2
LC-002-100-D01-0
 70
     0
 62
     1
  6
BYBLOCK
  0
LAYER
  2
LC-003-002-RND-0
 70
     0
 62
     1
  6
BYBLOCK
  0
LAYER
  2
LC-004-002-----0
 70
     0
 62
     1
  6
BYBLOCK
  0
LAYER
  2
LC-005-005-----0
 70
     0
 62
     2
  6
BYBLOCK
  0
LAYER
  2
LC-006-006-MLN-0
 70
     0
 62
     2
  6
CENTER
  0
LAYER
  2
LC-007-003-MTH-0
 70
     0
 62
     2
  6
BYBLOCK
  0
LAYER
  2
LC-008-003-----0
 70
     0
 62
     2
  6
BYBLOCK
  0
LAYER
  2
LC-009-003-MTG-0
 70
     0
 62
     2
  6
BYBLOCK
  0
LAYER
  2
LC-010-007-KH--0
 70
     0
 62
    44
  6
DASHDOT
  0
ENDTAB
  0
TABLE
  2
STYLE
 70
     3
  0
STYLE
  2
STANDARD
 70
     0
 40
0.0
 41
1.0
 50
0.0
 71
     0
 42
0.0
  3
txt
  4

  0
STYLE
  2
LCTX15-400-0-0-ARIAL
 70
    64
 40
3.5
 41
1.0
 50
0.0
 71
     0
 42
0.0
  3
Arial
  4

  0
STYLE
  2
LCTX15-400-0-0-DIN-SCHRIF2
 70
    64
 40
0.0
 41
1.0
 50
1.5
 71
     0
 42
3.5
  3
STANDARD
  4

  0
ENDTAB
  0
TABLE
  2
VIEW
 70
     0
  0
ENDTAB
  0
TABLE
  2
UCS
 70
     0
  0
ENDTAB
  0
TABLE
  2
APPID
 70
     1
  0
APPID
  2
ACAD
 70
     0
  0
ENDTAB
  0
TABLE
  2
DIMSTYLE
 70
     2
  0
DIMSTYLE
  2
STANDARD
 70
     0
  3

  4

  5

  6

  7

 40
1.0
 41
0.18
 42
0.0625
 43
0.38
 44
0.18
 45
0.0
 46
0.0
 47
0.0
 48
0.0
 71
     0
 72
     0
 73
     1
 74
     1
 75
     0
 76
     0
 77
     0
 78
     0
140
0.18
141
0.09
142
0.0
143
25.4
144
1.0
145
0.0
146
1.0
147
0.09
170
     0
171
     2
172
     0
173
     0
174
     0
175
     0
176
     0
177
     0
178
     0
  0
DIMSTYLE
  2
LC-DIM-L-0140-02-02
 70
     0
  3

  4

  5

  6

  7

 40
2.0
 41
3.5
 42
0.0
 43
7.5
 44
1.8
 45
0.0
 46
0.0
 47
0.0
 48
0.0
 71
     0
 72
     0
 73
     0
 74
     0
 75
     0
 76
     0
 77
     1
 78
     8
140
14.0
141
0.0
142
0.0
143
25.4
144
1.0
145
0.0
146
0.71
147
1.5
170
     0
171
     2
172
     0
173
     0
174
     0
175
     0
176
     2
177
     2
178
     2
  0
ENDTAB
  0
ENDSEC
  0
SECTION
  2
BLOCKS
  0
BLOCK
  8
0
  5
6D
  2
*X0
 70
    65
 10
255.896188
 20
400.373154
 30
0.0
  3
*X0
  0
LINE
  8
LC-005-005-----0
  6
BYBLOCK
 62
     2
  5
6F
 10
258.951798
 20
400.373154
 30
0.0
 11
260.604731
 21
402.026087
 31
0.0
  0
LINE
  8
LC-005-005-----0
 62
     2
  5
70
 10
262.179683
 20
403.601039
 30
0.0
 11
263.635453
 21
405.05681
 31
0.0
  0
LINE
  8
LC-005-005-----0
 62
     2
  5
71
 10
256.704369
 20
400.954152
 30
0.0
 11
262.600177
 21
406.849961
 31
0.0
  0
LINE
  8
LC-005-005-----0
 62
     2
  5
72
 10
256.365976
 20
403.444187
 30
0.0
 11
261.551368
 21
408.629579
 31
0.0
  0
LINE
  8
LC-005-005-----0
 62
     2
  5
73
 10
256.496188
 20
406.402825
 30
0.0
 11
259.160425
 21
409.067062
 31
0.0
  0
ENDBLK
  8
0
  5
74
  0
BLOCK
  8
0
  5
77
  2
*X1
 70
    65
 10
370.096188
 20
400.373154
 30
0.0
  3
*X1
  0
LINE
  8
LC-005-005-----0
 62
     2
  5
78
 10
374.91731
 20
400.373154
 30
0.0
 11
378.455989
 21
403.911833
 31
0.0
  0
LINE
  8
LC-005-005-----0
 62
     2
  5
79
 10
373.918862
 20
402.203134
 30
0.0
 11
377.996188
 21
406.280459
 31
0.0
  0
LINE
  8
LC-005-005-----0
 62
     2
  5
7A
 10
372.552633
 20
403.665331
 30
0.0
 11
377.462991
 21
408.57569
 31
0.0
  0
LINE
  8
LC-005-005-----0
 62
     2
  5
7B
 10
370.503446
 20
404.444571
 30
0.0
 11
375.162718
 21
409.103843
 31
0.0
  0
ENDBLK
  8
0
  5
7C
  0
BLOCK
  8
0
  5
B0
  2
*X2
 70
    65
 10
384.446188
 20
356.072068
 30
0.0
  3
*X2
  0
LINE
  8
LC-005-005-----0
 62
     2
  5
B1
 10
410.865738
 20
365.610904
 30
0.0
 11
411.290002
 21
366.035168
 31
0.0
  0
LINE
  8
LC-005-005-----0
 62
     2
  5
B2
 10
407.002034
 20
364.575628
 30
0.0
 11
407.426299
 21
364.999892
 31
0.0
  0
LINE
  8
LC-005-005-----0
 62
     2
  5
B3
 10
403.138331
 20
363.540351
 30
0.0
 11
403.562595
 21
363.964615
 31
0.0
  0
LINE
  8
LC-005-005-----0
 62
     2
  5
B4
 10
399.274628
 20
362.505075
 30
0.0
 11
399.698892
 21
362.929339
 31
0.0
  0
LINE
  8
LC-005-005-----0
 62
     2
  5
B5
 10
390.020286
 20
356.079161
 30
0.0
 11
390.349757
 21
356.408631
 31
0.0
  0
LINE
  8
LC-005-005-----0
 62
     2
  5
B6
 10
394.709624
 20
360.768499
 30
0.0
 11
395.039095
 21
361.09797
 31
0.0
  0
LINE
  8
LC-005-005-----0
 62
     2
  5
B7
 10
395.410925
 20
361.469799
 30
0.0
 11
395.835189
 21
361.894063
 31
0.0
  0
LINE
  8
LC-005-005-----0
 62
     2
  5
B8
 10
387.184766
 20
356.072068
 30
0.0
 11
387.484766
 21
356.372068
 31
0.0
  0
ENDBLK
  8
0
  5
B9
  0
BLOCK
  8
0
  5
C4
  2
*X3
 70
    65
 10
222.784207
 20
356.072068
 30
0.0
  3
*X3
  0
LINE
  8
LC-005-005-----0
 62
     2
  5
C5
 10
245.76341
 20
356.072068
 30
0.0
 11
246.06341
 21
356.372068
 31
0.0
  0
LINE
  8
LC-005-005-----0
 62
     2
  5
C6
 10
243.173648
 20
356.310733
 30
0.0
 11
243.415349
 21
356.552434
 31
0.0
  0
LINE
  8
LC-005-005-----0
 62
     2
  5
C7
 10
241.343279
 20
357.308792
 30
0.0
 11
241.55629
 21
357.521802
 31
0.0
  0
LINE
  8
LC-005-005-----0
 62
     2
  5
C8
 10
240.074697
 20
358.868636
 30
0.0
 11
240.296912
 21
359.090851
 31
0.0
  0
LINE
  8
LC-005-005-----0
 62
     2
  5
C9
 10
239.45442
 20
361.076786
 30
0.0
 11
239.746189
 21
361.368555
 31
0.0
  0
LINE
  8
LC-005-005-----0
 62
     2
  5
CA
 10
237.454851
 20
361.905645
 30
0.0
 11
237.6998
 21
362.150594
 31
0.0
  0
LINE
  8
LC-005-005-----0
 62
     2
  5
CB
 10
235.224141
 20
362.503362
 30
0.0
 11
235.46909
 21
362.748311
 31
0.0
  0
LINE
  8
LC-005-005-----0
 62
     2
  5
CC
 10
232.993431
 20
363.101079
 30
0.0
 11
233.23838
 21
363.346028
 31
0.0
  0
LINE
  8
LC-005-005-----0
 62
     2
  5
CD
 10
230.762721
 20
363.698796
 30
0.0
 11
231.00767
 21
363.943745
 31
0.0
  0
LINE
  8
LC-005-005-----0
 62
     2
  5
CE
 10
228.532011
 20
364.296513
 30
0.0
 11
228.77696
 21
364.541462
 31
0.0
  0
LINE
  8
LC-005-005-----0
 62
     2
  5
CF
 10
226.301301
 20
364.89423
 30
0.0
 11
226.54625
 21
365.139179
 31
0.0
  0
LINE
  8
LC-005-005-----0
 62
     2
  5
D0
 10
224.070591
 20
365.491947
 30
0.0
 11
224.31554
 21
365.736896
 31
0.0
  0
ENDBLK
  8
0
  5
D1
  0
BLOCK
  8
0
  5
D8
  2
*X4
 70
    65
 10
348.746188
 20
310.872068
 30
0.0
  3
*X4
  0
LINE
  8
LC-005-005-----0
 62
     2
  5
D9
 10
353.108306
 20
311.572068
 30
0.0
 11
353.808306
 21
310.872068
 31
0.0
  0
LINE
  8
LC-005-005-----0
 62
     2
  5
DA
 10
355.825642
 20
311.683159
 30
0.0
 11
356.403346
 21
311.105455
 31
0.0
  0
LINE
  8
LC-005-005-----0
 62
     2
  5
DB
 10
357.798199
 20
312.539029
 30
0.0
 11
358.299687
 21
312.037542
 31
0.0
  0
LINE
  8
LC-005-005-----0
 62
     2
  5
DC
 10
359.186819
 20
313.978836
 30
0.0
 11
359.691385
 21
313.474271
 31
0.0
  0
LINE
  8
LC-005-005-----0
 62
     2
  5
DD
 10
359.976803
 20
316.01728
 30
0.0
 11
360.569075
 21
315.425008
 31
0.0
  0
LINE
  8
LC-005-005-----0
 62
     2
  5
DE
 10
360.046188
 20
318.776322
 30
0.0
 11
360.746188
 21
318.076322
 31
0.0
  0
LINE
  8
LC-005-005-----0
 62
     2
  5
DF
 10
360.046188
 20
321.604749
 30
0.0
 11
360.746188
 21
320.904749
 31
0.0
  0
LINE
  8
LC-005-005-----0
 62
     2
  5
E0
 10
360.046188
 20
324.433177
 30
0.0
 11
360.746188
 21
323.733177
 31
0.0
  0
LINE
  8
LC-005-005-----0
 62
     2
  5
E1
 10
360.046188
 20
327.261604
 30
0.0
 11
360.746188
 21
326.561604
 31
0.0
  0
LINE
  8
LC-005-005-----0
 62
     2
  5
E2
 10
360.046188
 20
330.090031
 30
0.0
 11
360.746188
 21
329.390031
 31
0.0
  0
LINE
  8
LC-005-005-----0
 62
     2
  5
E3
 10
360.046188
 20
332.918458
 30
0.0
 11
360.746188
 21
332.218458
 31
0.0
  0
LINE
  8
LC-005-005-----0
 62
     2
  5
E4
 10
360.046188
 20
335.746885
 30
0.0
 11
360.746188
 21
335.046885
 31
0.0
  0
LINE
  8
LC-005-005-----0
 62
     2
  5
E5
 10
360.046188
 20
338.575312
 30
0.0
 11
360.746188
 21
337.875312
 31
0.0
  0
LINE
  8
LC-005-005-----0
 62
     2
  5
E6
 10
360.046188
 20
341.403739
 30
0.0
 11
360.746188
 21
340.703739
 31
0.0
  0
LINE
  8
LC-005-005-----0
 62
     2
  5
E7
 10
360.046188
 20
344.232166
 30
0.0
 11
360.746188
 21
343.532166
 31
0.0
  0
LINE
  8
LC-005-005-----0
 62
     2
  5
E8
 10
360.046188
 20
347.060594
 30
0.0
 11
360.746188
 21
346.360594
 31
0.0
  0
LINE
  8
LC-005-005-----0
 62
     2
  5
E9
 10
360.046188
 20
349.889021
 30
0.0
 11
360.746188
 21
349.189021
 31
0.0
  0
LINE
  8
LC-005-005-----0
 62
     2
  5
EA
 10
360.435311
 20
352.328324
 30
0.0
 11
360.956542
 21
351.807093
 31
0.0
  0
LINE
  8
LC-005-005-----0
 62
     2
  5
EB
 10
361.504916
 20
354.087147
 30
0.0
 11
361.95736
 21
353.634703
 31
0.0
  0
LINE
  8
LC-005-005-----0
 62
     2
  5
EC
 10
363.095767
 20
355.324722
 30
0.0
 11
363.554412
 21
354.866078
 31
0.0
  0
LINE
  8
LC-005-005-----0
 62
     2
  5
ED
 10
365.271308
 20
355.977609
 30
0.0
 11
365.876849
 21
355.372068
 31
0.0
  0
LINE
  8
LC-005-005-----0
 62
     2
  5
EE
 10
368.005276
 20
356.072068
 30
0.0
 11
368.705276
 21
355.372068
 31
0.0
  0
LINE
  8
LC-005-005-----0
 62
     2
  5
EF
 10
370.833703
 20
356.072068
 30
0.0
 11
371.533703
 21
355.372068
 31
0.0
  0
LINE
  8
LC-005-005-----0
 62
     2
  5
F0
 10
373.66213
 20
356.072068
 30
0.0
 11
374.36213
 21
355.372068
 31
0.0
  0
LINE
  8
LC-005-005-----0
 62
     2
  5
F1
 10
376.490557
 20
356.072068
 30
0.0
 11
377.190557
 21
355.372068
 31
0.0
  0
LINE
  8
LC-005-005-----0
 62
     2
  5
F2
 10
379.318984
 20
356.072068
 30
0.0
 11
380.018984
 21
355.372068
 31
0.0
  0
LINE
  8
LC-005-005-----0
 62
     2
  5
F3
 10
382.147411
 20
356.072068
 30
0.0
 11
382.847411
 21
355.372068
 31
0.0
  0
LINE
  8
LC-005-005-----0
 62
     2
  5
F4
 10
384.975839
 20
356.072068
 30
0.0
 11
385.675839
 21
355.372068
 31
0.0
  0
LINE
  8
LC-005-005-----0
 62
     2
  5
F5
 10
387.804266
 20
356.072068
 30
0.0
 11
388.504266
 21
355.372068
 31
0.0
  0
LINE
  8
LC-005-005-----0
 62
     2
  5
F6
 10
390.56851
 20
356.136251
 30
0.0
 11
391.163011
 21
355.54175
 31
0.0
  0
LINE
  8
LC-005-005-----0
 62
     2
  5
F7
 10
392.616561
 20
356.916627
 30
0.0
 11
393.121614
 21
356.411574
 31
0.0
  0
LINE
  8
LC-005-005-----0
 62
     2
  5
F8
 10
394.06361
 20
358.298005
 30
0.0
 11
394.564713
 21
357.796902
 31
0.0
  0
LINE
  8
LC-005-005-----0
 62
     2
  5
F9
 10
394.928529
 20
360.261513
 30
0.0
 11
395.50433
 21
359.685712
 31
0.0
  0
ENDBLK
  8
0
  5
FA
  0
BLOCK
  8
0
  5
FD
  2
*X5
 70
    65
 10
238.746188
 20
310.872068
 30
0.0
  3
*X5
  0
LINE
  8
LC-005-005-----0
 62
     2
  5
FE
 10
274.724559
 20
313.588283
 30
0.0
 11
276.462403
 21
311.850439
 31
0.0
  0
LINE
  8
LC-005-005-----0
 62
     2
  5
FF
 10
273.746188
 20
317.395081
 30
0.0
 11
274.449247
 21
316.692022
 31
0.0
  0
LINE
  8
LC-005-005-----0
 62
     2
  5
100
 10
279.566142
 20
311.575127
 30
0.0
 11
280.269201
 21
310.872068
 31
0.0
  0
LINE
  8
LC-005-005-----0
 62
     2
  5
101
 10
273.746188
 20
320.223509
 30
0.0
 11
274.446188
 21
319.523509
 31
0.0
  0
LINE
  8
LC-005-005-----0
 62
     2
  5
102
 10
273.746188
 20
323.051936
 30
0.0
 11
274.446188
 21
322.351936
 31
0.0
  0
LINE
  8
LC-005-005-----0
 62
     2
  5
103
 10
238.768222
 20
360.858328
 30
0.0
 11
239.626985
 21
359.999566
 31
0.0
  0
LINE
  8
LC-005-005-----0
 62
     2
  5
104
 10
243.373685
 20
356.252865
 30
0.0
 11
244.232448
 21
355.394103
 31
0.0
  0
LINE
  8
LC-005-005-----0
 62
     2
  5
105
 10
273.746188
 20
325.880363
 30
0.0
 11
274.446188
 21
325.180363
 31
0.0
  0
LINE
  8
LC-005-005-----0
 62
     2
  5
106
 10
246.382909
 20
356.072068
 30
0.0
 11
247.082909
 21
355.372068
 31
0.0
  0
LINE
  8
LC-005-005-----0
 62
     2
  5
107
 10
273.746188
 20
328.70879
 30
0.0
 11
274.446188
 21
328.00879
 31
0.0
  0
LINE
  8
LC-005-005-----0
 62
     2
  5
108
 10
249.211337
 20
356.072068
 30
0.0
 11
249.911337
 21
355.372068
 31
0.0
  0
LINE
  8
LC-005-005-----0
 62
     2
  5
109
 10
273.746188
 20
331.537217
 30
0.0
 11
274.446188
 21
330.837217
 31
0.0
  0
LINE
  8
LC-005-005-----0
 62
     2
  5
10A
 10
252.039764
 20
356.072068
 30
0.0
 11
252.739764
 21
355.372068
 31
0.0
  0
LINE
  8
LC-005-005-----0
 62
     2
  5
10B
 10
273.746188
 20
334.365644
 30
0.0
 11
274.446188
 21
333.665644
 31
0.0
  0
LINE
  8
LC-005-005-----0
 62
     2
  5
10C
 10
254.868191
 20
356.072068
 30
0.0
 11
255.568191
 21
355.372068
 31
0.0
  0
LINE
  8
LC-005-005-----0
 62
     2
  5
10D
 10
273.746188
 20
337.194071
 30
0.0
 11
274.446188
 21
336.494071
 31
0.0
  0
LINE
  8
LC-005-005-----0
 62
     2
  5
10E
 10
257.696618
 20
356.072068
 30
0.0
 11
258.396618
 21
355.372068
 31
0.0
  0
LINE
  8
LC-005-005-----0
 62
     2
  5
10F
 10
273.746188
 20
340.022498
 30
0.0
 11
274.446188
 21
339.322498
 31
0.0
  0
LINE
  8
LC-005-005-----0
 62
     2
  5
110
 10
260.525045
 20
356.072068
 30
0.0
 11
261.225045
 21
355.372068
 31
0.0
  0
LINE
  8
LC-005-005-----0
 62
     2
  5
111
 10
273.746188
 20
342.850926
 30
0.0
 11
274.446188
 21
342.150926
 31
0.0
  0
LINE
  8
LC-005-005-----0
 62
     2
  5
112
 10
263.353472
 20
356.072068
 30
0.0
 11
264.053472
 21
355.372068
 31
0.0
  0
LINE
  8
LC-005-005-----0
 62
     2
  5
113
 10
273.746188
 20
345.679353
 30
0.0
 11
274.446188
 21
344.979353
 31
0.0
  0
LINE
  8
LC-005-005-----0
 62
     2
  5
114
 10
266.181899
 20
356.072068
 30
0.0
 11
266.881899
 21
355.372068
 31
0.0
  0
LINE
  8
LC-005-005-----0
 62
     2
  5
115
 10
273.746188
 20
348.50778
 30
0.0
 11
274.446188
 21
347.80778
 31
0.0
  0
LINE
  8
LC-005-005-----0
 62
     2
  5
116
 10
269.075913
 20
356.006482
 30
0.0
 11
269.828978
 21
355.253417
 31
0.0
  0
LINE
  8
LC-005-005-----0
 62
     2
  5
117
 10
273.627536
 20
351.454858
 30
0.0
 11
274.380601
 21
350.701793
 31
0.0
  0
ENDBLK
  8
0
  5
118
  0
BLOCK
  8
0
  5
121
  2
*X6
 70
    65
 10
182.003576
 20
356.372068
 30
0.0
  3
*X6
  0
LINE
  8
LC-005-005-----0
 62
     2
  5
122
 10
240.412023
 20
359.214527
 30
0.0
 11
242.765027
 21
356.861523
 31
0.0
  0
LINE
  8
LC-005-005-----0
 62
     2
  5
123
 10
239.256913
 20
363.198064
 30
0.0
 11
240.671127
 21
361.783851
 31
0.0
  0
LINE
  8
LC-005-005-----0
 62
     2
  5
124
 10
245.082909
 20
357.372068
 30
0.0
 11
246.082909
 21
356.372068
 31
0.0
  0
LINE
  8
LC-005-005-----0
 62
     2
  5
125
 10
238.221637
 20
367.061767
 30
0.0
 11
239.635851
 21
365.647554
 31
0.0
  0
LINE
  8
LC-005-005-----0
 62
     2
  5
126
 10
247.911337
 20
357.372068
 30
0.0
 11
248.911337
 21
356.372068
 31
0.0
  0
LINE
  8
LC-005-005-----0
 62
     2
  5
127
 10
237.186361
 20
370.925471
 30
0.0
 11
238.600575
 21
369.511257
 31
0.0
  0
LINE
  8
LC-005-005-----0
 62
     2
  5
128
 10
250.739764
 20
357.372068
 30
0.0
 11
251.739764
 21
356.372068
 31
0.0
  0
LINE
  8
LC-005-005-----0
 62
     2
  5
129
 10
236.151085
 20
374.789174
 30
0.0
 11
237.565298
 21
373.374961
 31
0.0
  0
LINE
  8
LC-005-005-----0
 62
     2
  5
12A
 10
253.568191
 20
357.372068
 30
0.0
 11
254.568191
 21
356.372068
 31
0.0
  0
LINE
  8
LC-005-005-----0
 62
     2
  5
12B
 10
235.115809
 20
378.652877
 30
0.0
 11
236.530022
 21
377.238664
 31
0.0
  0
LINE
  8
LC-005-005-----0
 62
     2
  5
12C
 10
256.396618
 20
357.372068
 30
0.0
 11
257.396618
 21
356.372068
 31
0.0
  0
LINE
  8
LC-005-005-----0
 62
     2
  5
12D
 10
234.080533
 20
382.516581
 30
0.0
 11
235.494746
 21
381.102367
 31
0.0
  0
LINE
  8
LC-005-005-----0
 62
     2
  5
12E
 10
259.225045
 20
357.372068
 30
0.0
 11
260.225045
 21
356.372068
 31
0.0
  0
LINE
  8
LC-005-005-----0
 62
     2
  5
12F
 10
233.045256
 20
386.380284
 30
0.0
 11
234.45947
 21
384.96607
 31
0.0
  0
LINE
  8
LC-005-005-----0
 62
     2
  5
130
 10
262.053472
 20
357.372068
 30
0.0
 11
263.053472
 21
356.372068
 31
0.0
  0
LINE
  8
LC-005-005-----0
 62
     2
  5
131
 10
232.00998
 20
390.243987
 30
0.0
 11
233.424194
 21
388.829774
 31
0.0
  0
LINE
  8
LC-005-005-----0
 62
     2
  5
132
 10
264.881899
 20
357.372068
 30
0.0
 11
265.881899
 21
356.372068
 31
0.0
  0
LINE
  8
LC-005-005-----0
 62
     2
  5
133
 10
230.974704
 20
394.107691
 30
0.0
 11
232.388918
 21
392.693477
 31
0.0
  0
LINE
  8
LC-005-005-----0
 62
     2
  5
134
 10
267.710326
 20
357.372068
 30
0.0
 11
268.710326
 21
356.372068
 31
0.0
  0
LINE
  8
LC-005-005-----0
 62
     2
  5
135
 10
182.003576
 20
445.907246
 30
0.0
 11
182.538754
 21
445.372068
 31
0.0
  0
LINE
  8
LC-005-005-----0
 62
     2
  5
136
 10
229.939428
 20
397.971394
 30
0.0
 11
231.353641
 21
396.55718
 31
0.0
  0
LINE
  8
LC-005-005-----0
 62
     2
  5
137
 10
184.367181
 20
446.372068
 30
0.0
 11
185.367181
 21
445.372068
 31
0.0
  0
LINE
  8
LC-005-005-----0
 62
     2
  5
138
 10
228.904152
 20
401.835097
 30
0.0
 11
230.318365
 21
400.420884
 31
0.0
  0
LINE
  8
LC-005-005-----0
 62
     2
  5
139
 10
187.195608
 20
446.372068
 30
0.0
 11
188.195608
 21
445.372068
 31
0.0
  0
LINE
  8
LC-005-005-----0
 62
     2
  5
13A
 10
227.868875
 20
405.698801
 30
0.0
 11
229.283089
 21
404.284587
 31
0.0
  0
LINE
  8
LC-005-005-----0
 62
     2
  5
13B
 10
190.024035
 20
446.372068
 30
0.0
 11
191.024035
 21
445.372068
 31
0.0
  0
LINE
  8
LC-005-005-----0
 62
     2
  5
13C
 10
226.833599
 20
409.562504
 30
0.0
 11
228.247813
 21
408.14829
 31
0.0
  0
LINE
  8
LC-005-005-----0
 62
     2
  5
13D
 10
192.852462
 20
446.372068
 30
0.0
 11
193.852462
 21
445.372068
 31
0.0
  0
LINE
  8
LC-005-005-----0
 62
     2
  5
13E
 10
225.798323
 20
413.426207
 30
0.0
 11
227.212537
 21
412.011994
 31
0.0
  0
LINE
  8
LC-005-005-----0
 62
     2
  5
13F
 10
195.680889
 20
446.372068
 30
0.0
 11
196.680889
 21
445.372068
 31
0.0
  0
LINE
  8
LC-005-005-----0
 62
     2
  5
140
 10
224.763047
 20
417.28991
 30
0.0
 11
226.17726
 21
415.875697
 31
0.0
  0
LINE
  8
LC-005-005-----0
 62
     2
  5
141
 10
198.509316
 20
446.372068
 30
0.0
 11
199.509316
 21
445.372068
 31
0.0
  0
LINE
  8
LC-005-005-----0
 62
     2
  5
142
 10
223.727771
 20
421.153614
 30
0.0
 11
225.141984
 21
419.7394
 31
0.0
  0
LINE
  8
LC-005-005-----0
 62
     2
  5
143
 10
201.337743
 20
446.372068
 30
0.0
 11
202.337743
 21
445.372068
 31
0.0
  0
LINE
  8
LC-005-005-----0
 62
     2
  5
144
 10
222.692495
 20
425.017317
 30
0.0
 11
224.106708
 21
423.603103
 31
0.0
  0
LINE
  8
LC-005-005-----0
 62
     2
  5
145
 10
204.166171
 20
446.372068
 30
0.0
 11
205.166171
 21
445.372068
 31
0.0
  0
LINE
  8
LC-005-005-----0
 62
     2
  5
146
 10
221.657218
 20
428.88102
 30
0.0
 11
223.071432
 21
427.466807
 31
0.0
  0
LINE
  8
LC-005-005-----0
 62
     2
  5
147
 10
206.994598
 20
446.372068
 30
0.0
 11
207.994598
 21
445.372068
 31
0.0
  0
LINE
  8
LC-005-005-----0
 62
     2
  5
148
 10
220.621942
 20
432.744724
 30
0.0
 11
222.036156
 21
431.33051
 31
0.0
  0
LINE
  8
LC-005-005-----0
 62
     2
  5
149
 10
209.823025
 20
446.372068
 30
0.0
 11
210.823025
 21
445.372068
 31
0.0
  0
LINE
  8
LC-005-005-----0
 62
     2
  5
14A
 10
219.586666
 20
436.608427
 30
0.0
 11
221.00088
 21
435.194213
 31
0.0
  0
LINE
  8
LC-005-005-----0
 62
     2
  5
14B
 10
212.651452
 20
446.372068
 30
0.0
 11
213.651452
 21
445.372068
 31
0.0
  0
LINE
  8
LC-005-005-----0
 62
     2
  5
14C
 10
218.55139
 20
440.47213
 30
0.0
 11
219.965603
 21
439.057917
 31
0.0
  0
LINE
  8
LC-005-005-----0
 62
     2
  5
14D
 10
215.479879
 20
446.372068
 30
0.0
 11
216.479918
 21
445.372029
 31
0.0
  0
LINE
  8
LC-005-005-----0
 62
     2
  5
14E
 10
217.516114
 20
444.335834
 30
0.0
 11
218.930327
 21
442.92162
 31
0.0
  0
ENDBLK
  8
0
  5
14F
  0
BLOCK
  8
0
  5
183
  2
*X7
 70
    65
 10
253.996188
 20
357.372068
 30
0.0
  3
*X7
  0
LINE
  8
LC-005-005-----0
 62
     2
  5
184
 10
260.023658
 20
359.401882
 30
0.0
 11
262.053472
 21
357.372068
 31
0.0
  0
LINE
  8
LC-005-005-----0
 62
     2
  5
185
 10
259.246188
 20
363.00778
 30
0.0
 11
262.94818
 21
359.305788
 31
0.0
  0
LINE
  8
LC-005-005-----0
 62
     2
  5
186
 10
259.246188
 20
365.836207
 30
0.0
 11
262.046188
 21
363.036207
 31
0.0
  0
LINE
  8
LC-005-005-----0
 62
     2
  5
187
 10
259.246188
 20
368.664634
 30
0.0
 11
262.046188
 21
365.864634
 31
0.0
  0
LINE
  8
LC-005-005-----0
 62
     2
  5
188
 10
259.246188
 20
371.493061
 30
0.0
 11
262.046188
 21
368.693061
 31
0.0
  0
LINE
  8
LC-005-005-----0
 62
     2
  5
189
 10
259.246188
 20
374.321488
 30
0.0
 11
262.046188
 21
371.521488
 31
0.0
  0
LINE
  8
LC-005-005-----0
 62
     2
  5
18A
 10
259.246188
 20
377.149915
 30
0.0
 11
262.046188
 21
374.349915
 31
0.0
  0
LINE
  8
LC-005-005-----0
 62
     2
  5
18B
 10
259.246188
 20
379.978343
 30
0.0
 11
262.046188
 21
377.178343
 31
0.0
  0
LINE
  8
LC-005-005-----0
 62
     2
  5
18C
 10
259.246188
 20
382.80677
 30
0.0
 11
262.046188
 21
380.00677
 31
0.0
  0
LINE
  8
LC-005-005-----0
 62
     2
  5
18D
 10
259.246188
 20
385.635197
 30
0.0
 11
262.046188
 21
382.835197
 31
0.0
  0
LINE
  8
LC-005-005-----0
 62
     2
  5
18E
 10
259.246188
 20
388.463624
 30
0.0
 11
262.046188
 21
385.663624
 31
0.0
  0
LINE
  8
LC-005-005-----0
 62
     2
  5
18F
 10
259.246188
 20
391.292051
 30
0.0
 11
262.046188
 21
388.492051
 31
0.0
  0
LINE
  8
LC-005-005-----0
 62
     2
  5
190
 10
259.246188
 20
394.120478
 30
0.0
 11
262.046188
 21
391.320478
 31
0.0
  0
LINE
  8
LC-005-005-----0
 62
     2
  5
191
 10
253.996188
 20
402.198905
 30
0.0
 11
258.325054
 21
397.870039
 31
0.0
  0
LINE
  8
LC-005-005-----0
 62
     2
  5
192
 10
259.243073
 20
396.95202
 30
0.0
 11
262.046188
 21
394.148905
 31
0.0
  0
LINE
  8
LC-005-005-----0
 62
     2
  5
193
 10
253.996188
 20
405.027332
 30
0.0
 11
256.46451
 21
402.55901
 31
0.0
  0
LINE
  8
LC-005-005-----0
 62
     2
  5
194
 10
258.650366
 20
400.373154
 30
0.0
 11
262.046188
 21
396.977332
 31
0.0
  0
LINE
  8
LC-005-005-----0
 62
     2
  5
195
 10
253.996188
 20
407.85576
 30
0.0
 11
256.228942
 21
405.623005
 31
0.0
  0
LINE
  8
LC-005-005-----0
 62
     2
  5
196
 10
261.478793
 20
400.373154
 30
0.0
 11
262.046188
 21
399.80576
 31
0.0
  0
LINE
  8
LC-005-005-----0
 62
     2
  5
197
 10
254.073877
 20
410.606497
 30
0.0
 11
256.496188
 21
408.184187
 31
0.0
  0
LINE
  8
LC-005-005-----0
 62
     2
  5
198
 10
255.092026
 20
412.416775
 30
0.0
 11
256.862257
 21
410.646544
 31
0.0
  0
LINE
  8
LC-005-005-----0
 62
     2
  5
199
 10
256.999497
 20
413.337732
 30
0.0
 11
259.464074
 21
410.873154
 31
0.0
  0
LINE
  8
LC-005-005-----0
 62
     2
  5
19A
 10
258.9787
 20
414.186956
 30
0.0
 11
261.746188
 21
411.419468
 31
0.0
  0
LINE
  8
LC-005-005-----0
 62
     2
  5
19B
 10
258.996188
 20
416.997895
 30
0.0
 11
261.746188
 21
414.247895
 31
0.0
  0
LINE
  8
LC-005-005-----0
 62
     2
  5
19C
 10
260.949356
 20
417.873154
 30
0.0
 11
261.746188
 21
417.076322
 31
0.0
  0
LINE
  8
LC-005-005-----0
 62
     2
  5
19D
 10
371.308402
 20
358.425796
 30
0.0
 11
372.36213
 21
357.372068
 31
0.0
  0
LINE
  8
LC-005-005-----0
 62
     2
  5
19E
 10
371.906119
 20
360.656506
 30
0.0
 11
374.19231
 21
358.370316
 31
0.0
  0
LINE
  8
LC-005-005-----0
 62
     2
  5
19F
 10
372.44619
 20
362.944862
 30
0.0
 11
374.790027
 21
360.601026
 31
0.0
  0
LINE
  8
LC-005-005-----0
 62
     2
  5
1A0
 10
372.44619
 20
365.773289
 30
0.0
 11
375.246188
 21
362.973292
 31
0.0
  0
LINE
  8
LC-005-005-----0
 62
     2
  5
1A1
 10
372.446191
 20
368.601716
 30
0.0
 11
375.246188
 21
365.801719
 31
0.0
  0
LINE
  8
LC-005-005-----0
 62
     2
  5
1A2
 10
372.446191
 20
371.430143
 30
0.0
 11
375.246188
 21
368.630146
 31
0.0
  0
LINE
  8
LC-005-005-----0
 62
     2
  5
1A3
 10
372.446191
 20
374.25857
 30
0.0
 11
375.246188
 21
371.458573
 31
0.0
  0
LINE
  8
LC-005-005-----0
 62
     2
  5
1A4
 10
372.446191
 20
377.086997
 30
0.0
 11
375.246188
 21
374.287
 31
0.0
  0
LINE
  8
LC-005-005-----0
 62
     2
  5
1A5
 10
372.446191
 20
379.915424
 30
0.0
 11
375.246188
 21
377.115428
 31
0.0
  0
LINE
  8
LC-005-005-----0
 62
     2
  5
1A6
 10
372.446191
 20
382.743851
 30
0.0
 11
375.246188
 21
379.943855
 31
0.0
  0
LINE
  8
LC-005-005-----0
 62
     2
  5
1A7
 10
372.446192
 20
385.572278
 30
0.0
 11
375.246188
 21
382.772282
 31
0.0
  0
LINE
  8
LC-005-005-----0
 62
     2
  5
1A8
 10
372.446192
 20
388.400705
 30
0.0
 11
375.246188
 21
385.600709
 31
0.0
  0
LINE
  8
LC-005-005-----0
 62
     2
  5
1A9
 10
372.446192
 20
391.229132
 30
0.0
 11
375.246188
 21
388.429136
 31
0.0
  0
LINE
  8
LC-005-005-----0
 62
     2
  5
1AA
 10
372.446192
 20
394.057559
 30
0.0
 11
375.246188
 21
391.257563
 31
0.0
  0
LINE
  8
LC-005-005-----0
 62
     2
  5
1AB
 10
372.446192
 20
396.885986
 30
0.0
 11
375.246188
 21
394.08599
 31
0.0
  0
LINE
  8
LC-005-005-----0
 62
     2
  5
1AC
 10
372.446192
 20
399.714413
 30
0.0
 11
375.247006
 21
396.913599
 31
0.0
  0
LINE
  8
LC-005-005-----0
 62
     2
  5
1AD
 10
374.615878
 20
400.373154
 30
0.0
 11
377.113898
 21
397.875134
 31
0.0
  0
LINE
  8
LC-005-005-----0
 62
     2
  5
1AE
 10
377.371289
 20
400.44617
 30
0.0
 11
379.179689
 21
398.637771
 31
0.0
  0
LINE
  8
LC-005-005-----0
 62
     2
  5
1AF
 10
377.996188
 20
402.649699
 30
0.0
 11
378.167487
 21
402.4784
 31
0.0
  0
LINE
  8
LC-005-005-----0
 62
     2
  5
1B0
 10
378.553106
 20
402.092781
 30
0.0
 11
380.332035
 21
400.313851
 31
0.0
  0
LINE
  8
LC-005-005-----0
 62
     2
  5
1B1
 10
378.318955
 20
405.155359
 30
0.0
 11
380.496188
 21
402.978126
 31
0.0
  0
LINE
  8
LC-005-005-----0
 62
     2
  5
1B2
 10
372.746188
 20
413.556553
 30
0.0
 11
375.429587
 21
410.873154
 31
0.0
  0
LINE
  8
LC-005-005-----0
 62
     2
  5
1B3
 10
377.996188
 20
408.306553
 30
0.0
 11
380.496188
 21
405.806553
 31
0.0
  0
LINE
  8
LC-005-005-----0
 62
     2
  5
1B4
 10
372.746188
 20
416.38498
 30
0.0
 11
380.496188
 21
408.63498
 31
0.0
  0
LINE
  8
LC-005-005-----0
 62
     2
  5
1B5
 10
374.086441
 20
417.873154
 30
0.0
 11
375.496188
 21
416.463407
 31
0.0
  0
ENDBLK
  8
0
  5
1B6
  0
BLOCK
  8
0
  5
1B9
  2
*D8
 70
    65
 10
0.0
 20
0.0
 30
0.0
  3
*D8
  0
LINE
  8
LC-007-003-MTH-0
  6
BYBLOCK
 62
     2
  5
1BB
 10
394.746188
 20
361.372068
 30
0.0
 11
448.0
 21
361.372068
 31
0.0
  0
LINE
  8
LC-007-003-MTH-0
 62
     2
  5
1BC
 10
375.496188
 20
417.873154
 30
0.0
 11
448.0
 21
417.873154
 31
0.0
  0
LINE
  8
LC-008-003-----0
  6
BYBLOCK
 62
     2
  5
1BE
 10
434.854733
 20
333.611612
 30
0.0
 11
431.2
 21
361.372068
 31
0.0
  0
LINE
  8
LC-008-003-----0
 62
     2
  5
1BF
 10
431.2
 20
361.372068
 30
0.0
 11
427.545267
 21
333.611612
 31
0.0
  0
LINE
  8
LC-008-003-----0
 62
     2
  5
1C0
 10
427.545267
 20
333.611612
 30
0.0
 11
434.854733
 21
333.611612
 31
0.0
  0
LINE
  8
LC-008-003-----0
 62
     2
  5
1C1
 10
433.904503
 20
333.549331
 30
0.0
 11
431.2
 21
354.092068
 31
0.0
  0
LINE
  8
LC-008-003-----0
 62
     2
  5
1C2
 10
431.2
 20
354.092068
 30
0.0
 11
428.495497
 21
333.549331
 31
0.0
  0
LINE
  8
LC-008-003-----0
 62
     2
  5
1C3
 10
432.954272
 20
333.487049
 30
0.0
 11
431.2
 21
346.812068
 31
0.0
  0
LINE
  8
LC-008-003-----0
 62
     2
  5
1C4
 10
431.2
 20
346.812068
 30
0.0
 11
429.445728
 21
333.487049
 31
0.0
  0
LINE
  8
LC-008-003-----0
 62
     2
  5
1C5
 10
432.004041
 20
333.424768
 30
0.0
 11
431.2
 21
339.532068
 31
0.0
  0
LINE
  8
LC-008-003-----0
 62
     2
  5
1C6
 10
431.2
 20
339.532068
 30
0.0
 11
430.395959
 21
333.424768
 31
0.0
  0
LINE
  8
LC-008-003-----0
 62
     2
  5
1C7
 10
427.545267
 20
445.63361
 30
0.0
 11
431.2
 21
417.873154
 31
0.0
  0
LINE
  8
LC-008-003-----0
 62
     2
  5
1C8
 10
431.2
 20
417.873154
 30
0.0
 11
434.854733
 21
445.63361
 31
0.0
  0
LINE
  8
LC-008-003-----0
 62
     2
  5
1C9
 10
434.854733
 20
445.63361
 30
0.0
 11
427.545267
 21
445.63361
 31
0.0
  0
LINE
  8
LC-008-003-----0
 62
     2
  5
1CA
 10
428.495497
 20
445.695892
 30
0.0
 11
431.2
 21
425.153154
 31
0.0
  0
LINE
  8
LC-008-003-----0
 62
     2
  5
1CB
 10
431.2
 20
425.153154
 30
0.0
 11
433.904503
 21
445.695892
 31
0.0
  0
LINE
  8
LC-008-003-----0
 62
     2
  5
1CC
 10
429.445728
 20
445.758173
 30
0.0
 11
431.2
 21
432.433154
 31
0.0
  0
LINE
  8
LC-008-003-----0
 62
     2
  5
1CD
 10
431.2
 20
432.433154
 30
0.0
 11
432.954272
 21
445.758173
 31
0.0
  0
LINE
  8
LC-008-003-----0
 62
     2
  5
1CE
 10
430.395959
 20
445.820454
 30
0.0
 11
431.2
 21
439.713154
 31
0.0
  0
LINE
  8
LC-008-003-----0
 62
     2
  5
1CF
 10
431.2
 20
439.713154
 30
0.0
 11
432.004041
 21
445.820454
 31
0.0
  0
LINE
  8
LC-009-003-MTG-0
  6
BYBLOCK
 62
     2
  5
1D1
 10
431.2
 20
322.172068
 30
0.0
 11
431.2
 21
530.377154
 31
0.0
  0
TEXT
  8
LC-008-003-----0
 62
     7
  5
1D2
 10
423.372446
 20
461.421314
 30
0.0
 40
28.0
  1
56,5
 50
90.0
 41
0.9
 51
15.0
  7
LCTX15-400-0-0-ARIAL
  0
ENDBLK
  8
0
  5
1D3
  0
BLOCK
  8
0
  5
1F4
  2
*X9
 70
    65
 10
239.746188
 20
311.572068
 30
0.0
  3
*X9
  0
LINE
  8
LC-005-005-----0
 62
     2
  5
1F5
 10
353.998475
 20
311.572068
 30
0.0
 11
360.046188
 21
317.619781
 31
0.0
  0
LINE
  8
LC-005-005-----0
 62
     2
  5
1F6
 10
352.246188
 20
318.305062
 30
0.0
 11
360.046188
 21
326.105062
 31
0.0
  0
LINE
  8
LC-005-005-----0
 62
     2
  5
1F7
 10
390.349757
 20
356.408631
 30
0.0
 11
394.709624
 21
360.768499
 31
0.0
  0
LINE
  8
LC-005-005-----0
 62
     2
  5
1F8
 10
352.246188
 20
326.790343
 30
0.0
 11
360.046188
 21
334.590343
 31
0.0
  0
LINE
  8
LC-005-005-----0
 62
     2
  5
1F9
 10
381.527912
 20
356.072068
 30
0.0
 11
386.827912
 21
361.372068
 31
0.0
  0
LINE
  8
LC-005-005-----0
 62
     2
  5
1FA
 10
352.246188
 20
335.275625
 30
0.0
 11
360.046188
 21
343.075625
 31
0.0
  0
LINE
  8
LC-005-005-----0
 62
     2
  5
1FB
 10
373.042631
 20
356.072068
 30
0.0
 11
378.342631
 21
361.372068
 31
0.0
  0
LINE
  8
LC-005-005-----0
 62
     2
  5
1FC
 10
352.246188
 20
343.760906
 30
0.0
 11
360.20869
 21
351.723409
 31
0.0
  0
LINE
  8
LC-005-005-----0
 62
     2
  5
1FD
 10
364.394847
 20
355.909566
 30
0.0
 11
369.857349
 21
361.372068
 31
0.0
  0
LINE
  8
LC-005-005-----0
 62
     2
  5
1FE
 10
352.246188
 20
352.246188
 30
0.0
 11
361.372068
 21
361.372068
 31
0.0
  0
LINE
  8
LC-005-005-----0
 62
     2
  5
1FF
 10
352.246188
 20
360.731469
 30
0.0
 11
352.886787
 21
361.372068
 31
0.0
  0
LINE
  8
LC-005-005-----0
 62
     2
  5
200
 10
277.946024
 20
311.88715
 30
0.0
 11
282.246188
 21
316.187313
 31
0.0
  0
LINE
  8
LC-005-005-----0
 62
     2
  5
201
 10
274.446188
 20
316.872594
 30
0.0
 11
282.246188
 21
324.672594
 31
0.0
  0
LINE
  8
LC-005-005-----0
 62
     2
  5
202
 10
274.446188
 20
325.357876
 30
0.0
 11
282.246188
 21
333.157876
 31
0.0
  0
LINE
  8
LC-005-005-----0
 62
     2
  5
203
 10
274.446188
 20
333.843157
 30
0.0
 11
282.246188
 21
341.643157
 31
0.0
  0
LINE
  8
LC-005-005-----0
 62
     2
  5
204
 10
274.446188
 20
342.328439
 30
0.0
 11
282.246188
 21
350.128439
 31
0.0
  0
LINE
  8
LC-005-005-----0
 62
     2
  5
205
 10
274.430267
 20
350.797799
 30
0.0
 11
282.246188
 21
358.61372
 31
0.0
  0
LINE
  8
LC-005-005-----0
 62
     2
  5
206
 10
270.826192
 20
355.679005
 30
0.0
 11
276.519254
 21
361.372068
 31
0.0
  0
LINE
  8
LC-005-005-----0
 62
     2
  5
207
 10
262.733973
 20
356.072068
 30
0.0
 11
268.033973
 21
361.372068
 31
0.0
  0
LINE
  8
LC-005-005-----0
 62
     2
  5
208
 10
254.248692
 20
356.072068
 30
0.0
 11
259.506936
 21
361.330313
 31
0.0
  0
LINE
  8
LC-005-005-----0
 62
     2
  5
209
 10
246.06341
 20
356.372068
 30
0.0
 11
251.06341
 21
361.372068
 31
0.0
  0
LINE
  8
LC-005-005-----0
 62
     2
  5
20A
 10
240.296912
 20
359.090851
 30
0.0
 11
242.578129
 21
361.372068
 31
0.0
  0
LINE
  8
LC-005-005-----0
 62
     2
  5
20B
 10
394.672607
 20
360.517436
 30
0.0
 11
393.817974
 21
361.372068
 31
0.0
  0
LINE
  8
LC-005-005-----0
 62
     2
  5
20C
 10
390.301734
 20
356.403027
 30
0.0
 11
385.332693
 21
361.372068
 31
0.0
  0
LINE
  8
LC-005-005-----0
 62
     2
  5
20D
 10
382.147411
 20
356.072068
 30
0.0
 11
376.847411
 21
361.372068
 31
0.0
  0
LINE
  8
LC-005-005-----0
 62
     2
  5
20E
 10
373.66213
 20
356.072068
 30
0.0
 11
372.36213
 21
357.372068
 31
0.0
  0
LINE
  8
LC-005-005-----0
 62
     2
  5
20F
 10
371.308402
 20
358.425796
 30
0.0
 11
368.36213
 21
361.372068
 31
0.0
  0
LINE
  8
LC-005-005-----0
 62
     2
  5
210
 10
365.202808
 20
356.046109
 30
0.0
 11
359.876849
 21
361.372068
 31
0.0
  0
LINE
  8
LC-005-005-----0
 62
     2
  5
211
 10
360.403959
 20
352.359677
 30
0.0
 11
352.246188
 21
360.517448
 31
0.0
  0
LINE
  8
LC-005-005-----0
 62
     2
  5
212
 10
360.046188
 20
344.232166
 30
0.0
 11
352.246188
 21
352.032166
 31
0.0
  0
LINE
  8
LC-005-005-----0
 62
     2
  5
213
 10
360.046188
 20
335.746885
 30
0.0
 11
352.246188
 21
343.546885
 31
0.0
  0
LINE
  8
LC-005-005-----0
 62
     2
  5
214
 10
360.046188
 20
327.261604
 30
0.0
 11
352.246188
 21
335.061604
 31
0.0
  0
LINE
  8
LC-005-005-----0
 62
     2
  5
215
 10
360.046188
 20
318.776322
 30
0.0
 11
352.246188
 21
326.576322
 31
0.0
  0
LINE
  8
LC-005-005-----0
 62
     2
  5
216
 10
357.798199
 20
312.539029
 30
0.0
 11
352.246188
 21
318.091041
 31
0.0
  0
LINE
  8
LC-005-005-----0
 62
     2
  5
217
 10
282.246188
 20
354.149915
 30
0.0
 11
275.024035
 21
361.372068
 31
0.0
  0
LINE
  8
LC-005-005-----0
 62
     2
  5
218
 10
282.246188
 20
345.664634
 30
0.0
 11
266.538754
 21
361.372068
 31
0.0
  0
LINE
  8
LC-005-005-----0
 62
     2
  5
219
 10
282.246188
 20
337.179353
 30
0.0
 11
274.446188
 21
344.979353
 31
0.0
  0
LINE
  8
LC-005-005-----0
 62
     2
  5
21A
 10
263.353472
 20
356.072068
 30
0.0
 11
262.053472
 21
357.372068
 31
0.0
  0
LINE
  8
LC-005-005-----0
 62
     2
  5
21B
 10
260.023658
 20
359.401882
 30
0.0
 11
258.053472
 21
361.372068
 31
0.0
  0
LINE
  8
LC-005-005-----0
 62
     2
  5
21C
 10
282.246188
 20
328.694071
 30
0.0
 11
274.446188
 21
336.494071
 31
0.0
  0
LINE
  8
LC-005-005-----0
 62
     2
  5
21D
 10
254.868191
 20
356.072068
 30
0.0
 11
249.568191
 21
361.372068
 31
0.0
  0
LINE
  8
LC-005-005-----0
 62
     2
  5
21E
 10
282.246188
 20
320.20879
 30
0.0
 11
274.446188
 21
328.00879
 31
0.0
  0
LINE
  8
LC-005-005-----0
 62
     2
  5
21F
 10
246.082909
 20
356.372068
 30
0.0
 11
241.082909
 21
361.372068
 31
0.0
  0
LINE
  8
LC-005-005-----0
 62
     2
  5
220
 10
282.246188
 20
311.723509
 30
0.0
 11
274.446188
 21
319.523509
 31
0.0
  0
ENDBLK
  8
0
  5
221
  0
BLOCK
  8
0
  5
224
  2
*D10
 70
    65
 10
0.0
 20
0.0
 30
0.0
  3
*D10
  0
LINE
  8
LC-007-003-MTH-0
 62
     2
  5
225
 10
282.246188
 20
311.572068
 30
0.0
 11
282.246188
 21
235.2
 31
0.0
  0
LINE
  8
LC-007-003-MTH-0
 62
     2
  5
226
 10
352.246188
 20
311.572068
 30
0.0
 11
352.246188
 21
235.2
 31
0.0
  0
LINE
  8
LC-008-003-----0
 62
     2
  5
227
 10
254.485731
 20
248.345267
 30
0.0
 11
282.246188
 21
252.0
 31
0.0
  0
LINE
  8
LC-008-003-----0
 62
     2
  5
228
 10
282.246188
 20
252.0
 30
0.0
 11
254.485731
 21
255.654733
 31
0.0
  0
LINE
  8
LC-008-003-----0
 62
     2
  5
229
 10
254.485731
 20
255.654733
 30
0.0
 11
254.485731
 21
248.345267
 31
0.0
  0
LINE
  8
LC-008-003-----0
 62
     2
  5
22A
 10
254.42345
 20
249.295497
 30
0.0
 11
274.966188
 21
252.0
 31
0.0
  0
LINE
  8
LC-008-003-----0
 62
     2
  5
22B
 10
274.966188
 20
252.0
 30
0.0
 11
254.42345
 21
254.704503
 31
0.0
  0
LINE
  8
LC-008-003-----0
 62
     2
  5
22C
 10
254.361169
 20
250.245728
 30
0.0
 11
267.686188
 21
252.0
 31
0.0
  0
LINE
  8
LC-008-003-----0
 62
     2
  5
22D
 10
267.686188
 20
252.0
 30
0.0
 11
254.361169
 21
253.754272
 31
0.0
  0
LINE
  8
LC-008-003-----0
 62
     2
  5
22E
 10
254.298887
 20
251.195959
 30
0.0
 11
260.406188
 21
252.0
 31
0.0
  0
LINE
  8
LC-008-003-----0
 62
     2
  5
22F
 10
260.406188
 20
252.0
 30
0.0
 11
254.298887
 21
252.804041
 31
0.0
  0
LINE
  8
LC-008-003-----0
 62
     2
  5
230
 10
380.006644
 20
255.654733
 30
0.0
 11
352.246188
 21
252.0
 31
0.0
  0
LINE
  8
LC-008-003-----0
 62
     2
  5
231
 10
352.246188
 20
252.0
 30
0.0
 11
380.006644
 21
248.345267
 31
0.0
  0
LINE
  8
LC-008-003-----0
 62
     2
  5
232
 10
380.006644
 20
248.345267
 30
0.0
 11
380.006644
 21
255.654733
 31
0.0
  0
LINE
  8
LC-008-003-----0
 62
     2
  5
233
 10
380.068925
 20
254.704503
 30
0.0
 11
359.526188
 21
252.0
 31
0.0
  0
LINE
  8
LC-008-003-----0
 62
     2
  5
234
 10
359.526188
 20
252.0
 30
0.0
 11
380.068925
 21
249.295497
 31
0.0
  0
LINE
  8
LC-008-003-----0
 62
     2
  5
235
 10
380.131207
 20
253.754272
 30
0.0
 11
366.806188
 21
252.0
 31
0.0
  0
LINE
  8
LC-008-003-----0
 62
     2
  5
236
 10
366.806188
 20
252.0
 30
0.0
 11
380.131207
 21
250.245728
 31
0.0
  0
LINE
  8
LC-008-003-----0
 62
     2
  5
237
 10
380.193488
 20
252.804041
 30
0.0
 11
374.086188
 21
252.0
 31
0.0
  0
LINE
  8
LC-008-003-----0
 62
     2
  5
238
 10
374.086188
 20
252.0
 30
0.0
 11
380.193488
 21
251.195959
 31
0.0
  0
LINE
  8
LC-009-003-MTG-0
 62
     2
  5
239
 10
243.046188
 20
252.0
 30
0.0
 11
452.934188
 21
252.0
 31
0.0
  0
TEXT
  8
LC-008-003-----0
 62
     7
  5
23A
 10
395.794348
 20
259.827554
 30
0.0
 40
28.0
  1
%%c70
 41
0.75
 51
15.0
  7
LCTX15-400-0-0-ARIAL
  0
ENDBLK
  8
0
  5
23B
  0
BLOCK
  8
0
  5
2C7
  2
*D11
 70
    65
 10
0.0
 20
0.0
 30
0.0
  3
*D11
  0
LINE
  8
LC-007-003-MTH-0
 62
     2
  5
2C8
 10
262.046188
 20
409.273154
 30
0.0
 11
262.046188
 21
478.8
 31
0.0
  0
LINE
  8
LC-007-003-MTH-0
 62
     2
  5
2C9
 10
372.446188
 20
409.273154
 30
0.0
 11
372.446188
 21
478.8
 31
0.0
  0
LINE
  8
LC-009-003-MTG-0
 62
     2
  5
2CA
 10
262.046188
 20
462.0
 30
0.0
 11
372.446188
 21
462.0
 31
0.0
  0
LINE
  8
LC-008-003-----0
 62
     2
  5
2CB
 10
289.806644
 20
465.654733
 30
0.0
 11
262.046188
 21
462.0
 31
0.0
  0
LINE
  8
LC-008-003-----0
 62
     2
  5
2CC
 10
262.046188
 20
462.0
 30
0.0
 11
289.806644
 21
458.345267
 31
0.0
  0
LINE
  8
LC-008-003-----0
 62
     2
  5
2CD
 10
289.806644
 20
458.345267
 30
0.0
 11
289.806644
 21
465.654733
 31
0.0
  0
LINE
  8
LC-008-003-----0
 62
     2
  5
2CE
 10
289.868925
 20
464.704503
 30
0.0
 11
269.326188
 21
462.0
 31
0.0
  0
LINE
  8
LC-008-003-----0
 62
     2
  5
2CF
 10
269.326188
 20
462.0
 30
0.0
 11
289.868925
 21
459.295497
 31
0.0
  0
LINE
  8
LC-008-003-----0
 62
     2
  5
2D0
 10
289.931207
 20
463.754272
 30
0.0
 11
276.606188
 21
462.0
 31
0.0
  0
LINE
  8
LC-008-003-----0
 62
     2
  5
2D1
 10
276.606188
 20
462.0
 30
0.0
 11
289.931207
 21
460.245728
 31
0.0
  0
LINE
  8
LC-008-003-----0
 62
     2
  5
2D2
 10
289.993488
 20
462.804041
 30
0.0
 11
283.886188
 21
462.0
 31
0.0
  0
LINE
  8
LC-008-003-----0
 62
     2
  5
2D3
 10
283.886188
 20
462.0
 30
0.0
 11
289.993488
 21
461.195959
 31
0.0
  0
LINE
  8
LC-008-003-----0
 62
     2
  5
2D4
 10
344.685731
 20
458.345267
 30
0.0
 11
372.446188
 21
462.0
 31
0.0
  0
LINE
  8
LC-008-003-----0
 62
     2
  5
2D5
 10
372.446188
 20
462.0
 30
0.0
 11
344.685731
 21
465.654733
 31
0.0
  0
LINE
  8
LC-008-003-----0
 62
     2
  5
2D6
 10
344.685731
 20
465.654733
 30
0.0
 11
344.685731
 21
458.345267
 31
0.0
  0
LINE
  8
LC-008-003-----0
 62
     2
  5
2D7
 10
344.62345
 20
459.295497
 30
0.0
 11
365.166188
 21
462.0
 31
0.0
  0
LINE
  8
LC-008-003-----0
 62
     2
  5
2D8
 10
365.166188
 20
462.0
 30
0.0
 11
344.62345
 21
464.704503
 31
0.0
  0
LINE
  8
LC-008-003-----0
 62
     2
  5
2D9
 10
344.561169
 20
460.245728
 30
0.0
 11
357.886188
 21
462.0
 31
0.0
  0
LINE
  8
LC-008-003-----0
 62
     2
  5
2DA
 10
357.886188
 20
462.0
 30
0.0
 11
344.561169
 21
463.754272
 31
0.0
  0
LINE
  8
LC-008-003-----0
 62
     2
  5
2DB
 10
344.498887
 20
461.195959
 30
0.0
 11
350.606188
 21
462.0
 31
0.0
  0
LINE
  8
LC-008-003-----0
 62
     2
  5
2DC
 10
350.606188
 20
462.0
 30
0.0
 11
344.498887
 21
462.804041
 31
0.0
  0
TEXT
  8
LC-008-003-----0
 62
     7
  5
2DD
 10
258.594348
 20
469.827554
 30
0.0
 40
28.0
  1
%%c110
 41
0.9
 51
15.0
  7
LCTX15-400-0-0-ARIAL
 72
     1
 11
321.594348
 21
469.827554
 31
0.0
  0
ENDBLK
  8
0
  5
2DE
  0
BLOCK
  8
0
  5
2E1
  2
*D12
 70
    65
 10
0.0
 20
0.0
 30
0.0
  3
*D12
  0
LINE
  8
LC-007-003-MTH-0
 62
     2
  5
2E2
 10
354.746188
 20
310.872068
 30
0.0
 11
487.2
 21
310.872068
 31
0.0
  0
LINE
  8
LC-007-003-MTH-0
 62
     2
  5
2E3
 10
375.496188
 20
417.873154
 30
0.0
 11
487.2
 21
417.873154
 31
0.0
  0
LINE
  8
LC-009-003-MTG-0
 62
     2
  5
2E4
 10
470.4
 20
310.872068
 30
0.0
 11
470.4
 21
417.873154
 31
0.0
  0
LINE
  8
LC-008-003-----0
 62
     2
  5
2E5
 10
466.745267
 20
338.632524
 30
0.0
 11
470.4
 21
310.872068
 31
0.0
  0
LINE
  8
LC-008-003-----0
 62
     2
  5
2E6
 10
470.4
 20
310.872068
 30
0.0
 11
474.054733
 21
338.632524
 31
0.0
  0
LINE
  8
LC-008-003-----0
 62
     2
  5
2E7
 10
474.054733
 20
338.632524
 30
0.0
 11
466.745267
 21
338.632524
 31
0.0
  0
LINE
  8
LC-008-003-----0
 62
     2
  5
2E8
 10
467.695497
 20
338.694806
 30
0.0
 11
470.4
 21
318.152068
 31
0.0
  0
LINE
  8
LC-008-003-----0
 62
     2
  5
2E9
 10
470.4
 20
318.152068
 30
0.0
 11
473.104503
 21
338.694806
 31
0.0
  0
LINE
  8
LC-008-003-----0
 62
     2
  5
2EA
 10
468.645728
 20
338.757087
 30
0.0
 11
470.4
 21
325.432068
 31
0.0
  0
LINE
  8
LC-008-003-----0
 62
     2
  5
2EB
 10
470.4
 20
325.432068
 30
0.0
 11
472.154272
 21
338.757087
 31
0.0
  0
LINE
  8
LC-008-003-----0
 62
     2
  5
2EC
 10
469.595959
 20
338.819368
 30
0.0
 11
470.4
 21
332.712068
 31
0.0
  0
LINE
  8
LC-008-003-----0
 62
     2
  5
2ED
 10
470.4
 20
332.712068
 30
0.0
 11
471.204041
 21
338.819368
 31
0.0
  0
LINE
  8
LC-008-003-----0
 62
     2
  5
2EE
 10
474.054733
 20
390.112698
 30
0.0
 11
470.4
 21
417.873154
 31
0.0
  0
LINE
  8
LC-008-003-----0
 62
     2
  5
2EF
 10
470.4
 20
417.873154
 30
0.0
 11
466.745267
 21
390.112698
 31
0.0
  0
LINE
  8
LC-008-003-----0
 62
     2
  5
2F0
 10
466.745267
 20
390.112698
 30
0.0
 11
474.054733
 21
390.112698
 31
0.0
  0
LINE
  8
LC-008-003-----0
 62
     2
  5
2F1
 10
473.104503
 20
390.050417
 30
0.0
 11
470.4
 21
410.593154
 31
0.0
  0
LINE
  8
LC-008-003-----0
 62
     2
  5
2F2
 10
470.4
 20
410.593154
 30
0.0
 11
467.695497
 21
390.050417
 31
0.0
  0
LINE
  8
LC-008-003-----0
 62
     2
  5
2F3
 10
472.154272
 20
389.988135
 30
0.0
 11
470.4
 21
403.313154
 31
0.0
  0
LINE
  8
LC-008-003-----0
 62
     2
  5
2F4
 10
470.4
 20
403.313154
 30
0.0
 11
468.645728
 21
389.988135
 31
0.0
  0
LINE
  8
LC-008-003-----0
 62
     2
  5
2F5
 10
471.204041
 20
389.925854
 30
0.0
 11
470.4
 21
396.033154
 31
0.0
  0
LINE
  8
LC-008-003-----0
 62
     2
  5
2F6
 10
470.4
 20
396.033154
 30
0.0
 11
469.595959
 21
389.925854
 31
0.0
  0
TEXT
  8
LC-008-003-----0
 62
     7
  5
2F7
 10
462.572446
 20
342.092771
 30
0.0
 40
28.0
  1
107
 50
90.0
 41
0.9
 51
15.0
  7
LCTX15-400-0-0-ARIAL
 72
     1
 11
462.572446
 21
368.720771
 31
0.0
  0
ENDBLK
  8
0
  5
2F8
  0
BLOCK
  8
0
  5
2FB
  2
*D13
 70
    65
 10
0.0
 20
0.0
 30
0.0
  3
*D13
  0
LINE
  8
LC-007-003-MTH-0
 62
     2
  5
2FC
 10
375.496188
 20
417.873154
 30
0.0
 11
408.8
 21
417.873154
 31
0.0
  0
LINE
  8
LC-007-003-MTH-0
 62
     2
  5
2FD
 10
390.397381
 20
448.072068
 30
0.0
 11
408.8
 21
448.072068
 31
0.0
  0
LINE
  8
LC-008-003-----0
 62
     2
  5
2FE
 10
395.654733
 20
390.112698
 30
0.0
 11
392.0
 21
417.873154
 31
0.0
  0
LINE
  8
LC-008-003-----0
 62
     2
  5
2FF
 10
392.0
 20
417.873154
 30
0.0
 11
388.345267
 21
390.112698
 31
0.0
  0
LINE
  8
LC-008-003-----0
 62
     2
  5
300
 10
388.345267
 20
390.112698
 30
0.0
 11
395.654733
 21
390.112698
 31
0.0
  0
LINE
  8
LC-008-003-----0
 62
     2
  5
301
 10
394.704503
 20
390.050417
 30
0.0
 11
392.0
 21
410.593154
 31
0.0
  0
LINE
  8
LC-008-003-----0
 62
     2
  5
302
 10
392.0
 20
410.593154
 30
0.0
 11
389.295497
 21
390.050417
 31
0.0
  0
LINE
  8
LC-008-003-----0
 62
     2
  5
303
 10
393.754272
 20
389.988135
 30
0.0
 11
392.0
 21
403.313154
 31
0.0
  0
LINE
  8
LC-008-003-----0
 62
     2
  5
304
 10
392.0
 20
403.313154
 30
0.0
 11
390.245728
 21
389.988135
 31
0.0
  0
LINE
  8
LC-008-003-----0
 62
     2
  5
305
 10
392.804041
 20
389.925854
 30
0.0
 11
392.0
 21
396.033154
 31
0.0
  0
LINE
  8
LC-008-003-----0
 62
     2
  5
306
 10
392.0
 20
396.033154
 30
0.0
 11
391.195959
 21
389.925854
 31
0.0
  0
LINE
  8
LC-008-003-----0
 62
     2
  5
307
 10
388.345267
 20
475.832524
 30
0.0
 11
392.0
 21
448.072068
 31
0.0
  0
LINE
  8
LC-008-003-----0
 62
     2
  5
308
 10
392.0
 20
448.072068
 30
0.0
 11
395.654733
 21
475.832524
 31
0.0
  0
LINE
  8
LC-008-003-----0
 62
     2
  5
309
 10
395.654733
 20
475.832524
 30
0.0
 11
388.345267
 21
475.832524
 31
0.0
  0
LINE
  8
LC-008-003-----0
 62
     2
  5
30A
 10
389.295497
 20
475.894806
 30
0.0
 11
392.0
 21
455.352068
 31
0.0
  0
LINE
  8
LC-008-003-----0
 62
     2
  5
30B
 10
392.0
 20
455.352068
 30
0.0
 11
394.704503
 21
475.894806
 31
0.0
  0
LINE
  8
LC-008-003-----0
 62
     2
  5
30C
 10
390.245728
 20
475.957087
 30
0.0
 11
392.0
 21
462.632068
 31
0.0
  0
LINE
  8
LC-008-003-----0
 62
     2
  5
30D
 10
392.0
 20
462.632068
 30
0.0
 11
393.754272
 21
475.957087
 31
0.0
  0
LINE
  8
LC-008-003-----0
 62
     2
  5
30E
 10
391.195959
 20
476.019368
 30
0.0
 11
392.0
 21
469.912068
 31
0.0
  0
LINE
  8
LC-008-003-----0
 62
     2
  5
30F
 10
392.0
 20
469.912068
 30
0.0
 11
392.804041
 21
476.019368
 31
0.0
  0
LINE
  8
LC-009-003-MTG-0
 62
     2
  5
310
 10
392.0
 20
378.673154
 30
0.0
 11
392.0
 21
533.976068
 31
0.0
  0
TEXT
  8
LC-008-003-----0
 62
     7
  5
311
 10
384.172446
 20
491.620228
 30
0.0
 40
28.0
  1
30
 50
90.0
 41
0.9
 51
15.0
  7
LCTX15-400-0-0-ARIAL
  0
ENDBLK
  8
0
  5
312
  0
ENDSEC
  0
SECTION
  2
ENTITIES
  0
VIEWPORT
  8
LC-VIEWPORT
  5
318
 67
     1
 68
     1
 10
420.0
 20
297.0
 30
0.0
 40
840.0
 41
594.0
 69
     1
1001
ACAD
1000
MVIEW
1002
{
1070
    16
1010
0.0
1020
0.0
1030
0.0
1010
0.0
1020
0.0
1030
1.0
1040
0.0
1040
594.0
1040
420.0
1040
297.0
1040
50.0
1040
0.0
1040
0.0
1070
     0
1070
   100
1070
     1
1070
     1
1070
     0
1070
     0
1070
     0
1070
     0
1040
0.0
1040
0.0
1040
0.0
1040
1.0
1040
1.0
1040
0.0
1040
0.0
1070
     0
1002
{
1002
}
1002
}
  0
LINE
  8
LC-001-100-D03-0
  6
BYBLOCK
 62
     1
  5
24
 10
375.496188
 20
417.873154
 30
0.0
 11
373.440294
 21
417.873154
 31
0.0
  0
LINE
  8
LC-002-100-D01-0
  6
BYBLOCK
 62
     1
  5
26
 10
372.44619
 20
362.672078
 30
0.0
 11
372.446192
 21
400.373154
 31
0.0
  0
LINE
  8
LC-001-100-D03-0
 62
     1
  5
27
 10
373.440294
 20
417.873154
 30
0.0
 11
317.246188
 21
417.873154
 31
0.0
  0
LINE
  8
LC-002-100-D01-0
 62
     1
  5
28
 10
371.026057
 20
357.372068
 30
0.0
 11
373.92483
 21
357.372068
 31
0.0
  0
ARC
  8
LC-003-002-RND-0
  6
BYBLOCK
 62
     1
  5
2A
 10
260.300311
 20
400.873154
 30
0.0
 40
0.5
 50
270.0
 51
10.0
  0
ARC
  8
LC-003-002-RND-0
 62
     1
  5
2B
 10
261.253714
 20
403.538569
 30
0.0
 40
0.3
 50
75.0
 51
120.0
  0
ARC
  8
LC-003-002-RND-0
 62
     1
  5
2C
 10
260.699126
 20
403.218378
 30
0.0
 40
0.3
 50
120.0
 51
190.0
  0
LINE
  8
LC-004-002-----0
  6
BYBLOCK
 62
     1
  5
2E
 10
256.496188
 20
404.969009
 30
0.0
 11
256.496188
 21
404.177299
 31
0.0
  0
LINE
  8
LC-004-002-----0
 62
     1
  5
2F
 10
260.549126
 20
403.478185
 30
0.0
 11
261.103714
 21
403.798377
 31
0.0
  0
ARC
  8
LC-004-002-----0
 62
     1
  5
30
 10
255.996188
 20
405.373154
 30
0.0
 40
0.1
 50
120.0
 51
240.0
  0
LINE
  8
LC-004-002-----0
 62
     1
  5
31
 10
264.333765
 20
403.847298
 30
0.0
 11
261.692461
 21
408.422171
 31
0.0
  0
LINE
  8
LC-004-002-----0
 62
     1
  5
32
 10
263.809671
 20
403.164285
 30
0.0
 11
261.33136
 21
403.828347
 31
0.0
  0
ARC
  8
LC-004-002-----0
 62
     1
  5
33
 10
263.930262
 20
403.614335
 30
0.0
 40
0.465926
 50
255.0
 51
30.0
  0
LINE
  8
LC-004-002-----0
 62
     1
  5
34
 10
255.946188
 20
405.459757
 30
0.0
 11
256.496188
 21
405.777299
 31
0.0
  0
LINE
  8
LC-004-002-----0
 62
     1
  5
35
 10
257.154167
 20
408.631021
 30
0.0
 11
259.636409
 21
409.170513
 31
0.0
  0
ARC
  8
LC-004-002-----0
 62
     1
  5
36
 10
260.218515
 20
407.571188
 30
0.0
 40
1.701966
 50
30.0
 51
110.0
  0
LINE
  8
LC-004-002-----0
 62
     1
  5
37
 10
255.946188
 20
405.286552
 30
0.0
 11
256.496188
 21
404.969009
 31
0.0
  0
ARC
  8
LC-004-002-----0
 62
     1
  5
38
 10
255.996188
 20
403.773154
 30
0.0
 40
0.1
 50
120.0
 51
240.0
  0
LINE
  8
LC-004-002-----0
 62
     1
  5
39
 10
260.792715
 20
400.959978
 30
0.0
 11
260.403684
 21
403.166283
 31
0.0
  0
ARC
  8
LC-003-002-RND-0
 62
     1
  5
3A
 10
374.192064
 20
400.873154
 30
0.0
 40
0.5
 50
170.0
 51
270.0
  0
ARC
  8
LC-003-002-RND-0
 62
     1
  5
3B
 10
373.238661
 20
403.538569
 30
0.0
 40
0.3
 50
60.0
 51
105.0
  0
ARC
  8
LC-003-002-RND-0
 62
     1
  5
3C
 10
373.793249
 20
403.218378
 30
0.0
 40
0.3
 50
350.0
 51
60.0
  0
LINE
  8
LC-004-002-----0
 62
     1
  5
3D
 10
377.996188
 20
404.969009
 30
0.0
 11
377.996188
 21
404.177299
 31
0.0
  0
LINE
  8
LC-004-002-----0
 62
     1
  5
3E
 10
255.946188
 20
403.859757
 30
0.0
 11
256.496188
 21
404.177299
 31
0.0
  0
LINE
  8
LC-004-002-----0
 62
     1
  5
3F
 10
258.496188
 20
400.373154
 30
0.0
 11
257.322539
 21
400.5801
 31
0.0
  0
LINE
  8
LC-004-002-----0
 62
     1
  5
40
 10
256.496188
 20
407.691329
 30
0.0
 11
256.496188
 21
407.319564
 31
0.0
  0
ARC
  8
LC-003-002-RND-0
 62
     1
  5
41
 10
257.496188
 20
407.691329
 30
0.0
 40
1.0
 50
110.0
 51
180.0
  0
ARC
  8
LC-003-002-RND-0
 62
     1
  5
42
 10
257.496188
 20
401.564908
 30
0.0
 40
1.0
 50
180.0
 51
260.0
  0
LINE
  8
LC-004-002-----0
 62
     1
  5
43
 10
258.496188
 20
400.373154
 30
0.0
 11
260.300311
 21
400.373154
 31
0.0
  0
LINE
  8
LC-004-002-----0
 62
     1
  5
44
 10
255.946188
 20
403.686552
 30
0.0
 11
256.496188
 21
403.369009
 31
0.0
  0
ARC
  8
LC-004-002-----0
 62
     1
  5
45
 10
255.996188
 20
402.173154
 30
0.0
 40
0.1
 50
120.0
 51
240.0
  0
LINE
  8
LC-004-002-----0
 62
     1
  5
46
 10
255.946188
 20
402.259757
 30
0.0
 11
256.496188
 21
402.577299
 31
0.0
  0
LINE
  8
LC-004-002-----0
 62
     1
  5
47
 10
255.946188
 20
402.086552
 30
0.0
 11
256.496188
 21
401.769009
 31
0.0
  0
LINE
  8
LC-004-002-----0
 62
     1
  5
48
 10
256.496188
 20
403.369009
 30
0.0
 11
256.496188
 21
402.577299
 31
0.0
  0
LINE
  8
LC-004-002-----0
 62
     1
  5
49
 10
256.496188
 20
401.769009
 30
0.0
 11
256.496188
 21
401.564908
 31
0.0
  0
ARC
  8
LC-004-002-----0
 62
     1
  5
4A
 10
256.096188
 20
406.973154
 30
0.0
 40
0.1
 50
120.0
 51
240.0
  0
LINE
  8
LC-004-002-----0
 62
     1
  5
4B
 10
256.046188
 20
407.059757
 30
0.0
 11
256.496188
 21
407.319564
 31
0.0
  0
LINE
  8
LC-004-002-----0
 62
     1
  5
4C
 10
256.046188
 20
406.886552
 30
0.0
 11
256.496188
 21
406.626744
 31
0.0
  0
LINE
  8
LC-004-002-----0
 62
     1
  5
4D
 10
256.496188
 20
406.626744
 30
0.0
 11
256.496188
 21
405.777299
 31
0.0
  0
LINE
  8
LC-004-002-----0
 62
     1
  5
4E
 10
373.943249
 20
403.478185
 30
0.0
 11
373.388661
 21
403.798377
 31
0.0
  0
ARC
  8
LC-004-002-----0
 62
     1
  5
4F
 10
378.496188
 20
405.373154
 30
0.0
 40
0.1
 50
300.0
 51
60.0
  0
LINE
  8
LC-004-002-----0
 62
     1
  5
50
 10
370.15861
 20
403.847298
 30
0.0
 11
372.799914
 21
408.422171
 31
0.0
  0
LINE
  8
LC-004-002-----0
 62
     1
  5
51
 10
370.682704
 20
403.164285
 30
0.0
 11
373.161016
 21
403.828347
 31
0.0
  0
ARC
  8
LC-004-002-----0
 62
     1
  5
52
 10
370.562113
 20
403.614335
 30
0.0
 40
0.465926
 50
150.0
 51
285.0
  0
LINE
  8
LC-004-002-----0
 62
     1
  5
53
 10
378.546188
 20
405.459757
 30
0.0
 11
377.996188
 21
405.777299
 31
0.0
  0
LINE
  8
LC-004-002-----0
 62
     1
  5
54
 10
377.338208
 20
408.631021
 30
0.0
 11
374.855967
 21
409.170513
 31
0.0
  0
ARC
  8
LC-004-002-----0
 62
     1
  5
55
 10
374.27386
 20
407.571188
 30
0.0
 40
1.701966
 50
70.0
 51
150.0
  0
LINE
  8
LC-004-002-----0
 62
     1
  5
56
 10
378.546188
 20
405.286552
 30
0.0
 11
377.996188
 21
404.969009
 31
0.0
  0
ARC
  8
LC-004-002-----0
 62
     1
  5
57
 10
378.496188
 20
403.773154
 30
0.0
 40
0.1
 50
300.0
 51
60.0
  0
LINE
  8
LC-004-002-----0
 62
     1
  5
58
 10
373.699661
 20
400.959978
 30
0.0
 11
374.088692
 21
403.166283
 31
0.0
  0
LINE
  8
LC-004-002-----0
 62
     1
  5
59
 10
378.546188
 20
403.859757
 30
0.0
 11
377.996188
 21
404.177299
 31
0.0
  0
LINE
  8
LC-004-002-----0
 62
     1
  5
5A
 10
375.996188
 20
400.373154
 30
0.0
 11
377.169836
 21
400.5801
 31
0.0
  0
LINE
  8
LC-004-002-----0
 62
     1
  5
5B
 10
377.996188
 20
407.691329
 30
0.0
 11
377.996188
 21
407.319564
 31
0.0
  0
ARC
  8
LC-003-002-RND-0
 62
     1
  5
5C
 10
376.996188
 20
407.691329
 30
0.0
 40
1.0
 50
0.0
 51
70.0
  0
ARC
  8
LC-003-002-RND-0
 62
     1
  5
5D
 10
376.996188
 20
401.564908
 30
0.0
 40
1.0
 50
280.0
 51
0.0
  0
LINE
  8
LC-004-002-----0
 62
     1
  5
5E
 10
375.996188
 20
400.373154
 30
0.0
 11
374.192064
 21
400.373154
 31
0.0
  0
LINE
  8
LC-004-002-----0
 62
     1
  5
5F
 10
378.546188
 20
403.686552
 30
0.0
 11
377.996188
 21
403.369009
 31
0.0
  0
ARC
  8
LC-004-002-----0
 62
     1
  5
60
 10
378.496188
 20
402.173154
 30
0.0
 40
0.1
 50
300.0
 51
60.0
  0
LINE
  8
LC-004-002-----0
 62
     1
  5
61
 10
378.546188
 20
402.259757
 30
0.0
 11
377.996188
 21
402.577299
 31
0.0
  0
LINE
  8
LC-004-002-----0
 62
     1
  5
62
 10
378.546188
 20
402.086552
 30
0.0
 11
377.996188
 21
401.769009
 31
0.0
  0
LINE
  8
LC-004-002-----0
 62
     1
  5
63
 10
377.996188
 20
403.369009
 30
0.0
 11
377.996188
 21
402.577299
 31
0.0
  0
LINE
  8
LC-004-002-----0
 62
     1
  5
64
 10
377.996188
 20
401.769009
 30
0.0
 11
377.996188
 21
401.564908
 31
0.0
  0
ARC
  8
LC-004-002-----0
 62
     1
  5
65
 10
378.396188
 20
406.973154
 30
0.0
 40
0.1
 50
300.0
 51
60.0
  0
LINE
  8
LC-004-002-----0
 62
     1
  5
66
 10
378.446188
 20
407.059757
 30
0.0
 11
377.996188
 21
407.319564
 31
0.0
  0
LINE
  8
LC-004-002-----0
 62
     1
  5
67
 10
378.446188
 20
406.886552
 30
0.0
 11
377.996188
 21
406.626744
 31
0.0
  0
LINE
  8
LC-004-002-----0
 62
     1
  5
68
 10
377.996188
 20
406.626744
 30
0.0
 11
377.996188
 21
405.777299
 31
0.0
  0
LINE
  8
LC-004-002-----0
 62
     1
  5
69
 10
260.218515
 20
409.273154
 30
0.0
 11
374.27386
 21
409.273154
 31
0.0
  0
LINE
  8
LC-004-002-----0
 62
     1
  5
6A
 10
260.300311
 20
400.373154
 30
0.0
 11
374.192064
 21
400.373154
 31
0.0
  0
LINE
  8
LC-004-002-----0
 62
     1
  5
6B
 10
370.562113
 20
403.148409
 30
0.0
 11
263.930262
 21
403.148409
 31
0.0
  0
INSERT
  8
LC-005-005-----0
 62
     2
  5
75
  2
*X0
 10
255.896188
 20
400.373154
 30
0.0
  0
INSERT
  8
LC-005-005-----0
 62
     2
  5
7D
  2
*X1
 10
370.096188
 20
400.373154
 30
0.0
  0
LINE
  8
LC-004-002-----0
 62
     1
  5
7E
 10
360.746188
 20
316.872068
 30
0.0
 11
360.746188
 21
350.372068
 31
0.0
  0
LINE
  8
LC-004-002-----0
 62
     1
  5
7F
 10
317.246188
 20
310.872068
 30
0.0
 11
354.746188
 21
310.872068
 31
0.0
  0
LINE
  8
LC-004-002-----0
 62
     1
  5
80
 10
365.746188
 20
355.372068
 30
0.0
 11
389.746231
 21
355.372068
 31
0.0
  0
ARC
  8
LC-003-002-RND-0
 62
     1
  5
81
 10
354.746188
 20
316.872068
 30
0.0
 40
6.0
 50
270.0
 51
0.0
  0
ARC
  8
LC-003-002-RND-0
 62
     1
  5
82
 10
365.746188
 20
350.372068
 30
0.0
 40
5.0
 50
90.0
 51
180.0
  0
LINE
  8
LC-004-002-----0
 62
     1
  5
83
 10
395.746188
 20
361.372068
 30
0.0
 11
395.046188
 21
361.372068
 31
0.0
  0
ARC
  8
LC-003-002-RND-0
 62
     1
  5
84
 10
389.746188
 20
361.372068
 30
0.0
 40
6.0
 50
270.0
 51
0.0
  0
LINE
  8
LC-004-002-----0
 62
     1
  5
85
 10
352.246188
 20
310.872068
 30
0.0
 11
352.246188
 21
311.572068
 31
0.0
  0
LINE
  8
LC-006-006-MLN-0
  6
CENTER
 62
     2
  5
88
 10
317.246188
 20
300.872068
 30
0.0
 11
317.246188
 21
427.873154
 31
0.0
  0
LINE
  8
LC-004-002-----0
 62
     1
  5
89
 10
244.922568
 20
357.372068
 30
0.0
 11
268.746188
 21
357.372068
 31
0.0
  0
LINE
  8
LC-004-002-----0
 62
     1
  5
8A
 10
268.746188
 20
357.372068
 30
0.0
 11
268.746188
 21
356.372068
 31
0.0
  0
ARC
  8
LC-004-002-----0
 62
     1
  5
8B
 10
244.922568
 20
361.372068
 30
0.0
 40
4.0
 50
195.0
 51
270.0
  0
LINE
  8
LC-004-002-----0
 62
     1
  5
8C
 10
238.746188
 20
361.372068
 30
0.0
 11
239.446188
 21
361.372068
 31
0.0
  0
ARC
  8
LC-004-002-----0
 62
     1
  5
8D
 10
244.922568
 20
361.372068
 30
0.0
 40
5.0
 50
195.0
 51
270.0
  0
LINE
  8
LC-004-002-----0
 62
     1
  5
8E
 10
182.003576
 20
445.372068
 30
0.0
 11
182.003576
 21
446.372068
 31
0.0
  0
LINE
  8
LC-004-002-----0
 62
     1
  5
8F
 10
216.471128
 20
445.372068
 30
0.0
 11
182.003576
 21
445.372068
 31
0.0
  0
LINE
  8
LC-004-002-----0
 62
     1
  5
90
 10
241.058865
 20
360.336792
 30
0.0
 11
218.40298
 21
444.889706
 31
0.0
  0
LINE
  8
LC-004-002-----0
 62
     1
  5
91
 10
362.879247
 20
449.072068
 30
0.0
 11
390.397381
 21
449.072068
 31
0.0
  0
LINE
  8
LC-004-002-----0
 62
     1
  5
92
 10
374.512306
 20
448.072068
 30
0.0
 11
390.397381
 21
448.072068
 31
0.0
  0
LINE
  8
LC-004-002-----0
 62
     1
  5
93
 10
390.397381
 20
448.072068
 30
0.0
 11
390.397381
 21
449.072068
 31
0.0
  0
LINE
  8
LC-004-002-----0
 62
     1
  5
94
 10
373.021314
 20
447.337644
 30
0.0
 11
369.34177
 21
417.873154
 31
0.0
  0
LINE
  8
LC-004-002-----0
 62
     1
  5
95
 10
373.521161
 20
447.204856
 30
0.0
 11
369.818404
 21
417.873154
 31
0.0
  0
LINE
  8
LC-004-002-----0
 62
     1
  5
96
 10
360.896958
 20
447.337644
 30
0.0
 11
357.217414
 21
417.873154
 31
0.0
  0
LINE
  8
LC-004-002-----0
 62
     1
  5
97
 10
240.092939
 20
360.077973
 30
0.0
 11
217.437054
 21
444.630887
 31
0.0
  0
LINE
  8
LC-004-002-----0
 62
     1
  5
98
 10
244.922568
 20
356.372068
 30
0.0
 11
268.746188
 21
356.372068
 31
0.0
  0
LINE
  8
LC-004-002-----0
 62
     1
  5
99
 10
365.746188
 20
356.072068
 30
0.0
 11
389.746231
 21
356.072068
 31
0.0
  0
ARC
  8
LC-004-002-----0
 62
     1
  5
9A
 10
354.746188
 20
316.872068
 30
0.0
 40
5.3
 50
270.0
 51
0.0
  0
ARC
  8
LC-004-002-----0
 62
     1
  5
9B
 10
389.746188
 20
361.372068
 30
0.0
 40
5.3
 50
270.0
 51
0.0
  0
ARC
  8
LC-003-002-RND-0
 62
     1
  5
9C
 10
268.746188
 20
350.372068
 30
0.0
 40
5.0
 50
0.0
 51
90.0
  0
LINE
  8
LC-004-002-----0
 62
     1
  5
9D
 10
273.746188
 20
316.872068
 30
0.0
 11
273.746188
 21
350.372068
 31
0.0
  0
LINE
  8
LC-004-002-----0
 62
     1
  5
9E
 10
274.446188
 20
316.872068
 30
0.0
 11
274.446188
 21
350.372068
 31
0.0
  0
ARC
  8
LC-004-002-----0
 62
     1
  5
9F
 10
279.746188
 20
316.872068
 30
0.0
 40
5.3
 50
180.0
 51
270.0
  0
ARC
  8
LC-003-002-RND-0
 62
     1
  5
A0
 10
279.746188
 20
316.872068
 30
0.0
 40
6.0
 50
180.0
 51
270.0
  0
ARC
  8
LC-004-002-----0
 62
     1
  5
A1
 10
244.746188
 20
361.372068
 30
0.0
 40
5.3
 50
180.0
 51
270.0
  0
ARC
  8
LC-003-002-RND-0
 62
     1
  5
A2
 10
244.746188
 20
361.372068
 30
0.0
 40
6.0
 50
180.0
 51
270.0
  0
LINE
  8
LC-004-002-----0
 62
     1
  5
A3
 10
317.246188
 20
310.872068
 30
0.0
 11
279.746188
 21
310.872068
 31
0.0
  0
LINE
  8
LC-004-002-----0
 62
     1
  5
A4
 10
282.246188
 20
310.872068
 30
0.0
 11
282.246188
 21
311.572068
 31
0.0
  0
LINE
  8
LC-004-002-----0
 62
     1
  5
A5
 10
268.746188
 20
355.372068
 30
0.0
 11
244.746144
 21
355.372068
 31
0.0
  0
LINE
  8
LC-004-002-----0
 62
     1
  5
A6
 10
247.746188
 20
356.072068
 30
0.0
 11
244.746144
 21
356.072068
 31
0.0
  0
LINE
  8
LC-004-002-----0
 62
     1
  5
A7
 10
395.046188
 20
361.372068
 30
0.0
 11
411.708169
 21
365.836632
 31
0.0
  0
LINE
  8
LC-004-002-----0
 62
     1
  5
A8
 10
411.630523
 20
366.12641
 30
0.0
 11
411.708169
 21
365.836632
 31
0.0
  0
LINE
  8
LC-004-002-----0
 62
     1
  5
A9
 10
389.746188
 20
356.072068
 30
0.0
 11
386.746188
 21
356.072068
 31
0.0
  0
LINE
  8
LC-004-002-----0
 62
     1
  5
AA
 10
394.968542
 20
361.661846
 30
0.0
 11
411.630523
 21
366.12641
 31
0.0
  0
LINE
  8
LC-004-002-----0
 62
     1
  5
AB
 10
389.746188
 20
356.372068
 30
0.0
 11
386.746188
 21
356.372068
 31
0.0
  0
ARC
  8
LC-004-002-----0
 62
     1
  5
AC
 10
389.746188
 20
361.372068
 30
0.0
 40
5.3
 50
270.0
 51
0.0
  0
ARC
  8
LC-004-002-----0
 62
     1
  5
AD
 10
389.746188
 20
361.372068
 30
0.0
 40
5.0
 50
270.0
 51
0.0
  0
ARC
  8
LC-003-002-RND-0
 62
     1
  5
AE
 10
395.046188
 20
361.372068
 30
0.0
 40
0.3
 50
105.0
 51
185.477925
  0
INSERT
  8
LC-005-005-----0
 62
     2
  5
BA
  2
*X2
 10
384.446188
 20
356.072068
 30
0.0
  0
LINE
  8
LC-004-002-----0
 62
     1
  5
BB
 10
239.446188
 20
361.372068
 30
0.0
 11
222.784207
 21
365.836632
 31
0.0
  0
LINE
  8
LC-004-002-----0
 62
     1
  5
BC
 10
222.861852
 20
366.12641
 30
0.0
 11
222.784207
 21
365.836632
 31
0.0
  0
LINE
  8
LC-004-002-----0
 62
     1
  5
BD
 10
244.746188
 20
356.072068
 30
0.0
 11
247.746188
 21
356.072068
 31
0.0
  0
LINE
  8
LC-004-002-----0
 62
     1
  5
BE
 10
239.523833
 20
361.661846
 30
0.0
 11
222.861852
 21
366.12641
 31
0.0
  0
LINE
  8
LC-004-002-----0
 62
     1
  5
BF
 10
247.746188
 20
356.072068
 30
0.0
 11
247.746188
 21
356.372068
 31
0.0
  0
ARC
  8
LC-004-002-----0
 62
     1
  5
C0
 10
244.746188
 20
361.372068
 30
0.0
 40
5.3
 50
180.0
 51
270.0
  0
ARC
  8
LC-004-002-----0
 62
     1
  5
C1
 10
244.746188
 20
361.372068
 30
0.0
 40
5.0
 50
180.0
 51
270.0
  0
ARC
  8
LC-003-002-RND-0
 62
     1
  5
C2
 10
239.446188
 20
361.372068
 30
0.0
 40
0.3
 50
354.522075
 51
75.0
  0
INSERT
  8
LC-005-005-----0
 62
     2
  5
D2
  2
*X3
 10
222.784207
 20
356.072068
 30
0.0
  0
LINE
  8
LC-004-002-----0
 62
     1
  5
D3
 10
389.299305
 20
448.072068
 30
0.0
 11
389.299305
 21
449.072068
 31
0.0
  0
ARC
  8
LC-003-002-RND-0
 62
     1
  5
D4
 10
374.512306
 20
447.072068
 30
0.0
 40
1.0
 50
90.0
 51
172.36926
  0
ARC
  8
LC-003-002-RND-0
 62
     1
  5
D5
 10
362.879247
 20
447.072068
 30
0.0
 40
2.0
 50
90.0
 51
172.36926
  0
ARC
  8
LC-003-002-RND-0
 62
     1
  5
D6
 10
375.003602
 20
447.072068
 30
0.0
 40
2.0
 50
90.0
 51
172.36926
  0
INSERT
  8
LC-005-005-----0
 62
     2
  5
FB
  2
*X4
 10
348.746188
 20
310.872068
 30
0.0
  0
INSERT
  8
LC-005-005-----0
 62
     2
  5
119
  2
*X5
 10
238.746188
 20
310.872068
 30
0.0
  0
LINE
  8
LC-004-002-----0
 62
     1
  5
11A
 10
411.630523
 20
366.12641
 30
0.0
 11
375.246188
 21
366.12641
 31
0.0
  0
LINE
  8
LC-004-002-----0
 62
     1
  5
11B
 10
238.472265
 20
366.12641
 30
0.0
 11
222.861852
 21
366.12641
 31
0.0
  0
LINE
  8
LC-004-002-----0
 62
     1
  5
11C
 10
259.246188
 20
366.12641
 30
0.0
 11
239.507542
 21
366.12641
 31
0.0
  0
ARC
  8
LC-003-002-RND-0
 62
     1
  5
11D
 10
216.471128
 20
444.372068
 30
0.0
 40
1.0
 50
15.0
 51
90.0
  0
ARC
  8
LC-003-002-RND-0
 62
     1
  5
11E
 10
216.471128
 20
444.372068
 30
0.0
 40
2.0
 50
15.0
 51
90.0
  0
LINE
  8
LC-004-002-----0
 62
     1
  5
11F
 10
216.471128
 20
446.372068
 30
0.0
 11
182.003576
 21
446.372068
 31
0.0
  0
INSERT
  8
LC-005-005-----0
 62
     2
  5
150
  2
*X6
 10
182.003576
 20
356.372068
 30
0.0
  0
LINE
  8
LC-004-002-----0
 62
     1
  5
151
 10
380.496188
 20
409.873154
 30
0.0
 11
380.496188
 21
401.373154
 31
0.0
  0
LINE
  8
LC-004-002-----0
 62
     1
  5
152
 10
375.246188
 20
396.873154
 30
0.0
 11
375.246188
 21
362.303441
 31
0.0
  0
LINE
  8
LC-004-002-----0
 62
     1
  5
153
 10
375.496188
 20
417.873154
 30
0.0
 11
375.496188
 21
414.373154
 31
0.0
  0
LINE
  8
LC-004-002-----0
 62
     1
  5
154
 10
376.996188
 20
413.373154
 30
0.0
 11
376.496188
 21
413.373154
 31
0.0
  0
LINE
  8
LC-004-002-----0
 62
     1
  5
155
 10
376.996188
 20
397.873154
 30
0.0
 11
376.246188
 21
397.873154
 31
0.0
  0
LINE
  8
LC-004-002-----0
 62
     1
  5
156
 10
372.746188
 20
417.873154
 30
0.0
 11
372.746188
 21
410.873154
 31
0.0
  0
LINE
  8
LC-004-002-----0
 62
     1
  5
157
 10
376.996188
 20
410.873154
 30
0.0
 11
317.246188
 21
410.873154
 31
0.0
  0
LINE
  8
LC-004-002-----0
 62
     1
  5
158
 10
377.996188
 20
409.873154
 30
0.0
 11
377.996188
 21
407.319564
 31
0.0
  0
LINE
  8
LC-004-002-----0
 62
     1
  5
159
 10
377.996188
 20
406.626744
 30
0.0
 11
377.996188
 21
405.777299
 31
0.0
  0
LINE
  8
LC-004-002-----0
 62
     1
  5
15A
 10
377.996188
 20
404.969009
 30
0.0
 11
377.996188
 21
404.177299
 31
0.0
  0
LINE
  8
LC-004-002-----0
 62
     1
  5
15B
 10
377.996188
 20
403.369009
 30
0.0
 11
377.996188
 21
402.577299
 31
0.0
  0
LINE
  8
LC-004-002-----0
 62
     1
  5
15C
 10
377.996188
 20
401.564908
 30
0.0
 11
377.996188
 21
401.373154
 31
0.0
  0
LINE
  8
LC-004-002-----0
 62
     1
  5
15D
 10
376.996188
 20
400.373154
 30
0.0
 11
317.246188
 21
400.373154
 31
0.0
  0
ARC
  8
LC-003-002-RND-0
 62
     1
  5
15E
 10
376.996188
 20
409.873154
 30
0.0
 40
1.0
 50
0.0
 51
90.0
  0
ARC
  8
LC-003-002-RND-0
 62
     1
  5
15F
 10
376.996188
 20
409.873154
 30
0.0
 40
3.5
 50
0.0
 51
90.0
  0
ARC
  8
LC-003-002-RND-0
 62
     1
  5
160
 10
376.996188
 20
401.373154
 30
0.0
 40
3.5
 50
270.0
 51
0.0
  0
ARC
  8
LC-003-002-RND-0
 62
     1
  5
161
 10
376.996188
 20
401.373154
 30
0.0
 40
1.0
 50
270.0
 51
0.0
  0
ARC
  8
LC-003-002-RND-0
 62
     1
  5
162
 10
376.496188
 20
414.373154
 30
0.0
 40
1.0
 50
180.0
 51
270.0
  0
ARC
  8
LC-003-002-RND-0
 62
     1
  5
163
 10
376.246188
 20
396.873154
 30
0.0
 40
1.0
 50
90.0
 51
180.0
  0
LINE
  8
LC-004-002-----0
 62
     1
  5
164
 10
372.446188
 20
400.373154
 30
0.0
 11
372.446188
 21
364.672068
 31
0.0
  0
LINE
  8
LC-001-100-D03-0
 62
     1
  5
165
 10
258.996188
 20
417.873154
 30
0.0
 11
261.052081
 21
417.873154
 31
0.0
  0
LINE
  8
LC-001-100-D03-0
 62
     1
  5
166
 10
261.052081
 20
417.873154
 30
0.0
 11
317.246188
 21
417.873154
 31
0.0
  0
LINE
  8
LC-002-100-D01-0
 62
     1
  5
167
 10
263.466318
 20
357.372068
 30
0.0
 11
260.567545
 21
357.372068
 31
0.0
  0
LINE
  8
LC-004-002-----0
 62
     1
  5
168
 10
253.996188
 20
409.873154
 30
0.0
 11
253.996188
 21
401.373154
 31
0.0
  0
LINE
  8
LC-004-002-----0
 62
     1
  5
169
 10
259.246188
 20
396.873154
 30
0.0
 11
259.246188
 21
362.303441
 31
0.0
  0
LINE
  8
LC-004-002-----0
 62
     1
  5
16A
 10
258.996188
 20
417.873154
 30
0.0
 11
258.996188
 21
414.373154
 31
0.0
  0
LINE
  8
LC-004-002-----0
 62
     1
  5
16B
 10
257.496188
 20
413.373154
 30
0.0
 11
257.996188
 21
413.373154
 31
0.0
  0
LINE
  8
LC-004-002-----0
 62
     1
  5
16C
 10
257.496188
 20
397.873154
 30
0.0
 11
258.246188
 21
397.873154
 31
0.0
  0
LINE
  8
LC-004-002-----0
 62
     1
  5
16D
 10
261.746188
 20
417.873154
 30
0.0
 11
261.746188
 21
410.873154
 31
0.0
  0
LINE
  8
LC-004-002-----0
 62
     1
  5
16E
 10
257.496188
 20
410.873154
 30
0.0
 11
317.246188
 21
410.873154
 31
0.0
  0
LINE
  8
LC-004-002-----0
 62
     1
  5
16F
 10
256.496188
 20
409.873154
 30
0.0
 11
256.496188
 21
407.691329
 31
0.0
  0
LINE
  8
LC-004-002-----0
 62
     1
  5
170
 10
256.496188
 20
406.626744
 30
0.0
 11
256.496188
 21
405.777299
 31
0.0
  0
LINE
  8
LC-004-002-----0
 62
     1
  5
171
 10
256.496188
 20
404.969009
 30
0.0
 11
256.496188
 21
404.177299
 31
0.0
  0
LINE
  8
LC-004-002-----0
 62
     1
  5
172
 10
256.496188
 20
403.369009
 30
0.0
 11
256.496188
 21
402.577299
 31
0.0
  0
LINE
  8
LC-004-002-----0
 62
     1
  5
173
 10
256.496188
 20
401.769009
 30
0.0
 11
256.496188
 21
401.373154
 31
0.0
  0
LINE
  8
LC-004-002-----0
 62
     1
  5
174
 10
257.496188
 20
400.373154
 30
0.0
 11
258.496188
 21
400.373154
 31
0.0
  0
ARC
  8
LC-003-002-RND-0
 62
     1
  5
175
 10
257.496188
 20
409.873154
 30
0.0
 40
1.0
 50
90.0
 51
180.0
  0
ARC
  8
LC-003-002-RND-0
 62
     1
  5
176
 10
257.496188
 20
409.873154
 30
0.0
 40
3.5
 50
90.0
 51
180.0
  0
ARC
  8
LC-003-002-RND-0
 62
     1
  5
177
 10
257.496188
 20
401.373154
 30
0.0
 40
3.5
 50
180.0
 51
270.0
  0
ARC
  8
LC-003-002-RND-0
 62
     1
  5
178
 10
257.496188
 20
401.373154
 30
0.0
 40
1.0
 50
180.0
 51
270.0
  0
ARC
  8
LC-003-002-RND-0
 62
     1
  5
179
 10
257.996188
 20
414.373154
 30
0.0
 40
1.0
 50
270.0
 51
0.0
  0
ARC
  8
LC-003-002-RND-0
 62
     1
  5
17A
 10
258.246188
 20
396.873154
 30
0.0
 40
1.0
 50
0.0
 51
90.0
  0
LINE
  8
LC-004-002-----0
 62
     1
  5
17B
 10
262.046188
 20
400.373154
 30
0.0
 11
262.046188
 21
362.672068
 31
0.0
  0
LINE
  8
LC-004-002-----0
 62
     1
  5
17C
 10
317.246188
 20
362.672078
 30
0.0
 11
372.44619
 21
362.672078
 31
0.0
  0
LINE
  8
LC-004-002-----0
 62
     1
  5
17D
 10
372.446188
 20
362.672068
 30
0.0
 11
371.026057
 21
357.372068
 31
0.0
  0
LINE
  8
LC-004-002-----0
 62
     1
  5
17E
 10
375.246188
 20
362.303441
 30
0.0
 11
374.996627
 21
361.372068
 31
0.0
  0
LINE
  8
LC-004-002-----0
 62
     1
  5
17F
 10
262.046188
 20
362.672068
 30
0.0
 11
262.394522
 21
361.372068
 31
0.0
  0
LINE
  8
LC-004-002-----0
 62
     1
  5
180
 10
259.246188
 20
362.303441
 30
0.0
 11
260.567545
 21
357.372068
 31
0.0
  0
LINE
  8
LC-004-002-----0
 62
     1
  5
181
 10
317.246188
 20
362.672078
 30
0.0
 11
262.046185
 21
362.672078
 31
0.0
  0
INSERT
  8
LC-005-005-----0
 62
     2
  5
1B7
  2
*X7
 10
253.996188
 20
357.372068
 30
0.0
  0
DIMENSION
  8
LC-008-003-----0
 62
     2
  5
1D6
  2
*D8
 10
431.2
 20
461.580503
 30
0.0
 11
431.2
 21
461.580503
 31
0.0
 13
394.746188
 23
361.372068
 33
0.0
 14
375.496188
 24
417.873154
 34
0.0
 50
90.0
  3
LC-DIM-L-0140-02-02
  0
LINE
  8
LC-004-002-----0
 62
     1
  5
1D7
 10
360.046188
 20
316.872068
 30
0.0
 11
360.046188
 21
350.372068
 31
0.0
  0
ARC
  8
LC-004-002-----0
 62
     1
  5
1D8
 10
354.746188
 20
316.872068
 30
0.0
 40
5.3
 50
270.0
 51
0.0
  0
LINE
  8
LC-004-002-----0
 62
     1
  5
1D9
 10
352.246188
 20
311.572068
 30
0.0
 11
352.246188
 21
361.372068
 31
0.0
  0
LINE
  8
LC-004-002-----0
 62
     1
  5
1DA
 10
317.246188
 20
311.572068
 30
0.0
 11
354.746188
 21
311.572068
 31
0.0
  0
ARC
  8
LC-004-002-----0
 62
     1
  5
1DB
 10
365.746188
 20
350.372068
 30
0.0
 40
5.7
 50
90.0
 51
180.0
  0
ARC
  8
LC-004-002-----0
 62
     1
  5
1DC
 10
389.746188
 20
361.372068
 30
0.0
 40
5.0
 50
270.0
 51
0.0
  0
LINE
  8
LC-004-002-----0
 62
     1
  5
1DD
 10
386.746188
 20
356.072068
 30
0.0
 11
386.746188
 21
356.372068
 31
0.0
  0
LINE
  8
LC-004-002-----0
 62
     1
  5
1DE
 10
365.746188
 20
356.072068
 30
0.0
 11
386.746188
 21
356.072068
 31
0.0
  0
LINE
  8
LC-004-002-----0
 62
     1
  5
1DF
 10
394.746188
 20
361.372068
 30
0.0
 11
374.996627
 21
361.372068
 31
0.0
  0
LINE
  8
LC-004-002-----0
 62
     1
  5
1E0
 10
389.746188
 20
356.372068
 30
0.0
 11
386.746188
 21
356.372068
 31
0.0
  0
LINE
  8
LC-004-002-----0
 62
     1
  5
1E1
 10
374.996627
 20
361.372068
 30
0.0
 11
373.92483
 21
357.372068
 31
0.0
  0
LINE
  8
LC-004-002-----0
 62
     1
  5
1E2
 10
372.097854
 20
361.372068
 30
0.0
 11
371.026057
 21
357.372068
 31
0.0
  0
LINE
  8
LC-002-100-D01-0
 62
     1
  5
1E3
 10
371.026057
 20
357.372068
 30
0.0
 11
373.92483
 21
357.372068
 31
0.0
  0
LINE
  8
LC-004-002-----0
 62
     1
  5
1E4
 10
372.097854
 20
361.372068
 30
0.0
 11
317.246188
 21
361.372068
 31
0.0
  0
LINE
  8
LC-004-002-----0
 62
     1
  5
1E5
 10
274.446188
 20
316.872068
 30
0.0
 11
274.446188
 21
350.372068
 31
0.0
  0
ARC
  8
LC-004-002-----0
 62
     1
  5
1E6
 10
279.746188
 20
316.872068
 30
0.0
 40
5.3
 50
180.0
 51
270.0
  0
LINE
  8
LC-004-002-----0
 62
     1
  5
1E7
 10
282.246188
 20
311.572068
 30
0.0
 11
282.246188
 21
361.372068
 31
0.0
  0
LINE
  8
LC-004-002-----0
 62
     1
  5
1E8
 10
317.246188
 20
311.572068
 30
0.0
 11
279.746188
 21
311.572068
 31
0.0
  0
ARC
  8
LC-004-002-----0
 62
     1
  5
1E9
 10
268.746188
 20
350.372068
 30
0.0
 40
5.7
 50
0.0
 51
90.0
  0
ARC
  8
LC-004-002-----0
 62
     1
  5
1EA
 10
244.746188
 20
361.372068
 30
0.0
 40
5.0
 50
180.0
 51
270.0
  0
LINE
  8
LC-004-002-----0
 62
     1
  5
1EB
 10
247.746188
 20
356.072068
 30
0.0
 11
247.746188
 21
356.372068
 31
0.0
  0
LINE
  8
LC-004-002-----0
 62
     1
  5
1EC
 10
268.746188
 20
356.072068
 30
0.0
 11
247.746188
 21
356.072068
 31
0.0
  0
LINE
  8
LC-004-002-----0
 62
     1
  5
1ED
 10
240.781464
 20
361.372068
 30
0.0
 11
259.495748
 21
361.372068
 31
0.0
  0
LINE
  8
LC-004-002-----0
 62
     1
  5
1EE
 10
244.746188
 20
356.372068
 30
0.0
 11
247.746188
 21
356.372068
 31
0.0
  0
LINE
  8
LC-004-002-----0
 62
     1
  5
1EF
 10
259.495748
 20
361.372068
 30
0.0
 11
260.567545
 21
357.372068
 31
0.0
  0
LINE
  8
LC-004-002-----0
 62
     1
  5
1F0
 10
262.394522
 20
361.372068
 30
0.0
 11
263.466318
 21
357.372068
 31
0.0
  0
LINE
  8
LC-002-100-D01-0
 62
     1
  5
1F1
 10
263.466318
 20
357.372068
 30
0.0
 11
260.567545
 21
357.372068
 31
0.0
  0
LINE
  8
LC-004-002-----0
 62
     1
  5
1F2
 10
262.394522
 20
361.372068
 30
0.0
 11
317.246188
 21
361.372068
 31
0.0
  0
INSERT
  8
LC-005-005-----0
 62
     2
  5
222
  2
*X9
 10
239.746188
 20
311.572068
 30
0.0
  0
DIMENSION
  8
LC-008-003-----0
 62
     2
  5
23C
  2
*D10
 10
317.246188
 20
252.0
 30
0.0
 11
317.246188
 21
252.0
 31
0.0
  1
%%c<>
 13
282.246188
 23
311.572068
 33
0.0
 14
352.246188
 24
311.572068
 34
0.0
  3
LC-DIM-L-0140-02-02
  0
CIRCLE
  8
LC-004-002-----0
 62
     1
  5
23D
 10
636.544714
 20
379.972068
 30
0.0
 40
35.0
  0
LINE
  8
LC-004-002-----0
 62
     1
  5
23E
 10
501.302103
 20
384.722068
 30
0.0
 11
501.302103
 21
375.222068
 31
0.0
  0
LINE
  8
LC-008-003-----0
 62
     2
  5
23F
 10
537.304309
 20
387.722068
 30
0.0
 11
537.304309
 21
372.222068
 31
0.0
  0
LINE
  8
LC-008-003-----0
 62
     2
  5
240
 10
561.151787
 20
387.722068
 30
0.0
 11
561.151787
 21
372.222068
 31
0.0
  0
LINE
  8
LC-004-002-----0
 62
     1
  5
241
 10
674.643112
 20
430.460429
 30
0.0
 11
709.377717
 21
490.622529
 31
0.0
  0
LINE
  8
LC-004-002-----0
 62
     1
  5
242
 10
695.954323
 20
498.372529
 30
0.0
 11
661.219719
 21
438.210429
 31
0.0
  0
LINE
  8
LC-004-002-----0
 62
     1
  5
243
 10
573.771312
 20
387.722068
 30
0.0
 11
504.302103
 21
387.722068
 31
0.0
  0
LINE
  8
LC-004-002-----0
 62
     1
  5
244
 10
661.219719
 20
321.733707
 30
0.0
 11
695.954323
 21
261.571607
 31
0.0
  0
LINE
  8
LC-004-002-----0
 62
     1
  5
245
 10
504.302103
 20
372.222068
 30
0.0
 11
573.771312
 21
372.222068
 31
0.0
  0
LINE
  8
LC-004-002-----0
 62
     1
  5
246
 10
674.643112
 20
329.483707
 30
0.0
 11
709.377717
 21
269.321607
 31
0.0
  0
LINE
  8
LC-004-002-----0
 62
     1
  5
247
 10
504.302103
 20
387.722068
 30
0.0
 11
501.302103
 21
384.722068
 31
0.0
  0
LINE
  8
LC-004-002-----0
 62
     1
  5
248
 10
501.302103
 20
375.222068
 30
0.0
 11
504.302103
 21
372.222068
 31
0.0
  0
ARC
  8
LC-004-002-----0
 62
     1
  5
249
 10
636.544714
 20
379.972068
 30
0.0
 40
69.5
 50
66.402413
 51
173.597587
  0
ARC
  8
LC-004-002-----0
 62
     1
  5
24A
 10
636.544714
 20
379.972068
 30
0.0
 40
77.5
 50
65.73917
 51
174.26083
  0
ARC
  8
LC-004-002-----0
 62
     1
  5
24B
 10
636.544714
 20
379.972068
 30
0.0
 40
94.461981
 50
64.706041
 51
69.848363
  0
ARC
  8
LC-004-002-----0
 62
     1
  5
24C
 10
636.544714
 20
379.972068
 30
0.0
 40
69.5
 50
306.402413
 51
53.597587
  0
ARC
  8
LC-004-002-----0
 62
     1
  5
24D
 10
636.544714
 20
379.972068
 30
0.0
 40
77.5
 50
305.73917
 51
54.26083
  0
ARC
  8
LC-004-002-----0
 62
     1
  5
24E
 10
636.544714
 20
379.972068
 30
0.0
 40
69.5
 50
186.402413
 51
293.597587
  0
ARC
  8
LC-004-002-----0
 62
     1
  5
24F
 10
636.544714
 20
379.972068
 30
0.0
 40
77.5
 50
185.73917
 51
294.26083
  0
ARC
  8
LC-004-002-----0
 62
     1
  5
250
 10
636.544714
 20
379.972068
 30
0.0
 40
94.461981
 50
184.706041
 51
189.848363
  0
LINE
  8
LC-004-002-----0
 62
     1
  5
251
 10
714.044311
 20
379.722068
 30
0.0
 11
731.006695
 21
379.722068
 31
0.0
  0
LINE
  8
LC-004-002-----0
 62
     1
  5
252
 10
714.044311
 20
380.222068
 30
0.0
 11
731.006695
 21
380.222068
 31
0.0
  0
ARC
  8
LC-004-002-----0
 62
     1
  5
253
 10
636.544714
 20
379.972068
 30
0.0
 40
94.461981
 50
0.151637
 51
9.848363
  0
LINE
  8
LC-004-002-----0
 62
     1
  5
254
 10
712.91033
 20
393.18353
 30
0.0
 11
729.615018
 21
396.129017
 31
0.0
  0
LINE
  8
LC-004-002-----0
 62
     1
  5
255
 10
709.456019
 20
406.243568
 30
0.0
 11
725.395446
 21
412.045045
 31
0.0
  0
LINE
  8
LC-004-002-----0
 62
     1
  5
256
 10
703.786334
 20
418.50536
 30
0.0
 11
718.47619
 21
426.986552
 31
0.0
  0
LINE
  8
LC-004-002-----0
 62
     1
  5
257
 10
696.073547
 20
429.596338
 30
0.0
 11
709.067487
 21
440.499548
 31
0.0
  0
LINE
  8
LC-004-002-----0
 62
     1
  5
258
 10
686.552006
 20
439.179507
 30
0.0
 11
697.455216
 21
452.173447
 31
0.0
  0
LINE
  8
LC-004-002-----0
 62
     1
  5
259
 10
663.286061
 20
452.712362
 30
0.0
 11
669.087538
 21
468.65179
 31
0.0
  0
LINE
  8
LC-004-002-----0
 62
     1
  5
25A
 10
650.24858
 20
456.25086
 30
0.0
 11
653.194067
 21
472.955547
 31
0.0
  0
LINE
  8
LC-004-002-----0
 62
     1
  5
25B
 10
636.794714
 20
457.471665
 30
0.0
 11
636.794714
 21
474.434049
 31
0.0
  0
LINE
  8
LC-004-002-----0
 62
     1
  5
25C
 10
623.333253
 20
456.337684
 30
0.0
 11
620.387765
 21
473.042371
 31
0.0
  0
LINE
  8
LC-004-002-----0
 62
     1
  5
25D
 10
610.273214
 20
452.883372
 30
0.0
 11
604.471737
 21
468.8228
 31
0.0
  0
LINE
  8
LC-004-002-----0
 62
     1
  5
25E
 10
598.011422
 20
447.213688
 30
0.0
 11
589.53023
 21
461.903543
 31
0.0
  0
LINE
  8
LC-004-002-----0
 62
     1
  5
25F
 10
586.920445
 20
439.5009
 30
0.0
 11
576.017235
 21
452.494841
 31
0.0
  0
LINE
  8
LC-004-002-----0
 62
     1
  5
260
 10
577.337276
 20
429.97936
 30
0.0
 11
564.343336
 21
440.88257
 31
0.0
  0
LINE
  8
LC-004-002-----0
 62
     1
  5
261
 10
569.553095
 20
418.938373
 30
0.0
 11
554.863526
 21
427.4194
 31
0.0
  0
LINE
  8
LC-004-002-----0
 62
     1
  5
262
 10
563.80442
 20
406.713414
 30
0.0
 11
547.864993
 21
412.514892
 31
0.0
  0
LINE
  8
LC-004-002-----0
 62
     1
  5
263
 10
560.265923
 20
393.675934
 30
0.0
 11
543.561235
 21
396.621421
 31
0.0
  0
LINE
  8
LC-004-002-----0
 62
     1
  5
264
 10
560.179099
 20
366.760606
 30
0.0
 11
543.474411
 21
363.815119
 31
0.0
  0
LINE
  8
LC-004-002-----0
 62
     1
  5
265
 10
563.63341
 20
353.700568
 30
0.0
 11
547.694294
 21
347.899204
 31
0.0
  0
LINE
  8
LC-004-002-----0
 62
     1
  5
266
 10
569.303095
 20
341.438776
 30
0.0
 11
554.613239
 21
332.957584
 31
0.0
  0
LINE
  8
LC-004-002-----0
 62
     1
  5
267
 10
577.015882
 20
330.347799
 30
0.0
 11
564.021942
 21
319.444588
 31
0.0
  0
LINE
  8
LC-004-002-----0
 62
     1
  5
268
 10
586.537423
 20
320.76463
 30
0.0
 11
575.634212
 21
307.770689
 31
0.0
  0
LINE
  8
LC-004-002-----0
 62
     1
  5
269
 10
597.57841
 20
312.980448
 30
0.0
 11
589.097218
 21
298.290593
 31
0.0
  0
LINE
  8
LC-004-002-----0
 62
     1
  5
26A
 10
609.803368
 20
307.231774
 30
0.0
 11
604.001891
 21
291.292347
 31
0.0
  0
LINE
  8
LC-004-002-----0
 62
     1
  5
26B
 10
622.840849
 20
303.693276
 30
0.0
 11
619.895362
 21
286.988589
 31
0.0
  0
LINE
  8
LC-004-002-----0
 62
     1
  5
26C
 10
636.294714
 20
302.472471
 30
0.0
 11
636.294714
 21
285.510087
 31
0.0
  0
LINE
  8
LC-004-002-----0
 62
     1
  5
26D
 10
649.756176
 20
303.606452
 30
0.0
 11
652.701663
 21
286.901765
 31
0.0
  0
LINE
  8
LC-004-002-----0
 62
     1
  5
26E
 10
662.816214
 20
307.060764
 30
0.0
 11
668.617692
 21
291.121337
 31
0.0
  0
LINE
  8
LC-004-002-----0
 62
     1
  5
26F
 10
686.168984
 20
320.443236
 30
0.0
 11
697.072194
 21
307.449296
 31
0.0
  0
LINE
  8
LC-004-002-----0
 62
     1
  5
270
 10
695.752153
 20
329.964776
 30
0.0
 11
708.746093
 21
319.061566
 31
0.0
  0
LINE
  8
LC-004-002-----0
 62
     1
  5
271
 10
703.536334
 20
341.005763
 30
0.0
 11
718.22619
 21
332.524571
 31
0.0
  0
LINE
  8
LC-004-002-----0
 62
     1
  5
272
 10
709.285009
 20
353.230722
 30
0.0
 11
725.224436
 21
347.429245
 31
0.0
  0
LINE
  8
LC-004-002-----0
 62
     1
  5
273
 10
712.823506
 20
366.268202
 30
0.0
 11
729.528194
 21
363.322715
 31
0.0
  0
LINE
  8
LC-004-002-----0
 62
     1
  5
274
 10
712.823506
 20
393.675934
 30
0.0
 11
729.528194
 21
396.621421
 31
0.0
  0
LINE
  8
LC-004-002-----0
 62
     1
  5
275
 10
709.285009
 20
406.713414
 30
0.0
 11
725.224436
 21
412.514892
 31
0.0
  0
LINE
  8
LC-004-002-----0
 62
     1
  5
276
 10
703.536334
 20
418.938373
 30
0.0
 11
718.22619
 21
427.419565
 31
0.0
  0
LINE
  8
LC-004-002-----0
 62
     1
  5
277
 10
695.752153
 20
429.97936
 30
0.0
 11
708.746093
 21
440.88257
 31
0.0
  0
LINE
  8
LC-004-002-----0
 62
     1
  5
278
 10
686.168984
 20
439.5009
 30
0.0
 11
697.072194
 21
452.494841
 31
0.0
  0
LINE
  8
LC-004-002-----0
 62
     1
  5
279
 10
662.816214
 20
452.883372
 30
0.0
 11
668.617692
 21
468.8228
 31
0.0
  0
LINE
  8
LC-004-002-----0
 62
     1
  5
27A
 10
649.756176
 20
456.337684
 30
0.0
 11
652.701663
 21
473.042371
 31
0.0
  0
LINE
  8
LC-004-002-----0
 62
     1
  5
27B
 10
636.294714
 20
457.471665
 30
0.0
 11
636.294714
 21
474.434049
 31
0.0
  0
LINE
  8
LC-004-002-----0
 62
     1
  5
27C
 10
622.840849
 20
456.25086
 30
0.0
 11
619.895362
 21
472.955547
 31
0.0
  0
LINE
  8
LC-004-002-----0
 62
     1
  5
27D
 10
609.803368
 20
452.712362
 30
0.0
 11
604.001891
 21
468.65179
 31
0.0
  0
LINE
  8
LC-004-002-----0
 62
     1
  5
27E
 10
597.57841
 20
446.963688
 30
0.0
 11
589.097218
 21
461.653543
 31
0.0
  0
LINE
  8
LC-004-002-----0
 62
     1
  5
27F
 10
586.537423
 20
439.179507
 30
0.0
 11
575.634212
 21
452.173447
 31
0.0
  0
LINE
  8
LC-004-002-----0
 62
     1
  5
280
 10
577.015882
 20
429.596338
 30
0.0
 11
564.021942
 21
440.499548
 31
0.0
  0
LINE
  8
LC-004-002-----0
 62
     1
  5
281
 10
569.303095
 20
418.50536
 30
0.0
 11
554.613239
 21
426.986552
 31
0.0
  0
LINE
  8
LC-004-002-----0
 62
     1
  5
282
 10
563.63341
 20
406.243568
 30
0.0
 11
547.693983
 21
412.045045
 31
0.0
  0
LINE
  8
LC-004-002-----0
 62
     1
  5
283
 10
560.179099
 20
393.18353
 30
0.0
 11
543.474411
 21
396.129017
 31
0.0
  0
LINE
  8
LC-004-002-----0
 62
     1
  5
284
 10
560.265923
 20
366.268202
 30
0.0
 11
543.561235
 21
363.322715
 31
0.0
  0
LINE
  8
LC-004-002-----0
 62
     1
  5
285
 10
563.80442
 20
353.230722
 30
0.0
 11
547.864993
 21
347.429245
 31
0.0
  0
LINE
  8
LC-004-002-----0
 62
     1
  5
286
 10
569.553095
 20
341.005763
 30
0.0
 11
554.863239
 21
332.524571
 31
0.0
  0
LINE
  8
LC-004-002-----0
 62
     1
  5
287
 10
577.337276
 20
329.964776
 30
0.0
 11
564.343336
 21
319.061566
 31
0.0
  0
LINE
  8
LC-004-002-----0
 62
     1
  5
288
 10
586.920445
 20
320.443236
 30
0.0
 11
576.017235
 21
307.449296
 31
0.0
  0
LINE
  8
LC-004-002-----0
 62
     1
  5
289
 10
598.011422
 20
312.730448
 30
0.0
 11
589.53023
 21
298.040593
 31
0.0
  0
LINE
  8
LC-004-002-----0
 62
     1
  5
28A
 10
610.273214
 20
307.060764
 30
0.0
 11
604.471737
 21
291.121337
 31
0.0
  0
LINE
  8
LC-004-002-----0
 62
     1
  5
28B
 10
623.333253
 20
303.606452
 30
0.0
 11
620.387765
 21
286.901765
 31
0.0
  0
LINE
  8
LC-004-002-----0
 62
     1
  5
28C
 10
636.794714
 20
302.472471
 30
0.0
 11
636.794714
 21
285.510087
 31
0.0
  0
LINE
  8
LC-004-002-----0
 62
     1
  5
28D
 10
650.24858
 20
303.693276
 30
0.0
 11
653.194067
 21
286.988589
 31
0.0
  0
LINE
  8
LC-004-002-----0
 62
     1
  5
28E
 10
663.286061
 20
307.231774
 30
0.0
 11
669.087538
 21
291.292347
 31
0.0
  0
LINE
  8
LC-004-002-----0
 62
     1
  5
28F
 10
686.552006
 20
320.76463
 30
0.0
 11
697.455216
 21
307.770689
 31
0.0
  0
LINE
  8
LC-004-002-----0
 62
     1
  5
290
 10
696.073547
 20
330.347799
 30
0.0
 11
709.067487
 21
319.444588
 31
0.0
  0
LINE
  8
LC-004-002-----0
 62
     1
  5
291
 10
703.786334
 20
341.438776
 30
0.0
 11
718.47619
 21
332.957584
 31
0.0
  0
LINE
  8
LC-004-002-----0
 62
     1
  5
292
 10
709.456019
 20
353.700568
 30
0.0
 11
725.395446
 21
347.899091
 31
0.0
  0
LINE
  8
LC-004-002-----0
 62
     1
  5
293
 10
712.91033
 20
366.760606
 30
0.0
 11
729.615018
 21
363.815119
 31
0.0
  0
ARC
  8
LC-004-002-----0
 62
     1
  5
294
 10
636.544714
 20
379.972068
 30
0.0
 40
94.461981
 50
350.151637
 51
359.848363
  0
ARC
  8
LC-004-002-----0
 62
     1
  5
295
 10
636.544714
 20
379.972068
 30
0.0
 40
94.461981
 50
340.151637
 51
349.848363
  0
ARC
  8
LC-004-002-----0
 62
     1
  5
296
 10
636.544714
 20
379.972068
 30
0.0
 40
94.461981
 50
330.151637
 51
339.848363
  0
ARC
  8
LC-004-002-----0
 62
     1
  5
297
 10
636.544714
 20
379.972068
 30
0.0
 40
94.461981
 50
320.151637
 51
329.848363
  0
ARC
  8
LC-004-002-----0
 62
     1
  5
298
 10
636.544714
 20
379.972068
 30
0.0
 40
94.461981
 50
310.151637
 51
319.848363
  0
ARC
  8
LC-004-002-----0
 62
     1
  5
299
 10
636.544714
 20
379.972068
 30
0.0
 40
94.461981
 50
290.151637
 51
295.293959
  0
ARC
  8
LC-004-002-----0
 62
     1
  5
29A
 10
636.544714
 20
379.972068
 30
0.0
 40
94.461981
 50
280.151637
 51
289.848363
  0
ARC
  8
LC-004-002-----0
 62
     1
  5
29B
 10
636.544714
 20
379.972068
 30
0.0
 40
94.461981
 50
270.151637
 51
279.848363
  0
ARC
  8
LC-004-002-----0
 62
     1
  5
29C
 10
636.544714
 20
379.972068
 30
0.0
 40
94.461981
 50
260.151637
 51
269.848363
  0
ARC
  8
LC-004-002-----0
 62
     1
  5
29D
 10
636.544714
 20
379.972068
 30
0.0
 40
94.461981
 50
250.151637
 51
259.848363
  0
ARC
  8
LC-004-002-----0
 62
     1
  5
29E
 10
636.544714
 20
379.972068
 30
0.0
 40
94.461981
 50
240.151637
 51
249.848363
  0
ARC
  8
LC-004-002-----0
 62
     1
  5
29F
 10
636.544714
 20
379.972068
 30
0.0
 40
94.461981
 50
230.151637
 51
239.848363
  0
ARC
  8
LC-004-002-----0
 62
     1
  5
2A0
 10
636.544714
 20
379.972068
 30
0.0
 40
94.461981
 50
220.151637
 51
229.848363
  0
ARC
  8
LC-004-002-----0
 62
     1
  5
2A1
 10
636.544714
 20
379.972068
 30
0.0
 40
94.461981
 50
210.151637
 51
219.848363
  0
ARC
  8
LC-004-002-----0
 62
     1
  5
2A2
 10
636.544714
 20
379.972068
 30
0.0
 40
94.461981
 50
200.151637
 51
209.848363
  0
ARC
  8
LC-004-002-----0
 62
     1
  5
2A3
 10
636.544714
 20
379.972068
 30
0.0
 40
94.461981
 50
190.151637
 51
199.848363
  0
ARC
  8
LC-004-002-----0
 62
     1
  5
2A4
 10
636.544714
 20
379.972068
 30
0.0
 40
94.461981
 50
170.151637
 51
175.293959
  0
ARC
  8
LC-004-002-----0
 62
     1
  5
2A5
 10
636.544714
 20
379.972068
 30
0.0
 40
94.461981
 50
160.151637
 51
169.848363
  0
ARC
  8
LC-004-002-----0
 62
     1
  5
2A6
 10
636.544714
 20
379.972068
 30
0.0
 40
94.461981
 50
150.151637
 51
159.848363
  0
ARC
  8
LC-004-002-----0
 62
     1
  5
2A7
 10
636.544714
 20
379.972068
 30
0.0
 40
94.461981
 50
140.151637
 51
149.848363
  0
ARC
  8
LC-004-002-----0
 62
     1
  5
2A8
 10
636.544714
 20
379.972068
 30
0.0
 40
94.461981
 50
130.151637
 51
139.848363
  0
ARC
  8
LC-004-002-----0
 62
     1
  5
2A9
 10
636.544714
 20
379.972068
 30
0.0
 40
94.461981
 50
120.151637
 51
129.848363
  0
ARC
  8
LC-004-002-----0
 62
     1
  5
2AA
 10
636.544714
 20
379.972068
 30
0.0
 40
94.461981
 50
110.151637
 51
119.848363
  0
ARC
  8
LC-004-002-----0
 62
     1
  5
2AB
 10
636.544714
 20
379.972068
 30
0.0
 40
94.461981
 50
100.151637
 51
109.848363
  0
ARC
  8
LC-004-002-----0
 62
     1
  5
2AC
 10
636.544714
 20
379.972068
 30
0.0
 40
94.461981
 50
90.151637
 51
99.848363
  0
ARC
  8
LC-004-002-----0
 62
     1
  5
2AD
 10
636.544714
 20
379.972068
 30
0.0
 40
94.461981
 50
80.151637
 51
89.848363
  0
ARC
  8
LC-004-002-----0
 62
     1
  5
2AE
 10
636.544714
 20
379.972068
 30
0.0
 40
94.461981
 50
70.151637
 51
79.848363
  0
ARC
  8
LC-004-002-----0
 62
     1
  5
2AF
 10
636.544714
 20
379.972068
 30
0.0
 40
94.461981
 50
50.151637
 51
55.293959
  0
ARC
  8
LC-004-002-----0
 62
     1
  5
2B0
 10
636.544714
 20
379.972068
 30
0.0
 40
94.461981
 50
40.151637
 51
49.848363
  0
ARC
  8
LC-004-002-----0
 62
     1
  5
2B1
 10
636.544714
 20
379.972068
 30
0.0
 40
94.461981
 50
30.151637
 51
39.848363
  0
ARC
  8
LC-004-002-----0
 62
     1
  5
2B2
 10
636.544714
 20
379.972068
 30
0.0
 40
94.461981
 50
20.151637
 51
29.848363
  0
ARC
  8
LC-004-002-----0
 62
     1
  5
2B3
 10
636.544714
 20
379.972068
 30
0.0
 40
94.461981
 50
10.151637
 51
19.848363
  0
ARC
  8
LC-004-002-----0
 62
     1
  5
2B4
 10
636.544714
 20
379.972068
 30
0.0
 40
94.461981
 50
304.706041
 51
309.848363
  0
LINE
  8
LC-008-003-----0
 62
     2
  5
2B5
 10
667.529481
 20
310.804878
 30
0.0
 11
680.952875
 21
318.554878
 31
0.0
  0
LINE
  8
LC-008-003-----0
 62
     2
  5
2B6
 10
680.952875
 20
441.389258
 30
0.0
 11
667.529481
 21
449.139258
 31
0.0
  0
LINE
  8
LC-004-002-----0
 62
     1
  5
2B7
 10
700.0524
 20
260.473531
 30
0.0
 11
708.279641
 21
265.223531
 31
0.0
  0
LINE
  8
LC-004-002-----0
 62
     1
  5
2B8
 10
695.954323
 20
261.571607
 30
0.0
 11
700.0524
 21
260.473531
 31
0.0
  0
LINE
  8
LC-004-002-----0
 62
     1
  5
2B9
 10
708.279641
 20
265.223531
 30
0.0
 11
709.377717
 21
269.321607
 31
0.0
  0
LINE
  8
LC-004-002-----0
 62
     1
  5
2BA
 10
708.279641
 20
494.720605
 30
0.0
 11
700.0524
 21
499.470605
 31
0.0
  0
LINE
  8
LC-004-002-----0
 62
     1
  5
2BB
 10
709.377717
 20
490.622529
 30
0.0
 11
708.279641
 21
494.720605
 31
0.0
  0
LINE
  8
LC-004-002-----0
 62
     1
  5
2BC
 10
700.0524
 20
499.470605
 30
0.0
 11
695.954323
 21
498.372529
 31
0.0
  0
LINE
  8
LC-008-003-----0
 62
     2
  5
2BD
 10
679.45322
 20
290.152356
 30
0.0
 11
692.876614
 21
297.902356
 31
0.0
  0
LINE
  8
LC-008-003-----0
 62
     2
  5
2BE
 10
692.876614
 20
462.04178
 30
0.0
 11
679.45322
 21
469.79178
 31
0.0
  0
CIRCLE
  8
LC-004-002-----0
 62
     1
  5
2BF
 10
636.544714
 20
379.972068
 30
0.0
 40
63.25
  0
CIRCLE
  8
LC-004-002-----0
 62
     1
  5
2C0
 10
636.544714
 20
379.972068
 30
0.0
 40
58.25
  0
CIRCLE
  8
LC-004-002-----0
 62
     1
  5
2C1
 10
636.544714
 20
379.972068
 30
0.0
 40
55.5
  0
CIRCLE
  8
LC-010-007-KH--0
  6
DASHDOT
 62
    44
  5
2C4
 10
636.544714
 20
379.972068
 30
0.0
 40
55.2
  0
CIRCLE
  8
LC-004-002-----0
 62
     1
  5
2C5
 10
636.544714
 20
379.972068
 30
0.0
 40
54.851666
  0
DIMENSION
  8
LC-008-003-----0
 62
     2
  5
2DF
  2
*D11
 10
317.246188
 20
462.0
 30
0.0
 11
317.246188
 21
462.0
 31
0.0
  1
%%c110
 13
262.046188
 23
400.373154
 33
0.0
 14
372.446188
 24
400.373154
 34
0.0
  3
LC-DIM-L-0140-02-02
  0
DIMENSION
  8
LC-008-003-----0
 62
     2
  5
2F9
  2
*D12
 10
470.4
 20
364.372611
 30
0.0
 11
470.4
 21
364.372611
 31
0.0
 13
375.496188
 23
417.873154
 33
0.0
 14
354.746188
 24
310.872068
 34
0.0
 50
90.0
  3
LC-DIM-L-0140-02-02
  0
DIMENSION
  8
LC-008-003-----0
 62
     2
  5
313
  2
*D13
 10
392.0
 20
478.212503
 30
0.0
 11
392.0
 21
478.212503
 31
0.0
  1
30
 13
375.496188
 23
417.873154
 33
0.0
 14
390.397381
 24
448.072068
 34
0.0
 50
90.0
  3
LC-DIM-L-0140-02-02
  0
LINE
  8
LC-004-002-----0
  6
DASHDOT
 62
     2
  5
314
 10
501.302103
 20
379.972068
 30
0.0
 11
731.006365
 21
379.972068
 31
0.0
  0
LINE
  8
LC-004-002-----0
  6
DASHDOT
 62
     2
  5
315
 10
636.794714
 20
285.510087
 30
0.0
 11
636.794714
 21
474.434049
 31
0.0
  0
LINE
  8
LC-004-002-----0
  6
DASHDOT
 62
     2
  5
316
 10
636.794714
 20
380.405081
 30
0.0
 11
704.484211
 21
497.646727
 31
0.0
  0
LINE
  8
LC-004-002-----0
  6
DASHDOT
 62
     2
  5
317
 10
636.794714
 20
380.405081
 30
0.0
 11
704.16602
 21
262.848531
 31
0.0
  0
ENDSEC
  0
EOF
