  0
SECTION
  2
HEADER
  9
$ACADVER
  1
AC1015
  9
$ACADMAINTVER
 70
     6
  9
$DWGCODEPAGE
  3
ANSI_1252
  9
$INSBASE
 10
0.0
 20
0.0
 30
0.0
  9
$EXTMIN
 10
-236.368245
 20
-173.398745
 30
0.0
  9
$EXTMAX
 10
603.631755
 20
420.601255
 30
0.0
  9
$LIMMIN
 10
-236.368245
 20
-173.398745
  9
$LIMMAX
 10
603.631755
 20
420.601255
  9
$ORTHOMODE
 70
     0
  9
$REGENMODE
 70
     1
  9
$FILLMODE
 70
     1
  9
$QTEXTMODE
 70
     0
  9
$MIRRTEXT
 70
     1
  9
$LTSCALE
 40
2.0
  9
$ATTMODE
 70
     1
  9
$TEXTSIZE
 40
2.5
  9
$TRACEWID
 40
1.0
  9
$TEXTSTYLE
  7
Standard
  9
$CLAYER
  8
0
  9
$CELTYPE
  6
ByLayer
  9
$CECOLOR
 62
     7
  9
$CELTSCALE
 40
1.0
  9
$DISPSILH
 70
     0
  9
$DIMSCALE
 40
2.0
  9
$DIMASZ
 40
3.5
  9
$DIMEXO
 40
0.625
  9
$DIMDLI
 40
3.75
  9
$DIMRND
 40
0.0
  9
$DIMDLE
 40
0.0
  9
$DIMEXE
 40
1.25
  9
$DIMTP
 40
0.0
  9
$DIMTM
 40
0.0
  9
$DIMTXT
 40
3.5
  9
$DIMCEN
 40
2.5
  9
$DIMTSZ
 40
0.0
  9
$DIMTOL
 70
     0
  9
$DIMLIM
 70
     0
  9
$DIMTIH
 70
     0
  9
$DIMTOH
 70
     0
  9
$DIMSE1
 70
     0
  9
$DIMSE2
 70
     0
  9
$DIMTAD
 70
     1
  9
$DIMZIN
 70
     8
  9
$DIMBLK
  1

  9
$DIMASO
 70
     1
  9
$DIMSHO
 70
     1
  9
$DIMPOST
  1

  9
$DIMAPOST
  1

  9
$DIMALT
 70
     0
  9
$DIMALTD
 70
     3
  9
$DIMALTF
 40
0.03937
  9
$DIMLFAC
 40
1.0
  9
$DIMTOFL
 70
     1
  9
$DIMTVP
 40
0.0
  9
$DIMTIX
 70
     0
  9
$DIMSOXD
 70
     0
  9
$DIMSAH
 70
     0
  9
$DIMBLK1
  1

  9
$DIMBLK2
  1

  9
$DIMSTYLE
  2
ISO-25
  9
$DIMCLRD
 70
     0
  9
$DIMCLRE
 70
     0
  9
$DIMCLRT
 70
     0
  9
$DIMTFAC
 40
1.0
  9
$DIMGAP
 40
0.625
  9
$DIMJUST
 70
     0
  9
$DIMSD1
 70
     0
  9
$DIMSD2
 70
     0
  9
$DIMTOLJ
 70
     0
  9
$DIMTZIN
 70
     8
  9
$DIMALTZ
 70
     0
  9
$DIMALTTZ
 70
     0
  9
$DIMUPT
 70
     0
  9
$DIMDEC
 70
     2
  9
$DIMTDEC
 70
     2
  9
$DIMALTU
 70
     2
  9
$DIMALTTD
 70
     3
  9
$DIMTXSTY
  7
Standard
  9
$DIMAUNIT
 70
     0
  9
$DIMADEC
 70
     0
  9
$DIMALTRND
 40
0.0
  9
$DIMAZIN
 70
     0
  9
$DIMDSEP
 70
    44
  9
$DIMATFIT
 70
     3
  9
$DIMFRAC
 70
     0
  9
$DIMLDRBLK
  1

  9
$DIMLUNIT
 70
     2
  9
$DIMLWD
 70
    -2
  9
$DIMLWE
 70
    -2
  9
$DIMTMOVE
 70
     0
  9
$LUNITS
 70
     2
  9
$LUPREC
 70
     4
  9
$SKETCHINC
 40
1.0
  9
$FILLETRAD
 40
10.0
  9
$AUNITS
 70
     0
  9
$AUPREC
 70
     0
  9
$MENU
  1
.
  9
$ELEVATION
 40
0.0
  9
$PELEVATION
 40
0.0
  9
$THICKNESS
 40
0.0
  9
$LIMCHECK
 70
     0
  9
$CHAMFERA
 40
10.0
  9
$CHAMFERB
 40
10.0
  9
$CHAMFERC
 40
20.0
  9
$CHAMFERD
 40
0.0
  9
$SKPOLY
 70
     0
  9
$TDCREATE
 40
2455902.420740035
  9
$TDUCREATE
 40
2455902.379073368
  9
$TDUPDATE
 40
2455902.420740046
  9
$TDUUPDATE
 40
2455902.37907338
  9
$TDINDWG
 40
0.0000000116
  9
$TDUSRTIMER
 40
0.0000000116
  9
$USRTIMER
 70
     1
  9
$ANGBASE
 50
0.0
  9
$ANGDIR
 70
     0
  9
$PDMODE
 70
     0
  9
$PDSIZE
 40
0.0
  9
$PLINEWID
 40
0.0
  9
$SPLFRAME
 70
     0
  9
$SPLINETYPE
 70
     6
  9
$SPLINESEGS
 70
     8
  9
$HANDSEED
  5
522
  9
$SURFTAB1
 70
     6
  9
$SURFTAB2
 70
     6
  9
$SURFTYPE
 70
     6
  9
$SURFU
 70
     6
  9
$SURFV
 70
     6
  9
$UCSBASE
  2

  9
$UCSNAME
  2

  9
$UCSORG
 10
0.0
 20
0.0
 30
0.0
  9
$UCSXDIR
 10
1.0
 20
0.0
 30
0.0
  9
$UCSYDIR
 10
0.0
 20
1.0
 30
0.0
  9
$UCSORTHOREF
  2

  9
$UCSORTHOVIEW
 70
     0
  9
$UCSORGTOP
 10
0.0
 20
0.0
 30
0.0
  9
$UCSORGBOTTOM
 10
0.0
 20
0.0
 30
0.0
  9
$UCSORGLEFT
 10
0.0
 20
0.0
 30
0.0
  9
$UCSORGRIGHT
 10
0.0
 20
0.0
 30
0.0
  9
$UCSORGFRONT
 10
0.0
 20
0.0
 30
0.0
  9
$UCSORGBACK
 10
0.0
 20
0.0
 30
0.0
  9
$PUCSBASE
  2

  9
$PUCSNAME
  2

  9
$PUCSORG
 10
0.0
 20
0.0
 30
0.0
  9
$PUCSXDIR
 10
1.0
 20
0.0
 30
0.0
  9
$PUCSYDIR
 10
0.0
 20
1.0
 30
0.0
  9
$PUCSORTHOREF
  2

  9
$PUCSORTHOVIEW
 70
     0
  9
$PUCSORGTOP
 10
0.0
 20
0.0
 30
0.0
  9
$PUCSORGBOTTOM
 10
0.0
 20
0.0
 30
0.0
  9
$PUCSORGLEFT
 10
0.0
 20
0.0
 30
0.0
  9
$PUCSORGRIGHT
 10
0.0
 20
0.0
 30
0.0
  9
$PUCSORGFRONT
 10
0.0
 20
0.0
 30
0.0
  9
$PUCSORGBACK
 10
0.0
 20
0.0
 30
0.0
  9
$USERI1
 70
     0
  9
$USERI2
 70
     0
  9
$USERI3
 70
     0
  9
$USERI4
 70
     0
  9
$USERI5
 70
     0
  9
$USERR1
 40
0.0
  9
$USERR2
 40
0.0
  9
$USERR3
 40
0.0
  9
$USERR4
 40
0.0
  9
$USERR5
 40
0.0
  9
$WORLDVIEW
 70
     1
  9
$SHADEDGE
 70
     3
  9
$SHADEDIF
 70
    70
  9
$TILEMODE
 70
     1
  9
$MAXACTVP
 70
    64
  9
$PINSBASE
 10
0.0
 20
0.0
 30
0.0
  9
$PLIMCHECK
 70
     0
  9
$PEXTMIN
 10
-236.368245
 20
-173.398745
 30
0.0
  9
$PEXTMAX
 10
603.631755
 20
420.601255
 30
0.0
  9
$PLIMMIN
 10
-236.368245
 20
-173.398745
  9
$PLIMMAX
 10
603.631755
 20
420.601255
  9
$UNITMODE
 70
     0
  9
$VISRETAIN
 70
     1
  9
$PLINEGEN
 70
     0
  9
$PSLTSCALE
 70
     1
  9
$TREEDEPTH
 70
  3020
  9
$CMLSTYLE
  2
Standard
  9
$CMLJUST
 70
     0
  9
$CMLSCALE
 40
20.0
  9
$PROXYGRAPHICS
 70
     1
  9
$MEASUREMENT
 70
     1
  9
$CELWEIGHT
370
    -1
  9
$ENDCAPS
280
     0
  9
$JOINSTYLE
280
     0
  9
$LWDISPLAY
290
     0
  9
$INSUNITS
 70
     4
  9
$HYPERLINKBASE
  1

  9
$STYLESHEET
  1

  9
$XEDIT
290
     1
  9
$CEPSNTYPE
380
     0
  9
$PSTYLEMODE
290
     1
  9
$FINGERPRINTGUID
  2
{FAEB1C30-E019-11D5-929B-00C0DF256EC4}
  9
$VERSIONGUID
  2
{FAEB1C32-E019-11D5-929B-00C0DF256EC4}
  9
$EXTNAMES
290
     1
  9
$PSVPSCALE
 40
0.0
  9
$OLESTARTUP
290
     0
  0
ENDSEC
  0
SECTION
  2
CLASSES
  0
CLASS
  1
ACDBDICTIONARYWDFLT
  2
AcDbDictionaryWithDefault
  3
ObjectDBX Classes
 90
        0
280
     0
281
     0
  0
CLASS
  1
ACDBPLACEHOLDER
  2
AcDbPlaceHolder
  3
ObjectDBX Classes
 90
        0
280
     0
281
     0
  0
CLASS
  1
LAYOUT
  2
AcDbLayout
  3
ObjectDBX Classes
 90
        0
280
     0
281
     0
  0
ENDSEC
  0
SECTION
  2
TABLES
  0
TABLE
  2
VPORT
  5
8
330
0
100
AcDbSymbolTable
 70
     2
  0
VPORT
  5
29
330
8
100
AcDbSymbolTableRecord
100
AcDbViewportTableRecord
  2
*ACTIVE
 70
     0
 10
0.0
 20
0.0
 11
1.0
 21
1.0
 12
183.631755
 22
123.601255
 13
0.0
 23
0.0
 14
1.0
 24
1.0
 15
0.0
 25
0.0
 16
0.0
 26
0.0
 36
1.0
 17
0.0
 27
0.0
 37
0.0
 40
594.0
 41
1.414141
 42
50.0
 43
0.0
 44
0.0
 50
0.0
 51
0.0
 71
    16
 72
   100
 73
     1
 74
     0
 75
     0
 76
     0
 77
     0
 78
     0
281
     0
 65
     0
110
0.0
120
0.0
130
0.0
111
1.0
121
0.0
131
0.0
112
0.0
122
1.0
132
0.0
 79
     0
146
0.0
  0
ENDTAB
  0
TABLE
  2
LTYPE
  5
5
330
0
100
AcDbSymbolTable
 70
     3
  0
LTYPE
  5
14
330
5
100
AcDbSymbolTableRecord
100
AcDbLinetypeTableRecord
  2
ByBlock
 70
     0
  3

 72
    65
 73
     0
 40
0.0
  0
LTYPE
  5
15
330
5
100
AcDbSymbolTableRecord
100
AcDbLinetypeTableRecord
  2
ByLayer
 70
     0
  3

 72
    65
 73
     0
 40
0.0
  0
LTYPE
  5
16
330
5
100
AcDbSymbolTableRecord
100
AcDbLinetypeTableRecord
  2
Continuous
 70
     0
  3
Solid line
 72
    65
 73
     0
 40
0.0
  0
LTYPE
  5
2A
330
5
100
AcDbSymbolTableRecord
100
AcDbLinetypeTableRecord
  2
DASHED
 70
     0
  3
__ __ __ __ __
 72
    65
 73
     2
 40
6.25
 49
5.0
 74
     4
 75
     0
340
0
 46
1.0
 50
0.0
 44
0.0
 45
0.0
 49
-1.25
 74
     4
 75
     0
340
0
 46
1.0
 50
0.0
 44
0.0
 45
0.0
  0
LTYPE
  5
30
330
5
100
AcDbSymbolTableRecord
100
AcDbLinetypeTableRecord
  2
DASHDOT
 70
     0
  3
__ . __ . __ . __ . __
 72
    65
 73
     4
 40
7.5
 49
5.0
 74
     4
 75
     0
340
0
 46
1.0
 50
0.0
 44
0.0
 45
0.0
 49
-1.25
 74
     4
 75
     0
340
0
 46
1.0
 50
0.0
 44
0.0
 45
0.0
 49
0.0
 74
     4
 75
     0
340
0
 46
1.0
 50
0.0
 44
0.0
 45
0.0
 49
-1.25
 74
     4
 75
     0
340
0
 46
1.0
 50
0.0
 44
0.0
 45
0.0
  0
ENDTAB
  0
TABLE
  2
LAYER
  5
2
330
0
100
AcDbSymbolTable
 70
     9
  0
LAYER
  5
10
330
2
100
AcDbSymbolTableRecord
100
AcDbLayerTableRecord
  2
0
 70
     0
 62
     7
  6
Continuous
370
    -3
390
F
  0
LAYER
  5
2B
330
2
100
AcDbSymbolTableRecord
100
AcDbLayerTableRecord
  2
LC-INFO-1-2-mm-A3-0
 70
     1
 62
     7
  6
ByBlock
370
    -3
390
F
  0
LAYER
  5
2C
330
2
100
AcDbSymbolTableRecord
100
AcDbLayerTableRecord
  2
LC-CUT-HIDDEN
 70
     0
 62
     7
  6
DASHED
370
    -3
390
F
  0
LAYER
  5
2D
330
2
100
AcDbSymbolTableRecord
100
AcDbLayerTableRecord
  2
LC-VIEWPORT
 70
     0
 62
     7
  6
ByBlock
370
    -3
390
F
  0
LAYER
  5
2E
330
2
100
AcDbSymbolTableRecord
100
AcDbLayerTableRecord
  2
LC-3D-HIDDEN
 70
     0
 62
     9
  6
DASHED
370
    -3
390
F
  0
LAYER
  5
31
330
2
100
AcDbSymbolTableRecord
100
AcDbLayerTableRecord
  2
LC-001-002-----0
 70
     0
 62
     2
  6
DASHDOT
370
    -3
390
F
  0
LAYER
  5
33
330
2
100
AcDbSymbolTableRecord
100
AcDbLayerTableRecord
  2
LC-002-100-D00-0
 70
     0
 62
     1
  6
ByBlock
370
    -3
390
F
  0
LAYER
  5
351
330
2
100
AcDbSymbolTableRecord
100
AcDbLayerTableRecord
  2
Defpoints
 70
     0
 62
     7
  6
Continuous
290
     0
370
    -3
390
F
  0
LAYER
  5
41C
330
2
100
AcDbSymbolTableRecord
100
AcDbLayerTableRecord
  2
LC-003-003-----0
 70
     0
 62
     2
  6
ByBlock
370
    -3
390
F
  0
ENDTAB
  0
TABLE
  2
STYLE
  5
3
330
0
100
AcDbSymbolTable
 70
     3
  0
STYLE
  5
11
330
3
100
AcDbSymbolTableRecord
100
AcDbTextStyleTableRecord
  2
Standard
 70
     0
 40
0.0
 41
1.0
 50
0.0
 71
     0
 42
2.5
  3
txt
  4

  0
STYLE
  5
2F
330
3
100
AcDbSymbolTableRecord
100
AcDbTextStyleTableRecord
  2
LCTX15-400-0-0-Arial
 70
     0
 40
0.0
 41
0.8
 50
0.0
 71
     0
 42
3.5
  3

  4

1001
ACAD
1000
Arial
1071
 16777218
  0
STYLE
  5
34E
330
3
100
AcDbSymbolTableRecord
100
AcDbTextStyleTableRecord
  2
LCTX15-400-0-0pDIN-Schrift
 70
     0
 40
2.5
 41
0.8
 50
15.0
 71
     0
 42
3.5
  3
STANDARD
  4

  0
ENDTAB
  0
TABLE
  2
VIEW
  5
6
330
0
100
AcDbSymbolTable
 70
     0
  0
ENDTAB
  0
TABLE
  2
UCS
  5
7
330
0
100
AcDbSymbolTable
 70
     0
  0
ENDTAB
  0
TABLE
  2
APPID
  5
9
330
0
100
AcDbSymbolTable
 70
     1
  0
APPID
  5
12
330
9
100
AcDbSymbolTableRecord
100
AcDbRegAppTableRecord
  2
ACAD
 70
     0
  0
ENDTAB
  0
TABLE
  2
DIMSTYLE
  5
A
330
0
100
AcDbSymbolTable
 70
     2
100
AcDbDimStyleTable
  0
DIMSTYLE
105
27
330
A
100
AcDbSymbolTableRecord
100
AcDbDimStyleTableRecord
  2
ISO-25
 70
     0
 41
2.5
 42
0.625
 43
3.75
 44
1.25
 73
     0
 74
     0
 77
     1
 78
     8
140
2.5
141
2.5
143
0.03937
147
0.625
171
     3
172
     1
271
     2
272
     2
274
     3
278
    44
283
     0
284
     8
340
11
  0
DIMSTYLE
105
34F
102
{ACAD_REACTORS
330
350
330
35E
330
36D
330
37A
330
389
330
397
330
3A4
330
3B1
330
41D
102
}
330
A
100
AcDbSymbolTableRecord
100
AcDbDimStyleTableRecord
  2
LC-DIM-L-0140-02-02
 70
     0
 40
2.0
 41
14.0
 42
0.0
 43
7.5
 44
1.8
 73
     0
 74
     0
 77
     1
 78
     8
 79
     2
140
14.0
141
0.0
146
0.71
147
1.5
176
     2
177
     2
178
     2
179
     2
271
     2
278
    44
289
     1
340
34E
  0
ENDTAB
  0
TABLE
  2
BLOCK_RECORD
  5
1
330
0
100
AcDbSymbolTable
 70
    51
  0
BLOCK_RECORD
  5
1F
330
1
100
AcDbSymbolTableRecord
100
AcDbBlockTableRecord
  2
*Model_Space
340
22
  0
BLOCK_RECORD
  5
1B
330
1
100
AcDbSymbolTableRecord
100
AcDbBlockTableRecord
  2
*Paper_Space
340
1E
  0
BLOCK_RECORD
  5
23
330
1
100
AcDbSymbolTableRecord
100
AcDbBlockTableRecord
  2
*Paper_Space0
340
26
  0
BLOCK_RECORD
  5
7D
330
1
100
AcDbSymbolTableRecord
100
AcDbBlockTableRecord
  2
POLY1
340
0
102
{BLKREFS
331
90
102
}
  0
BLOCK_RECORD
  5
99
330
1
100
AcDbSymbolTableRecord
100
AcDbBlockTableRecord
  2
POLY2
340
0
102
{BLKREFS
331
AC
102
}
  0
BLOCK_RECORD
  5
B1
330
1
100
AcDbSymbolTableRecord
100
AcDbBlockTableRecord
  2
POLY3
340
0
102
{BLKREFS
331
BC
102
}
  0
BLOCK_RECORD
  5
BD
330
1
100
AcDbSymbolTableRecord
100
AcDbBlockTableRecord
  2
POLY4
340
0
102
{BLKREFS
331
CE
102
}
  0
BLOCK_RECORD
  5
D0
330
1
100
AcDbSymbolTableRecord
100
AcDbBlockTableRecord
  2
POLY5
340
0
102
{BLKREFS
331
E1
102
}
  0
BLOCK_RECORD
  5
EA
330
1
100
AcDbSymbolTableRecord
100
AcDbBlockTableRecord
  2
POLY6
340
0
102
{BLKREFS
331
FB
102
}
  0
BLOCK_RECORD
  5
FD
330
1
100
AcDbSymbolTableRecord
100
AcDbBlockTableRecord
  2
POLY7
340
0
102
{BLKREFS
331
10E
102
}
  0
BLOCK_RECORD
  5
110
330
1
100
AcDbSymbolTableRecord
100
AcDbBlockTableRecord
  2
POLY8
340
0
102
{BLKREFS
331
121
102
}
  0
BLOCK_RECORD
  5
122
330
1
100
AcDbSymbolTableRecord
100
AcDbBlockTableRecord
  2
POLY9
340
0
102
{BLKREFS
331
133
102
}
  0
BLOCK_RECORD
  5
171
330
1
100
AcDbSymbolTableRecord
100
AcDbBlockTableRecord
  2
POLY10
340
0
102
{BLKREFS
331
18C
102
}
  0
BLOCK_RECORD
  5
190
330
1
100
AcDbSymbolTableRecord
100
AcDbBlockTableRecord
  2
POLY11
340
0
102
{BLKREFS
331
19B
102
}
  0
BLOCK_RECORD
  5
1A8
330
1
100
AcDbSymbolTableRecord
100
AcDbBlockTableRecord
  2
POLY12
340
0
102
{BLKREFS
331
1B7
102
}
  0
BLOCK_RECORD
  5
1BC
330
1
100
AcDbSymbolTableRecord
100
AcDbBlockTableRecord
  2
POLY13
340
0
102
{BLKREFS
331
1C9
102
}
  0
BLOCK_RECORD
  5
1ED
330
1
100
AcDbSymbolTableRecord
100
AcDbBlockTableRecord
  2
POLY14
340
0
102
{BLKREFS
331
1FC
102
}
  0
BLOCK_RECORD
  5
1FE
330
1
100
AcDbSymbolTableRecord
100
AcDbBlockTableRecord
  2
POLY15
340
0
102
{BLKREFS
331
209
102
}
  0
BLOCK_RECORD
  5
20B
330
1
100
AcDbSymbolTableRecord
100
AcDbBlockTableRecord
  2
POLY16
340
0
102
{BLKREFS
331
21A
102
}
  0
BLOCK_RECORD
  5
21C
330
1
100
AcDbSymbolTableRecord
100
AcDbBlockTableRecord
  2
POLY17
340
0
102
{BLKREFS
331
22B
102
}
  0
BLOCK_RECORD
  5
22C
330
1
100
AcDbSymbolTableRecord
100
AcDbBlockTableRecord
  2
POLY18
340
0
102
{BLKREFS
331
23B
102
}
  0
BLOCK_RECORD
  5
23C
330
1
100
AcDbSymbolTableRecord
100
AcDbBlockTableRecord
  2
POLY19
340
0
102
{BLKREFS
331
24B
102
}
  0
BLOCK_RECORD
  5
24C
330
1
100
AcDbSymbolTableRecord
100
AcDbBlockTableRecord
  2
POLY20
340
0
102
{BLKREFS
331
25B
102
}
  0
BLOCK_RECORD
  5
25D
330
1
100
AcDbSymbolTableRecord
100
AcDbBlockTableRecord
  2
POLY21
340
0
102
{BLKREFS
331
26C
102
}
  0
BLOCK_RECORD
  5
270
330
1
100
AcDbSymbolTableRecord
100
AcDbBlockTableRecord
  2
POLY22
340
0
102
{BLKREFS
331
27B
102
}
  0
BLOCK_RECORD
  5
307
330
1
100
AcDbSymbolTableRecord
100
AcDbBlockTableRecord
  2
KLON1
340
0
102
{BLKREFS
331
319
102
}
  0
BLOCK_RECORD
  5
31A
330
1
100
AcDbSymbolTableRecord
100
AcDbBlockTableRecord
  2
KLON2
340
0
102
{BLKREFS
331
32B
102
}
  0
BLOCK_RECORD
  5
32C
330
1
100
AcDbSymbolTableRecord
100
AcDbBlockTableRecord
  2
KLON3
340
0
102
{BLKREFS
331
333
102
}
  0
BLOCK_RECORD
  5
334
330
1
100
AcDbSymbolTableRecord
100
AcDbBlockTableRecord
  2
KLON4
340
0
102
{BLKREFS
331
33A
102
}
  0
BLOCK_RECORD
  5
33B
330
1
100
AcDbSymbolTableRecord
100
AcDbBlockTableRecord
  2
KLON5
340
0
102
{BLKREFS
331
349
102
}
  0
BLOCK_RECORD
  5
352
330
1
100
AcDbSymbolTableRecord
100
AcDbBlockTableRecord
  2
*D28
340
0
  0
BLOCK_RECORD
  5
35F
330
1
100
AcDbSymbolTableRecord
100
AcDbBlockTableRecord
  2
*D29
340
0
  0
BLOCK_RECORD
  5
36E
330
1
100
AcDbSymbolTableRecord
100
AcDbBlockTableRecord
  2
*D30
340
0
  0
BLOCK_RECORD
  5
37B
330
1
100
AcDbSymbolTableRecord
100
AcDbBlockTableRecord
  2
*D31
340
0
  0
BLOCK_RECORD
  5
38A
330
1
100
AcDbSymbolTableRecord
100
AcDbBlockTableRecord
  2
*D32
340
0
  0
BLOCK_RECORD
  5
398
330
1
100
AcDbSymbolTableRecord
100
AcDbBlockTableRecord
  2
*D33
340
0
  0
BLOCK_RECORD
  5
3A5
330
1
100
AcDbSymbolTableRecord
100
AcDbBlockTableRecord
  2
*D34
340
0
  0
BLOCK_RECORD
  5
3B2
330
1
100
AcDbSymbolTableRecord
100
AcDbBlockTableRecord
  2
*D35
340
0
  0
BLOCK_RECORD
  5
3C4
330
1
100
AcDbSymbolTableRecord
100
AcDbBlockTableRecord
  2
POLY23
340
0
102
{BLKREFS
331
3CF
102
}
  0
BLOCK_RECORD
  5
3D6
330
1
100
AcDbSymbolTableRecord
100
AcDbBlockTableRecord
  2
POLY24
340
0
102
{BLKREFS
331
3E7
102
}
  0
BLOCK_RECORD
  5
3EB
330
1
100
AcDbSymbolTableRecord
100
AcDbBlockTableRecord
  2
POLY25
340
0
102
{BLKREFS
331
3F6
102
}
  0
BLOCK_RECORD
  5
3F9
330
1
100
AcDbSymbolTableRecord
100
AcDbBlockTableRecord
  2
POLY26
340
0
102
{BLKREFS
331
406
102
}
  0
BLOCK_RECORD
  5
40A
330
1
100
AcDbSymbolTableRecord
100
AcDbBlockTableRecord
  2
POLY27
340
0
102
{BLKREFS
331
41B
102
}
  0
BLOCK_RECORD
  5
41E
330
1
100
AcDbSymbolTableRecord
100
AcDbBlockTableRecord
  2
*D41
340
0
  0
BLOCK_RECORD
  5
432
330
1
100
AcDbSymbolTableRecord
100
AcDbBlockTableRecord
  2
POLY28
340
0
102
{BLKREFS
331
443
102
}
  0
BLOCK_RECORD
  5
447
330
1
100
AcDbSymbolTableRecord
100
AcDbBlockTableRecord
  2
POLY29
340
0
102
{BLKREFS
331
452
102
}
  0
BLOCK_RECORD
  5
453
330
1
100
AcDbSymbolTableRecord
100
AcDbBlockTableRecord
  2
POLY30
340
0
102
{BLKREFS
331
45E
102
}
  0
BLOCK_RECORD
  5
464
330
1
100
AcDbSymbolTableRecord
100
AcDbBlockTableRecord
  2
POLY31
340
0
102
{BLKREFS
331
471
102
}
  0
BLOCK_RECORD
  5
475
330
1
100
AcDbSymbolTableRecord
100
AcDbBlockTableRecord
  2
POLY32
340
0
102
{BLKREFS
331
486
102
}
  0
BLOCK_RECORD
  5
4D4
330
1
100
AcDbSymbolTableRecord
100
AcDbBlockTableRecord
  2
POLY33
340
0
102
{BLKREFS
331
4E3
102
}
  0
BLOCK_RECORD
  5
4E5
330
1
100
AcDbSymbolTableRecord
100
AcDbBlockTableRecord
  2
POLY34
340
0
102
{BLKREFS
331
4F4
102
}
  0
BLOCK_RECORD
  5
4F6
330
1
100
AcDbSymbolTableRecord
100
AcDbBlockTableRecord
  2
POLY35
340
0
102
{BLKREFS
331
505
102
}
  0
BLOCK_RECORD
  5
508
330
1
100
AcDbSymbolTableRecord
100
AcDbBlockTableRecord
  2
POLY36
340
0
102
{BLKREFS
331
517
102
}
  0
ENDTAB
  0
ENDSEC
  0
SECTION
  2
BLOCKS
  0
BLOCK
  5
20
330
1F
100
AcDbEntity
  8
0
100
AcDbBlockBegin
  2
*Model_Space
 70
     0
 71
     0
 10
0.0
 20
0.0
 30
0.0
  3
*Model_Space
  1

  0
ENDBLK
  5
21
330
1F
100
AcDbEntity
  8
0
100
AcDbBlockEnd
  0
BLOCK
  5
1C
330
1B
100
AcDbEntity
 67
     1
  8
0
100
AcDbBlockBegin
  2
*Paper_Space
 70
     0
 71
     0
 10
0.0
 20
0.0
 30
0.0
  3
*Paper_Space
  1

  0
ENDBLK
  5
1D
330
1B
100
AcDbEntity
 67
     1
  8
0
100
AcDbBlockEnd
  0
BLOCK
  5
24
330
23
100
AcDbEntity
  8
0
100
AcDbBlockBegin
  2
*Paper_Space0
 70
     0
 71
     0
 10
0.0
 20
0.0
 30
0.0
  3
*Paper_Space0
  1

  0
ENDBLK
  5
25
330
23
100
AcDbEntity
  8
0
100
AcDbBlockEnd
  0
BLOCK
  5
7E
330
7D
100
AcDbEntity
  8
0
100
AcDbBlockBegin
  2
POLY1
 70
     0
 71
     0
 10
0.0
 20
0.0
 30
0.0
  3
POLY1
  1

  4
POLY1
  0
LINE
  5
80
330
7D
100
AcDbEntity
  8
LC-002-100-D00-0
 62
     7
370
    50
100
AcDbLine
 10
69.718496
 20
319.492895
 30
0.0
 11
69.718496
 21
319.492895
 31
0.0
  0
LINE
  5
81
330
7D
100
AcDbEntity
  8
LC-002-100-D00-0
 62
     7
370
    50
100
AcDbLine
 10
69.718496
 20
319.492895
 30
0.0
 11
69.770041
 21
319.490964
 31
0.0
  0
LINE
  5
82
330
7D
100
AcDbEntity
  8
LC-002-100-D00-0
 62
     7
370
    50
100
AcDbLine
 10
69.770041
 20
319.490964
 30
0.0
 11
69.770041
 21
319.490964
 31
0.0
  0
LINE
  5
83
330
7D
100
AcDbEntity
  8
LC-002-100-D00-0
 62
     7
370
    50
100
AcDbLine
 10
69.770041
 20
319.490964
 30
0.0
 11
69.91781
 21
319.485428
 31
0.0
  0
LINE
  5
84
330
7D
100
AcDbEntity
  8
LC-002-100-D00-0
 62
     7
370
    50
100
AcDbLine
 10
69.91781
 20
319.485428
 30
0.0
 11
69.91781
 21
319.485428
 31
0.0
  0
LINE
  5
85
330
7D
100
AcDbEntity
  8
LC-002-100-D00-0
 62
     7
370
    50
100
AcDbLine
 10
69.91781
 20
319.485428
 30
0.0
 11
70.139417
 21
319.420762
 31
0.0
  0
LINE
  5
86
330
7D
100
AcDbEntity
  8
LC-002-100-D00-0
 62
     7
370
    50
100
AcDbLine
 10
70.139417
 20
319.420762
 30
0.0
 11
70.139417
 21
319.420762
 31
0.0
  0
LINE
  5
87
330
7D
100
AcDbEntity
  8
LC-002-100-D00-0
 62
     7
370
    50
100
AcDbLine
 10
70.139417
 20
319.420762
 30
0.0
 11
70.349943
 21
319.273055
 31
0.0
  0
LINE
  5
88
330
7D
100
AcDbEntity
  8
LC-002-100-D00-0
 62
     7
370
    50
100
AcDbLine
 10
70.349943
 20
319.273055
 30
0.0
 11
70.349943
 21
319.273055
 31
0.0
  0
LINE
  5
89
330
7D
100
AcDbEntity
  8
LC-002-100-D00-0
 62
     7
370
    50
100
AcDbLine
 10
70.349943
 20
319.273055
 30
0.0
 11
70.480868
 21
319.080418
 31
0.0
  0
LINE
  5
8A
330
7D
100
AcDbEntity
  8
LC-002-100-D00-0
 62
     7
370
    50
100
AcDbLine
 10
70.480868
 20
319.080418
 30
0.0
 11
70.480868
 21
319.080418
 31
0.0
  0
LINE
  5
8B
330
7D
100
AcDbEntity
  8
LC-002-100-D00-0
 62
     7
370
    50
100
AcDbLine
 10
70.480868
 20
319.080418
 30
0.0
 11
70.518485
 21
318.921529
 31
0.0
  0
LINE
  5
8C
330
7D
100
AcDbEntity
  8
LC-002-100-D00-0
 62
     7
370
    50
100
AcDbLine
 10
70.518485
 20
318.921529
 30
0.0
 11
70.518485
 21
318.921529
 31
0.0
  0
LINE
  5
8D
330
7D
100
AcDbEntity
  8
LC-002-100-D00-0
 62
     7
370
    50
100
AcDbLine
 10
70.518485
 20
318.921529
 30
0.0
 11
70.519762
 21
318.840696
 31
0.0
  0
LINE
  5
8E
330
7D
100
AcDbEntity
  8
LC-002-100-D00-0
 62
     7
370
    50
100
AcDbLine
 10
70.519762
 20
318.840696
 30
0.0
 11
70.519762
 21
318.840696
 31
0.0
  0
LINE
  5
8F
330
7D
100
AcDbEntity
  8
LC-002-100-D00-0
 62
     7
370
    50
100
AcDbLine
 10
70.519762
 20
318.840696
 30
0.0
 11
70.519917
 21
318.830859
 31
0.0
  0
ENDBLK
  5
7F
330
7D
100
AcDbEntity
  8
0
100
AcDbBlockEnd
  0
BLOCK
  5
9A
330
99
100
AcDbEntity
  8
0
100
AcDbBlockBegin
  2
POLY2
 70
     0
 71
     0
 10
0.0
 20
0.0
 30
0.0
  3
POLY2
  1

  4
POLY2
  0
LINE
  5
9C
330
99
100
AcDbEntity
  8
LC-002-100-D00-0
 62
     7
370
    50
100
AcDbLine
 10
180.917078
 20
318.830859
 30
0.0
 11
180.917078
 21
318.830859
 31
0.0
  0
LINE
  5
9D
330
99
100
AcDbEntity
  8
LC-002-100-D00-0
 62
     7
370
    50
100
AcDbLine
 10
180.917078
 20
318.830859
 30
0.0
 11
180.921411
 21
318.885
 31
0.0
  0
LINE
  5
9E
330
99
100
AcDbEntity
  8
LC-002-100-D00-0
 62
     7
370
    50
100
AcDbLine
 10
180.921411
 20
318.885
 30
0.0
 11
180.921411
 21
318.885
 31
0.0
  0
LINE
  5
9F
330
99
100
AcDbEntity
  8
LC-002-100-D00-0
 62
     7
370
    50
100
AcDbLine
 10
180.921411
 20
318.885
 30
0.0
 11
180.931199
 21
319.007282
 31
0.0
  0
LINE
  5
A0
330
99
100
AcDbEntity
  8
LC-002-100-D00-0
 62
     7
370
    50
100
AcDbLine
 10
180.931199
 20
319.007282
 30
0.0
 11
180.931199
 21
319.007282
 31
0.0
  0
LINE
  5
A1
330
99
100
AcDbEntity
  8
LC-002-100-D00-0
 62
     7
370
    50
100
AcDbLine
 10
180.931199
 20
319.007282
 30
0.0
 11
181.017382
 21
319.183264
 31
0.0
  0
LINE
  5
A2
330
99
100
AcDbEntity
  8
LC-002-100-D00-0
 62
     7
370
    50
100
AcDbLine
 10
181.017382
 20
319.183264
 30
0.0
 11
181.017382
 21
319.183264
 31
0.0
  0
LINE
  5
A3
330
99
100
AcDbEntity
  8
LC-002-100-D00-0
 62
     7
370
    50
100
AcDbLine
 10
181.017382
 20
319.183264
 30
0.0
 11
181.16507
 21
319.337368
 31
0.0
  0
LINE
  5
A4
330
99
100
AcDbEntity
  8
LC-002-100-D00-0
 62
     7
370
    50
100
AcDbLine
 10
181.16507
 20
319.337368
 30
0.0
 11
181.16507
 21
319.337368
 31
0.0
  0
LINE
  5
A5
330
99
100
AcDbEntity
  8
LC-002-100-D00-0
 62
     7
370
    50
100
AcDbLine
 10
181.16507
 20
319.337368
 30
0.0
 11
181.388243
 21
319.457061
 31
0.0
  0
LINE
  5
A6
330
99
100
AcDbEntity
  8
LC-002-100-D00-0
 62
     7
370
    50
100
AcDbLine
 10
181.388243
 20
319.457061
 30
0.0
 11
181.388243
 21
319.457061
 31
0.0
  0
LINE
  5
A7
330
99
100
AcDbEntity
  8
LC-002-100-D00-0
 62
     7
370
    50
100
AcDbLine
 10
181.388243
 20
319.457061
 30
0.0
 11
181.58399
 21
319.49168
 31
0.0
  0
LINE
  5
A8
330
99
100
AcDbEntity
  8
LC-002-100-D00-0
 62
     7
370
    50
100
AcDbLine
 10
181.58399
 20
319.49168
 30
0.0
 11
181.58399
 21
319.49168
 31
0.0
  0
LINE
  5
A9
330
99
100
AcDbEntity
  8
LC-002-100-D00-0
 62
     7
370
    50
100
AcDbLine
 10
181.58399
 20
319.49168
 30
0.0
 11
181.704748
 21
319.492771
 31
0.0
  0
LINE
  5
AA
330
99
100
AcDbEntity
  8
LC-002-100-D00-0
 62
     7
370
    50
100
AcDbLine
 10
181.704748
 20
319.492771
 30
0.0
 11
181.704748
 21
319.492771
 31
0.0
  0
LINE
  5
AB
330
99
100
AcDbEntity
  8
LC-002-100-D00-0
 62
     7
370
    50
100
AcDbLine
 10
181.704748
 20
319.492771
 30
0.0
 11
181.718495
 21
319.492895
 31
0.0
  0
ENDBLK
  5
9B
330
99
100
AcDbEntity
  8
0
100
AcDbBlockEnd
  0
BLOCK
  5
B2
330
B1
100
AcDbEntity
  8
0
100
AcDbBlockBegin
  2
POLY3
 70
     0
 71
     0
 10
0.0
 20
0.0
 30
0.0
  3
POLY3
  1

  4
POLY3
  0
LINE
  5
B4
330
B1
100
AcDbEntity
  8
LC-002-100-D00-0
 62
     7
370
    50
100
AcDbLine
 10
181.717389
 20
319.580857
 30
0.0
 11
181.717389
 21
319.580857
 31
0.0
  0
LINE
  5
B5
330
B1
100
AcDbEntity
  8
LC-002-100-D00-0
 62
     7
370
    50
100
AcDbLine
 10
181.717389
 20
319.580857
 30
0.0
 11
181.717817
 21
319.573522
 31
0.0
  0
LINE
  5
B6
330
B1
100
AcDbEntity
  8
LC-002-100-D00-0
 62
     7
370
    50
100
AcDbLine
 10
181.717817
 20
319.573522
 30
0.0
 11
181.717817
 21
319.573522
 31
0.0
  0
LINE
  5
B7
330
B1
100
AcDbEntity
  8
LC-002-100-D00-0
 62
     7
370
    50
100
AcDbLine
 10
181.717817
 20
319.573522
 30
0.0
 11
181.718438
 21
319.562874
 31
0.0
  0
LINE
  5
B8
330
B1
100
AcDbEntity
  8
LC-002-100-D00-0
 62
     7
370
    50
100
AcDbLine
 10
181.718438
 20
319.562874
 30
0.0
 11
181.718438
 21
319.562874
 31
0.0
  0
LINE
  5
B9
330
B1
100
AcDbEntity
  8
LC-002-100-D00-0
 62
     7
370
    50
100
AcDbLine
 10
181.718438
 20
319.562874
 30
0.0
 11
181.718482
 21
319.509505
 31
0.0
  0
LINE
  5
BA
330
B1
100
AcDbEntity
  8
LC-002-100-D00-0
 62
     7
370
    50
100
AcDbLine
 10
181.718482
 20
319.509505
 30
0.0
 11
181.718482
 21
319.509505
 31
0.0
  0
LINE
  5
BB
330
B1
100
AcDbEntity
  8
LC-002-100-D00-0
 62
     7
370
    50
100
AcDbLine
 10
181.718482
 20
319.509505
 30
0.0
 11
181.718495
 21
319.492895
 31
0.0
  0
ENDBLK
  5
B3
330
B1
100
AcDbEntity
  8
0
100
AcDbBlockEnd
  0
BLOCK
  5
BE
330
BD
100
AcDbEntity
  8
0
100
AcDbBlockBegin
  2
POLY4
 70
     0
 71
     0
 10
0.0
 20
0.0
 30
0.0
  3
POLY4
  1

  4
POLY4
  0
LINE
  5
C0
330
BD
100
AcDbEntity
  8
LC-002-100-D00-0
 62
     7
370
    50
100
AcDbLine
 10
96.342389
 20
318.830859
 30
0.0
 11
96.342389
 21
318.830859
 31
0.0
  0
LINE
  5
C1
330
BD
100
AcDbEntity
  8
LC-002-100-D00-0
 62
     7
370
    50
100
AcDbLine
 10
96.342389
 20
318.830859
 30
0.0
 11
96.349446
 21
318.915174
 31
0.0
  0
LINE
  5
C2
330
BD
100
AcDbEntity
  8
LC-002-100-D00-0
 62
     7
370
    50
100
AcDbLine
 10
96.349446
 20
318.915174
 30
0.0
 11
96.349446
 21
318.915174
 31
0.0
  0
LINE
  5
C3
330
BD
100
AcDbEntity
  8
LC-002-100-D00-0
 62
     7
370
    50
100
AcDbLine
 10
96.349446
 20
318.915174
 30
0.0
 11
96.36356
 21
319.083805
 31
0.0
  0
LINE
  5
C4
330
BD
100
AcDbEntity
  8
LC-002-100-D00-0
 62
     7
370
    50
100
AcDbLine
 10
96.36356
 20
319.083805
 30
0.0
 11
96.36356
 21
319.083805
 31
0.0
  0
LINE
  5
C5
330
BD
100
AcDbEntity
  8
LC-002-100-D00-0
 62
     7
370
    50
100
AcDbLine
 10
96.36356
 20
319.083805
 30
0.0
 11
96.473718
 21
319.308557
 31
0.0
  0
LINE
  5
C6
330
BD
100
AcDbEntity
  8
LC-002-100-D00-0
 62
     7
370
    50
100
AcDbLine
 10
96.473718
 20
319.308557
 30
0.0
 11
96.473718
 21
319.308557
 31
0.0
  0
LINE
  5
C7
330
BD
100
AcDbEntity
  8
LC-002-100-D00-0
 62
     7
370
    50
100
AcDbLine
 10
96.473718
 20
319.308557
 30
0.0
 11
96.636156
 21
319.478173
 31
0.0
  0
LINE
  5
C8
330
BD
100
AcDbEntity
  8
LC-002-100-D00-0
 62
     7
370
    50
100
AcDbLine
 10
96.636156
 20
319.478173
 30
0.0
 11
96.636156
 21
319.478173
 31
0.0
  0
LINE
  5
C9
330
BD
100
AcDbEntity
  8
LC-002-100-D00-0
 62
     7
370
    50
100
AcDbLine
 10
96.636156
 20
319.478173
 30
0.0
 11
96.816561
 21
319.56805
 31
0.0
  0
LINE
  5
CA
330
BD
100
AcDbEntity
  8
LC-002-100-D00-0
 62
     7
370
    50
100
AcDbLine
 10
96.816561
 20
319.56805
 30
0.0
 11
96.816561
 21
319.56805
 31
0.0
  0
LINE
  5
CB
330
BD
100
AcDbEntity
  8
LC-002-100-D00-0
 62
     7
370
    50
100
AcDbLine
 10
96.816561
 20
319.56805
 30
0.0
 11
96.936102
 21
319.577219
 31
0.0
  0
LINE
  5
CC
330
BD
100
AcDbEntity
  8
LC-002-100-D00-0
 62
     7
370
    50
100
AcDbLine
 10
96.936102
 20
319.577219
 30
0.0
 11
96.936102
 21
319.577219
 31
0.0
  0
LINE
  5
CD
330
BD
100
AcDbEntity
  8
LC-002-100-D00-0
 62
     7
370
    50
100
AcDbLine
 10
96.936102
 20
319.577219
 30
0.0
 11
96.983538
 21
319.580857
 31
0.0
  0
ENDBLK
  5
BF
330
BD
100
AcDbEntity
  8
0
100
AcDbBlockEnd
  0
BLOCK
  5
D1
330
D0
100
AcDbEntity
  8
0
100
AcDbBlockBegin
  2
POLY5
 70
     0
 71
     0
 10
0.0
 20
0.0
 30
0.0
  3
POLY5
  1

  4
POLY5
  0
LINE
  5
D3
330
D0
100
AcDbEntity
  8
LC-002-100-D00-0
 62
     7
370
    50
100
AcDbLine
 10
76.439814
 20
318.830859
 30
0.0
 11
76.439814
 21
318.830859
 31
0.0
  0
LINE
  5
D4
330
D0
100
AcDbEntity
  8
LC-002-100-D00-0
 62
     7
370
    50
100
AcDbLine
 10
76.439814
 20
318.830859
 30
0.0
 11
76.44375
 21
318.915174
 31
0.0
  0
LINE
  5
D5
330
D0
100
AcDbEntity
  8
LC-002-100-D00-0
 62
     7
370
    50
100
AcDbLine
 10
76.44375
 20
318.915174
 30
0.0
 11
76.44375
 21
318.915174
 31
0.0
  0
LINE
  5
D6
330
D0
100
AcDbEntity
  8
LC-002-100-D00-0
 62
     7
370
    50
100
AcDbLine
 10
76.44375
 20
318.915174
 30
0.0
 11
76.451622
 21
319.083805
 31
0.0
  0
LINE
  5
D7
330
D0
100
AcDbEntity
  8
LC-002-100-D00-0
 62
     7
370
    50
100
AcDbLine
 10
76.451622
 20
319.083805
 30
0.0
 11
76.451622
 21
319.083805
 31
0.0
  0
LINE
  5
D8
330
D0
100
AcDbEntity
  8
LC-002-100-D00-0
 62
     7
370
    50
100
AcDbLine
 10
76.451622
 20
319.083805
 30
0.0
 11
76.513167
 21
319.308557
 31
0.0
  0
LINE
  5
D9
330
D0
100
AcDbEntity
  8
LC-002-100-D00-0
 62
     7
370
    50
100
AcDbLine
 10
76.513167
 20
319.308557
 30
0.0
 11
76.513167
 21
319.308557
 31
0.0
  0
LINE
  5
DA
330
D0
100
AcDbEntity
  8
LC-002-100-D00-0
 62
     7
370
    50
100
AcDbLine
 10
76.513167
 20
319.308557
 30
0.0
 11
76.604269
 21
319.478172
 31
0.0
  0
LINE
  5
DB
330
D0
100
AcDbEntity
  8
LC-002-100-D00-0
 62
     7
370
    50
100
AcDbLine
 10
76.604269
 20
319.478172
 30
0.0
 11
76.604269
 21
319.478172
 31
0.0
  0
LINE
  5
DC
330
D0
100
AcDbEntity
  8
LC-002-100-D00-0
 62
     7
370
    50
100
AcDbLine
 10
76.604269
 20
319.478172
 30
0.0
 11
76.705899
 21
319.56805
 31
0.0
  0
LINE
  5
DD
330
D0
100
AcDbEntity
  8
LC-002-100-D00-0
 62
     7
370
    50
100
AcDbLine
 10
76.705899
 20
319.56805
 30
0.0
 11
76.705899
 21
319.56805
 31
0.0
  0
LINE
  5
DE
330
D0
100
AcDbEntity
  8
LC-002-100-D00-0
 62
     7
370
    50
100
AcDbLine
 10
76.705899
 20
319.56805
 30
0.0
 11
76.773619
 21
319.577219
 31
0.0
  0
LINE
  5
DF
330
D0
100
AcDbEntity
  8
LC-002-100-D00-0
 62
     7
370
    50
100
AcDbLine
 10
76.773619
 20
319.577219
 30
0.0
 11
76.773619
 21
319.577219
 31
0.0
  0
LINE
  5
E0
330
D0
100
AcDbEntity
  8
LC-002-100-D00-0
 62
     7
370
    50
100
AcDbLine
 10
76.773619
 20
319.577219
 30
0.0
 11
76.800492
 21
319.580857
 31
0.0
  0
ENDBLK
  5
D2
330
D0
100
AcDbEntity
  8
0
100
AcDbBlockEnd
  0
BLOCK
  5
EB
330
EA
100
AcDbEntity
  8
0
100
AcDbBlockBegin
  2
POLY6
 70
     0
 71
     0
 10
0.0
 20
0.0
 30
0.0
  3
POLY6
  1

  4
POLY6
  0
LINE
  5
ED
330
EA
100
AcDbEntity
  8
LC-002-100-D00-0
 62
     7
370
    50
100
AcDbLine
 10
174.038742
 20
319.580857
 30
0.0
 11
174.038742
 21
319.580857
 31
0.0
  0
LINE
  5
EE
330
EA
100
AcDbEntity
  8
LC-002-100-D00-0
 62
     7
370
    50
100
AcDbLine
 10
174.038742
 20
319.580857
 30
0.0
 11
174.081259
 21
319.572567
 31
0.0
  0
LINE
  5
EF
330
EA
100
AcDbEntity
  8
LC-002-100-D00-0
 62
     7
370
    50
100
AcDbLine
 10
174.081259
 20
319.572567
 30
0.0
 11
174.081259
 21
319.572567
 31
0.0
  0
LINE
  5
F0
330
EA
100
AcDbEntity
  8
LC-002-100-D00-0
 62
     7
370
    50
100
AcDbLine
 10
174.081259
 20
319.572567
 30
0.0
 11
174.166293
 21
319.555989
 31
0.0
  0
LINE
  5
F1
330
EA
100
AcDbEntity
  8
LC-002-100-D00-0
 62
     7
370
    50
100
AcDbLine
 10
174.166293
 20
319.555989
 30
0.0
 11
174.166293
 21
319.555989
 31
0.0
  0
LINE
  5
F2
330
EA
100
AcDbEntity
  8
LC-002-100-D00-0
 62
     7
370
    50
100
AcDbLine
 10
174.166293
 20
319.555989
 30
0.0
 11
174.278509
 21
319.4267
 31
0.0
  0
LINE
  5
F3
330
EA
100
AcDbEntity
  8
LC-002-100-D00-0
 62
     7
370
    50
100
AcDbLine
 10
174.278509
 20
319.4267
 30
0.0
 11
174.278509
 21
319.4267
 31
0.0
  0
LINE
  5
F4
330
EA
100
AcDbEntity
  8
LC-002-100-D00-0
 62
     7
370
    50
100
AcDbLine
 10
174.278509
 20
319.4267
 30
0.0
 11
174.362735
 21
319.236412
 31
0.0
  0
LINE
  5
F5
330
EA
100
AcDbEntity
  8
LC-002-100-D00-0
 62
     7
370
    50
100
AcDbLine
 10
174.362735
 20
319.236412
 30
0.0
 11
174.362735
 21
319.236412
 31
0.0
  0
LINE
  5
F6
330
EA
100
AcDbEntity
  8
LC-002-100-D00-0
 62
     7
370
    50
100
AcDbLine
 10
174.362735
 20
319.236412
 30
0.0
 11
174.407161
 21
319.025524
 31
0.0
  0
LINE
  5
F7
330
EA
100
AcDbEntity
  8
LC-002-100-D00-0
 62
     7
370
    50
100
AcDbLine
 10
174.407161
 20
319.025524
 30
0.0
 11
174.407161
 21
319.025524
 31
0.0
  0
LINE
  5
F8
330
EA
100
AcDbEntity
  8
LC-002-100-D00-0
 62
     7
370
    50
100
AcDbLine
 10
174.407161
 20
319.025524
 30
0.0
 11
174.411688
 21
318.886165
 31
0.0
  0
LINE
  5
F9
330
EA
100
AcDbEntity
  8
LC-002-100-D00-0
 62
     7
370
    50
100
AcDbLine
 10
174.411688
 20
318.886165
 30
0.0
 11
174.411688
 21
318.886165
 31
0.0
  0
LINE
  5
FA
330
EA
100
AcDbEntity
  8
LC-002-100-D00-0
 62
     7
370
    50
100
AcDbLine
 10
174.411688
 20
318.886165
 30
0.0
 11
174.413484
 21
318.830859
 31
0.0
  0
ENDBLK
  5
EC
330
EA
100
AcDbEntity
  8
0
100
AcDbBlockEnd
  0
BLOCK
  5
FE
330
FD
100
AcDbEntity
  8
0
100
AcDbBlockBegin
  2
POLY7
 70
     0
 71
     0
 10
0.0
 20
0.0
 30
0.0
  3
POLY7
  1

  4
POLY7
  0
LINE
  5
100
330
FD
100
AcDbEntity
  8
LC-002-100-D00-0
 62
     7
370
    50
100
AcDbLine
 10
153.412728
 20
319.580857
 30
0.0
 11
153.412728
 21
319.580857
 31
0.0
  0
LINE
  5
101
330
FD
100
AcDbEntity
  8
LC-002-100-D00-0
 62
     7
370
    50
100
AcDbLine
 10
153.412728
 20
319.580857
 30
0.0
 11
153.485951
 21
319.572567
 31
0.0
  0
LINE
  5
102
330
FD
100
AcDbEntity
  8
LC-002-100-D00-0
 62
     7
370
    50
100
AcDbLine
 10
153.485951
 20
319.572567
 30
0.0
 11
153.485951
 21
319.572567
 31
0.0
  0
LINE
  5
103
330
FD
100
AcDbEntity
  8
LC-002-100-D00-0
 62
     7
370
    50
100
AcDbLine
 10
153.485951
 20
319.572567
 30
0.0
 11
153.632397
 21
319.555989
 31
0.0
  0
LINE
  5
104
330
FD
100
AcDbEntity
  8
LC-002-100-D00-0
 62
     7
370
    50
100
AcDbLine
 10
153.632397
 20
319.555989
 30
0.0
 11
153.632397
 21
319.555989
 31
0.0
  0
LINE
  5
105
330
FD
100
AcDbEntity
  8
LC-002-100-D00-0
 62
     7
370
    50
100
AcDbLine
 10
153.632397
 20
319.555989
 30
0.0
 11
153.826946
 21
319.426701
 31
0.0
  0
LINE
  5
106
330
FD
100
AcDbEntity
  8
LC-002-100-D00-0
 62
     7
370
    50
100
AcDbLine
 10
153.826946
 20
319.426701
 30
0.0
 11
153.826946
 21
319.426701
 31
0.0
  0
LINE
  5
107
330
FD
100
AcDbEntity
  8
LC-002-100-D00-0
 62
     7
370
    50
100
AcDbLine
 10
153.826946
 20
319.426701
 30
0.0
 11
153.973503
 21
319.236411
 31
0.0
  0
LINE
  5
108
330
FD
100
AcDbEntity
  8
LC-002-100-D00-0
 62
     7
370
    50
100
AcDbLine
 10
153.973503
 20
319.236411
 30
0.0
 11
153.973503
 21
319.236411
 31
0.0
  0
LINE
  5
109
330
FD
100
AcDbEntity
  8
LC-002-100-D00-0
 62
     7
370
    50
100
AcDbLine
 10
153.973503
 20
319.236411
 30
0.0
 11
154.051054
 21
319.025524
 31
0.0
  0
LINE
  5
10A
330
FD
100
AcDbEntity
  8
LC-002-100-D00-0
 62
     7
370
    50
100
AcDbLine
 10
154.051054
 20
319.025524
 30
0.0
 11
154.051054
 21
319.025524
 31
0.0
  0
LINE
  5
10B
330
FD
100
AcDbEntity
  8
LC-002-100-D00-0
 62
     7
370
    50
100
AcDbLine
 10
154.051054
 20
319.025524
 30
0.0
 11
154.058964
 21
318.886165
 31
0.0
  0
LINE
  5
10C
330
FD
100
AcDbEntity
  8
LC-002-100-D00-0
 62
     7
370
    50
100
AcDbLine
 10
154.058964
 20
318.886165
 30
0.0
 11
154.058964
 21
318.886165
 31
0.0
  0
LINE
  5
10D
330
FD
100
AcDbEntity
  8
LC-002-100-D00-0
 62
     7
370
    50
100
AcDbLine
 10
154.058964
 20
318.886165
 30
0.0
 11
154.062102
 21
318.830859
 31
0.0
  0
ENDBLK
  5
FF
330
FD
100
AcDbEntity
  8
0
100
AcDbBlockEnd
  0
BLOCK
  5
111
330
110
100
AcDbEntity
  8
0
100
AcDbBlockBegin
  2
POLY8
 70
     0
 71
     0
 10
0.0
 20
0.0
 30
0.0
  3
POLY8
  1

  4
POLY8
  0
LINE
  5
113
330
110
100
AcDbEntity
  8
LC-002-100-D00-0
 62
     7
370
    50
100
AcDbLine
 10
125.366065
 20
319.580857
 30
0.0
 11
125.366065
 21
319.580857
 31
0.0
  0
LINE
  5
114
330
110
100
AcDbEntity
  8
LC-002-100-D00-0
 62
     7
370
    50
100
AcDbLine
 10
125.366065
 20
319.580857
 30
0.0
 11
125.450376
 21
319.572567
 31
0.0
  0
LINE
  5
115
330
110
100
AcDbEntity
  8
LC-002-100-D00-0
 62
     7
370
    50
100
AcDbLine
 10
125.450376
 20
319.572567
 30
0.0
 11
125.450376
 21
319.572567
 31
0.0
  0
LINE
  5
116
330
110
100
AcDbEntity
  8
LC-002-100-D00-0
 62
     7
370
    50
100
AcDbLine
 10
125.450376
 20
319.572567
 30
0.0
 11
125.618996
 21
319.555989
 31
0.0
  0
LINE
  5
117
330
110
100
AcDbEntity
  8
LC-002-100-D00-0
 62
     7
370
    50
100
AcDbLine
 10
125.618996
 20
319.555989
 30
0.0
 11
125.618996
 21
319.555989
 31
0.0
  0
LINE
  5
118
330
110
100
AcDbEntity
  8
LC-002-100-D00-0
 62
     7
370
    50
100
AcDbLine
 10
125.618996
 20
319.555989
 30
0.0
 11
125.843744
 21
319.426701
 31
0.0
  0
LINE
  5
119
330
110
100
AcDbEntity
  8
LC-002-100-D00-0
 62
     7
370
    50
100
AcDbLine
 10
125.843744
 20
319.426701
 30
0.0
 11
125.843744
 21
319.426701
 31
0.0
  0
LINE
  5
11A
330
110
100
AcDbEntity
  8
LC-002-100-D00-0
 62
     7
370
    50
100
AcDbLine
 10
125.843744
 20
319.426701
 30
0.0
 11
126.013369
 21
319.236412
 31
0.0
  0
LINE
  5
11B
330
110
100
AcDbEntity
  8
LC-002-100-D00-0
 62
     7
370
    50
100
AcDbLine
 10
126.013369
 20
319.236412
 30
0.0
 11
126.013369
 21
319.236412
 31
0.0
  0
LINE
  5
11C
330
110
100
AcDbEntity
  8
LC-002-100-D00-0
 62
     7
370
    50
100
AcDbLine
 10
126.013369
 20
319.236412
 30
0.0
 11
126.103263
 21
319.025524
 31
0.0
  0
LINE
  5
11D
330
110
100
AcDbEntity
  8
LC-002-100-D00-0
 62
     7
370
    50
100
AcDbLine
 10
126.103263
 20
319.025524
 30
0.0
 11
126.103263
 21
319.025524
 31
0.0
  0
LINE
  5
11E
330
110
100
AcDbEntity
  8
LC-002-100-D00-0
 62
     7
370
    50
100
AcDbLine
 10
126.103263
 20
319.025524
 30
0.0
 11
126.112433
 21
318.886165
 31
0.0
  0
LINE
  5
11F
330
110
100
AcDbEntity
  8
LC-002-100-D00-0
 62
     7
370
    50
100
AcDbLine
 10
126.112433
 20
318.886165
 30
0.0
 11
126.112433
 21
318.886165
 31
0.0
  0
LINE
  5
120
330
110
100
AcDbEntity
  8
LC-002-100-D00-0
 62
     7
370
    50
100
AcDbLine
 10
126.112433
 20
318.886165
 30
0.0
 11
126.116073
 21
318.830859
 31
0.0
  0
ENDBLK
  5
112
330
110
100
AcDbEntity
  8
0
100
AcDbBlockEnd
  0
BLOCK
  5
123
330
122
100
AcDbEntity
  8
0
100
AcDbBlockBegin
  2
POLY9
 70
     0
 71
     0
 10
0.0
 20
0.0
 30
0.0
  3
POLY9
  1

  4
POLY9
  0
LINE
  5
125
330
122
100
AcDbEntity
  8
LC-002-100-D00-0
 62
     7
370
    50
100
AcDbLine
 10
124.116268
 20
318.830859
 30
0.0
 11
124.116268
 21
318.830859
 31
0.0
  0
LINE
  5
126
330
122
100
AcDbEntity
  8
LC-002-100-D00-0
 62
     7
370
    50
100
AcDbLine
 10
124.116268
 20
318.830859
 30
0.0
 11
124.124556
 21
318.915174
 31
0.0
  0
LINE
  5
127
330
122
100
AcDbEntity
  8
LC-002-100-D00-0
 62
     7
370
    50
100
AcDbLine
 10
124.124556
 20
318.915174
 30
0.0
 11
124.124556
 21
318.915174
 31
0.0
  0
LINE
  5
128
330
122
100
AcDbEntity
  8
LC-002-100-D00-0
 62
     7
370
    50
100
AcDbLine
 10
124.124556
 20
318.915174
 30
0.0
 11
124.141131
 21
319.083805
 31
0.0
  0
LINE
  5
129
330
122
100
AcDbEntity
  8
LC-002-100-D00-0
 62
     7
370
    50
100
AcDbLine
 10
124.141131
 20
319.083805
 30
0.0
 11
124.141131
 21
319.083805
 31
0.0
  0
LINE
  5
12A
330
122
100
AcDbEntity
  8
LC-002-100-D00-0
 62
     7
370
    50
100
AcDbLine
 10
124.141131
 20
319.083805
 30
0.0
 11
124.270386
 21
319.308557
 31
0.0
  0
LINE
  5
12B
330
122
100
AcDbEntity
  8
LC-002-100-D00-0
 62
     7
370
    50
100
AcDbLine
 10
124.270386
 20
319.308557
 30
0.0
 11
124.270386
 21
319.308557
 31
0.0
  0
LINE
  5
12C
330
122
100
AcDbEntity
  8
LC-002-100-D00-0
 62
     7
370
    50
100
AcDbLine
 10
124.270386
 20
319.308557
 30
0.0
 11
124.460637
 21
319.478173
 31
0.0
  0
LINE
  5
12D
330
122
100
AcDbEntity
  8
LC-002-100-D00-0
 62
     7
370
    50
100
AcDbLine
 10
124.460637
 20
319.478173
 30
0.0
 11
124.460637
 21
319.478173
 31
0.0
  0
LINE
  5
12E
330
122
100
AcDbEntity
  8
LC-002-100-D00-0
 62
     7
370
    50
100
AcDbLine
 10
124.460637
 20
319.478173
 30
0.0
 11
124.671476
 21
319.56805
 31
0.0
  0
LINE
  5
12F
330
122
100
AcDbEntity
  8
LC-002-100-D00-0
 62
     7
370
    50
100
AcDbLine
 10
124.671476
 20
319.56805
 30
0.0
 11
124.671476
 21
319.56805
 31
0.0
  0
LINE
  5
130
330
122
100
AcDbEntity
  8
LC-002-100-D00-0
 62
     7
370
    50
100
AcDbLine
 10
124.671476
 20
319.56805
 30
0.0
 11
124.810806
 21
319.577219
 31
0.0
  0
LINE
  5
131
330
122
100
AcDbEntity
  8
LC-002-100-D00-0
 62
     7
370
    50
100
AcDbLine
 10
124.810806
 20
319.577219
 30
0.0
 11
124.810806
 21
319.577219
 31
0.0
  0
LINE
  5
132
330
122
100
AcDbEntity
  8
LC-002-100-D00-0
 62
     7
370
    50
100
AcDbLine
 10
124.810806
 20
319.577219
 30
0.0
 11
124.866095
 21
319.580857
 31
0.0
  0
ENDBLK
  5
124
330
122
100
AcDbEntity
  8
0
100
AcDbBlockEnd
  0
BLOCK
  5
172
330
171
100
AcDbEntity
  8
0
100
AcDbBlockBegin
  2
POLY10
 70
     0
 71
     0
 10
0.0
 20
0.0
 30
0.0
  3
POLY10
  1

  4
POLY10
  0
LINE
  5
174
330
171
100
AcDbEntity
  8
LC-002-100-D00-0
 62
     7
370
    50
100
AcDbLine
 10
145.503463
 20
296.180855
 30
0.0
 11
145.503463
 21
296.180855
 31
0.0
  0
LINE
  5
175
330
171
100
AcDbEntity
  8
LC-002-100-D00-0
 62
     7
370
    50
100
AcDbLine
 10
145.503463
 20
296.180855
 30
0.0
 11
145.503671
 21
296.217708
 31
0.0
  0
LINE
  5
176
330
171
100
AcDbEntity
  8
LC-002-100-D00-0
 62
     7
370
    50
100
AcDbLine
 10
145.503671
 20
296.217708
 30
0.0
 11
145.503671
 21
296.217708
 31
0.0
  0
LINE
  5
177
330
171
100
AcDbEntity
  8
LC-002-100-D00-0
 62
     7
370
    50
100
AcDbLine
 10
145.503671
 20
296.217708
 30
0.0
 11
145.507006
 21
296.80795
 31
0.0
  0
LINE
  5
178
330
171
100
AcDbEntity
  8
LC-002-100-D00-0
 62
     7
370
    50
100
AcDbLine
 10
145.507006
 20
296.80795
 30
0.0
 11
145.507006
 21
296.80795
 31
0.0
  0
LINE
  5
179
330
171
100
AcDbEntity
  8
LC-002-100-D00-0
 62
     7
370
    50
100
AcDbLine
 10
145.507006
 20
296.80795
 30
0.0
 11
145.460153
 21
297.968687
 31
0.0
  0
LINE
  5
17A
330
171
100
AcDbEntity
  8
LC-002-100-D00-0
 62
     7
370
    50
100
AcDbLine
 10
145.460153
 20
297.968687
 30
0.0
 11
145.460153
 21
297.968687
 31
0.0
  0
LINE
  5
17B
330
171
100
AcDbEntity
  8
LC-002-100-D00-0
 62
     7
370
    50
100
AcDbLine
 10
145.460153
 20
297.968687
 30
0.0
 11
145.253686
 21
299.595037
 31
0.0
  0
LINE
  5
17C
330
171
100
AcDbEntity
  8
LC-002-100-D00-0
 62
     7
370
    50
100
AcDbLine
 10
145.253686
 20
299.595037
 30
0.0
 11
145.253686
 21
299.595037
 31
0.0
  0
LINE
  5
17D
330
171
100
AcDbEntity
  8
LC-002-100-D00-0
 62
     7
370
    50
100
AcDbLine
 10
145.253686
 20
299.595037
 30
0.0
 11
144.909569
 21
301.139319
 31
0.0
  0
LINE
  5
17E
330
171
100
AcDbEntity
  8
LC-002-100-D00-0
 62
     7
370
    50
100
AcDbLine
 10
144.909569
 20
301.139319
 30
0.0
 11
144.909569
 21
301.139319
 31
0.0
  0
LINE
  5
17F
330
171
100
AcDbEntity
  8
LC-002-100-D00-0
 62
     7
370
    50
100
AcDbLine
 10
144.909569
 20
301.139319
 30
0.0
 11
144.444135
 21
302.529739
 31
0.0
  0
LINE
  5
180
330
171
100
AcDbEntity
  8
LC-002-100-D00-0
 62
     7
370
    50
100
AcDbLine
 10
144.444135
 20
302.529739
 30
0.0
 11
144.444135
 21
302.529739
 31
0.0
  0
LINE
  5
181
330
171
100
AcDbEntity
  8
LC-002-100-D00-0
 62
     7
370
    50
100
AcDbLine
 10
144.444135
 20
302.529739
 30
0.0
 11
143.862043
 21
303.751493
 31
0.0
  0
LINE
  5
182
330
171
100
AcDbEntity
  8
LC-002-100-D00-0
 62
     7
370
    50
100
AcDbLine
 10
143.862043
 20
303.751493
 30
0.0
 11
143.862043
 21
303.751493
 31
0.0
  0
LINE
  5
183
330
171
100
AcDbEntity
  8
LC-002-100-D00-0
 62
     7
370
    50
100
AcDbLine
 10
143.862043
 20
303.751493
 30
0.0
 11
143.190207
 21
304.750146
 31
0.0
  0
LINE
  5
184
330
171
100
AcDbEntity
  8
LC-002-100-D00-0
 62
     7
370
    50
100
AcDbLine
 10
143.190207
 20
304.750146
 30
0.0
 11
143.190207
 21
304.750146
 31
0.0
  0
LINE
  5
185
330
171
100
AcDbEntity
  8
LC-002-100-D00-0
 62
     7
370
    50
100
AcDbLine
 10
143.190207
 20
304.750146
 30
0.0
 11
142.435426
 21
305.507599
 31
0.0
  0
LINE
  5
186
330
171
100
AcDbEntity
  8
LC-002-100-D00-0
 62
     7
370
    50
100
AcDbLine
 10
142.435426
 20
305.507599
 30
0.0
 11
142.435426
 21
305.507599
 31
0.0
  0
LINE
  5
187
330
171
100
AcDbEntity
  8
LC-002-100-D00-0
 62
     7
370
    50
100
AcDbLine
 10
142.435426
 20
305.507599
 30
0.0
 11
141.562728
 21
306.062032
 31
0.0
  0
LINE
  5
188
330
171
100
AcDbEntity
  8
LC-002-100-D00-0
 62
     7
370
    50
100
AcDbLine
 10
141.562728
 20
306.062032
 30
0.0
 11
141.562728
 21
306.062032
 31
0.0
  0
LINE
  5
189
330
171
100
AcDbEntity
  8
LC-002-100-D00-0
 62
     7
370
    50
100
AcDbLine
 10
141.562728
 20
306.062032
 30
0.0
 11
140.926523
 21
306.138614
 31
0.0
  0
LINE
  5
18A
330
171
100
AcDbEntity
  8
LC-002-100-D00-0
 62
     7
370
    50
100
AcDbLine
 10
140.926523
 20
306.138614
 30
0.0
 11
140.926523
 21
306.138614
 31
0.0
  0
LINE
  5
18B
330
171
100
AcDbEntity
  8
LC-002-100-D00-0
 62
     7
370
    50
100
AcDbLine
 10
140.926523
 20
306.138614
 30
0.0
 11
140.57559
 21
306.180857
 31
0.0
  0
ENDBLK
  5
173
330
171
100
AcDbEntity
  8
0
100
AcDbBlockEnd
  0
BLOCK
  5
191
330
190
100
AcDbEntity
  8
0
100
AcDbBlockBegin
  2
POLY11
 70
     0
 71
     0
 10
0.0
 20
0.0
 30
0.0
  3
POLY11
  1

  4
POLY11
  0
LINE
  5
193
330
190
100
AcDbEntity
  8
LC-002-100-D00-0
 62
     7
370
    50
100
AcDbLine
 10
139.61664
 20
308.280855
 30
0.0
 11
139.61664
 21
308.280855
 31
0.0
  0
LINE
  5
194
330
190
100
AcDbEntity
  8
LC-002-100-D00-0
 62
     7
370
    50
100
AcDbLine
 10
139.61664
 20
308.280855
 30
0.0
 11
139.587308
 21
308.280855
 31
0.0
  0
LINE
  5
195
330
190
100
AcDbEntity
  8
LC-002-100-D00-0
 62
     7
370
    50
100
AcDbLine
 10
139.587308
 20
308.280855
 30
0.0
 11
139.587308
 21
308.280855
 31
0.0
  0
LINE
  5
196
330
190
100
AcDbEntity
  8
LC-002-100-D00-0
 62
     7
370
    50
100
AcDbLine
 10
139.587308
 20
308.280855
 30
0.0
 11
139.542227
 21
308.280855
 31
0.0
  0
LINE
  5
197
330
190
100
AcDbEntity
  8
LC-002-100-D00-0
 62
     7
370
    50
100
AcDbLine
 10
139.542227
 20
308.280855
 30
0.0
 11
139.542227
 21
308.280855
 31
0.0
  0
LINE
  5
198
330
190
100
AcDbEntity
  8
LC-002-100-D00-0
 62
     7
370
    50
100
AcDbLine
 10
139.542227
 20
308.280855
 30
0.0
 11
139.487585
 21
308.280855
 31
0.0
  0
LINE
  5
199
330
190
100
AcDbEntity
  8
LC-002-100-D00-0
 62
     7
370
    50
100
AcDbLine
 10
139.487585
 20
308.280855
 30
0.0
 11
139.487585
 21
308.280855
 31
0.0
  0
LINE
  5
19A
330
190
100
AcDbEntity
  8
LC-002-100-D00-0
 62
     7
370
    50
100
AcDbLine
 10
139.487585
 20
308.280855
 30
0.0
 11
139.468496
 21
308.280855
 31
0.0
  0
ENDBLK
  5
192
330
190
100
AcDbEntity
  8
0
100
AcDbBlockEnd
  0
BLOCK
  5
1A9
330
1A8
100
AcDbEntity
  8
0
100
AcDbBlockBegin
  2
POLY12
 70
     0
 71
     0
 10
0.0
 20
0.0
 30
0.0
  3
POLY12
  1

  4
POLY12
  0
LINE
  5
1AB
330
1A8
100
AcDbEntity
  8
LC-002-100-D00-0
 62
     7
370
    50
100
AcDbLine
 10
135.240209
 20
308.280855
 30
0.0
 11
135.240209
 21
308.280855
 31
0.0
  0
LINE
  5
1AC
330
1A8
100
AcDbEntity
  8
LC-002-100-D00-0
 62
     7
370
    50
100
AcDbLine
 10
135.240209
 20
308.280855
 30
0.0
 11
135.095807
 21
308.280855
 31
0.0
  0
LINE
  5
1AD
330
1A8
100
AcDbEntity
  8
LC-002-100-D00-0
 62
     7
370
    50
100
AcDbLine
 10
135.095807
 20
308.280855
 30
0.0
 11
135.095807
 21
308.280855
 31
0.0
  0
LINE
  5
1AE
330
1A8
100
AcDbEntity
  8
LC-002-100-D00-0
 62
     7
370
    50
100
AcDbLine
 10
135.095807
 20
308.280855
 30
0.0
 11
134.879096
 21
308.280855
 31
0.0
  0
LINE
  5
1AF
330
1A8
100
AcDbEntity
  8
LC-002-100-D00-0
 62
     7
370
    50
100
AcDbLine
 10
134.879096
 20
308.280855
 30
0.0
 11
134.879096
 21
308.280855
 31
0.0
  0
LINE
  5
1B0
330
1A8
100
AcDbEntity
  8
LC-002-100-D00-0
 62
     7
370
    50
100
AcDbLine
 10
134.879096
 20
308.280855
 30
0.0
 11
134.680331
 21
308.280855
 31
0.0
  0
LINE
  5
1B1
330
1A8
100
AcDbEntity
  8
LC-002-100-D00-0
 62
     7
370
    50
100
AcDbLine
 10
134.680331
 20
308.280855
 30
0.0
 11
134.680331
 21
308.280855
 31
0.0
  0
LINE
  5
1B2
330
1A8
100
AcDbEntity
  8
LC-002-100-D00-0
 62
     7
370
    50
100
AcDbLine
 10
134.680331
 20
308.280855
 30
0.0
 11
134.616953
 21
308.280855
 31
0.0
  0
LINE
  5
1B3
330
1A8
100
AcDbEntity
  8
LC-002-100-D00-0
 62
     7
370
    50
100
AcDbLine
 10
134.616953
 20
308.280855
 30
0.0
 11
134.616953
 21
308.280855
 31
0.0
  0
LINE
  5
1B4
330
1A8
100
AcDbEntity
  8
LC-002-100-D00-0
 62
     7
370
    50
100
AcDbLine
 10
134.616953
 20
308.280855
 30
0.0
 11
134.611539
 21
308.280855
 31
0.0
  0
LINE
  5
1B5
330
1A8
100
AcDbEntity
  8
LC-002-100-D00-0
 62
     7
370
    50
100
AcDbLine
 10
134.611539
 20
308.280855
 30
0.0
 11
134.611539
 21
308.280855
 31
0.0
  0
LINE
  5
1B6
330
1A8
100
AcDbEntity
  8
LC-002-100-D00-0
 62
     7
370
    50
100
AcDbLine
 10
134.611539
 20
308.280855
 30
0.0
 11
134.60883
 21
308.280855
 31
0.0
  0
ENDBLK
  5
1AA
330
1A8
100
AcDbEntity
  8
0
100
AcDbBlockEnd
  0
BLOCK
  5
1BD
330
1BC
100
AcDbEntity
  8
0
100
AcDbBlockBegin
  2
POLY13
 70
     0
 71
     0
 10
0.0
 20
0.0
 30
0.0
  3
POLY13
  1

  4
POLY13
  0
LINE
  5
1BF
330
1BC
100
AcDbEntity
  8
LC-002-100-D00-0
 62
     7
370
    50
100
AcDbLine
 10
117.644756
 20
308.280855
 30
0.0
 11
117.644756
 21
308.280855
 31
0.0
  0
LINE
  5
1C0
330
1BC
100
AcDbEntity
  8
LC-002-100-D00-0
 62
     7
370
    50
100
AcDbLine
 10
117.644756
 20
308.280855
 30
0.0
 11
117.60818
 21
308.280855
 31
0.0
  0
LINE
  5
1C1
330
1BC
100
AcDbEntity
  8
LC-002-100-D00-0
 62
     7
370
    50
100
AcDbLine
 10
117.60818
 20
308.280855
 30
0.0
 11
117.60818
 21
308.280855
 31
0.0
  0
LINE
  5
1C2
330
1BC
100
AcDbEntity
  8
LC-002-100-D00-0
 62
     7
370
    50
100
AcDbLine
 10
117.60818
 20
308.280855
 30
0.0
 11
117.535046
 21
308.280855
 31
0.0
  0
LINE
  5
1C3
330
1BC
100
AcDbEntity
  8
LC-002-100-D00-0
 62
     7
370
    50
100
AcDbLine
 10
117.535046
 20
308.280855
 30
0.0
 11
117.535046
 21
308.280855
 31
0.0
  0
LINE
  5
1C4
330
1BC
100
AcDbEntity
  8
LC-002-100-D00-0
 62
     7
370
    50
100
AcDbLine
 10
117.535046
 20
308.280855
 30
0.0
 11
117.352717
 21
308.280855
 31
0.0
  0
LINE
  5
1C5
330
1BC
100
AcDbEntity
  8
LC-002-100-D00-0
 62
     7
370
    50
100
AcDbLine
 10
117.352717
 20
308.280855
 30
0.0
 11
117.352717
 21
308.280855
 31
0.0
  0
LINE
  5
1C6
330
1BC
100
AcDbEntity
  8
LC-002-100-D00-0
 62
     7
370
    50
100
AcDbLine
 10
117.352717
 20
308.280855
 30
0.0
 11
117.205403
 21
308.280855
 31
0.0
  0
LINE
  5
1C7
330
1BC
100
AcDbEntity
  8
LC-002-100-D00-0
 62
     7
370
    50
100
AcDbLine
 10
117.205403
 20
308.280855
 30
0.0
 11
117.205403
 21
308.280855
 31
0.0
  0
LINE
  5
1C8
330
1BC
100
AcDbEntity
  8
LC-002-100-D00-0
 62
     7
370
    50
100
AcDbLine
 10
117.205403
 20
308.280855
 30
0.0
 11
117.115452
 21
308.280855
 31
0.0
  0
ENDBLK
  5
1BE
330
1BC
100
AcDbEntity
  8
0
100
AcDbBlockEnd
  0
BLOCK
  5
1EE
330
1ED
100
AcDbEntity
  8
0
100
AcDbBlockBegin
  2
POLY14
 70
     0
 71
     0
 10
0.0
 20
0.0
 30
0.0
  3
POLY14
  1

  4
POLY14
  0
LINE
  5
1F0
330
1ED
100
AcDbEntity
  8
LC-002-100-D00-0
 62
     7
370
    50
100
AcDbLine
 10
132.404357
 20
308.280855
 30
0.0
 11
132.404357
 21
308.280855
 31
0.0
  0
LINE
  5
1F1
330
1ED
100
AcDbEntity
  8
LC-002-100-D00-0
 62
     7
370
    50
100
AcDbLine
 10
132.404357
 20
308.280855
 30
0.0
 11
132.328293
 21
308.280855
 31
0.0
  0
LINE
  5
1F2
330
1ED
100
AcDbEntity
  8
LC-002-100-D00-0
 62
     7
370
    50
100
AcDbLine
 10
132.328293
 20
308.280855
 30
0.0
 11
132.328293
 21
308.280855
 31
0.0
  0
LINE
  5
1F3
330
1ED
100
AcDbEntity
  8
LC-002-100-D00-0
 62
     7
370
    50
100
AcDbLine
 10
132.328293
 20
308.280855
 30
0.0
 11
132.176843
 21
308.280855
 31
0.0
  0
LINE
  5
1F4
330
1ED
100
AcDbEntity
  8
LC-002-100-D00-0
 62
     7
370
    50
100
AcDbLine
 10
132.176843
 20
308.280855
 30
0.0
 11
132.176843
 21
308.280855
 31
0.0
  0
LINE
  5
1F5
330
1ED
100
AcDbEntity
  8
LC-002-100-D00-0
 62
     7
370
    50
100
AcDbLine
 10
132.176843
 20
308.280855
 30
0.0
 11
131.992222
 21
308.280855
 31
0.0
  0
LINE
  5
1F6
330
1ED
100
AcDbEntity
  8
LC-002-100-D00-0
 62
     7
370
    50
100
AcDbLine
 10
131.992222
 20
308.280855
 30
0.0
 11
131.992222
 21
308.280855
 31
0.0
  0
LINE
  5
1F7
330
1ED
100
AcDbEntity
  8
LC-002-100-D00-0
 62
     7
370
    50
100
AcDbLine
 10
131.992222
 20
308.280855
 30
0.0
 11
131.933259
 21
308.280855
 31
0.0
  0
LINE
  5
1F8
330
1ED
100
AcDbEntity
  8
LC-002-100-D00-0
 62
     7
370
    50
100
AcDbLine
 10
131.933259
 20
308.280855
 30
0.0
 11
131.933259
 21
308.280855
 31
0.0
  0
LINE
  5
1F9
330
1ED
100
AcDbEntity
  8
LC-002-100-D00-0
 62
     7
370
    50
100
AcDbLine
 10
131.933259
 20
308.280855
 30
0.0
 11
131.929854
 21
308.280855
 31
0.0
  0
LINE
  5
1FA
330
1ED
100
AcDbEntity
  8
LC-002-100-D00-0
 62
     7
370
    50
100
AcDbLine
 10
131.929854
 20
308.280855
 30
0.0
 11
131.929854
 21
308.280855
 31
0.0
  0
LINE
  5
1FB
330
1ED
100
AcDbEntity
  8
LC-002-100-D00-0
 62
     7
370
    50
100
AcDbLine
 10
131.929854
 20
308.280855
 30
0.0
 11
131.928148
 21
308.280855
 31
0.0
  0
ENDBLK
  5
1EF
330
1ED
100
AcDbEntity
  8
0
100
AcDbBlockEnd
  0
BLOCK
  5
1FF
330
1FE
100
AcDbEntity
  8
0
100
AcDbBlockBegin
  2
POLY15
 70
     0
 71
     0
 10
0.0
 20
0.0
 30
0.0
  3
POLY15
  1

  4
POLY15
  0
LINE
  5
201
330
1FE
100
AcDbEntity
  8
LC-002-100-D00-0
 62
     7
370
    50
100
AcDbLine
 10
130.763761
 20
308.280855
 30
0.0
 11
130.763761
 21
308.280855
 31
0.0
  0
LINE
  5
202
330
1FE
100
AcDbEntity
  8
LC-002-100-D00-0
 62
     7
370
    50
100
AcDbLine
 10
130.763761
 20
308.280855
 30
0.0
 11
130.746145
 21
308.280855
 31
0.0
  0
LINE
  5
203
330
1FE
100
AcDbEntity
  8
LC-002-100-D00-0
 62
     7
370
    50
100
AcDbLine
 10
130.746145
 20
308.280855
 30
0.0
 11
130.746145
 21
308.280855
 31
0.0
  0
LINE
  5
204
330
1FE
100
AcDbEntity
  8
LC-002-100-D00-0
 62
     7
370
    50
100
AcDbLine
 10
130.746145
 20
308.280855
 30
0.0
 11
130.714674
 21
308.280855
 31
0.0
  0
LINE
  5
205
330
1FE
100
AcDbEntity
  8
LC-002-100-D00-0
 62
     7
370
    50
100
AcDbLine
 10
130.714674
 20
308.280855
 30
0.0
 11
130.714674
 21
308.280855
 31
0.0
  0
LINE
  5
206
330
1FE
100
AcDbEntity
  8
LC-002-100-D00-0
 62
     7
370
    50
100
AcDbLine
 10
130.714674
 20
308.280855
 30
0.0
 11
130.711605
 21
308.280855
 31
0.0
  0
LINE
  5
207
330
1FE
100
AcDbEntity
  8
LC-002-100-D00-0
 62
     7
370
    50
100
AcDbLine
 10
130.711605
 20
308.280855
 30
0.0
 11
130.711605
 21
308.280855
 31
0.0
  0
LINE
  5
208
330
1FE
100
AcDbEntity
  8
LC-002-100-D00-0
 62
     7
370
    50
100
AcDbLine
 10
130.711605
 20
308.280855
 30
0.0
 11
130.710254
 21
308.280855
 31
0.0
  0
ENDBLK
  5
200
330
1FE
100
AcDbEntity
  8
0
100
AcDbBlockEnd
  0
BLOCK
  5
20C
330
20B
100
AcDbEntity
  8
0
100
AcDbBlockBegin
  2
POLY16
 70
     0
 71
     0
 10
0.0
 20
0.0
 30
0.0
  3
POLY16
  1

  4
POLY16
  0
LINE
  5
20E
330
20B
100
AcDbEntity
  8
LC-002-100-D00-0
 62
     7
370
    50
100
AcDbLine
 10
123.204508
 20
308.280855
 30
0.0
 11
123.204508
 21
308.280855
 31
0.0
  0
LINE
  5
20F
330
20B
100
AcDbEntity
  8
LC-002-100-D00-0
 62
     7
370
    50
100
AcDbLine
 10
123.204508
 20
308.280855
 30
0.0
 11
123.130137
 21
308.280855
 31
0.0
  0
LINE
  5
210
330
20B
100
AcDbEntity
  8
LC-002-100-D00-0
 62
     7
370
    50
100
AcDbLine
 10
123.130137
 20
308.280855
 30
0.0
 11
123.130137
 21
308.280855
 31
0.0
  0
LINE
  5
211
330
20B
100
AcDbEntity
  8
LC-002-100-D00-0
 62
     7
370
    50
100
AcDbLine
 10
123.130137
 20
308.280855
 30
0.0
 11
122.98189
 21
308.280855
 31
0.0
  0
LINE
  5
212
330
20B
100
AcDbEntity
  8
LC-002-100-D00-0
 62
     7
370
    50
100
AcDbLine
 10
122.98189
 20
308.280855
 30
0.0
 11
122.98189
 21
308.280855
 31
0.0
  0
LINE
  5
213
330
20B
100
AcDbEntity
  8
LC-002-100-D00-0
 62
     7
370
    50
100
AcDbLine
 10
122.98189
 20
308.280855
 30
0.0
 11
122.787603
 21
308.280855
 31
0.0
  0
LINE
  5
214
330
20B
100
AcDbEntity
  8
LC-002-100-D00-0
 62
     7
370
    50
100
AcDbLine
 10
122.787603
 20
308.280855
 30
0.0
 11
122.787603
 21
308.280855
 31
0.0
  0
LINE
  5
215
330
20B
100
AcDbEntity
  8
LC-002-100-D00-0
 62
     7
370
    50
100
AcDbLine
 10
122.787603
 20
308.280855
 30
0.0
 11
122.709737
 21
308.280855
 31
0.0
  0
LINE
  5
216
330
20B
100
AcDbEntity
  8
LC-002-100-D00-0
 62
     7
370
    50
100
AcDbLine
 10
122.709737
 20
308.280855
 30
0.0
 11
122.709737
 21
308.280855
 31
0.0
  0
LINE
  5
217
330
20B
100
AcDbEntity
  8
LC-002-100-D00-0
 62
     7
370
    50
100
AcDbLine
 10
122.709737
 20
308.280855
 30
0.0
 11
122.70483
 21
308.280855
 31
0.0
  0
LINE
  5
218
330
20B
100
AcDbEntity
  8
LC-002-100-D00-0
 62
     7
370
    50
100
AcDbLine
 10
122.70483
 20
308.280855
 30
0.0
 11
122.70483
 21
308.280855
 31
0.0
  0
LINE
  5
219
330
20B
100
AcDbEntity
  8
LC-002-100-D00-0
 62
     7
370
    50
100
AcDbLine
 10
122.70483
 20
308.280855
 30
0.0
 11
122.702368
 21
308.280855
 31
0.0
  0
ENDBLK
  5
20D
330
20B
100
AcDbEntity
  8
0
100
AcDbBlockEnd
  0
BLOCK
  5
21D
330
21C
100
AcDbEntity
  8
0
100
AcDbBlockBegin
  2
POLY17
 70
     0
 71
     0
 10
0.0
 20
0.0
 30
0.0
  3
POLY17
  1

  4
POLY17
  0
LINE
  5
21F
330
21C
100
AcDbEntity
  8
LC-002-100-D00-0
 62
     7
370
    50
100
AcDbLine
 10
133.533758
 20
308.280855
 30
0.0
 11
133.533758
 21
308.280855
 31
0.0
  0
LINE
  5
220
330
21C
100
AcDbEntity
  8
LC-002-100-D00-0
 62
     7
370
    50
100
AcDbLine
 10
133.533758
 20
308.280855
 30
0.0
 11
133.465695
 21
308.280855
 31
0.0
  0
LINE
  5
221
330
21C
100
AcDbEntity
  8
LC-002-100-D00-0
 62
     7
370
    50
100
AcDbLine
 10
133.465695
 20
308.280855
 30
0.0
 11
133.465695
 21
308.280855
 31
0.0
  0
LINE
  5
222
330
21C
100
AcDbEntity
  8
LC-002-100-D00-0
 62
     7
370
    50
100
AcDbLine
 10
133.465695
 20
308.280855
 30
0.0
 11
133.329873
 21
308.280855
 31
0.0
  0
LINE
  5
223
330
21C
100
AcDbEntity
  8
LC-002-100-D00-0
 62
     7
370
    50
100
AcDbLine
 10
133.329873
 20
308.280855
 30
0.0
 11
133.329873
 21
308.280855
 31
0.0
  0
LINE
  5
224
330
21C
100
AcDbEntity
  8
LC-002-100-D00-0
 62
     7
370
    50
100
AcDbLine
 10
133.329873
 20
308.280855
 30
0.0
 11
133.156125
 21
308.280855
 31
0.0
  0
LINE
  5
225
330
21C
100
AcDbEntity
  8
LC-002-100-D00-0
 62
     7
370
    50
100
AcDbLine
 10
133.156125
 20
308.280855
 30
0.0
 11
133.156125
 21
308.280855
 31
0.0
  0
LINE
  5
226
330
21C
100
AcDbEntity
  8
LC-002-100-D00-0
 62
     7
370
    50
100
AcDbLine
 10
133.156125
 20
308.280855
 30
0.0
 11
133.069627
 21
308.280855
 31
0.0
  0
LINE
  5
227
330
21C
100
AcDbEntity
  8
LC-002-100-D00-0
 62
     7
370
    50
100
AcDbLine
 10
133.069627
 20
308.280855
 30
0.0
 11
133.069627
 21
308.280855
 31
0.0
  0
LINE
  5
228
330
21C
100
AcDbEntity
  8
LC-002-100-D00-0
 62
     7
370
    50
100
AcDbLine
 10
133.069627
 20
308.280855
 30
0.0
 11
133.063775
 21
308.280855
 31
0.0
  0
LINE
  5
229
330
21C
100
AcDbEntity
  8
LC-002-100-D00-0
 62
     7
370
    50
100
AcDbLine
 10
133.063775
 20
308.280855
 30
0.0
 11
133.063775
 21
308.280855
 31
0.0
  0
LINE
  5
22A
330
21C
100
AcDbEntity
  8
LC-002-100-D00-0
 62
     7
370
    50
100
AcDbLine
 10
133.063775
 20
308.280855
 30
0.0
 11
133.060842
 21
308.280855
 31
0.0
  0
ENDBLK
  5
21E
330
21C
100
AcDbEntity
  8
0
100
AcDbBlockEnd
  0
BLOCK
  5
22D
330
22C
100
AcDbEntity
  8
0
100
AcDbBlockBegin
  2
POLY18
 70
     0
 71
     0
 10
0.0
 20
0.0
 30
0.0
  3
POLY18
  1

  4
POLY18
  0
LINE
  5
22F
330
22C
100
AcDbEntity
  8
LC-002-100-D00-0
 62
     7
370
    50
100
AcDbLine
 10
123.597987
 20
308.280855
 30
0.0
 11
123.597987
 21
308.280855
 31
0.0
  0
LINE
  5
230
330
22C
100
AcDbEntity
  8
LC-002-100-D00-0
 62
     7
370
    50
100
AcDbLine
 10
123.597987
 20
308.280855
 30
0.0
 11
123.597919
 21
308.280855
 31
0.0
  0
LINE
  5
231
330
22C
100
AcDbEntity
  8
LC-002-100-D00-0
 62
     7
370
    50
100
AcDbLine
 10
123.597919
 20
308.280855
 30
0.0
 11
123.597919
 21
308.280855
 31
0.0
  0
LINE
  5
232
330
22C
100
AcDbEntity
  8
LC-002-100-D00-0
 62
     7
370
    50
100
AcDbLine
 10
123.597919
 20
308.280855
 30
0.0
 11
123.597786
 21
308.280855
 31
0.0
  0
LINE
  5
233
330
22C
100
AcDbEntity
  8
LC-002-100-D00-0
 62
     7
370
    50
100
AcDbLine
 10
123.597786
 20
308.280855
 30
0.0
 11
123.597786
 21
308.280855
 31
0.0
  0
LINE
  5
234
330
22C
100
AcDbEntity
  8
LC-002-100-D00-0
 62
     7
370
    50
100
AcDbLine
 10
123.597786
 20
308.280855
 30
0.0
 11
123.493601
 21
308.280855
 31
0.0
  0
LINE
  5
235
330
22C
100
AcDbEntity
  8
LC-002-100-D00-0
 62
     7
370
    50
100
AcDbLine
 10
123.493601
 20
308.280855
 30
0.0
 11
123.493601
 21
308.280855
 31
0.0
  0
LINE
  5
236
330
22C
100
AcDbEntity
  8
LC-002-100-D00-0
 62
     7
370
    50
100
AcDbLine
 10
123.493601
 20
308.280855
 30
0.0
 11
123.346169
 21
308.280855
 31
0.0
  0
LINE
  5
237
330
22C
100
AcDbEntity
  8
LC-002-100-D00-0
 62
     7
370
    50
100
AcDbLine
 10
123.346169
 20
308.280855
 30
0.0
 11
123.346169
 21
308.280855
 31
0.0
  0
LINE
  5
238
330
22C
100
AcDbEntity
  8
LC-002-100-D00-0
 62
     7
370
    50
100
AcDbLine
 10
123.346169
 20
308.280855
 30
0.0
 11
123.251769
 21
308.280855
 31
0.0
  0
LINE
  5
239
330
22C
100
AcDbEntity
  8
LC-002-100-D00-0
 62
     7
370
    50
100
AcDbLine
 10
123.251769
 20
308.280855
 30
0.0
 11
123.251769
 21
308.280855
 31
0.0
  0
LINE
  5
23A
330
22C
100
AcDbEntity
  8
LC-002-100-D00-0
 62
     7
370
    50
100
AcDbLine
 10
123.251769
 20
308.280855
 30
0.0
 11
123.204508
 21
308.280855
 31
0.0
  0
ENDBLK
  5
22E
330
22C
100
AcDbEntity
  8
0
100
AcDbBlockEnd
  0
BLOCK
  5
23D
330
23C
100
AcDbEntity
  8
0
100
AcDbBlockBegin
  2
POLY19
 70
     0
 71
     0
 10
0.0
 20
0.0
 30
0.0
  3
POLY19
  1

  4
POLY19
  0
LINE
  5
23F
330
23C
100
AcDbEntity
  8
LC-002-100-D00-0
 62
     7
370
    50
100
AcDbLine
 10
133.877436
 20
308.280855
 30
0.0
 11
133.877436
 21
308.280855
 31
0.0
  0
LINE
  5
240
330
23C
100
AcDbEntity
  8
LC-002-100-D00-0
 62
     7
370
    50
100
AcDbLine
 10
133.877436
 20
308.280855
 30
0.0
 11
133.878172
 21
308.280855
 31
0.0
  0
LINE
  5
241
330
23C
100
AcDbEntity
  8
LC-002-100-D00-0
 62
     7
370
    50
100
AcDbLine
 10
133.878172
 20
308.280855
 30
0.0
 11
133.878172
 21
308.280855
 31
0.0
  0
LINE
  5
242
330
23C
100
AcDbEntity
  8
LC-002-100-D00-0
 62
     7
370
    50
100
AcDbLine
 10
133.878172
 20
308.280855
 30
0.0
 11
133.879629
 21
308.280855
 31
0.0
  0
LINE
  5
243
330
23C
100
AcDbEntity
  8
LC-002-100-D00-0
 62
     7
370
    50
100
AcDbLine
 10
133.879629
 20
308.280855
 30
0.0
 11
133.879629
 21
308.280855
 31
0.0
  0
LINE
  5
244
330
23C
100
AcDbEntity
  8
LC-002-100-D00-0
 62
     7
370
    50
100
AcDbLine
 10
133.879629
 20
308.280855
 30
0.0
 11
133.794008
 21
308.280855
 31
0.0
  0
LINE
  5
245
330
23C
100
AcDbEntity
  8
LC-002-100-D00-0
 62
     7
370
    50
100
AcDbLine
 10
133.794008
 20
308.280855
 30
0.0
 11
133.794008
 21
308.280855
 31
0.0
  0
LINE
  5
246
330
23C
100
AcDbEntity
  8
LC-002-100-D00-0
 62
     7
370
    50
100
AcDbLine
 10
133.794008
 20
308.280855
 30
0.0
 11
133.661089
 21
308.280855
 31
0.0
  0
LINE
  5
247
330
23C
100
AcDbEntity
  8
LC-002-100-D00-0
 62
     7
370
    50
100
AcDbLine
 10
133.661089
 20
308.280855
 30
0.0
 11
133.661089
 21
308.280855
 31
0.0
  0
LINE
  5
248
330
23C
100
AcDbEntity
  8
LC-002-100-D00-0
 62
     7
370
    50
100
AcDbLine
 10
133.661089
 20
308.280855
 30
0.0
 11
133.576241
 21
308.280855
 31
0.0
  0
LINE
  5
249
330
23C
100
AcDbEntity
  8
LC-002-100-D00-0
 62
     7
370
    50
100
AcDbLine
 10
133.576241
 20
308.280855
 30
0.0
 11
133.576241
 21
308.280855
 31
0.0
  0
LINE
  5
24A
330
23C
100
AcDbEntity
  8
LC-002-100-D00-0
 62
     7
370
    50
100
AcDbLine
 10
133.576241
 20
308.280855
 30
0.0
 11
133.533758
 21
308.280855
 31
0.0
  0
ENDBLK
  5
23E
330
23C
100
AcDbEntity
  8
0
100
AcDbBlockEnd
  0
BLOCK
  5
24D
330
24C
100
AcDbEntity
  8
0
100
AcDbBlockBegin
  2
POLY20
 70
     0
 71
     0
 10
0.0
 20
0.0
 30
0.0
  3
POLY20
  1

  4
POLY20
  0
LINE
  5
24F
330
24C
100
AcDbEntity
  8
LC-002-100-D00-0
 62
     7
370
    50
100
AcDbLine
 10
132.744741
 20
308.280855
 30
0.0
 11
132.744741
 21
308.280855
 31
0.0
  0
LINE
  5
250
330
24C
100
AcDbEntity
  8
LC-002-100-D00-0
 62
     7
370
    50
100
AcDbLine
 10
132.744741
 20
308.280855
 30
0.0
 11
132.742196
 21
308.280855
 31
0.0
  0
LINE
  5
251
330
24C
100
AcDbEntity
  8
LC-002-100-D00-0
 62
     7
370
    50
100
AcDbLine
 10
132.742196
 20
308.280855
 30
0.0
 11
132.742196
 21
308.280855
 31
0.0
  0
LINE
  5
252
330
24C
100
AcDbEntity
  8
LC-002-100-D00-0
 62
     7
370
    50
100
AcDbLine
 10
132.742196
 20
308.280855
 30
0.0
 11
132.737134
 21
308.280855
 31
0.0
  0
LINE
  5
253
330
24C
100
AcDbEntity
  8
LC-002-100-D00-0
 62
     7
370
    50
100
AcDbLine
 10
132.737134
 20
308.280855
 30
0.0
 11
132.737134
 21
308.280855
 31
0.0
  0
LINE
  5
254
330
24C
100
AcDbEntity
  8
LC-002-100-D00-0
 62
     7
370
    50
100
AcDbLine
 10
132.737134
 20
308.280855
 30
0.0
 11
132.652336
 21
308.280855
 31
0.0
  0
LINE
  5
255
330
24C
100
AcDbEntity
  8
LC-002-100-D00-0
 62
     7
370
    50
100
AcDbLine
 10
132.652336
 20
308.280855
 30
0.0
 11
132.652336
 21
308.280855
 31
0.0
  0
LINE
  5
256
330
24C
100
AcDbEntity
  8
LC-002-100-D00-0
 62
     7
370
    50
100
AcDbLine
 10
132.652336
 20
308.280855
 30
0.0
 11
132.524924
 21
308.280855
 31
0.0
  0
LINE
  5
257
330
24C
100
AcDbEntity
  8
LC-002-100-D00-0
 62
     7
370
    50
100
AcDbLine
 10
132.524924
 20
308.280855
 30
0.0
 11
132.524924
 21
308.280855
 31
0.0
  0
LINE
  5
258
330
24C
100
AcDbEntity
  8
LC-002-100-D00-0
 62
     7
370
    50
100
AcDbLine
 10
132.524924
 20
308.280855
 30
0.0
 11
132.444608
 21
308.280855
 31
0.0
  0
LINE
  5
259
330
24C
100
AcDbEntity
  8
LC-002-100-D00-0
 62
     7
370
    50
100
AcDbLine
 10
132.444608
 20
308.280855
 30
0.0
 11
132.444608
 21
308.280855
 31
0.0
  0
LINE
  5
25A
330
24C
100
AcDbEntity
  8
LC-002-100-D00-0
 62
     7
370
    50
100
AcDbLine
 10
132.444608
 20
308.280855
 30
0.0
 11
132.404357
 21
308.280855
 31
0.0
  0
ENDBLK
  5
24E
330
24C
100
AcDbEntity
  8
0
100
AcDbBlockEnd
  0
BLOCK
  5
25E
330
25D
100
AcDbEntity
  8
0
100
AcDbBlockBegin
  2
POLY21
 70
     0
 71
     0
 10
0.0
 20
0.0
 30
0.0
  3
POLY21
  1

  4
POLY21
  0
LINE
  5
260
330
25D
100
AcDbEntity
  8
LC-002-100-D00-0
 62
     7
370
    50
100
AcDbLine
 10
131.072864
 20
308.280855
 30
0.0
 11
131.072864
 21
308.280855
 31
0.0
  0
LINE
  5
261
330
25D
100
AcDbEntity
  8
LC-002-100-D00-0
 62
     7
370
    50
100
AcDbLine
 10
131.072864
 20
308.280855
 30
0.0
 11
131.036662
 21
308.280855
 31
0.0
  0
LINE
  5
262
330
25D
100
AcDbEntity
  8
LC-002-100-D00-0
 62
     7
370
    50
100
AcDbLine
 10
131.036662
 20
308.280855
 30
0.0
 11
131.036662
 21
308.280855
 31
0.0
  0
LINE
  5
263
330
25D
100
AcDbEntity
  8
LC-002-100-D00-0
 62
     7
370
    50
100
AcDbLine
 10
131.036662
 20
308.280855
 30
0.0
 11
130.964296
 21
308.280855
 31
0.0
  0
LINE
  5
264
330
25D
100
AcDbEntity
  8
LC-002-100-D00-0
 62
     7
370
    50
100
AcDbLine
 10
130.964296
 20
308.280855
 30
0.0
 11
130.964296
 21
308.280855
 31
0.0
  0
LINE
  5
265
330
25D
100
AcDbEntity
  8
LC-002-100-D00-0
 62
     7
370
    50
100
AcDbLine
 10
130.964296
 20
308.280855
 30
0.0
 11
130.871955
 21
308.280855
 31
0.0
  0
LINE
  5
266
330
25D
100
AcDbEntity
  8
LC-002-100-D00-0
 62
     7
370
    50
100
AcDbLine
 10
130.871955
 20
308.280855
 30
0.0
 11
130.871955
 21
308.280855
 31
0.0
  0
LINE
  5
267
330
25D
100
AcDbEntity
  8
LC-002-100-D00-0
 62
     7
370
    50
100
AcDbLine
 10
130.871955
 20
308.280855
 30
0.0
 11
130.801311
 21
308.280855
 31
0.0
  0
LINE
  5
268
330
25D
100
AcDbEntity
  8
LC-002-100-D00-0
 62
     7
370
    50
100
AcDbLine
 10
130.801311
 20
308.280855
 30
0.0
 11
130.801311
 21
308.280855
 31
0.0
  0
LINE
  5
269
330
25D
100
AcDbEntity
  8
LC-002-100-D00-0
 62
     7
370
    50
100
AcDbLine
 10
130.801311
 20
308.280855
 30
0.0
 11
130.776279
 21
308.280855
 31
0.0
  0
LINE
  5
26A
330
25D
100
AcDbEntity
  8
LC-002-100-D00-0
 62
     7
370
    50
100
AcDbLine
 10
130.776279
 20
308.280855
 30
0.0
 11
130.776279
 21
308.280855
 31
0.0
  0
LINE
  5
26B
330
25D
100
AcDbEntity
  8
LC-002-100-D00-0
 62
     7
370
    50
100
AcDbLine
 10
130.776279
 20
308.280855
 30
0.0
 11
130.763761
 21
308.280855
 31
0.0
  0
ENDBLK
  5
25F
330
25D
100
AcDbEntity
  8
0
100
AcDbBlockEnd
  0
BLOCK
  5
271
330
270
100
AcDbEntity
  8
0
100
AcDbBlockBegin
  2
POLY22
 70
     0
 71
     0
 10
0.0
 20
0.0
 30
0.0
  3
POLY22
  1

  4
POLY22
  0
LINE
  5
273
330
270
100
AcDbEntity
  8
LC-002-100-D00-0
 62
     7
370
    50
100
AcDbLine
 10
131.308294
 20
308.280855
 30
0.0
 11
131.308294
 21
308.280855
 31
0.0
  0
LINE
  5
274
330
270
100
AcDbEntity
  8
LC-002-100-D00-0
 62
     7
370
    50
100
AcDbLine
 10
131.308294
 20
308.280855
 30
0.0
 11
131.266498
 21
308.280855
 31
0.0
  0
LINE
  5
275
330
270
100
AcDbEntity
  8
LC-002-100-D00-0
 62
     7
370
    50
100
AcDbLine
 10
131.266498
 20
308.280855
 30
0.0
 11
131.266498
 21
308.280855
 31
0.0
  0
LINE
  5
276
330
270
100
AcDbEntity
  8
LC-002-100-D00-0
 62
     7
370
    50
100
AcDbLine
 10
131.266498
 20
308.280855
 30
0.0
 11
131.191853
 21
308.280855
 31
0.0
  0
LINE
  5
277
330
270
100
AcDbEntity
  8
LC-002-100-D00-0
 62
     7
370
    50
100
AcDbLine
 10
131.191853
 20
308.280855
 30
0.0
 11
131.191853
 21
308.280855
 31
0.0
  0
LINE
  5
278
330
270
100
AcDbEntity
  8
LC-002-100-D00-0
 62
     7
370
    50
100
AcDbLine
 10
131.191853
 20
308.280855
 30
0.0
 11
131.109226
 21
308.280855
 31
0.0
  0
LINE
  5
279
330
270
100
AcDbEntity
  8
LC-002-100-D00-0
 62
     7
370
    50
100
AcDbLine
 10
131.109226
 20
308.280855
 30
0.0
 11
131.109226
 21
308.280855
 31
0.0
  0
LINE
  5
27A
330
270
100
AcDbEntity
  8
LC-002-100-D00-0
 62
     7
370
    50
100
AcDbLine
 10
131.109226
 20
308.280855
 30
0.0
 11
131.072864
 21
308.280855
 31
0.0
  0
ENDBLK
  5
272
330
270
100
AcDbEntity
  8
0
100
AcDbBlockEnd
  0
BLOCK
  5
308
330
307
100
AcDbEntity
  8
0
100
AcDbBlockBegin
  2
KLON1
 70
     0
 71
     0
 10
0.0
 20
0.0
 30
0.0
  3
KLON1
  1

  4
KLON1
  0
LINE
  5
30A
330
307
100
AcDbEntity
  8
LC-002-100-D00-0
 62
     7
370
    25
100
AcDbLine
 10
100.718496
 20
174.487591
 30
0.0
 11
103.718496
 21
177.487591
 31
0.0
  0
LINE
  5
30B
330
307
100
AcDbEntity
  8
LC-002-100-D00-0
 62
     7
370
    25
100
AcDbLine
 10
100.718496
 20
196.938232
 30
0.0
 11
103.718496
 21
199.938232
 31
0.0
  0
LINE
  5
30C
330
307
100
AcDbEntity
  8
LC-002-100-D00-0
 62
     7
370
    25
100
AcDbLine
 10
100.718496
 20
219.388872
 30
0.0
 11
103.718496
 21
222.388872
 31
0.0
  0
LINE
  5
30D
330
307
100
AcDbEntity
  8
LC-002-100-D00-0
 62
     7
370
    25
100
AcDbLine
 10
87.559841
 20
228.680857
 30
0.0
 11
90.559841
 21
231.680857
 31
0.0
  0
LINE
  5
30E
330
307
100
AcDbEntity
  8
LC-002-100-D00-0
 62
     7
370
    25
100
AcDbLine
 10
101.218496
 20
242.339512
 30
0.0
 11
103.718496
 21
244.839512
 31
0.0
  0
LINE
  5
30F
330
307
100
AcDbEntity
  8
LC-002-100-D00-0
 62
     7
370
    25
100
AcDbLine
 10
72.638799
 20
236.210456
 30
0.0
 11
75.004825
 21
238.576481
 31
0.0
  0
LINE
  5
310
330
307
100
AcDbEntity
  8
LC-002-100-D00-0
 62
     7
370
    25
100
AcDbLine
 10
101.218496
 20
264.790153
 30
0.0
 11
103.718496
 21
267.290153
 31
0.0
  0
LINE
  5
311
330
307
100
AcDbEntity
  8
LC-002-100-D00-0
 62
     7
370
    25
100
AcDbLine
 10
70.718496
 20
256.740793
 30
0.0
 11
73.718496
 21
259.740793
 31
0.0
  0
LINE
  5
312
330
307
100
AcDbEntity
  8
LC-002-100-D00-0
 62
     7
370
    25
100
AcDbLine
 10
101.218496
 20
287.240793
 30
0.0
 11
103.718496
 21
289.740793
 31
0.0
  0
LINE
  5
313
330
307
100
AcDbEntity
  8
LC-002-100-D00-0
 62
     7
370
    25
100
AcDbLine
 10
70.718496
 20
279.191433
 30
0.0
 11
73.718496
 21
282.191433
 31
0.0
  0
LINE
  5
314
330
307
100
AcDbEntity
  8
LC-002-100-D00-0
 62
     7
370
    25
100
AcDbLine
 10
62.718496
 20
293.642074
 30
0.0
 11
65.718496
 21
296.642074
 31
0.0
  0
LINE
  5
315
330
307
100
AcDbEntity
  8
LC-002-100-D00-0
 62
     7
370
    25
100
AcDbLine
 10
60.741248
 20
314.115465
 30
0.0
 11
62.862568
 21
316.236786
 31
0.0
  0
LINE
  5
316
330
307
100
AcDbEntity
  8
LC-002-100-D00-0
 62
     7
370
    25
100
AcDbLine
 10
38.555999
 20
314.380857
 30
0.0
 11
41.555999
 21
317.380857
 31
0.0
  0
LINE
  5
317
330
307
100
AcDbEntity
  8
LC-002-100-D00-0
 62
     7
370
    25
100
AcDbLine
 10
20.105359
 20
318.380857
 30
0.0
 11
23.105359
 21
321.380857
 31
0.0
  0
LINE
  5
318
330
307
100
AcDbEntity
  8
LC-002-100-D00-0
 62
     7
370
    25
100
AcDbLine
 10
-2.345281
 20
318.380857
 30
0.0
 11
0.654719
 21
321.380857
 31
0.0
  0
ENDBLK
  5
309
330
307
100
AcDbEntity
  8
0
100
AcDbBlockEnd
  0
BLOCK
  5
31B
330
31A
100
AcDbEntity
  8
0
100
AcDbBlockBegin
  2
KLON2
 70
     0
 71
     0
 10
0.0
 20
0.0
 30
0.0
  3
KLON2
  1

  4
KLON2
  0
LINE
  5
31D
330
31A
100
AcDbEntity
  8
LC-002-100-D00-0
 62
     7
370
    25
100
AcDbLine
 10
147.718496
 20
176.586311
 30
0.0
 11
150.718496
 21
179.586311
 31
0.0
  0
LINE
  5
31E
330
31A
100
AcDbEntity
  8
LC-002-100-D00-0
 62
     7
370
    25
100
AcDbLine
 10
147.718496
 20
199.036951
 30
0.0
 11
150.718496
 21
202.036951
 31
0.0
  0
LINE
  5
31F
330
31A
100
AcDbEntity
  8
LC-002-100-D00-0
 62
     7
370
    25
100
AcDbLine
 10
267.062402
 20
318.380857
 30
0.0
 11
268.112324
 21
319.430779
 31
0.0
  0
LINE
  5
320
330
31A
100
AcDbEntity
  8
LC-002-100-D00-0
 62
     7
370
    25
100
AcDbLine
 10
147.718496
 20
221.487591
 30
0.0
 11
150.718496
 21
224.487591
 31
0.0
  0
LINE
  5
321
330
31A
100
AcDbEntity
  8
LC-002-100-D00-0
 62
     7
370
    25
100
AcDbLine
 10
154.911762
 20
228.680857
 30
0.0
 11
157.911762
 21
231.680857
 31
0.0
  0
LINE
  5
322
330
31A
100
AcDbEntity
  8
LC-002-100-D00-0
 62
     7
370
    25
100
AcDbLine
 10
177.718496
 20
251.487591
 30
0.0
 11
180.718496
 21
254.487591
 31
0.0
  0
LINE
  5
323
330
31A
100
AcDbEntity
  8
LC-002-100-D00-0
 62
     7
370
    25
100
AcDbLine
 10
244.611762
 20
318.380857
 30
0.0
 11
247.611762
 21
321.380857
 31
0.0
  0
LINE
  5
324
330
31A
100
AcDbEntity
  8
LC-002-100-D00-0
 62
     7
370
    25
100
AcDbLine
 10
147.718496
 20
243.938232
 30
0.0
 11
150.218496
 21
246.438232
 31
0.0
  0
LINE
  5
325
330
31A
100
AcDbEntity
  8
LC-002-100-D00-0
 62
     7
370
    25
100
AcDbLine
 10
177.718496
 20
273.938232
 30
0.0
 11
180.718496
 21
276.938232
 31
0.0
  0
LINE
  5
326
330
31A
100
AcDbEntity
  8
LC-002-100-D00-0
 62
     7
370
    25
100
AcDbLine
 10
222.161122
 20
318.380857
 30
0.0
 11
225.161122
 21
321.380857
 31
0.0
  0
LINE
  5
327
330
31A
100
AcDbEntity
  8
LC-002-100-D00-0
 62
     7
370
    25
100
AcDbLine
 10
147.718496
 20
266.388872
 30
0.0
 11
150.218496
 21
268.888872
 31
0.0
  0
LINE
  5
328
330
31A
100
AcDbEntity
  8
LC-002-100-D00-0
 62
     7
370
    25
100
AcDbLine
 10
185.718496
 20
304.388872
 30
0.0
 11
188.718496
 21
307.388872
 31
0.0
  0
LINE
  5
329
330
31A
100
AcDbEntity
  8
LC-002-100-D00-0
 62
     7
370
    25
100
AcDbLine
 10
195.710481
 20
314.380857
 30
0.0
 11
198.710481
 21
317.380857
 31
0.0
  0
LINE
  5
32A
330
31A
100
AcDbEntity
  8
LC-002-100-D00-0
 62
     7
370
    25
100
AcDbLine
 10
147.718496
 20
288.839512
 30
0.0
 11
150.218496
 21
291.339512
 31
0.0
  0
ENDBLK
  5
31C
330
31A
100
AcDbEntity
  8
0
100
AcDbBlockEnd
  0
BLOCK
  5
32D
330
32C
100
AcDbEntity
  8
0
100
AcDbBlockBegin
  2
KLON3
 70
     0
 71
     0
 10
0.0
 20
0.0
 30
0.0
  3
KLON3
  1

  4
KLON3
  0
LINE
  5
32F
330
32C
100
AcDbEntity
  8
LC-002-100-D00-0
 62
     7
370
    50
100
AcDbLine
 10
62.862568
 20
316.236786
 30
0.0
 11
63.003989
 21
316.378207
 31
0.0
  0
LINE
  5
330
330
32C
100
AcDbEntity
  8
LC-002-100-D00-0
 62
     7
370
    50
100
AcDbLine
 10
41.555999
 20
317.380857
 30
0.0
 11
41.755999
 21
317.580857
 31
0.0
  0
LINE
  5
331
330
32C
100
AcDbEntity
  8
LC-002-100-D00-0
 62
     7
370
    50
100
AcDbLine
 10
23.105359
 20
321.380857
 30
0.0
 11
23.305359
 21
321.580857
 31
0.0
  0
LINE
  5
332
330
32C
100
AcDbEntity
  8
LC-002-100-D00-0
 62
     7
370
    50
100
AcDbLine
 10
0.654719
 20
321.380857
 30
0.0
 11
0.854719
 21
321.580857
 31
0.0
  0
ENDBLK
  5
32E
330
32C
100
AcDbEntity
  8
0
100
AcDbBlockEnd
  0
BLOCK
  5
335
330
334
100
AcDbEntity
  8
0
100
AcDbBlockBegin
  2
KLON4
 70
     0
 71
     0
 10
0.0
 20
0.0
 30
0.0
  3
KLON4
  1

  4
KLON4
  0
LINE
  5
337
330
334
100
AcDbEntity
  8
LC-002-100-D00-0
 62
     7
370
    50
100
AcDbLine
 10
247.611762
 20
321.380857
 30
0.0
 11
247.811762
 21
321.580857
 31
0.0
  0
LINE
  5
338
330
334
100
AcDbEntity
  8
LC-002-100-D00-0
 62
     7
370
    50
100
AcDbLine
 10
225.161122
 20
321.380857
 30
0.0
 11
225.361122
 21
321.580857
 31
0.0
  0
LINE
  5
339
330
334
100
AcDbEntity
  8
LC-002-100-D00-0
 62
     7
370
    50
100
AcDbLine
 10
198.710481
 20
317.380857
 30
0.0
 11
198.910481
 21
317.580857
 31
0.0
  0
ENDBLK
  5
336
330
334
100
AcDbEntity
  8
0
100
AcDbBlockEnd
  0
BLOCK
  5
33C
330
33B
100
AcDbEntity
  8
0
100
AcDbBlockBegin
  2
KLON5
 70
     0
 71
     0
 10
0.0
 20
0.0
 30
0.0
  3
KLON5
  1

  4
KLON5
  0
LINE
  5
33E
330
33B
100
AcDbEntity
  8
LC-002-100-D00-0
 62
     7
370
    25
100
AcDbLine
 10
163.718496
 20
259.938232
 30
0.0
 11
165.218496
 21
261.438232
 31
0.0
  0
LINE
  5
33F
330
33B
100
AcDbEntity
  8
LC-002-100-D00-0
 62
     7
370
    25
100
AcDbLine
 10
163.718496
 20
282.388872
 30
0.0
 11
165.218496
 21
283.888872
 31
0.0
  0
LINE
  5
340
330
33B
100
AcDbEntity
  8
LC-002-100-D00-0
 62
     7
370
    25
100
AcDbLine
 10
161.428359
 20
302.549375
 30
0.0
 11
162.574355
 21
303.695371
 31
0.0
  0
LINE
  5
341
330
33B
100
AcDbEntity
  8
LC-002-100-D00-0
 62
     7
370
    25
100
AcDbLine
 10
86.218496
 20
249.790153
 30
0.0
 11
87.718496
 21
251.290153
 31
0.0
  0
LINE
  5
342
330
33B
100
AcDbEntity
  8
LC-002-100-D00-0
 62
     7
370
    25
100
AcDbLine
 10
142.609201
 20
306.180857
 30
0.0
 11
144.609201
 21
308.180857
 31
0.0
  0
LINE
  5
343
330
33B
100
AcDbEntity
  8
LC-002-100-D00-0
 62
     7
370
    25
100
AcDbLine
 10
86.218496
 20
272.240793
 30
0.0
 11
87.718496
 21
273.740793
 31
0.0
  0
LINE
  5
344
330
33B
100
AcDbEntity
  8
LC-002-100-D00-0
 62
     7
370
    25
100
AcDbLine
 10
92.15856
 20
278.180857
 30
0.0
 11
101.218496
 21
287.240793
 31
0.0
  0
LINE
  5
345
330
33B
100
AcDbEntity
  8
LC-002-100-D00-0
 62
     7
370
    25
100
AcDbLine
 10
103.917155
 20
289.939452
 30
0.0
 11
107.718496
 21
293.740793
 31
0.0
  0
LINE
  5
346
330
33B
100
AcDbEntity
  8
LC-002-100-D00-0
 62
     7
370
    25
100
AcDbLine
 10
120.15856
 20
306.180857
 30
0.0
 11
132.023251
 21
318.045548
 31
0.0
  0
LINE
  5
347
330
33B
100
AcDbEntity
  8
LC-002-100-D00-0
 62
     7
370
    25
100
AcDbLine
 10
86.218496
 20
294.691433
 30
0.0
 11
99.70792
 21
308.180857
 31
0.0
  0
LINE
  5
348
330
33B
100
AcDbEntity
  8
LC-002-100-D00-0
 62
     7
370
    25
100
AcDbLine
 10
122.15856
 20
308.180857
 30
0.0
 11
128.15856
 21
314.180857
 31
0.0
  0
ENDBLK
  5
33D
330
33B
100
AcDbEntity
  8
0
100
AcDbBlockEnd
  0
BLOCK
  5
35C
330
352
100
AcDbEntity
  8
0
100
AcDbBlockBegin
  2
*D28
 70
     1
 71
     0
 10
0.0
 20
0.0
 30
0.0
  3
*D28
  1

  0
LINE
  5
353
330
352
100
AcDbEntity
  8
LC-002-100-D00-0
 62
     2
370
    -2
100
AcDbLine
 10
-31.781504
 20
318.380857
 30
0.0
 11
-31.781504
 21
348.023855
 31
0.0
  0
LINE
  5
354
330
352
100
AcDbEntity
  8
LC-002-100-D00-0
 62
     2
370
    -2
100
AcDbLine
 10
283.218496
 20
318.380857
 30
0.0
 11
283.218496
 21
348.023855
 31
0.0
  0
LINE
  5
355
330
352
100
AcDbEntity
  8
LC-002-100-D00-0
 62
     2
370
    -2
100
AcDbLine
 10
-3.781504
 20
344.423855
 30
0.0
 11
255.218496
 21
344.423855
 31
0.0
  0
SOLID
  5
356
330
352
100
AcDbEntity
  8
LC-002-100-D00-0
 62
     2
100
AcDbTrace
 10
-3.781504
 20
349.090521
 30
0.0
 11
-3.781504
 21
339.757188
 31
0.0
 12
-31.781504
 22
344.423855
 32
0.0
 13
-31.781504
 23
344.423855
 33
0.0
  0
SOLID
  5
357
330
352
100
AcDbEntity
  8
LC-002-100-D00-0
 62
     2
100
AcDbTrace
 10
255.218496
 20
339.757188
 30
0.0
 11
255.218496
 21
349.090521
 31
0.0
 12
283.218496
 22
344.423855
 32
0.0
 13
283.218496
 23
344.423855
 33
0.0
  0
MTEXT
  5
358
330
352
100
AcDbEntity
  8
LC-002-100-D00-0
 62
     2
100
AcDbMText
 10
123.852378
 20
375.223855
 30
0.0
 40
28.0
 41
0.0
 71
     5
 72
     1
  1
\A1;%%c315
  7
LCTX15-400-0-0pDIN-Schrift
 73
     1
 44
1.0
  0
POINT
  5
359
330
352
100
AcDbEntity
  8
Defpoints
 62
     0
100
AcDbPoint
 10
-31.781504
 20
318.380857
 30
0.0
  0
POINT
  5
35A
330
352
100
AcDbEntity
  8
Defpoints
 62
     0
100
AcDbPoint
 10
283.218496
 20
318.380857
 30
0.0
  0
POINT
  5
35B
330
352
100
AcDbEntity
  8
Defpoints
 62
     0
100
AcDbPoint
 10
283.218496
 20
344.423855
 30
0.0
  0
ENDBLK
  5
35D
330
352
100
AcDbEntity
  8
0
100
AcDbBlockEnd
  0
BLOCK
  5
36B
330
35F
100
AcDbEntity
  8
0
100
AcDbBlockBegin
  2
*D29
 70
     1
 71
     0
 10
0.0
 20
0.0
 30
0.0
  3
*D29
  1

  0
LINE
  5
360
330
35F
100
AcDbEntity
  8
LC-002-100-D00-0
 62
     2
370
    -2
100
AcDbLine
 10
86.218496
 20
243.180857
 30
0.0
 11
30.217596
 21
243.180857
 31
0.0
  0
LINE
  5
361
330
35F
100
AcDbEntity
  8
LC-002-100-D00-0
 62
     2
370
    -2
100
AcDbLine
 10
101.218496
 20
293.180857
 30
0.0
 11
30.217596
 21
293.180857
 31
0.0
  0
LINE
  5
362
330
35F
100
AcDbEntity
  8
LC-002-100-D00-0
 62
     2
370
    -2
100
AcDbLine
 10
33.817596
 20
215.180857
 30
0.0
 11
33.817596
 21
187.180857
 31
0.0
  0
LINE
  5
363
330
35F
100
AcDbEntity
  8
LC-002-100-D00-0
 62
     2
370
    -2
100
AcDbLine
 10
33.817596
 20
321.180857
 30
0.0
 11
33.817596
 21
349.180857
 31
0.0
  0
LINE
  5
364
330
35F
100
AcDbEntity
  8
LC-002-100-D00-0
 62
     2
370
    -2
100
AcDbLine
 10
33.817596
 20
243.180857
 30
0.0
 11
33.817596
 21
293.180857
 31
0.0
  0
SOLID
  5
365
330
35F
100
AcDbEntity
  8
LC-002-100-D00-0
 62
     2
100
AcDbTrace
 10
38.484263
 20
215.180857
 30
0.0
 11
29.150929
 21
215.180857
 31
0.0
 12
33.817596
 22
243.180857
 32
0.0
 13
33.817596
 23
243.180857
 33
0.0
  0
SOLID
  5
366
330
35F
100
AcDbEntity
  8
LC-002-100-D00-0
 62
     2
100
AcDbTrace
 10
29.150929
 20
321.180857
 30
0.0
 11
38.484263
 21
321.180857
 31
0.0
 12
33.817596
 22
293.180857
 32
0.0
 13
33.817596
 23
293.180857
 33
0.0
  0
MTEXT
  5
367
330
35F
100
AcDbEntity
  8
LC-002-100-D00-0
 62
     2
100
AcDbMText
 10
3.017596
 20
256.655255
 30
0.0
 40
28.0
 41
0.0
 71
     5
 72
     1
  1
\A1;50
  7
LCTX15-400-0-0pDIN-Schrift
 11
6.123031769111886E-17
 21
1.0
 31
0.0
 73
     1
 44
1.0
  0
POINT
  5
368
330
35F
100
AcDbEntity
  8
Defpoints
 62
     0
100
AcDbPoint
 10
86.218496
 20
243.180857
 30
0.0
  0
POINT
  5
369
330
35F
100
AcDbEntity
  8
Defpoints
 62
     0
100
AcDbPoint
 10
101.218496
 20
293.180857
 30
0.0
  0
POINT
  5
36A
330
35F
100
AcDbEntity
  8
Defpoints
 62
     0
100
AcDbPoint
 10
33.817596
 20
293.180857
 30
0.0
  0
ENDBLK
  5
36C
330
35F
100
AcDbEntity
  8
0
100
AcDbBlockEnd
  0
BLOCK
  5
378
330
36E
100
AcDbEntity
  8
0
100
AcDbBlockBegin
  2
*D30
 70
     1
 71
     0
 10
0.0
 20
0.0
 30
0.0
  3
*D30
  1

  0
LINE
  5
36F
330
36E
100
AcDbEntity
  8
LC-002-100-D00-0
 62
     2
370
    -2
100
AcDbLine
 10
-21.043946
 20
321.380857
 30
0.0
 11
-87.252887
 21
321.380857
 31
0.0
  0
LINE
  5
370
330
36E
100
AcDbEntity
  8
LC-002-100-D00-0
 62
     2
370
    -2
100
AcDbLine
 10
76.95833
 20
228.680857
 30
0.0
 11
-87.252887
 21
228.680857
 31
0.0
  0
LINE
  5
371
330
36E
100
AcDbEntity
  8
LC-002-100-D00-0
 62
     2
370
    -2
100
AcDbLine
 10
-83.652887
 20
293.380857
 30
0.0
 11
-83.652887
 21
256.680857
 31
0.0
  0
SOLID
  5
372
330
36E
100
AcDbEntity
  8
LC-002-100-D00-0
 62
     2
100
AcDbTrace
 10
-78.98622
 20
293.380857
 30
0.0
 11
-88.319554
 21
293.380857
 31
0.0
 12
-83.652887
 22
321.380857
 32
0.0
 13
-83.652887
 23
321.380857
 33
0.0
  0
SOLID
  5
373
330
36E
100
AcDbEntity
  8
LC-002-100-D00-0
 62
     2
100
AcDbTrace
 10
-88.319554
 20
256.680857
 30
0.0
 11
-78.98622
 21
256.680857
 31
0.0
 12
-83.652887
 22
228.680857
 32
0.0
 13
-83.652887
 23
228.680857
 33
0.0
  0
MTEXT
  5
374
330
36E
100
AcDbEntity
  8
LC-002-100-D00-0
 62
     2
100
AcDbMText
 10
-114.452887
 20
275.069255
 30
0.0
 40
28.0
 41
0.0
 71
     5
 72
     1
  1
\A1;93
  7
LCTX15-400-0-0pDIN-Schrift
 11
6.123031769111886E-17
 21
1.0
 31
0.0
 73
     1
 44
1.0
  0
POINT
  5
375
330
36E
100
AcDbEntity
  8
Defpoints
 62
     0
100
AcDbPoint
 10
-21.043946
 20
321.380857
 30
0.0
  0
POINT
  5
376
330
36E
100
AcDbEntity
  8
Defpoints
 62
     0
100
AcDbPoint
 10
76.95833
 20
228.680857
 30
0.0
  0
POINT
  5
377
330
36E
100
AcDbEntity
  8
Defpoints
 62
     0
100
AcDbPoint
 10
-83.652887
 20
228.680857
 30
0.0
  0
ENDBLK
  5
379
330
36E
100
AcDbEntity
  8
0
100
AcDbBlockEnd
  0
BLOCK
  5
387
330
37B
100
AcDbEntity
  8
0
100
AcDbBlockBegin
  2
*D31
 70
     1
 71
     0
 10
0.0
 20
0.0
 30
0.0
  3
*D31
  1

  0
LINE
  5
37C
330
37B
100
AcDbEntity
  8
LC-002-100-D00-0
 62
     2
370
    -2
100
AcDbLine
 10
76.95833
 20
228.680857
 30
0.0
 11
-34.495029
 21
228.680857
 31
0.0
  0
LINE
  5
37D
330
37B
100
AcDbEntity
  8
LC-002-100-D00-0
 62
     2
370
    -2
100
AcDbLine
 10
101.522344
 20
170.680857
 30
0.0
 11
-34.495029
 21
170.680857
 31
0.0
  0
LINE
  5
37E
330
37B
100
AcDbEntity
  8
LC-002-100-D00-0
 62
     2
370
    -2
100
AcDbLine
 10
-30.895029
 20
256.680857
 30
0.0
 11
-30.895029
 21
284.680857
 31
0.0
  0
LINE
  5
37F
330
37B
100
AcDbEntity
  8
LC-002-100-D00-0
 62
     2
370
    -2
100
AcDbLine
 10
-30.895029
 20
142.680857
 30
0.0
 11
-30.895029
 21
114.680857
 31
0.0
  0
LINE
  5
380
330
37B
100
AcDbEntity
  8
LC-002-100-D00-0
 62
     2
370
    -2
100
AcDbLine
 10
-30.895029
 20
228.680857
 30
0.0
 11
-30.895029
 21
170.680857
 31
0.0
  0
SOLID
  5
381
330
37B
100
AcDbEntity
  8
LC-002-100-D00-0
 62
     2
100
AcDbTrace
 10
-35.561696
 20
256.680857
 30
0.0
 11
-26.228362
 21
256.680857
 31
0.0
 12
-30.895029
 22
228.680857
 32
0.0
 13
-30.895029
 23
228.680857
 33
0.0
  0
SOLID
  5
382
330
37B
100
AcDbEntity
  8
LC-002-100-D00-0
 62
     2
100
AcDbTrace
 10
-26.228362
 20
142.680857
 30
0.0
 11
-35.561696
 21
142.680857
 31
0.0
 12
-30.895029
 22
170.680857
 32
0.0
 13
-30.895029
 23
170.680857
 33
0.0
  0
MTEXT
  5
383
330
37B
100
AcDbEntity
  8
LC-002-100-D00-0
 62
     2
100
AcDbMText
 10
-61.695029
 20
172.901255
 30
0.0
 40
28.0
 41
0.0
 71
     5
 72
     1
  1
\A1;58
  7
LCTX15-400-0-0pDIN-Schrift
 11
6.123031769111886E-17
 21
1.0
 31
0.0
 73
     1
 44
1.0
  0
POINT
  5
384
330
37B
100
AcDbEntity
  8
Defpoints
 62
     0
100
AcDbPoint
 10
76.95833
 20
228.680857
 30
0.0
  0
POINT
  5
385
330
37B
100
AcDbEntity
  8
Defpoints
 62
     0
100
AcDbPoint
 10
101.522344
 20
170.680857
 30
0.0
  0
POINT
  5
386
330
37B
100
AcDbEntity
  8
Defpoints
 62
     0
100
AcDbPoint
 10
-30.895029
 20
170.680857
 30
0.0
  0
ENDBLK
  5
388
330
37B
100
AcDbEntity
  8
0
100
AcDbBlockEnd
  0
BLOCK
  5
395
330
38A
100
AcDbEntity
  8
0
100
AcDbBlockBegin
  2
*D32
 70
     1
 71
     0
 10
0.0
 20
0.0
 30
0.0
  3
*D32
  1

  0
LINE
  5
38B
330
38A
100
AcDbEntity
  8
LC-002-100-D00-0
 62
     2
370
    -2
100
AcDbLine
 10
100.718496
 20
173.680857
 30
0.0
 11
100.718496
 21
198.479255
 31
0.0
  0
LINE
  5
38C
330
38A
100
AcDbEntity
  8
LC-002-100-D00-0
 62
     2
370
    -2
100
AcDbLine
 10
150.718496
 20
173.680857
 30
0.0
 11
150.718496
 21
198.479255
 31
0.0
  0
LINE
  5
38D
330
38A
100
AcDbEntity
  8
LC-002-100-D00-0
 62
     2
370
    -2
100
AcDbLine
 10
72.718496
 20
194.879255
 30
0.0
 11
44.718496
 21
194.879255
 31
0.0
  0
LINE
  5
38E
330
38A
100
AcDbEntity
  8
LC-002-100-D00-0
 62
     2
370
    -2
100
AcDbLine
 10
178.718496
 20
194.879255
 30
0.0
 11
284.62992
 21
194.879255
 31
0.0
  0
SOLID
  5
38F
330
38A
100
AcDbEntity
  8
LC-002-100-D00-0
 62
     2
100
AcDbTrace
 10
72.718496
 20
190.212589
 30
0.0
 11
72.718496
 21
199.545922
 31
0.0
 12
100.718496
 22
194.879255
 32
0.0
 13
100.718496
 23
194.879255
 33
0.0
  0
SOLID
  5
390
330
38A
100
AcDbEntity
  8
LC-002-100-D00-0
 62
     2
100
AcDbTrace
 10
178.718496
 20
199.545922
 30
0.0
 11
178.718496
 21
190.212589
 31
0.0
 12
150.718496
 22
194.879255
 32
0.0
 13
150.718496
 23
194.879255
 33
0.0
  0
MTEXT
  5
391
330
38A
100
AcDbEntity
  8
LC-002-100-D00-0
 62
     2
100
AcDbMText
 10
238.593163
 20
225.679255
 30
0.0
 40
28.0
 41
0.0
 71
     5
 72
     1
  1
\A1;DN50
  7
LCTX15-400-0-0pDIN-Schrift
 73
     1
 44
1.0
  0
POINT
  5
392
330
38A
100
AcDbEntity
  8
Defpoints
 62
     0
100
AcDbPoint
 10
100.718496
 20
173.680857
 30
0.0
  0
POINT
  5
393
330
38A
100
AcDbEntity
  8
Defpoints
 62
     0
100
AcDbPoint
 10
150.718496
 20
173.680857
 30
0.0
  0
POINT
  5
394
330
38A
100
AcDbEntity
  8
Defpoints
 62
     0
100
AcDbPoint
 10
150.718496
 20
194.879255
 30
0.0
  0
ENDBLK
  5
396
330
38A
100
AcDbEntity
  8
0
100
AcDbBlockEnd
  0
BLOCK
  5
3A2
330
398
100
AcDbEntity
  8
0
100
AcDbBlockBegin
  2
*D33
 70
     1
 71
     0
 10
0.0
 20
0.0
 30
0.0
  3
*D33
  1

  0
LINE
  5
399
330
398
100
AcDbEntity
  8
LC-002-100-D00-0
 62
     2
370
    -2
100
AcDbLine
 10
70.718496
 20
243.377124
 30
0.0
 11
70.718496
 21
120.593255
 31
0.0
  0
LINE
  5
39A
330
398
100
AcDbEntity
  8
LC-002-100-D00-0
 62
     2
370
    -2
100
AcDbLine
 10
180.718496
 20
243.377124
 30
0.0
 11
180.718496
 21
120.593255
 31
0.0
  0
LINE
  5
39B
330
398
100
AcDbEntity
  8
LC-002-100-D00-0
 62
     2
370
    -2
100
AcDbLine
 10
98.718496
 20
124.193255
 30
0.0
 11
152.718496
 21
124.193255
 31
0.0
  0
SOLID
  5
39C
330
398
100
AcDbEntity
  8
LC-002-100-D00-0
 62
     2
100
AcDbTrace
 10
98.718496
 20
128.859922
 30
0.0
 11
98.718496
 21
119.526589
 31
0.0
 12
70.718496
 22
124.193255
 32
0.0
 13
70.718496
 23
124.193255
 33
0.0
  0
SOLID
  5
39D
330
398
100
AcDbEntity
  8
LC-002-100-D00-0
 62
     2
100
AcDbTrace
 10
152.718496
 20
119.526589
 30
0.0
 11
152.718496
 21
128.859922
 31
0.0
 12
180.718496
 22
124.193255
 32
0.0
 13
180.718496
 23
124.193255
 33
0.0
  0
MTEXT
  5
39E
330
398
100
AcDbEntity
  8
LC-002-100-D00-0
 62
     2
100
AcDbMText
 10
123.351502
 20
154.993255
 30
0.0
 40
28.0
 41
0.0
 71
     5
 72
     1
  1
\A1;%%c110
  7
LCTX15-400-0-0pDIN-Schrift
 73
     1
 44
1.0
  0
POINT
  5
39F
330
398
100
AcDbEntity
  8
Defpoints
 62
     0
100
AcDbPoint
 10
70.718496
 20
243.377124
 30
0.0
  0
POINT
  5
3A0
330
398
100
AcDbEntity
  8
Defpoints
 62
     0
100
AcDbPoint
 10
180.718496
 20
243.377124
 30
0.0
  0
POINT
  5
3A1
330
398
100
AcDbEntity
  8
Defpoints
 62
     0
100
AcDbPoint
 10
180.718496
 20
124.193255
 30
0.0
  0
ENDBLK
  5
3A3
330
398
100
AcDbEntity
  8
0
100
AcDbBlockEnd
  0
BLOCK
  5
3AF
330
3A5
100
AcDbEntity
  8
0
100
AcDbBlockBegin
  2
*D34
 70
     1
 71
     0
 10
0.0
 20
0.0
 30
0.0
  3
*D34
  1

  0
LINE
  5
3A6
330
3A5
100
AcDbEntity
  8
LC-002-100-D00-0
 62
     2
370
    -2
100
AcDbLine
 10
62.718496
 20
288.680857
 30
0.0
 11
62.718496
 21
62.977255
 31
0.0
  0
LINE
  5
3A7
330
3A5
100
AcDbEntity
  8
LC-002-100-D00-0
 62
     2
370
    -2
100
AcDbLine
 10
188.718496
 20
288.680857
 30
0.0
 11
188.718496
 21
62.977255
 31
0.0
  0
LINE
  5
3A8
330
3A5
100
AcDbEntity
  8
LC-002-100-D00-0
 62
     2
370
    -2
100
AcDbLine
 10
90.718496
 20
66.577255
 30
0.0
 11
160.718496
 21
66.577255
 31
0.0
  0
SOLID
  5
3A9
330
3A5
100
AcDbEntity
  8
LC-002-100-D00-0
 62
     2
100
AcDbTrace
 10
90.718496
 20
71.243922
 30
0.0
 11
90.718496
 21
61.910589
 31
0.0
 12
62.718496
 22
66.577255
 32
0.0
 13
62.718496
 23
66.577255
 33
0.0
  0
SOLID
  5
3AA
330
3A5
100
AcDbEntity
  8
LC-002-100-D00-0
 62
     2
100
AcDbTrace
 10
160.718496
 20
61.910589
 30
0.0
 11
160.718496
 21
71.243922
 31
0.0
 12
188.718496
 22
66.577255
 32
0.0
 13
188.718496
 23
66.577255
 33
0.0
  0
MTEXT
  5
3AB
330
3A5
100
AcDbEntity
  8
LC-002-100-D00-0
 62
     2
100
AcDbMText
 10
119.739012
 20
97.377255
 30
0.0
 40
28.0
 41
0.0
 71
     5
 72
     1
  1
\A1;%%c126
  7
LCTX15-400-0-0pDIN-Schrift
 73
     1
 44
1.0
  0
POINT
  5
3AC
330
3A5
100
AcDbEntity
  8
Defpoints
 62
     0
100
AcDbPoint
 10
62.718496
 20
288.680857
 30
0.0
  0
POINT
  5
3AD
330
3A5
100
AcDbEntity
  8
Defpoints
 62
     0
100
AcDbPoint
 10
188.718496
 20
288.680857
 30
0.0
  0
POINT
  5
3AE
330
3A5
100
AcDbEntity
  8
Defpoints
 62
     0
100
AcDbPoint
 10
188.718496
 20
66.577255
 30
0.0
  0
ENDBLK
  5
3B0
330
3A5
100
AcDbEntity
  8
0
100
AcDbBlockEnd
  0
BLOCK
  5
3BD
330
3B2
100
AcDbEntity
  8
0
100
AcDbBlockBegin
  2
*D35
 70
     1
 71
     0
 10
0.0
 20
0.0
 30
0.0
  3
*D35
  1

  0
LINE
  5
3B3
330
3B2
100
AcDbEntity
  8
LC-002-100-D00-0
 62
     2
370
    -2
100
AcDbLine
 10
283.218496
 20
321.380857
 30
0.0
 11
325.521749
 21
321.380857
 31
0.0
  0
LINE
  5
3B4
330
3B2
100
AcDbEntity
  8
LC-002-100-D00-0
 62
     2
370
    -2
100
AcDbLine
 10
185.718496
 20
285.680857
 30
0.0
 11
325.521749
 21
285.680857
 31
0.0
  0
LINE
  5
3B5
330
3B2
100
AcDbEntity
  8
LC-002-100-D00-0
 62
     2
370
    -2
100
AcDbLine
 10
321.921749
 20
349.380857
 30
0.0
 11
321.921749
 21
377.380857
 31
0.0
  0
LINE
  5
3B6
330
3B2
100
AcDbEntity
  8
LC-002-100-D00-0
 62
     2
370
    -2
100
AcDbLine
 10
321.921749
 20
257.680857
 30
0.0
 11
321.921749
 21
261.472396
 31
0.0
  0
SOLID
  5
3B7
330
3B2
100
AcDbEntity
  8
LC-002-100-D00-0
 62
     2
100
AcDbTrace
 10
317.255082
 20
349.380857
 30
0.0
 11
326.588415
 21
349.380857
 31
0.0
 12
321.921749
 22
321.380857
 32
0.0
 13
321.921749
 23
321.380857
 33
0.0
  0
SOLID
  5
3B8
330
3B2
100
AcDbEntity
  8
LC-002-100-D00-0
 62
     2
100
AcDbTrace
 10
326.588415
 20
257.680857
 30
0.0
 11
317.255082
 21
257.680857
 31
0.0
 12
321.921749
 22
285.680857
 32
0.0
 13
321.921749
 23
285.680857
 33
0.0
  0
MTEXT
  5
3B9
330
3B2
100
AcDbEntity
  8
LC-002-100-D00-0
 62
     2
100
AcDbMText
 10
291.121749
 20
284.573255
 30
0.0
 40
28.0
 41
0.0
 71
     5
 72
     1
  1
\A1;36
  7
LCTX15-400-0-0pDIN-Schrift
 11
6.123031769111886E-17
 21
1.0
 31
0.0
 73
     1
 44
1.0
  0
POINT
  5
3BA
330
3B2
100
AcDbEntity
  8
Defpoints
 62
     0
100
AcDbPoint
 10
283.218496
 20
321.380857
 30
0.0
  0
POINT
  5
3BB
330
3B2
100
AcDbEntity
  8
Defpoints
 62
     0
100
AcDbPoint
 10
185.718496
 20
285.680857
 30
0.0
  0
POINT
  5
3BC
330
3B2
100
AcDbEntity
  8
Defpoints
 62
     0
100
AcDbPoint
 10
321.921749
 20
285.680857
 30
0.0
  0
ENDBLK
  5
3BE
330
3B2
100
AcDbEntity
  8
0
100
AcDbBlockEnd
  0
BLOCK
  5
3C5
330
3C4
100
AcDbEntity
  8
0
100
AcDbBlockBegin
  2
POLY23
 70
     0
 71
     0
 10
0.0
 20
0.0
 30
0.0
  3
POLY23
  1

  4
POLY23
  0
LINE
  5
3C7
330
3C4
100
AcDbEntity
  8
LC-002-100-D00-0
 62
     7
370
    50
100
AcDbLine
 10
41.454171
 20
304.217141
 30
0.0
 11
41.454171
 21
304.217141
 31
0.0
  0
LINE
  5
3C8
330
3C4
100
AcDbEntity
  8
LC-002-100-D00-0
 62
     7
370
    50
100
AcDbLine
 10
41.454171
 20
304.217141
 30
0.0
 11
41.485244
 21
304.403564
 31
0.0
  0
LINE
  5
3C9
330
3C4
100
AcDbEntity
  8
LC-002-100-D00-0
 62
     7
370
    50
100
AcDbLine
 10
41.485244
 20
304.403564
 30
0.0
 11
41.485244
 21
304.403564
 31
0.0
  0
LINE
  5
3CA
330
3C4
100
AcDbEntity
  8
LC-002-100-D00-0
 62
     7
370
    50
100
AcDbLine
 10
41.485244
 20
304.403564
 30
0.0
 11
41.827712
 21
306.458257
 31
0.0
  0
LINE
  5
3CB
330
3C4
100
AcDbEntity
  8
LC-002-100-D00-0
 62
     7
370
    50
100
AcDbLine
 10
41.827712
 20
306.458257
 30
0.0
 11
41.827712
 21
306.458257
 31
0.0
  0
LINE
  5
3CC
330
3C4
100
AcDbEntity
  8
LC-002-100-D00-0
 62
     7
370
    50
100
AcDbLine
 10
41.827712
 20
306.458257
 30
0.0
 11
43.455871
 21
312.512443
 31
0.0
  0
LINE
  5
3CD
330
3C4
100
AcDbEntity
  8
LC-002-100-D00-0
 62
     7
370
    50
100
AcDbLine
 10
43.455871
 20
312.512443
 30
0.0
 11
43.455871
 21
312.512443
 31
0.0
  0
LINE
  5
3CE
330
3C4
100
AcDbEntity
  8
LC-002-100-D00-0
 62
     7
370
    50
100
AcDbLine
 10
43.455871
 20
312.512443
 30
0.0
 11
43.766966
 21
314.380856
 31
0.0
  0
ENDBLK
  5
3C6
330
3C4
100
AcDbEntity
  8
0
100
AcDbBlockEnd
  0
BLOCK
  5
3D7
330
3D6
100
AcDbEntity
  8
0
100
AcDbBlockBegin
  2
POLY24
 70
     0
 71
     0
 10
0.0
 20
0.0
 30
0.0
  3
POLY24
  1

  4
POLY24
  0
LINE
  5
3D9
330
3D6
100
AcDbEntity
  8
LC-002-100-D00-0
 62
     7
370
    50
100
AcDbLine
 10
-17.045761
 20
303.381521
 30
0.0
 11
-17.045761
 21
303.381521
 31
0.0
  0
LINE
  5
3DA
330
3D6
100
AcDbEntity
  8
LC-002-100-D00-0
 62
     7
370
    50
100
AcDbLine
 10
-17.045761
 20
303.381521
 30
0.0
 11
-17.044827
 21
303.381525
 31
0.0
  0
LINE
  5
3DB
330
3D6
100
AcDbEntity
  8
LC-002-100-D00-0
 62
     7
370
    50
100
AcDbLine
 10
-17.044827
 20
303.381525
 30
0.0
 11
-17.044827
 21
303.381525
 31
0.0
  0
LINE
  5
3DC
330
3D6
100
AcDbEntity
  8
LC-002-100-D00-0
 62
     7
370
    50
100
AcDbLine
 10
-17.044827
 20
303.381525
 30
0.0
 11
-16.985061
 21
303.381768
 31
0.0
  0
LINE
  5
3DD
330
3D6
100
AcDbEntity
  8
LC-002-100-D00-0
 62
     7
370
    50
100
AcDbLine
 10
-16.985061
 20
303.381768
 30
0.0
 11
-16.985061
 21
303.381768
 31
0.0
  0
LINE
  5
3DE
330
3D6
100
AcDbEntity
  8
LC-002-100-D00-0
 62
     7
370
    50
100
AcDbLine
 10
-16.985061
 20
303.381768
 30
0.0
 11
-16.879705
 21
303.422323
 31
0.0
  0
LINE
  5
3DF
330
3D6
100
AcDbEntity
  8
LC-002-100-D00-0
 62
     7
370
    50
100
AcDbLine
 10
-16.879705
 20
303.422323
 30
0.0
 11
-16.879705
 21
303.422323
 31
0.0
  0
LINE
  5
3E0
330
3D6
100
AcDbEntity
  8
LC-002-100-D00-0
 62
     7
370
    50
100
AcDbLine
 10
-16.879705
 20
303.422323
 30
0.0
 11
-16.753868
 21
303.58722
 31
0.0
  0
LINE
  5
3E1
330
3D6
100
AcDbEntity
  8
LC-002-100-D00-0
 62
     7
370
    50
100
AcDbLine
 10
-16.753868
 20
303.58722
 30
0.0
 11
-16.753868
 21
303.58722
 31
0.0
  0
LINE
  5
3E2
330
3D6
100
AcDbEntity
  8
LC-002-100-D00-0
 62
     7
370
    50
100
AcDbLine
 10
-16.753868
 20
303.58722
 30
0.0
 11
-16.661834
 21
303.819725
 31
0.0
  0
LINE
  5
3E3
330
3D6
100
AcDbEntity
  8
LC-002-100-D00-0
 62
     7
370
    50
100
AcDbLine
 10
-16.661834
 20
303.819725
 30
0.0
 11
-16.661834
 21
303.819725
 31
0.0
  0
LINE
  5
3E4
330
3D6
100
AcDbEntity
  8
LC-002-100-D00-0
 62
     7
370
    50
100
AcDbLine
 10
-16.661834
 20
303.819725
 30
0.0
 11
-16.6315
 21
304.021609
 31
0.0
  0
LINE
  5
3E5
330
3D6
100
AcDbEntity
  8
LC-002-100-D00-0
 62
     7
370
    50
100
AcDbLine
 10
-16.6315
 20
304.021609
 30
0.0
 11
-16.6315
 21
304.021609
 31
0.0
  0
LINE
  5
3E6
330
3D6
100
AcDbEntity
  8
LC-002-100-D00-0
 62
     7
370
    50
100
AcDbLine
 10
-16.6315
 20
304.021609
 30
0.0
 11
-16.61631
 21
304.122703
 31
0.0
  0
ENDBLK
  5
3D8
330
3D6
100
AcDbEntity
  8
0
100
AcDbBlockEnd
  0
BLOCK
  5
3EC
330
3EB
100
AcDbEntity
  8
0
100
AcDbBlockBegin
  2
POLY25
 70
     0
 71
     0
 10
0.0
 20
0.0
 30
0.0
  3
POLY25
  1

  4
POLY25
  0
LINE
  5
3EE
330
3EB
100
AcDbEntity
  8
LC-002-100-D00-0
 62
     7
370
    50
100
AcDbLine
 10
-13.499031
 20
303.381521
 30
0.0
 11
-13.499031
 21
303.381521
 31
0.0
  0
LINE
  5
3EF
330
3EB
100
AcDbEntity
  8
LC-002-100-D00-0
 62
     7
370
    50
100
AcDbLine
 10
-13.499031
 20
303.381521
 30
0.0
 11
-13.499158
 21
303.381521
 31
0.0
  0
LINE
  5
3F0
330
3EB
100
AcDbEntity
  8
LC-002-100-D00-0
 62
     7
370
    50
100
AcDbLine
 10
-13.499158
 20
303.381521
 30
0.0
 11
-13.499158
 21
303.381521
 31
0.0
  0
LINE
  5
3F1
330
3EB
100
AcDbEntity
  8
LC-002-100-D00-0
 62
     7
370
    50
100
AcDbLine
 10
-13.499158
 20
303.381521
 30
0.0
 11
-13.499478
 21
303.381521
 31
0.0
  0
LINE
  5
3F2
330
3EB
100
AcDbEntity
  8
LC-002-100-D00-0
 62
     7
370
    50
100
AcDbLine
 10
-13.499478
 20
303.381521
 30
0.0
 11
-13.499478
 21
303.381521
 31
0.0
  0
LINE
  5
3F3
330
3EB
100
AcDbEntity
  8
LC-002-100-D00-0
 62
     7
370
    50
100
AcDbLine
 10
-13.499478
 20
303.381521
 30
0.0
 11
-13.755781
 21
303.381521
 31
0.0
  0
LINE
  5
3F4
330
3EB
100
AcDbEntity
  8
LC-002-100-D00-0
 62
     7
370
    50
100
AcDbLine
 10
-13.755781
 20
303.381521
 30
0.0
 11
-13.755781
 21
303.381521
 31
0.0
  0
LINE
  5
3F5
330
3EB
100
AcDbEntity
  8
LC-002-100-D00-0
 62
     7
370
    50
100
AcDbLine
 10
-13.755781
 20
303.381521
 30
0.0
 11
-13.910333
 21
303.381521
 31
0.0
  0
ENDBLK
  5
3ED
330
3EB
100
AcDbEntity
  8
0
100
AcDbBlockEnd
  0
BLOCK
  5
3FA
330
3F9
100
AcDbEntity
  8
0
100
AcDbBlockBegin
  2
POLY26
 70
     0
 71
     0
 10
0.0
 20
0.0
 30
0.0
  3
POLY26
  1

  4
POLY26
  0
LINE
  5
3FC
330
3F9
100
AcDbEntity
  8
LC-002-100-D00-0
 62
     7
370
    50
100
AcDbLine
 10
40.467789
 20
303.381521
 30
0.0
 11
40.467789
 21
303.381521
 31
0.0
  0
LINE
  5
3FD
330
3F9
100
AcDbEntity
  8
LC-002-100-D00-0
 62
     7
370
    50
100
AcDbLine
 10
40.467789
 20
303.381521
 30
0.0
 11
40.388441
 21
303.381521
 31
0.0
  0
LINE
  5
3FE
330
3F9
100
AcDbEntity
  8
LC-002-100-D00-0
 62
     7
370
    50
100
AcDbLine
 10
40.388441
 20
303.381521
 30
0.0
 11
40.388441
 21
303.381521
 31
0.0
  0
LINE
  5
3FF
330
3F9
100
AcDbEntity
  8
LC-002-100-D00-0
 62
     7
370
    50
100
AcDbLine
 10
40.388441
 20
303.381521
 30
0.0
 11
40.064304
 21
303.381521
 31
0.0
  0
LINE
  5
400
330
3F9
100
AcDbEntity
  8
LC-002-100-D00-0
 62
     7
370
    50
100
AcDbLine
 10
40.064304
 20
303.381521
 30
0.0
 11
40.064304
 21
303.381521
 31
0.0
  0
LINE
  5
401
330
3F9
100
AcDbEntity
  8
LC-002-100-D00-0
 62
     7
370
    50
100
AcDbLine
 10
40.064304
 20
303.381521
 30
0.0
 11
39.32072
 21
303.381521
 31
0.0
  0
LINE
  5
402
330
3F9
100
AcDbEntity
  8
LC-002-100-D00-0
 62
     7
370
    50
100
AcDbLine
 10
39.32072
 20
303.381521
 30
0.0
 11
39.32072
 21
303.381521
 31
0.0
  0
LINE
  5
403
330
3F9
100
AcDbEntity
  8
LC-002-100-D00-0
 62
     7
370
    50
100
AcDbLine
 10
39.32072
 20
303.381521
 30
0.0
 11
38.536127
 21
303.381521
 31
0.0
  0
LINE
  5
404
330
3F9
100
AcDbEntity
  8
LC-002-100-D00-0
 62
     7
370
    50
100
AcDbLine
 10
38.536127
 20
303.381521
 30
0.0
 11
38.536127
 21
303.381521
 31
0.0
  0
LINE
  5
405
330
3F9
100
AcDbEntity
  8
LC-002-100-D00-0
 62
     7
370
    50
100
AcDbLine
 10
38.536127
 20
303.381521
 30
0.0
 11
38.089362
 21
303.381521
 31
0.0
  0
ENDBLK
  5
3FB
330
3F9
100
AcDbEntity
  8
0
100
AcDbBlockEnd
  0
BLOCK
  5
40B
330
40A
100
AcDbEntity
  8
0
100
AcDbBlockBegin
  2
POLY27
 70
     0
 71
     0
 10
0.0
 20
0.0
 30
0.0
  3
POLY27
  1

  4
POLY27
  0
LINE
  5
40D
330
40A
100
AcDbEntity
  8
LC-002-100-D00-0
 62
     7
370
    50
100
AcDbLine
 10
36.162151
 20
303.381521
 30
0.0
 11
36.162151
 21
303.381521
 31
0.0
  0
LINE
  5
40E
330
40A
100
AcDbEntity
  8
LC-002-100-D00-0
 62
     7
370
    50
100
AcDbLine
 10
36.162151
 20
303.381521
 30
0.0
 11
36.161383
 21
303.381525
 31
0.0
  0
LINE
  5
40F
330
40A
100
AcDbEntity
  8
LC-002-100-D00-0
 62
     7
370
    50
100
AcDbLine
 10
36.161383
 20
303.381525
 30
0.0
 11
36.161383
 21
303.381525
 31
0.0
  0
LINE
  5
410
330
40A
100
AcDbEntity
  8
LC-002-100-D00-0
 62
     7
370
    50
100
AcDbLine
 10
36.161383
 20
303.381525
 30
0.0
 11
36.112235
 21
303.381768
 31
0.0
  0
LINE
  5
411
330
40A
100
AcDbEntity
  8
LC-002-100-D00-0
 62
     7
370
    50
100
AcDbLine
 10
36.112235
 20
303.381768
 30
0.0
 11
36.112235
 21
303.381768
 31
0.0
  0
LINE
  5
412
330
40A
100
AcDbEntity
  8
LC-002-100-D00-0
 62
     7
370
    50
100
AcDbLine
 10
36.112235
 20
303.381768
 30
0.0
 11
36.017654
 21
303.42232
 31
0.0
  0
LINE
  5
413
330
40A
100
AcDbEntity
  8
LC-002-100-D00-0
 62
     7
370
    50
100
AcDbLine
 10
36.017654
 20
303.42232
 30
0.0
 11
36.017654
 21
303.42232
 31
0.0
  0
LINE
  5
414
330
40A
100
AcDbEntity
  8
LC-002-100-D00-0
 62
     7
370
    50
100
AcDbLine
 10
36.017654
 20
303.42232
 30
0.0
 11
35.890887
 21
303.587223
 31
0.0
  0
LINE
  5
415
330
40A
100
AcDbEntity
  8
LC-002-100-D00-0
 62
     7
370
    50
100
AcDbLine
 10
35.890887
 20
303.587223
 30
0.0
 11
35.890887
 21
303.587223
 31
0.0
  0
LINE
  5
416
330
40A
100
AcDbEntity
  8
LC-002-100-D00-0
 62
     7
370
    50
100
AcDbLine
 10
35.890887
 20
303.587223
 30
0.0
 11
35.790011
 21
303.819723
 31
0.0
  0
LINE
  5
417
330
40A
100
AcDbEntity
  8
LC-002-100-D00-0
 62
     7
370
    50
100
AcDbLine
 10
35.790011
 20
303.819723
 30
0.0
 11
35.790011
 21
303.819723
 31
0.0
  0
LINE
  5
418
330
40A
100
AcDbEntity
  8
LC-002-100-D00-0
 62
     7
370
    50
100
AcDbLine
 10
35.790011
 20
303.819723
 30
0.0
 11
35.754881
 21
304.021608
 31
0.0
  0
LINE
  5
419
330
40A
100
AcDbEntity
  8
LC-002-100-D00-0
 62
     7
370
    50
100
AcDbLine
 10
35.754881
 20
304.021608
 30
0.0
 11
35.754881
 21
304.021608
 31
0.0
  0
LINE
  5
41A
330
40A
100
AcDbEntity
  8
LC-002-100-D00-0
 62
     7
370
    50
100
AcDbLine
 10
35.754881
 20
304.021608
 30
0.0
 11
35.737289
 21
304.122703
 31
0.0
  0
ENDBLK
  5
40C
330
40A
100
AcDbEntity
  8
0
100
AcDbBlockEnd
  0
BLOCK
  5
429
330
41E
100
AcDbEntity
  8
0
100
AcDbBlockBegin
  2
*D41
 70
     1
 71
     0
 10
0.0
 20
0.0
 30
0.0
  3
*D41
  1

  0
LINE
  5
41F
330
41E
100
AcDbEntity
  8
LC-003-003-----0
 62
     2
370
    -2
100
AcDbLine
 10
-32.404038
 20
321.380856
 30
0.0
 11
-48.707109
 21
321.380856
 31
0.0
  0
LINE
  5
420
330
41E
100
AcDbEntity
  8
LC-003-003-----0
 62
     2
370
    -2
100
AcDbLine
 10
-23.447836
 20
303.381521
 30
0.0
 11
-48.707109
 21
303.381521
 31
0.0
  0
LINE
  5
421
330
41E
100
AcDbEntity
  8
LC-003-003-----0
 62
     2
370
    -2
100
AcDbLine
 10
-45.107109
 20
275.381521
 30
0.0
 11
-45.107109
 21
247.381521
 31
0.0
  0
LINE
  5
422
330
41E
100
AcDbEntity
  8
LC-003-003-----0
 62
     2
370
    -2
100
AcDbLine
 10
-45.107109
 20
349.380856
 30
0.0
 11
-45.107109
 21
348.965583
 31
0.0
  0
SOLID
  5
423
330
41E
100
AcDbEntity
  8
LC-003-003-----0
 62
     2
100
AcDbTrace
 10
-49.773775
 20
349.380856
 30
0.0
 11
-40.440442
 21
349.380856
 31
0.0
 12
-45.107109
 22
321.380856
 32
0.0
 13
-45.107109
 23
321.380856
 33
0.0
  0
SOLID
  5
424
330
41E
100
AcDbEntity
  8
LC-003-003-----0
 62
     2
100
AcDbTrace
 10
-40.440442
 20
275.381521
 30
0.0
 11
-49.773775
 21
275.381521
 31
0.0
 12
-45.107109
 22
303.381521
 32
0.0
 13
-45.107109
 23
303.381521
 33
0.0
  0
MTEXT
  5
425
330
41E
100
AcDbEntity
  8
LC-003-003-----0
 62
     2
100
AcDbMText
 10
-75.907109
 20
329.41686
 30
0.0
 40
28.0
 41
0.0
 71
     5
 72
     1
  1
\A1;18
  7
LCTX15-400-0-0pDIN-Schrift
 11
6.123031769111886E-17
 21
1.0
 31
0.0
 73
     1
 44
1.0
  0
POINT
  5
426
330
41E
100
AcDbEntity
  8
Defpoints
 62
     0
100
AcDbPoint
 10
-32.404038
 20
321.380856
 30
0.0
  0
POINT
  5
427
330
41E
100
AcDbEntity
  8
Defpoints
 62
     0
100
AcDbPoint
 10
-23.447836
 20
303.381521
 30
0.0
  0
POINT
  5
428
330
41E
100
AcDbEntity
  8
Defpoints
 62
     0
100
AcDbPoint
 10
-45.107109
 20
303.381521
 30
0.0
  0
ENDBLK
  5
42A
330
41E
100
AcDbEntity
  8
0
100
AcDbBlockEnd
  0
BLOCK
  5
433
330
432
100
AcDbEntity
  8
0
100
AcDbBlockBegin
  2
POLY28
 70
     0
 71
     0
 10
0.0
 20
0.0
 30
0.0
  3
POLY28
  1

  4
POLY28
  0
LINE
  5
435
330
432
100
AcDbEntity
  8
LC-002-100-D00-0
 62
     7
370
    50
100
AcDbLine
 10
267.237681
 20
303.381521
 30
0.0
 11
267.237681
 21
303.381521
 31
0.0
  0
LINE
  5
436
330
432
100
AcDbEntity
  8
LC-002-100-D00-0
 62
     7
370
    50
100
AcDbLine
 10
267.237681
 20
303.381521
 30
0.0
 11
267.236747
 21
303.381525
 31
0.0
  0
LINE
  5
437
330
432
100
AcDbEntity
  8
LC-002-100-D00-0
 62
     7
370
    50
100
AcDbLine
 10
267.236747
 20
303.381525
 30
0.0
 11
267.236747
 21
303.381525
 31
0.0
  0
LINE
  5
438
330
432
100
AcDbEntity
  8
LC-002-100-D00-0
 62
     7
370
    50
100
AcDbLine
 10
267.236747
 20
303.381525
 30
0.0
 11
267.176981
 21
303.381768
 31
0.0
  0
LINE
  5
439
330
432
100
AcDbEntity
  8
LC-002-100-D00-0
 62
     7
370
    50
100
AcDbLine
 10
267.176981
 20
303.381768
 30
0.0
 11
267.176981
 21
303.381768
 31
0.0
  0
LINE
  5
43A
330
432
100
AcDbEntity
  8
LC-002-100-D00-0
 62
     7
370
    50
100
AcDbLine
 10
267.176981
 20
303.381768
 30
0.0
 11
267.071625
 21
303.422323
 31
0.0
  0
LINE
  5
43B
330
432
100
AcDbEntity
  8
LC-002-100-D00-0
 62
     7
370
    50
100
AcDbLine
 10
267.071625
 20
303.422323
 30
0.0
 11
267.071625
 21
303.422323
 31
0.0
  0
LINE
  5
43C
330
432
100
AcDbEntity
  8
LC-002-100-D00-0
 62
     7
370
    50
100
AcDbLine
 10
267.071625
 20
303.422323
 30
0.0
 11
266.945788
 21
303.58722
 31
0.0
  0
LINE
  5
43D
330
432
100
AcDbEntity
  8
LC-002-100-D00-0
 62
     7
370
    50
100
AcDbLine
 10
266.945788
 20
303.58722
 30
0.0
 11
266.945788
 21
303.58722
 31
0.0
  0
LINE
  5
43E
330
432
100
AcDbEntity
  8
LC-002-100-D00-0
 62
     7
370
    50
100
AcDbLine
 10
266.945788
 20
303.58722
 30
0.0
 11
266.853755
 21
303.819725
 31
0.0
  0
LINE
  5
43F
330
432
100
AcDbEntity
  8
LC-002-100-D00-0
 62
     7
370
    50
100
AcDbLine
 10
266.853755
 20
303.819725
 30
0.0
 11
266.853755
 21
303.819725
 31
0.0
  0
LINE
  5
440
330
432
100
AcDbEntity
  8
LC-002-100-D00-0
 62
     7
370
    50
100
AcDbLine
 10
266.853755
 20
303.819725
 30
0.0
 11
266.82342
 21
304.021609
 31
0.0
  0
LINE
  5
441
330
432
100
AcDbEntity
  8
LC-002-100-D00-0
 62
     7
370
    50
100
AcDbLine
 10
266.82342
 20
304.021609
 30
0.0
 11
266.82342
 21
304.021609
 31
0.0
  0
LINE
  5
442
330
432
100
AcDbEntity
  8
LC-002-100-D00-0
 62
     7
370
    50
100
AcDbLine
 10
266.82342
 20
304.021609
 30
0.0
 11
266.80823
 21
304.122703
 31
0.0
  0
ENDBLK
  5
434
330
432
100
AcDbEntity
  8
0
100
AcDbBlockEnd
  0
BLOCK
  5
448
330
447
100
AcDbEntity
  8
0
100
AcDbBlockBegin
  2
POLY29
 70
     0
 71
     0
 10
0.0
 20
0.0
 30
0.0
  3
POLY29
  1

  4
POLY29
  0
LINE
  5
44A
330
447
100
AcDbEntity
  8
LC-002-100-D00-0
 62
     7
370
    50
100
AcDbLine
 10
263.690952
 20
303.381521
 30
0.0
 11
263.690952
 21
303.381521
 31
0.0
  0
LINE
  5
44B
330
447
100
AcDbEntity
  8
LC-002-100-D00-0
 62
     7
370
    50
100
AcDbLine
 10
263.690952
 20
303.381521
 30
0.0
 11
263.691079
 21
303.381521
 31
0.0
  0
LINE
  5
44C
330
447
100
AcDbEntity
  8
LC-002-100-D00-0
 62
     7
370
    50
100
AcDbLine
 10
263.691079
 20
303.381521
 30
0.0
 11
263.691079
 21
303.381521
 31
0.0
  0
LINE
  5
44D
330
447
100
AcDbEntity
  8
LC-002-100-D00-0
 62
     7
370
    50
100
AcDbLine
 10
263.691079
 20
303.381521
 30
0.0
 11
263.691398
 21
303.381521
 31
0.0
  0
LINE
  5
44E
330
447
100
AcDbEntity
  8
LC-002-100-D00-0
 62
     7
370
    50
100
AcDbLine
 10
263.691398
 20
303.381521
 30
0.0
 11
263.691398
 21
303.381521
 31
0.0
  0
LINE
  5
44F
330
447
100
AcDbEntity
  8
LC-002-100-D00-0
 62
     7
370
    50
100
AcDbLine
 10
263.691398
 20
303.381521
 30
0.0
 11
263.947701
 21
303.381521
 31
0.0
  0
LINE
  5
450
330
447
100
AcDbEntity
  8
LC-002-100-D00-0
 62
     7
370
    50
100
AcDbLine
 10
263.947701
 20
303.381521
 30
0.0
 11
263.947701
 21
303.381521
 31
0.0
  0
LINE
  5
451
330
447
100
AcDbEntity
  8
LC-002-100-D00-0
 62
     7
370
    50
100
AcDbLine
 10
263.947701
 20
303.381521
 30
0.0
 11
264.102253
 21
303.381521
 31
0.0
  0
ENDBLK
  5
449
330
447
100
AcDbEntity
  8
0
100
AcDbBlockEnd
  0
BLOCK
  5
454
330
453
100
AcDbEntity
  8
0
100
AcDbBlockBegin
  2
POLY30
 70
     0
 71
     0
 10
0.0
 20
0.0
 30
0.0
  3
POLY30
  1

  4
POLY30
  0
LINE
  5
456
330
453
100
AcDbEntity
  8
LC-002-100-D00-0
 62
     7
370
    50
100
AcDbLine
 10
208.737749
 20
304.217141
 30
0.0
 11
208.737749
 21
304.217141
 31
0.0
  0
LINE
  5
457
330
453
100
AcDbEntity
  8
LC-002-100-D00-0
 62
     7
370
    50
100
AcDbLine
 10
208.737749
 20
304.217141
 30
0.0
 11
208.706677
 21
304.403564
 31
0.0
  0
LINE
  5
458
330
453
100
AcDbEntity
  8
LC-002-100-D00-0
 62
     7
370
    50
100
AcDbLine
 10
208.706677
 20
304.403564
 30
0.0
 11
208.706677
 21
304.403564
 31
0.0
  0
LINE
  5
459
330
453
100
AcDbEntity
  8
LC-002-100-D00-0
 62
     7
370
    50
100
AcDbLine
 10
208.706677
 20
304.403564
 30
0.0
 11
208.364208
 21
306.458257
 31
0.0
  0
LINE
  5
45A
330
453
100
AcDbEntity
  8
LC-002-100-D00-0
 62
     7
370
    50
100
AcDbLine
 10
208.364208
 20
306.458257
 30
0.0
 11
208.364208
 21
306.458257
 31
0.0
  0
LINE
  5
45B
330
453
100
AcDbEntity
  8
LC-002-100-D00-0
 62
     7
370
    50
100
AcDbLine
 10
208.364208
 20
306.458257
 30
0.0
 11
206.736049
 21
312.512443
 31
0.0
  0
LINE
  5
45C
330
453
100
AcDbEntity
  8
LC-002-100-D00-0
 62
     7
370
    50
100
AcDbLine
 10
206.736049
 20
312.512443
 30
0.0
 11
206.736049
 21
312.512443
 31
0.0
  0
LINE
  5
45D
330
453
100
AcDbEntity
  8
LC-002-100-D00-0
 62
     7
370
    50
100
AcDbLine
 10
206.736049
 20
312.512443
 30
0.0
 11
206.424955
 21
314.380856
 31
0.0
  0
ENDBLK
  5
455
330
453
100
AcDbEntity
  8
0
100
AcDbBlockEnd
  0
BLOCK
  5
465
330
464
100
AcDbEntity
  8
0
100
AcDbBlockBegin
  2
POLY31
 70
     0
 71
     0
 10
0.0
 20
0.0
 30
0.0
  3
POLY31
  1

  4
POLY31
  0
LINE
  5
467
330
464
100
AcDbEntity
  8
LC-002-100-D00-0
 62
     7
370
    50
100
AcDbLine
 10
209.724131
 20
303.381521
 30
0.0
 11
209.724131
 21
303.381521
 31
0.0
  0
LINE
  5
468
330
464
100
AcDbEntity
  8
LC-002-100-D00-0
 62
     7
370
    50
100
AcDbLine
 10
209.724131
 20
303.381521
 30
0.0
 11
209.80348
 21
303.381521
 31
0.0
  0
LINE
  5
469
330
464
100
AcDbEntity
  8
LC-002-100-D00-0
 62
     7
370
    50
100
AcDbLine
 10
209.80348
 20
303.381521
 30
0.0
 11
209.80348
 21
303.381521
 31
0.0
  0
LINE
  5
46A
330
464
100
AcDbEntity
  8
LC-002-100-D00-0
 62
     7
370
    50
100
AcDbLine
 10
209.80348
 20
303.381521
 30
0.0
 11
210.127616
 21
303.381521
 31
0.0
  0
LINE
  5
46B
330
464
100
AcDbEntity
  8
LC-002-100-D00-0
 62
     7
370
    50
100
AcDbLine
 10
210.127616
 20
303.381521
 30
0.0
 11
210.127616
 21
303.381521
 31
0.0
  0
LINE
  5
46C
330
464
100
AcDbEntity
  8
LC-002-100-D00-0
 62
     7
370
    50
100
AcDbLine
 10
210.127616
 20
303.381521
 30
0.0
 11
210.8712
 21
303.381521
 31
0.0
  0
LINE
  5
46D
330
464
100
AcDbEntity
  8
LC-002-100-D00-0
 62
     7
370
    50
100
AcDbLine
 10
210.8712
 20
303.381521
 30
0.0
 11
210.8712
 21
303.381521
 31
0.0
  0
LINE
  5
46E
330
464
100
AcDbEntity
  8
LC-002-100-D00-0
 62
     7
370
    50
100
AcDbLine
 10
210.8712
 20
303.381521
 30
0.0
 11
211.655794
 21
303.381521
 31
0.0
  0
LINE
  5
46F
330
464
100
AcDbEntity
  8
LC-002-100-D00-0
 62
     7
370
    50
100
AcDbLine
 10
211.655794
 20
303.381521
 30
0.0
 11
211.655794
 21
303.381521
 31
0.0
  0
LINE
  5
470
330
464
100
AcDbEntity
  8
LC-002-100-D00-0
 62
     7
370
    50
100
AcDbLine
 10
211.655794
 20
303.381521
 30
0.0
 11
212.102558
 21
303.381521
 31
0.0
  0
ENDBLK
  5
466
330
464
100
AcDbEntity
  8
0
100
AcDbBlockEnd
  0
BLOCK
  5
476
330
475
100
AcDbEntity
  8
0
100
AcDbBlockBegin
  2
POLY32
 70
     0
 71
     0
 10
0.0
 20
0.0
 30
0.0
  3
POLY32
  1

  4
POLY32
  0
LINE
  5
478
330
475
100
AcDbEntity
  8
LC-002-100-D00-0
 62
     7
370
    50
100
AcDbLine
 10
214.02977
 20
303.381521
 30
0.0
 11
214.02977
 21
303.381521
 31
0.0
  0
LINE
  5
479
330
475
100
AcDbEntity
  8
LC-002-100-D00-0
 62
     7
370
    50
100
AcDbLine
 10
214.02977
 20
303.381521
 30
0.0
 11
214.030537
 21
303.381525
 31
0.0
  0
LINE
  5
47A
330
475
100
AcDbEntity
  8
LC-002-100-D00-0
 62
     7
370
    50
100
AcDbLine
 10
214.030537
 20
303.381525
 30
0.0
 11
214.030537
 21
303.381525
 31
0.0
  0
LINE
  5
47B
330
475
100
AcDbEntity
  8
LC-002-100-D00-0
 62
     7
370
    50
100
AcDbLine
 10
214.030537
 20
303.381525
 30
0.0
 11
214.079685
 21
303.381768
 31
0.0
  0
LINE
  5
47C
330
475
100
AcDbEntity
  8
LC-002-100-D00-0
 62
     7
370
    50
100
AcDbLine
 10
214.079685
 20
303.381768
 30
0.0
 11
214.079685
 21
303.381768
 31
0.0
  0
LINE
  5
47D
330
475
100
AcDbEntity
  8
LC-002-100-D00-0
 62
     7
370
    50
100
AcDbLine
 10
214.079685
 20
303.381768
 30
0.0
 11
214.174266
 21
303.42232
 31
0.0
  0
LINE
  5
47E
330
475
100
AcDbEntity
  8
LC-002-100-D00-0
 62
     7
370
    50
100
AcDbLine
 10
214.174266
 20
303.42232
 30
0.0
 11
214.174266
 21
303.42232
 31
0.0
  0
LINE
  5
47F
330
475
100
AcDbEntity
  8
LC-002-100-D00-0
 62
     7
370
    50
100
AcDbLine
 10
214.174266
 20
303.42232
 30
0.0
 11
214.301033
 21
303.587223
 31
0.0
  0
LINE
  5
480
330
475
100
AcDbEntity
  8
LC-002-100-D00-0
 62
     7
370
    50
100
AcDbLine
 10
214.301033
 20
303.587223
 30
0.0
 11
214.301033
 21
303.587223
 31
0.0
  0
LINE
  5
481
330
475
100
AcDbEntity
  8
LC-002-100-D00-0
 62
     7
370
    50
100
AcDbLine
 10
214.301033
 20
303.587223
 30
0.0
 11
214.401909
 21
303.819723
 31
0.0
  0
LINE
  5
482
330
475
100
AcDbEntity
  8
LC-002-100-D00-0
 62
     7
370
    50
100
AcDbLine
 10
214.401909
 20
303.819723
 30
0.0
 11
214.401909
 21
303.819723
 31
0.0
  0
LINE
  5
483
330
475
100
AcDbEntity
  8
LC-002-100-D00-0
 62
     7
370
    50
100
AcDbLine
 10
214.401909
 20
303.819723
 30
0.0
 11
214.43704
 21
304.021608
 31
0.0
  0
LINE
  5
484
330
475
100
AcDbEntity
  8
LC-002-100-D00-0
 62
     7
370
    50
100
AcDbLine
 10
214.43704
 20
304.021608
 30
0.0
 11
214.43704
 21
304.021608
 31
0.0
  0
LINE
  5
485
330
475
100
AcDbEntity
  8
LC-002-100-D00-0
 62
     7
370
    50
100
AcDbLine
 10
214.43704
 20
304.021608
 30
0.0
 11
214.454632
 21
304.122703
 31
0.0
  0
ENDBLK
  5
477
330
475
100
AcDbEntity
  8
0
100
AcDbBlockEnd
  0
BLOCK
  5
4D5
330
4D4
100
AcDbEntity
  8
0
100
AcDbBlockBegin
  2
POLY33
 70
     0
 71
     0
 10
0.0
 20
0.0
 30
0.0
  3
POLY33
  1

  4
POLY33
  0
LINE
  5
4D7
330
4D4
100
AcDbEntity
  8
LC-002-100-D00-0
 62
     7
370
    50
100
AcDbLine
 10
38.007506
 20
-54.234109
 30
0.0
 11
38.007506
 21
-54.234109
 31
0.0
  0
LINE
  5
4D8
330
4D4
100
AcDbEntity
  8
LC-002-100-D00-0
 62
     7
370
    50
100
AcDbLine
 10
38.007506
 20
-54.234109
 30
0.0
 11
38.534353
 21
-54.128593
 31
0.0
  0
LINE
  5
4D9
330
4D4
100
AcDbEntity
  8
LC-002-100-D00-0
 62
     7
370
    50
100
AcDbLine
 10
38.534353
 20
-54.128593
 30
0.0
 11
38.534353
 21
-54.128593
 31
0.0
  0
LINE
  5
4DA
330
4D4
100
AcDbEntity
  8
LC-002-100-D00-0
 62
     7
370
    50
100
AcDbLine
 10
38.534353
 20
-54.128593
 30
0.0
 11
39.588214
 21
-53.917527
 31
0.0
  0
LINE
  5
4DB
330
4D4
100
AcDbEntity
  8
LC-002-100-D00-0
 62
     7
370
    50
100
AcDbLine
 10
39.588214
 20
-53.917527
 30
0.0
 11
39.588214
 21
-53.917527
 31
0.0
  0
LINE
  5
4DC
330
4D4
100
AcDbEntity
  8
LC-002-100-D00-0
 62
     7
370
    50
100
AcDbLine
 10
39.588214
 20
-53.917527
 30
0.0
 11
40.915209
 21
-52.96003
 31
0.0
  0
LINE
  5
4DD
330
4D4
100
AcDbEntity
  8
LC-002-100-D00-0
 62
     7
370
    50
100
AcDbLine
 10
40.915209
 20
-52.96003
 30
0.0
 11
40.915209
 21
-52.96003
 31
0.0
  0
LINE
  5
4DE
330
4D4
100
AcDbEntity
  8
LC-002-100-D00-0
 62
     7
370
    50
100
AcDbLine
 10
40.915209
 20
-52.96003
 30
0.0
 11
41.651817
 21
-51.963246
 31
0.0
  0
LINE
  5
4DF
330
4D4
100
AcDbEntity
  8
LC-002-100-D00-0
 62
     7
370
    50
100
AcDbLine
 10
41.651817
 20
-51.963246
 30
0.0
 11
41.651817
 21
-51.963246
 31
0.0
  0
LINE
  5
4E0
330
4D4
100
AcDbEntity
  8
LC-002-100-D00-0
 62
     7
370
    50
100
AcDbLine
 10
41.651817
 20
-51.963246
 30
0.0
 11
41.912411
 21
-51.330379
 31
0.0
  0
LINE
  5
4E1
330
4D4
100
AcDbEntity
  8
LC-002-100-D00-0
 62
     7
370
    50
100
AcDbLine
 10
41.912411
 20
-51.330379
 30
0.0
 11
41.912411
 21
-51.330379
 31
0.0
  0
LINE
  5
4E2
330
4D4
100
AcDbEntity
  8
LC-002-100-D00-0
 62
     7
370
    50
100
AcDbLine
 10
41.912411
 20
-51.330379
 30
0.0
 11
41.97155
 21
-51.186755
 31
0.0
  0
ENDBLK
  5
4D6
330
4D4
100
AcDbEntity
  8
0
100
AcDbBlockEnd
  0
BLOCK
  5
4E6
330
4E5
100
AcDbEntity
  8
0
100
AcDbBlockBegin
  2
POLY34
 70
     0
 71
     0
 10
0.0
 20
0.0
 30
0.0
  3
POLY34
  1

  4
POLY34
  0
LINE
  5
4E8
330
4E5
100
AcDbEntity
  8
LC-002-100-D00-0
 62
     7
370
    50
100
AcDbLine
 10
235.712194
 20
-76.516814
 30
0.0
 11
235.712194
 21
-76.516814
 31
0.0
  0
LINE
  5
4E9
330
4E5
100
AcDbEntity
  8
LC-002-100-D00-0
 62
     7
370
    50
100
AcDbLine
 10
235.712194
 20
-76.516814
 30
0.0
 11
235.81771
 21
-77.043661
 31
0.0
  0
LINE
  5
4EA
330
4E5
100
AcDbEntity
  8
LC-002-100-D00-0
 62
     7
370
    50
100
AcDbLine
 10
235.81771
 20
-77.043661
 30
0.0
 11
235.81771
 21
-77.043661
 31
0.0
  0
LINE
  5
4EB
330
4E5
100
AcDbEntity
  8
LC-002-100-D00-0
 62
     7
370
    50
100
AcDbLine
 10
235.81771
 20
-77.043661
 30
0.0
 11
236.028776
 21
-78.097522
 31
0.0
  0
LINE
  5
4EC
330
4E5
100
AcDbEntity
  8
LC-002-100-D00-0
 62
     7
370
    50
100
AcDbLine
 10
236.028776
 20
-78.097522
 30
0.0
 11
236.028776
 21
-78.097522
 31
0.0
  0
LINE
  5
4ED
330
4E5
100
AcDbEntity
  8
LC-002-100-D00-0
 62
     7
370
    50
100
AcDbLine
 10
236.028776
 20
-78.097522
 30
0.0
 11
236.986273
 21
-79.424517
 31
0.0
  0
LINE
  5
4EE
330
4E5
100
AcDbEntity
  8
LC-002-100-D00-0
 62
     7
370
    50
100
AcDbLine
 10
236.986273
 20
-79.424517
 30
0.0
 11
236.986273
 21
-79.424517
 31
0.0
  0
LINE
  5
4EF
330
4E5
100
AcDbEntity
  8
LC-002-100-D00-0
 62
     7
370
    50
100
AcDbLine
 10
236.986273
 20
-79.424517
 30
0.0
 11
237.983057
 21
-80.161125
 31
0.0
  0
LINE
  5
4F0
330
4E5
100
AcDbEntity
  8
LC-002-100-D00-0
 62
     7
370
    50
100
AcDbLine
 10
237.983057
 20
-80.161125
 30
0.0
 11
237.983057
 21
-80.161125
 31
0.0
  0
LINE
  5
4F1
330
4E5
100
AcDbEntity
  8
LC-002-100-D00-0
 62
     7
370
    50
100
AcDbLine
 10
237.983057
 20
-80.161125
 30
0.0
 11
238.615924
 21
-80.421719
 31
0.0
  0
LINE
  5
4F2
330
4E5
100
AcDbEntity
  8
LC-002-100-D00-0
 62
     7
370
    50
100
AcDbLine
 10
238.615924
 20
-80.421719
 30
0.0
 11
238.615924
 21
-80.421719
 31
0.0
  0
LINE
  5
4F3
330
4E5
100
AcDbEntity
  8
LC-002-100-D00-0
 62
     7
370
    50
100
AcDbLine
 10
238.615924
 20
-80.421719
 30
0.0
 11
238.759548
 21
-80.480858
 31
0.0
  0
ENDBLK
  5
4E7
330
4E5
100
AcDbEntity
  8
0
100
AcDbBlockEnd
  0
BLOCK
  5
4F7
330
4F6
100
AcDbEntity
  8
0
100
AcDbBlockBegin
  2
POLY35
 70
     0
 71
     0
 10
0.0
 20
0.0
 30
0.0
  3
POLY35
  1

  4
POLY35
  0
LINE
  5
4F9
330
4F6
100
AcDbEntity
  8
LC-002-100-D00-0
 62
     7
370
    50
100
AcDbLine
 10
141.474749
 20
-24.429477
 30
0.0
 11
141.474749
 21
-24.429477
 31
0.0
  0
LINE
  5
4FA
330
4F6
100
AcDbEntity
  8
LC-002-100-D00-0
 62
     7
370
    50
100
AcDbLine
 10
141.474749
 20
-24.429477
 30
0.0
 11
141.921898
 21
-24.727405
 31
0.0
  0
LINE
  5
4FB
330
4F6
100
AcDbEntity
  8
LC-002-100-D00-0
 62
     7
370
    50
100
AcDbLine
 10
141.921898
 20
-24.727405
 30
0.0
 11
141.921898
 21
-24.727405
 31
0.0
  0
LINE
  5
4FC
330
4F6
100
AcDbEntity
  8
LC-002-100-D00-0
 62
     7
370
    50
100
AcDbLine
 10
141.921898
 20
-24.727405
 30
0.0
 11
142.816335
 21
-25.323352
 31
0.0
  0
LINE
  5
4FD
330
4F6
100
AcDbEntity
  8
LC-002-100-D00-0
 62
     7
370
    50
100
AcDbLine
 10
142.816335
 20
-25.323352
 30
0.0
 11
142.816335
 21
-25.323352
 31
0.0
  0
LINE
  5
4FE
330
4F6
100
AcDbEntity
  8
LC-002-100-D00-0
 62
     7
370
    50
100
AcDbLine
 10
142.816335
 20
-25.323352
 30
0.0
 11
144.431715
 21
-25.584622
 31
0.0
  0
LINE
  5
4FF
330
4F6
100
AcDbEntity
  8
LC-002-100-D00-0
 62
     7
370
    50
100
AcDbLine
 10
144.431715
 20
-25.584622
 30
0.0
 11
144.431715
 21
-25.584622
 31
0.0
  0
LINE
  5
500
330
4F6
100
AcDbEntity
  8
LC-002-100-D00-0
 62
     7
370
    50
100
AcDbLine
 10
144.431715
 20
-25.584622
 30
0.0
 11
145.657409
 21
-25.400658
 31
0.0
  0
LINE
  5
501
330
4F6
100
AcDbEntity
  8
LC-002-100-D00-0
 62
     7
370
    50
100
AcDbLine
 10
145.657409
 20
-25.400658
 30
0.0
 11
145.657409
 21
-25.400658
 31
0.0
  0
LINE
  5
502
330
4F6
100
AcDbEntity
  8
LC-002-100-D00-0
 62
     7
370
    50
100
AcDbLine
 10
145.657409
 20
-25.400658
 30
0.0
 11
146.28918
 21
-25.137418
 31
0.0
  0
LINE
  5
503
330
4F6
100
AcDbEntity
  8
LC-002-100-D00-0
 62
     7
370
    50
100
AcDbLine
 10
146.28918
 20
-25.137418
 30
0.0
 11
146.28918
 21
-25.137418
 31
0.0
  0
LINE
  5
504
330
4F6
100
AcDbEntity
  8
LC-002-100-D00-0
 62
     7
370
    50
100
AcDbLine
 10
146.28918
 20
-25.137418
 30
0.0
 11
146.432555
 21
-25.077678
 31
0.0
  0
ENDBLK
  5
4F8
330
4F6
100
AcDbEntity
  8
0
100
AcDbBlockEnd
  0
BLOCK
  5
509
330
508
100
AcDbEntity
  8
0
100
AcDbBlockBegin
  2
POLY36
 70
     0
 71
     0
 10
0.0
 20
0.0
 30
0.0
  3
POLY36
  1

  4
POLY36
  0
LINE
  5
50B
330
508
100
AcDbEntity
  8
LC-002-100-D00-0
 62
     7
370
    50
100
AcDbLine
 10
-14.079831
 20
-148.471552
 30
0.0
 11
-14.079831
 21
-148.471552
 31
0.0
  0
LINE
  5
50C
330
508
100
AcDbEntity
  8
LC-002-100-D00-0
 62
     7
370
    50
100
AcDbLine
 10
-14.079831
 20
-148.471552
 30
0.0
 11
-13.781903
 21
-148.024404
 31
0.0
  0
LINE
  5
50D
330
508
100
AcDbEntity
  8
LC-002-100-D00-0
 62
     7
370
    50
100
AcDbLine
 10
-13.781903
 20
-148.024404
 30
0.0
 11
-13.781903
 21
-148.024404
 31
0.0
  0
LINE
  5
50E
330
508
100
AcDbEntity
  8
LC-002-100-D00-0
 62
     7
370
    50
100
AcDbLine
 10
-13.781903
 20
-148.024404
 30
0.0
 11
-13.185956
 21
-147.129967
 31
0.0
  0
LINE
  5
50F
330
508
100
AcDbEntity
  8
LC-002-100-D00-0
 62
     7
370
    50
100
AcDbLine
 10
-13.185956
 20
-147.129967
 30
0.0
 11
-13.185956
 21
-147.129967
 31
0.0
  0
LINE
  5
510
330
508
100
AcDbEntity
  8
LC-002-100-D00-0
 62
     7
370
    50
100
AcDbLine
 10
-13.185956
 20
-147.129967
 30
0.0
 11
-12.924686
 21
-145.514587
 31
0.0
  0
LINE
  5
511
330
508
100
AcDbEntity
  8
LC-002-100-D00-0
 62
     7
370
    50
100
AcDbLine
 10
-12.924686
 20
-145.514587
 30
0.0
 11
-12.924686
 21
-145.514587
 31
0.0
  0
LINE
  5
512
330
508
100
AcDbEntity
  8
LC-002-100-D00-0
 62
     7
370
    50
100
AcDbLine
 10
-12.924686
 20
-145.514587
 30
0.0
 11
-13.108651
 21
-144.288893
 31
0.0
  0
LINE
  5
513
330
508
100
AcDbEntity
  8
LC-002-100-D00-0
 62
     7
370
    50
100
AcDbLine
 10
-13.108651
 20
-144.288893
 30
0.0
 11
-13.108651
 21
-144.288893
 31
0.0
  0
LINE
  5
514
330
508
100
AcDbEntity
  8
LC-002-100-D00-0
 62
     7
370
    50
100
AcDbLine
 10
-13.108651
 20
-144.288893
 30
0.0
 11
-13.37189
 21
-143.657121
 31
0.0
  0
LINE
  5
515
330
508
100
AcDbEntity
  8
LC-002-100-D00-0
 62
     7
370
    50
100
AcDbLine
 10
-13.37189
 20
-143.657121
 30
0.0
 11
-13.37189
 21
-143.657121
 31
0.0
  0
LINE
  5
516
330
508
100
AcDbEntity
  8
LC-002-100-D00-0
 62
     7
370
    50
100
AcDbLine
 10
-13.37189
 20
-143.657121
 30
0.0
 11
-13.43163
 21
-143.513746
 31
0.0
  0
ENDBLK
  5
50A
330
508
100
AcDbEntity
  8
0
100
AcDbBlockEnd
  0
ENDSEC
  0
SECTION
  2
ENTITIES
  0
LINE
  5
32
330
1F
100
AcDbEntity
  8
LC-001-002-----0
 62
     7
370
    25
100
AcDbLine
 10
-31.781504
 20
-164.227806
 30
0.0
 11
180.917078
 21
-164.227806
 31
0.0
  0
ARC
  5
34
330
1F
100
AcDbEntity
  8
LC-002-100-D00-0
 62
     7
370
    50
100
AcDbCircle
 10
125.718496
 20
-164.227806
 30
0.0
 40
57.00000000000011
100
AcDbArc
 50
0.0
 51
180.0
  0
ARC
  5
35
330
1F
100
AcDbEntity
  8
LC-002-100-D00-0
 62
     7
370
    50
100
AcDbCircle
 10
116.238138
 20
-108.021731
 30
0.0
 40
0.9999999999999167
100
AcDbArc
 50
195.616373
 51
279.574045
  0
LINE
  5
36
330
1F
100
AcDbEntity
  8
LC-002-100-D00-0
 62
     7
370
    50
100
AcDbLine
 10
115.275053
 20
-108.290926
 30
0.0
 11
115.248955
 21
-108.197557
 31
0.0
  0
LINE
  5
37
330
1F
100
AcDbEntity
  8
LC-002-100-D00-0
 62
     7
370
    50
100
AcDbLine
 10
105.618098
 20
-110.889508
 30
0.0
 11
105.644196
 21
-110.982877
 31
0.0
  0
ARC
  5
38
330
1F
100
AcDbEntity
  8
LC-002-100-D00-0
 62
     7
370
    50
100
AcDbCircle
 10
104.68111
 20
-111.252072
 30
0.0
 40
1.000000000000044
100
AcDbArc
 50
291.658702
 51
15.616373
  0
ARC
  5
39
330
1F
100
AcDbEntity
  8
LC-002-100-D00-0
 62
     7
370
    50
100
AcDbCircle
 10
125.718496
 20
-164.227806
 30
0.0
 40
56.00000000000006
100
AcDbArc
 50
111.658702
 51
180.0
  0
ARC
  5
3A
330
1F
100
AcDbEntity
  8
LC-002-100-D00-0
 62
     7
370
    50
100
AcDbCircle
 10
125.718496
 20
-164.227806
 30
0.0
 40
56.00000000000011
100
AcDbArc
 50
0.0
 51
9.574045
  0
ARC
  5
3B
330
1F
100
AcDbEntity
  8
LC-002-100-D00-0
 62
     7
370
    50
100
AcDbCircle
 10
181.924571
 20
-154.747448
 30
0.0
 40
0.9999999999999657
100
AcDbArc
 50
105.616373
 51
189.574045
  0
LINE
  5
3C
330
1F
100
AcDbEntity
  8
LC-002-100-D00-0
 62
     7
370
    50
100
AcDbLine
 10
181.655376
 20
-153.784362
 30
0.0
 11
181.748744
 21
-153.758264
 31
0.0
  0
LINE
  5
3D
330
1F
100
AcDbEntity
  8
LC-002-100-D00-0
 62
     7
370
    50
100
AcDbLine
 10
179.056794
 20
-144.127407
 30
0.0
 11
178.963425
 21
-144.153505
 31
0.0
  0
ARC
  5
3E
330
1F
100
AcDbEntity
  8
LC-002-100-D00-0
 62
     7
370
    50
100
AcDbCircle
 10
178.69423
 20
-143.190419
 30
0.0
 40
1.000000000000149
100
AcDbArc
 50
201.658702
 51
285.616373
  0
ARC
  5
3F
330
1F
100
AcDbEntity
  8
LC-002-100-D00-0
 62
     7
370
    50
100
AcDbCircle
 10
125.718496
 20
-164.227806
 30
0.0
 40
56.0000000000001
100
AcDbArc
 50
21.658702
 51
99.574045
  0
ARC
  5
40
330
1F
100
AcDbEntity
  8
LC-002-100-D00-0
 62
     7
370
    50
100
AcDbCircle
 10
76.922669
 20
-136.751139
 30
0.0
 40
0.999999999999992
100
AcDbArc
 50
241.12795
 51
60.104797
  0
ARC
  5
41
330
1F
100
AcDbEntity
  8
LC-002-100-D00-0
 62
     7
370
    50
100
AcDbCircle
 10
76.922669
 20
-136.751139
 30
0.0
 40
0.2500000000005178
100
AcDbArc
 50
240.744266
 51
60.488481
  0
ARC
  5
42
330
1F
100
AcDbEntity
  8
LC-002-100-D00-0
 62
     7
370
    50
100
AcDbCircle
 10
97.198404
 20
-116.0344
 30
0.0
 40
1.000000000000042
100
AcDbArc
 50
211.12795
 51
30.104797
  0
ARC
  5
43
330
1F
100
AcDbEntity
  8
LC-002-100-D00-0
 62
     7
370
    50
100
AcDbCircle
 10
97.198404
 20
-116.0344
 30
0.0
 40
0.250000000000457
100
AcDbArc
 50
210.744266
 51
30.488481
  0
ARC
  5
44
330
1F
100
AcDbEntity
  8
LC-002-100-D00-0
 62
     7
370
    50
100
AcDbCircle
 10
69.721737
 20
-164.830228
 30
0.0
 40
1.000000000000478
100
AcDbArc
 50
37.043557
 51
90.104797
  0
ARC
  5
45
330
1F
100
AcDbEntity
  8
LC-002-100-D00-0
 62
     7
370
    50
100
AcDbCircle
 10
125.116074
 20
-108.231046
 30
0.0
 40
0.9999999999999896
100
AcDbArc
 50
181.12795
 51
0.104797
  0
ARC
  5
46
330
1F
100
AcDbEntity
  8
LC-002-100-D00-0
 62
     7
370
    50
100
AcDbCircle
 10
125.116074
 20
-108.231046
 30
0.0
 40
0.2500000000007052
100
AcDbArc
 50
180.744266
 51
0.488481
  0
ARC
  5
47
330
1F
100
AcDbEntity
  8
LC-002-100-D00-0
 62
     7
370
    50
100
AcDbCircle
 10
153.195163
 20
-115.431978
 30
0.0
 40
1.000000000000069
100
AcDbArc
 50
151.12795
 51
330.104797
  0
ARC
  5
48
330
1F
100
AcDbEntity
  8
LC-002-100-D00-0
 62
     7
370
    50
100
AcDbCircle
 10
153.195163
 20
-115.431978
 30
0.0
 40
0.2500000000005178
100
AcDbArc
 50
150.744266
 51
330.488481
  0
ARC
  5
49
330
1F
100
AcDbEntity
  8
LC-002-100-D00-0
 62
     7
370
    50
100
AcDbCircle
 10
173.911902
 20
-135.707713
 30
0.0
 40
1.000000000000072
100
AcDbArc
 50
121.12795
 51
300.104797
  0
ARC
  5
4A
330
1F
100
AcDbEntity
  8
LC-002-100-D00-0
 62
     7
370
    50
100
AcDbCircle
 10
173.911902
 20
-135.707713
 30
0.0
 40
0.2500000000005955
100
AcDbArc
 50
120.744266
 51
300.488481
  0
ARC
  5
4B
330
1F
100
AcDbEntity
  8
LC-002-100-D00-0
 62
     7
370
    50
100
AcDbCircle
 10
181.715256
 20
-163.625384
 30
0.0
 40
0.9999999999999896
100
AcDbArc
 50
91.12795
 51
217.043557
  0
ARC
  5
4C
330
1F
100
AcDbEntity
  8
LC-002-100-D00-0
 62
     7
370
    50
100
AcDbCircle
 10
181.715256
 20
-163.625384
 30
0.0
 40
0.2500000000004226
100
AcDbArc
 50
90.744266
 51
270.488481
  0
ARC
  5
4D
330
1F
100
AcDbEntity
  8
LC-002-100-D00-0
 62
     7
370
    50
100
AcDbCircle
 10
125.718496
 20
-164.227806
 30
0.0
 40
27.5
100
AcDbArc
 50
0.0
 51
180.0
  0
ARC
  5
4E
330
1F
100
AcDbEntity
  8
LC-002-100-D00-0
 62
     7
370
    50
100
AcDbCircle
 10
125.718496
 20
-164.227806
 30
0.0
 40
39.49999999999997
100
AcDbArc
 50
0.0
 51
180.0
  0
LINE
  5
4F
330
1F
100
AcDbEntity
  8
LC-002-100-D00-0
 62
     7
370
    50
100
AcDbLine
 10
126.968496
 20
-112.242832
 30
0.0
 11
126.968496
 21
-108.241758
 31
0.0
  0
ARC
  5
50
330
1F
100
AcDbEntity
  8
LC-002-100-D00-0
 62
     7
370
    50
100
AcDbCircle
 10
125.718496
 20
-164.227806
 30
0.0
 40
52.00000000000003
100
AcDbArc
 50
88.622565
 51
91.377435
  0
LINE
  5
51
330
1F
100
AcDbEntity
  8
LC-002-100-D00-0
 62
     7
370
    50
100
AcDbLine
 10
124.468496
 20
-108.993045
 30
0.0
 11
124.468496
 21
-112.242832
 31
0.0
  0
LINE
  5
52
330
1F
100
AcDbEntity
  8
LC-002-100-D00-0
 62
     7
370
    50
100
AcDbLine
 10
85.246499
 20
-125.523575
 30
0.0
 11
88.075685
 21
-128.352762
 31
0.0
  0
LINE
  5
53
330
1F
100
AcDbEntity
  8
LC-002-100-D00-0
 62
     7
370
    50
100
AcDbLine
 10
89.843452
 20
-126.584995
 30
0.0
 11
87.014266
 21
-123.755808
 31
0.0
  0
ARC
  5
54
330
1F
100
AcDbEntity
  8
LC-002-100-D00-0
 62
     7
370
    50
100
AcDbCircle
 10
125.718496
 20
-164.227806
 30
0.0
 40
52.00000000000005
100
AcDbArc
 50
133.622565
 51
136.377435
  0
LINE
  5
55
330
1F
100
AcDbEntity
  8
LC-002-100-D00-0
 62
     7
370
    50
100
AcDbLine
 10
163.361307
 20
-128.352762
 30
0.0
 11
166.190494
 21
-125.523575
 31
0.0
  0
LINE
  5
56
330
1F
100
AcDbEntity
  8
LC-002-100-D00-0
 62
     7
370
    50
100
AcDbLine
 10
164.422727
 20
-123.755808
 30
0.0
 11
161.59354
 21
-126.584995
 31
0.0
  0
ARC
  5
57
330
1F
100
AcDbEntity
  8
LC-002-100-D00-0
 62
     7
370
    50
100
AcDbCircle
 10
125.718496
 20
-164.227806
 30
0.0
 40
52.00000000000018
100
AcDbArc
 50
43.622565
 51
46.377435
  0
LINE
  5
58
330
1F
100
AcDbEntity
  8
LC-002-100-D00-0
 62
     7
370
    50
100
AcDbLine
 10
73.733523
 20
-162.977806
 30
0.0
 11
69.732449
 21
-162.977806
 31
0.0
  0
ARC
  5
59
330
1F
100
AcDbEntity
  8
LC-002-100-D00-0
 62
     7
370
    50
100
AcDbCircle
 10
125.718496
 20
-164.227806
 30
0.0
 40
52.00000000000003
100
AcDbArc
 50
178.622565
 51
180.0
  0
LINE
  5
5A
330
1F
100
AcDbEntity
  8
LC-002-100-D00-0
 62
     7
370
    50
100
AcDbLine
 10
180.953257
 20
-162.977806
 30
0.0
 11
177.70347
 21
-162.977806
 31
0.0
  0
ARC
  5
5B
330
1F
100
AcDbEntity
  8
LC-002-100-D00-0
 62
     7
370
    50
100
AcDbCircle
 10
125.718496
 20
-164.227806
 30
0.0
 40
52.0000000000002
100
AcDbArc
 50
0.0
 51
1.377435
  0
ARC
  5
5C
330
1F
100
AcDbEntity
  8
LC-002-100-D00-0
 62
     7
370
    50
100
AcDbCircle
 10
125.718496
 20
-164.227806
 30
0.0
 40
52.00000000000017
100
AcDbArc
 50
46.377435
 51
88.622565
  0
ARC
  5
5D
330
1F
100
AcDbEntity
  8
LC-002-100-D00-0
 62
     7
370
    50
100
AcDbCircle
 10
125.718496
 20
-164.227806
 30
0.0
 40
52.00000000000003
100
AcDbArc
 50
91.377435
 51
133.622565
  0
ARC
  5
5E
330
1F
100
AcDbEntity
  8
LC-002-100-D00-0
 62
     7
370
    50
100
AcDbCircle
 10
125.718496
 20
-164.227806
 30
0.0
 40
52.00000000000005
100
AcDbArc
 50
136.377435
 51
178.622565
  0
ARC
  5
5F
330
1F
100
AcDbEntity
  8
LC-002-100-D00-0
 62
     7
370
    50
100
AcDbCircle
 10
125.718496
 20
-164.227806
 30
0.0
 40
52.00000000000026
100
AcDbArc
 50
1.377435
 51
43.622565
  0
ARC
  5
60
330
1F
100
AcDbEntity
  8
LC-002-100-D00-0
 62
     7
370
    50
100
AcDbCircle
 10
125.718496
 20
-164.227806
 30
0.0
 40
49.4617912660525
100
AcDbArc
 50
0.0
 51
180.0
  0
ARC
  5
61
330
1F
100
AcDbEntity
  8
LC-002-100-D00-0
 62
     7
370
    50
100
AcDbCircle
 10
125.718496
 20
-164.227806
 30
0.0
 40
46.56401378718522
100
AcDbArc
 50
0.0
 51
180.0
  0
ARC
  5
62
330
1F
100
AcDbEntity
  8
LC-002-100-D00-0
 62
     7
370
    50
100
AcDbCircle
 10
181.465256
 20
318.830857
 30
0.0
 40
0.7500000000002274
100
AcDbArc
 50
90.0
 51
180.0
  0
LINE
  5
63
330
1F
100
AcDbEntity
  8
LC-002-100-D00-0
 62
     7
370
    50
100
AcDbLine
 10
180.715256
 20
318.830859
 30
0.0
 11
180.715256
 21
315.580856
 31
0.0
  0
LINE
  5
64
330
1F
100
AcDbEntity
  8
LC-002-100-D00-0
 62
     7
370
    50
100
AcDbLine
 10
180.924569
 20
320.380855
 30
0.0
 11
180.924569
 21
319.350626
 31
0.0
  0
ARC
  5
65
330
1F
100
AcDbEntity
  8
LC-002-100-D00-0
 62
     7
370
    50
100
AcDbCircle
 10
77.172669
 20
318.830857
 30
0.0
 40
0.75
100
AcDbArc
 50
0.0
 51
90.0
  0
LINE
  5
66
330
1F
100
AcDbEntity
  8
LC-002-100-D00-0
 62
     7
370
    50
100
AcDbLine
 10
77.922669
 20
315.580856
 30
0.0
 11
77.922669
 21
318.830859
 31
0.0
  0
ARC
  5
67
330
1F
100
AcDbEntity
  8
LC-002-100-D00-0
 62
     7
370
    50
100
AcDbCircle
 10
173.661902
 20
318.830857
 30
0.0
 40
0.7500000000001137
100
AcDbArc
 50
90.0
 51
180.0
  0
LINE
  5
68
330
1F
100
AcDbEntity
  8
LC-002-100-D00-0
 62
     7
370
    50
100
AcDbLine
 10
172.911902
 20
318.830859
 30
0.0
 11
172.911902
 21
315.580856
 31
0.0
  0
ARC
  5
69
330
1F
100
AcDbEntity
  8
LC-002-100-D00-0
 62
     7
370
    50
100
AcDbCircle
 10
97.448404
 20
318.830857
 30
0.0
 40
0.7500000000001137
100
AcDbArc
 50
0.0
 51
90.0
  0
LINE
  5
6A
330
1F
100
AcDbEntity
  8
LC-002-100-D00-0
 62
     7
370
    50
100
AcDbLine
 10
98.198403
 20
315.580856
 30
0.0
 11
98.198403
 21
318.830859
 31
0.0
  0
LINE
  5
6B
330
1F
100
AcDbEntity
  8
LC-002-100-D00-0
 62
     7
370
    50
100
AcDbLine
 10
152.195164
 20
318.830859
 30
0.0
 11
152.195164
 21
315.580856
 31
0.0
  0
ARC
  5
6C
330
1F
100
AcDbEntity
  8
LC-002-100-D00-0
 62
     7
370
    50
100
AcDbCircle
 10
152.945163
 20
318.830857
 30
0.0
 40
0.7500000000002274
100
AcDbArc
 50
90.0
 51
180.0
  0
LINE
  5
6D
330
1F
100
AcDbEntity
  8
LC-002-100-D00-0
 62
     7
370
    50
100
AcDbLine
 10
105.681111
 20
315.580856
 30
0.0
 11
105.681111
 21
320.380855
 31
0.0
  0
LINE
  5
6E
330
1F
100
AcDbEntity
  8
LC-002-100-D00-0
 62
     7
370
    50
100
AcDbLine
 10
109.967644
 20
308.280855
 30
0.0
 11
109.967644
 21
308.180857
 31
0.0
  0
LINE
  5
6F
330
1F
100
AcDbEntity
  8
LC-002-100-D00-0
 62
     7
370
    50
100
AcDbLine
 10
44.718497
 20
320.430856
 30
0.0
 11
44.718497
 21
320.380855
 31
0.0
  0
LINE
  5
70
330
1F
100
AcDbEntity
  8
LC-002-100-D00-0
 62
     7
370
    50
100
AcDbLine
 10
206.718498
 20
320.380855
 30
0.0
 11
206.718498
 21
320.430856
 31
0.0
  0
LINE
  5
71
330
1F
100
AcDbEntity
  8
LC-002-100-D00-0
 62
     7
370
    50
100
AcDbLine
 10
68.718494
 20
320.430856
 30
0.0
 11
68.718494
 21
320.380855
 31
0.0
  0
LINE
  5
72
330
1F
100
AcDbEntity
  8
LC-002-100-D00-0
 62
     7
370
    50
100
AcDbLine
 10
182.718498
 20
320.380855
 30
0.0
 11
182.718498
 21
320.430856
 31
0.0
  0
LINE
  5
73
330
1F
100
AcDbEntity
  8
LC-002-100-D00-0
 62
     7
370
    50
100
AcDbLine
 10
105.681111
 20
320.380855
 30
0.0
 11
115.248955
 21
320.380855
 31
0.0
  0
LINE
  5
74
330
1F
100
AcDbEntity
  8
LC-002-100-D00-0
 62
     7
370
    50
100
AcDbLine
 10
179.056794
 20
320.380855
 30
0.0
 11
180.924569
 21
320.380855
 31
0.0
  0
LINE
  5
75
330
1F
100
AcDbEntity
  8
LC-002-100-D00-0
 62
     7
370
    50
100
AcDbLine
 10
68.718494
 20
320.430856
 30
0.0
 11
182.718498
 21
320.430856
 31
0.0
  0
LINE
  5
76
330
1F
100
AcDbEntity
  8
LC-002-100-D00-0
 62
     7
370
    50
100
AcDbLine
 10
68.718494
 20
320.380855
 30
0.0
 11
44.718497
 21
320.380855
 31
0.0
  0
LINE
  5
77
330
1F
100
AcDbEntity
  8
LC-002-100-D00-0
 62
     7
370
    50
100
AcDbLine
 10
68.718494
 20
320.430856
 30
0.0
 11
44.718497
 21
320.430856
 31
0.0
  0
LINE
  5
78
330
1F
100
AcDbEntity
  8
LC-002-100-D00-0
 62
     7
370
    50
100
AcDbLine
 10
206.718498
 20
320.380855
 30
0.0
 11
182.718498
 21
320.380855
 31
0.0
  0
LINE
  5
79
330
1F
100
AcDbEntity
  8
LC-002-100-D00-0
 62
     7
370
    50
100
AcDbLine
 10
206.718498
 20
320.430856
 30
0.0
 11
182.718498
 21
320.430856
 31
0.0
  0
LINE
  5
7A
330
1F
100
AcDbEntity
  8
LC-002-100-D00-0
 62
     7
370
    50
100
AcDbLine
 10
44.718497
 20
320.380855
 30
0.0
 11
44.718497
 21
317.580856
 31
0.0
  0
LINE
  5
7B
330
1F
100
AcDbEntity
  8
LC-002-100-D00-0
 62
     7
370
    50
100
AcDbLine
 10
206.718498
 20
317.580856
 30
0.0
 11
206.718498
 21
320.380855
 31
0.0
  0
LINE
  5
7C
330
1F
100
AcDbEntity
  8
LC-002-100-D00-0
 62
     7
370
    50
100
AcDbLine
 10
69.718496
 20
320.380855
 30
0.0
 11
69.718496
 21
319.492895
 31
0.0
  0
INSERT
  5
90
330
1F
100
AcDbEntity
  8
LC-002-100-D00-0
 62
     7
370
    50
100
AcDbBlockReference
  2
POLY1
 10
0.0
 20
0.0
 30
0.0
  0
LINE
  5
91
330
1F
100
AcDbEntity
  8
LC-002-100-D00-0
 62
     7
370
    50
100
AcDbLine
 10
70.519917
 20
318.830859
 30
0.0
 11
70.519917
 21
315.580856
 31
0.0
  0
LINE
  5
92
330
1F
100
AcDbEntity
  8
LC-002-100-D00-0
 62
     7
370
    50
100
AcDbLine
 10
70.519917
 20
315.580856
 30
0.0
 11
68.718494
 21
315.580856
 31
0.0
  0
LINE
  5
93
330
1F
100
AcDbEntity
  8
LC-002-100-D00-0
 62
     7
370
    50
100
AcDbLine
 10
68.718494
 20
317.580856
 30
0.0
 11
68.718494
 21
315.580856
 31
0.0
  0
LINE
  5
94
330
1F
100
AcDbEntity
  8
LC-002-100-D00-0
 62
     7
370
    50
100
AcDbLine
 10
69.718496
 20
320.380855
 30
0.0
 11
44.718497
 21
320.380855
 31
0.0
  0
LINE
  5
95
330
1F
100
AcDbEntity
  8
LC-002-100-D00-0
 62
     7
370
    50
100
AcDbLine
 10
68.718494
 20
317.580856
 30
0.0
 11
44.718497
 21
317.580856
 31
0.0
  0
LINE
  5
96
330
1F
100
AcDbEntity
  8
LC-002-100-D00-0
 62
     7
370
    50
100
AcDbLine
 10
182.718498
 20
315.580856
 30
0.0
 11
182.718498
 21
317.580856
 31
0.0
  0
LINE
  5
97
330
1F
100
AcDbEntity
  8
LC-002-100-D00-0
 62
     7
370
    50
100
AcDbLine
 10
182.718498
 20
315.580856
 30
0.0
 11
180.917078
 21
315.580856
 31
0.0
  0
LINE
  5
98
330
1F
100
AcDbEntity
  8
LC-002-100-D00-0
 62
     7
370
    50
100
AcDbLine
 10
180.917078
 20
315.580856
 30
0.0
 11
180.917078
 21
318.830859
 31
0.0
  0
INSERT
  5
AC
330
1F
100
AcDbEntity
  8
LC-002-100-D00-0
 62
     7
370
    50
100
AcDbBlockReference
  2
POLY2
 10
0.0
 20
0.0
 30
0.0
  0
LINE
  5
AD
330
1F
100
AcDbEntity
  8
LC-002-100-D00-0
 62
     7
370
    50
100
AcDbLine
 10
181.718495
 20
319.492895
 30
0.0
 11
181.718495
 21
320.380855
 31
0.0
  0
LINE
  5
AE
330
1F
100
AcDbEntity
  8
LC-002-100-D00-0
 62
     7
370
    50
100
AcDbLine
 10
206.718498
 20
320.380855
 30
0.0
 11
181.718495
 21
320.380855
 31
0.0
  0
LINE
  5
AF
330
1F
100
AcDbEntity
  8
LC-002-100-D00-0
 62
     7
370
    50
100
AcDbLine
 10
206.718498
 20
317.580856
 30
0.0
 11
182.718498
 21
317.580856
 31
0.0
  0
LINE
  5
B0
330
1F
100
AcDbEntity
  8
LC-002-100-D00-0
 62
     7
370
    50
100
AcDbLine
 10
181.465258
 20
319.580857
 30
0.0
 11
181.717389
 21
319.580857
 31
0.0
  0
INSERT
  5
BC
330
1F
100
AcDbEntity
  8
LC-002-100-D00-0
 62
     7
370
    50
100
AcDbBlockReference
  2
POLY3
 10
0.0
 20
0.0
 30
0.0
  0
INSERT
  5
CE
330
1F
100
AcDbEntity
  8
LC-002-100-D00-0
 62
     7
370
    50
100
AcDbBlockReference
  2
POLY4
 10
0.0
 20
0.0
 30
0.0
  0
LINE
  5
CF
330
1F
100
AcDbEntity
  8
LC-002-100-D00-0
 62
     7
370
    50
100
AcDbLine
 10
96.342389
 20
318.830859
 30
0.0
 11
96.342389
 21
315.580856
 31
0.0
  0
INSERT
  5
E1
330
1F
100
AcDbEntity
  8
LC-002-100-D00-0
 62
     7
370
    50
100
AcDbBlockReference
  2
POLY5
 10
0.0
 20
0.0
 30
0.0
  0
LINE
  5
E2
330
1F
100
AcDbEntity
  8
LC-002-100-D00-0
 62
     7
370
    50
100
AcDbLine
 10
76.439814
 20
318.830859
 30
0.0
 11
76.439814
 21
315.580856
 31
0.0
  0
LINE
  5
E3
330
1F
100
AcDbEntity
  8
LC-002-100-D00-0
 62
     7
370
    50
100
AcDbLine
 10
70.519917
 20
315.580856
 30
0.0
 11
76.439814
 21
315.580856
 31
0.0
  0
LINE
  5
E4
330
1F
100
AcDbEntity
  8
LC-002-100-D00-0
 62
     7
370
    50
100
AcDbLine
 10
77.922669
 20
315.580856
 30
0.0
 11
96.342389
 21
315.580856
 31
0.0
  0
LINE
  5
E5
330
1F
100
AcDbEntity
  8
LC-002-100-D00-0
 62
     7
370
    50
100
AcDbLine
 10
98.198403
 20
315.580856
 30
0.0
 11
105.050186
 21
315.580856
 31
0.0
  0
LINE
  5
E6
330
1F
100
AcDbEntity
  8
LC-002-100-D00-0
 62
     7
370
    50
100
AcDbLine
 10
69.718496
 20
320.380855
 30
0.0
 11
105.050186
 21
320.380855
 31
0.0
  0
LINE
  5
E7
330
1F
100
AcDbEntity
  8
LC-002-100-D00-0
 62
     7
370
    50
100
AcDbLine
 10
180.917078
 20
315.580856
 30
0.0
 11
180.715256
 21
315.580856
 31
0.0
  0
LINE
  5
E8
330
1F
100
AcDbEntity
  8
LC-002-100-D00-0
 62
     7
370
    50
100
AcDbLine
 10
180.938498
 20
320.380855
 30
0.0
 11
181.718495
 21
320.380855
 31
0.0
  0
LINE
  5
E9
330
1F
100
AcDbEntity
  8
LC-002-100-D00-0
 62
     7
370
    50
100
AcDbLine
 10
174.413484
 20
318.830859
 30
0.0
 11
174.413484
 21
315.580856
 31
0.0
  0
INSERT
  5
FB
330
1F
100
AcDbEntity
  8
LC-002-100-D00-0
 62
     7
370
    50
100
AcDbBlockReference
  2
POLY6
 10
0.0
 20
0.0
 30
0.0
  0
LINE
  5
FC
330
1F
100
AcDbEntity
  8
LC-002-100-D00-0
 62
     7
370
    50
100
AcDbLine
 10
154.062102
 20
318.830859
 30
0.0
 11
154.062102
 21
315.580856
 31
0.0
  0
INSERT
  5
10E
330
1F
100
AcDbEntity
  8
LC-002-100-D00-0
 62
     7
370
    50
100
AcDbBlockReference
  2
POLY7
 10
0.0
 20
0.0
 30
0.0
  0
LINE
  5
10F
330
1F
100
AcDbEntity
  8
LC-002-100-D00-0
 62
     7
370
    50
100
AcDbLine
 10
126.116073
 20
318.830859
 30
0.0
 11
126.116073
 21
318.180855
 31
0.0
  0
INSERT
  5
121
330
1F
100
AcDbEntity
  8
LC-002-100-D00-0
 62
     7
370
    50
100
AcDbBlockReference
  2
POLY8
 10
0.0
 20
0.0
 30
0.0
  0
INSERT
  5
133
330
1F
100
AcDbEntity
  8
LC-002-100-D00-0
 62
     7
370
    50
100
AcDbBlockReference
  2
POLY9
 10
0.0
 20
0.0
 30
0.0
  0
LINE
  5
134
330
1F
100
AcDbEntity
  8
LC-002-100-D00-0
 62
     7
370
    50
100
AcDbLine
 10
124.116268
 20
318.830859
 30
0.0
 11
124.116268
 21
318.180855
 31
0.0
  0
LINE
  5
135
330
1F
100
AcDbEntity
  8
LC-002-100-D00-0
 62
     7
370
    50
100
AcDbLine
 10
136.796213
 20
315.580856
 30
0.0
 11
152.195164
 21
315.580856
 31
0.0
  0
LINE
  5
136
330
1F
100
AcDbEntity
  8
LC-002-100-D00-0
 62
     7
370
    50
100
AcDbLine
 10
154.062102
 20
315.580856
 30
0.0
 11
172.911902
 21
315.580856
 31
0.0
  0
LINE
  5
137
330
1F
100
AcDbEntity
  8
LC-002-100-D00-0
 62
     7
370
    50
100
AcDbLine
 10
174.413484
 20
315.580856
 30
0.0
 11
177.76483
 21
315.580856
 31
0.0
  0
LINE
  5
138
330
1F
100
AcDbEntity
  8
LC-002-100-D00-0
 62
     7
370
    50
100
AcDbLine
 10
116.40446
 20
320.380855
 30
0.0
 11
177.76483
 21
320.380855
 31
0.0
  0
LINE
  5
139
330
1F
100
AcDbEntity
  8
LC-002-100-D00-0
 62
     7
370
    50
100
AcDbLine
 10
180.924569
 20
320.380855
 30
0.0
 11
180.938498
 21
320.380855
 31
0.0
  0
LINE
  5
13A
330
1F
100
AcDbEntity
  8
LC-002-100-D00-0
 62
     7
370
    50
100
AcDbLine
 10
179.056794
 20
317.580856
 30
0.0
 11
179.056794
 21
320.380855
 31
0.0
  0
LINE
  5
13B
330
1F
100
AcDbEntity
  8
LC-002-100-D00-0
 62
     7
370
    50
100
AcDbLine
 10
179.056794
 20
317.580856
 30
0.0
 11
180.715256
 21
317.580856
 31
0.0
  0
LINE
  5
13C
330
1F
100
AcDbEntity
  8
LC-002-100-D00-0
 62
     7
370
    50
100
AcDbLine
 10
178.963424
 20
315.580856
 30
0.0
 11
177.76483
 21
315.580856
 31
0.0
  0
LINE
  5
13D
330
1F
100
AcDbEntity
  8
LC-002-100-D00-0
 62
     7
370
    50
100
AcDbLine
 10
177.76483
 20
320.380855
 30
0.0
 11
178.963424
 21
320.380855
 31
0.0
  0
LINE
  5
13E
330
1F
100
AcDbEntity
  8
LC-002-100-D00-0
 62
     7
370
    50
100
AcDbLine
 10
179.056794
 20
315.580856
 30
0.0
 11
178.963424
 21
315.580856
 31
0.0
  0
LINE
  5
13F
330
1F
100
AcDbEntity
  8
LC-002-100-D00-0
 62
     7
370
    50
100
AcDbLine
 10
179.056794
 20
315.580856
 30
0.0
 11
179.056794
 21
317.580856
 31
0.0
  0
LINE
  5
140
330
1F
100
AcDbEntity
  8
LC-002-100-D00-0
 62
     7
370
    50
100
AcDbLine
 10
179.056794
 20
320.380855
 30
0.0
 11
178.963424
 21
320.380855
 31
0.0
  0
LINE
  5
141
330
1F
100
AcDbEntity
  8
LC-002-100-D00-0
 62
     7
370
    50
100
AcDbLine
 10
76.800492
 20
319.580857
 30
0.0
 11
77.172668
 21
319.580857
 31
0.0
  0
LINE
  5
142
330
1F
100
AcDbEntity
  8
LC-002-100-D00-0
 62
     7
370
    50
100
AcDbLine
 10
77.922669
 20
315.580856
 30
0.0
 11
76.439814
 21
315.580856
 31
0.0
  0
LINE
  5
143
330
1F
100
AcDbEntity
  8
LC-002-100-D00-0
 62
     7
370
    50
100
AcDbLine
 10
173.661903
 20
319.580857
 30
0.0
 11
174.038742
 21
319.580857
 31
0.0
  0
LINE
  5
144
330
1F
100
AcDbEntity
  8
LC-002-100-D00-0
 62
     7
370
    50
100
AcDbLine
 10
174.413484
 20
315.580856
 30
0.0
 11
172.911902
 21
315.580856
 31
0.0
  0
LINE
  5
145
330
1F
100
AcDbEntity
  8
LC-002-100-D00-0
 62
     7
370
    50
100
AcDbLine
 10
96.983538
 20
319.580857
 30
0.0
 11
97.448402
 21
319.580857
 31
0.0
  0
LINE
  5
146
330
1F
100
AcDbEntity
  8
LC-002-100-D00-0
 62
     7
370
    50
100
AcDbLine
 10
98.198403
 20
315.580856
 30
0.0
 11
96.342389
 21
315.580856
 31
0.0
  0
LINE
  5
147
330
1F
100
AcDbEntity
  8
LC-002-100-D00-0
 62
     7
370
    50
100
AcDbLine
 10
154.062102
 20
315.580856
 30
0.0
 11
152.195164
 21
315.580856
 31
0.0
  0
LINE
  5
148
330
1F
100
AcDbEntity
  8
LC-002-100-D00-0
 62
     7
370
    50
100
AcDbLine
 10
152.945163
 20
319.580857
 30
0.0
 11
153.412728
 21
319.580857
 31
0.0
  0
LINE
  5
149
330
1F
100
AcDbEntity
  8
LC-002-100-D00-0
 62
     7
370
    50
100
AcDbLine
 10
105.681111
 20
315.580856
 30
0.0
 11
105.050186
 21
315.580856
 31
0.0
  0
LINE
  5
14A
330
1F
100
AcDbEntity
  8
LC-002-100-D00-0
 62
     7
370
    50
100
AcDbLine
 10
105.050186
 20
320.380855
 30
0.0
 11
105.681111
 21
320.380855
 31
0.0
  0
LINE
  5
14B
330
1F
100
AcDbEntity
  8
LC-002-100-D00-0
 62
     7
370
    50
100
AcDbLine
 10
115.248955
 20
317.580856
 30
0.0
 11
115.248955
 21
320.380855
 31
0.0
  0
LINE
  5
14C
330
1F
100
AcDbEntity
  8
LC-002-100-D00-0
 62
     7
370
    50
100
AcDbLine
 10
115.248955
 20
320.380855
 30
0.0
 11
105.618098
 21
320.380855
 31
0.0
  0
LINE
  5
14D
330
1F
100
AcDbEntity
  8
LC-002-100-D00-0
 62
     7
370
    50
100
AcDbLine
 10
105.618098
 20
317.580856
 30
0.0
 11
115.248955
 21
317.580856
 31
0.0
  0
LINE
  5
14E
330
1F
100
AcDbEntity
  8
LC-002-100-D00-0
 62
     7
370
    50
100
AcDbLine
 10
124.866095
 20
319.580857
 30
0.0
 11
125.366065
 21
319.580857
 31
0.0
  0
LINE
  5
14F
330
1F
100
AcDbEntity
  8
LC-002-100-D00-0
 62
     7
370
    50
100
AcDbLine
 10
115.275052
 20
320.380855
 30
0.0
 11
116.40446
 21
320.380855
 31
0.0
  0
LINE
  5
150
330
1F
100
AcDbEntity
  8
LC-002-100-D00-0
 62
     7
370
    50
100
AcDbLine
 10
115.248955
 20
316.129729
 30
0.0
 11
115.248955
 21
317.580856
 31
0.0
  0
LINE
  5
151
330
1F
100
AcDbEntity
  8
LC-002-100-D00-0
 62
     7
370
    50
100
AcDbLine
 10
115.275052
 20
320.380855
 30
0.0
 11
115.248955
 21
320.380855
 31
0.0
  0
ARC
  5
152
330
1F
100
AcDbEntity
  8
LC-002-100-D00-0
 62
     7
370
    50
100
AcDbCircle
 10
153.218496
 20
296.180857
 30
0.0
 40
12.00000000000011
100
AcDbArc
 50
0.0
 51
90.0
  0
ARC
  5
153
330
1F
100
AcDbEntity
  8
LC-002-100-D00-0
 62
     7
370
    50
100
AcDbCircle
 10
98.218496
 20
296.180857
 30
0.0
 40
12.0
100
AcDbArc
 50
90.0
 51
180.0
  0
ARC
  5
154
330
1F
100
AcDbEntity
  8
LC-002-100-D00-0
 62
     7
370
    50
100
AcDbCircle
 10
130.468496
 20
309.180857
 30
0.0
 40
5.0
100
AcDbArc
 50
0.0
 51
90.0
  0
LINE
  5
155
330
1F
100
AcDbEntity
  8
LC-002-100-D00-0
 62
     7
370
    50
100
AcDbLine
 10
130.468496
 20
314.180858
 30
0.0
 11
120.968496
 21
314.180858
 31
0.0
  0
ARC
  5
156
330
1F
100
AcDbEntity
  8
LC-002-100-D00-0
 62
     7
370
    50
100
AcDbCircle
 10
120.968496
 20
309.180857
 30
0.0
 40
5.0
100
AcDbArc
 50
90.0
 51
180.0
  0
LINE
  5
157
330
1F
100
AcDbEntity
  8
LC-002-100-D00-0
 62
     7
370
    50
100
AcDbLine
 10
115.968496
 20
308.180857
 30
0.0
 11
115.968496
 21
309.180856
 31
0.0
  0
LINE
  5
158
330
1F
100
AcDbEntity
  8
LC-002-100-D00-0
 62
     7
370
    50
100
AcDbLine
 10
135.468496
 20
308.180857
 30
0.0
 11
135.468496
 21
309.180856
 31
0.0
  0
LINE
  5
159
330
1F
100
AcDbEntity
  8
LC-002-100-D00-0
 62
     7
370
    50
100
AcDbLine
 10
165.218496
 20
243.180858
 30
0.0
 11
165.218496
 21
296.180855
 31
0.0
  0
LINE
  5
15A
330
1F
100
AcDbEntity
  8
LC-002-100-D00-0
 62
     7
370
    50
100
AcDbLine
 10
163.718496
 20
243.180858
 30
0.0
 11
165.218496
 21
243.180858
 31
0.0
  0
LINE
  5
15B
330
1F
100
AcDbEntity
  8
LC-002-100-D00-0
 62
     7
370
    50
100
AcDbLine
 10
163.718496
 20
296.180855
 30
0.0
 11
163.718496
 21
243.180858
 31
0.0
  0
ARC
  5
15C
330
1F
100
AcDbEntity
  8
LC-002-100-D00-0
 62
     7
370
    50
100
AcDbCircle
 10
153.718496
 20
296.180857
 30
0.0
 40
10.0
100
AcDbArc
 50
0.0
 51
90.0
  0
LINE
  5
15D
330
1F
100
AcDbEntity
  8
LC-002-100-D00-0
 62
     7
370
    50
100
AcDbLine
 10
107.718496
 20
306.180857
 30
0.0
 11
153.718496
 21
306.180857
 31
0.0
  0
LINE
  5
15E
330
1F
100
AcDbEntity
  8
LC-002-100-D00-0
 62
     7
370
    50
100
AcDbLine
 10
107.718496
 20
288.680857
 30
0.0
 11
107.718496
 21
306.180857
 31
0.0
  0
LINE
  5
15F
330
1F
100
AcDbEntity
  8
LC-002-100-D00-0
 62
     7
370
    50
100
AcDbLine
 10
107.718496
 20
288.680857
 30
0.0
 11
104.254396
 21
288.680857
 31
0.0
  0
LINE
  5
160
330
1F
100
AcDbEntity
  8
LC-002-100-D00-0
 62
     7
370
    50
100
AcDbLine
 10
104.254396
 20
288.680857
 30
0.0
 11
103.718496
 21
290.680857
 31
0.0
  0
LINE
  5
161
330
1F
100
AcDbEntity
  8
LC-002-100-D00-0
 62
     7
370
    50
100
AcDbLine
 10
103.718496
 20
290.680857
 30
0.0
 11
103.718496
 21
293.180857
 31
0.0
  0
LINE
  5
162
330
1F
100
AcDbEntity
  8
LC-002-100-D00-0
 62
     7
370
    50
100
AcDbLine
 10
101.218496
 20
293.180857
 30
0.0
 11
103.718496
 21
293.180857
 31
0.0
  0
LINE
  5
163
330
1F
100
AcDbEntity
  8
LC-002-100-D00-0
 62
     7
370
    50
100
AcDbLine
 10
101.218496
 20
283.680858
 30
0.0
 11
101.218496
 21
293.180857
 31
0.0
  0
LINE
  5
164
330
1F
100
AcDbEntity
  8
LC-002-100-D00-0
 62
     7
370
    50
100
AcDbLine
 10
99.744775
 20
278.180857
 30
0.0
 11
101.218496
 21
283.680858
 31
0.0
  0
LINE
  5
165
330
1F
100
AcDbEntity
  8
LC-002-100-D00-0
 62
     7
370
    50
100
AcDbLine
 10
87.718495
 20
278.180857
 30
0.0
 11
99.744775
 21
278.180857
 31
0.0
  0
LINE
  5
166
330
1F
100
AcDbEntity
  8
LC-002-100-D00-0
 62
     7
370
    50
100
AcDbLine
 10
87.718495
 20
243.180858
 30
0.0
 11
87.718495
 21
278.180857
 31
0.0
  0
LINE
  5
167
330
1F
100
AcDbEntity
  8
LC-002-100-D00-0
 62
     7
370
    50
100
AcDbLine
 10
86.218496
 20
243.180858
 30
0.0
 11
87.718495
 21
243.180858
 31
0.0
  0
LINE
  5
168
330
1F
100
AcDbEntity
  8
LC-002-100-D00-0
 62
     7
370
    50
100
AcDbLine
 10
86.218496
 20
296.180855
 30
0.0
 11
86.218496
 21
243.180858
 31
0.0
  0
LINE
  5
169
330
1F
100
AcDbEntity
  8
LC-002-100-D00-0
 62
     7
370
    50
100
AcDbLine
 10
111.968496
 20
309.180856
 30
0.0
 11
111.968496
 21
308.180857
 31
0.0
  0
ARC
  5
16A
330
1F
100
AcDbEntity
  8
LC-002-100-D00-0
 62
     7
370
    50
100
AcDbCircle
 10
120.968496
 20
309.180857
 30
0.0
 40
9.0
100
AcDbArc
 50
90.0
 51
180.0
  0
LINE
  5
16B
330
1F
100
AcDbEntity
  8
LC-002-100-D00-0
 62
     7
370
    50
100
AcDbLine
 10
120.968496
 20
318.180855
 30
0.0
 11
130.468496
 21
318.180855
 31
0.0
  0
ARC
  5
16C
330
1F
100
AcDbEntity
  8
LC-002-100-D00-0
 62
     7
370
    50
100
AcDbCircle
 10
130.468496
 20
309.180857
 30
0.0
 40
9.0
100
AcDbArc
 50
0.0
 51
90.0
  0
LINE
  5
16D
330
1F
100
AcDbEntity
  8
LC-002-100-D00-0
 62
     7
370
    50
100
AcDbLine
 10
139.468496
 20
309.180856
 30
0.0
 11
139.468496
 21
308.180857
 31
0.0
  0
LINE
  5
16E
330
1F
100
AcDbEntity
  8
LC-002-100-D00-0
 62
     7
370
    50
100
AcDbLine
 10
135.468496
 20
308.180857
 30
0.0
 11
115.968496
 21
308.180857
 31
0.0
  0
LINE
  5
16F
330
1F
100
AcDbEntity
  8
LC-002-100-D00-0
 62
     7
370
    50
100
AcDbLine
 10
111.968496
 20
308.180857
 30
0.0
 11
98.218498
 21
308.180857
 31
0.0
  0
LINE
  5
170
330
1F
100
AcDbEntity
  8
LC-002-100-D00-0
 62
     7
370
    50
100
AcDbLine
 10
153.218495
 20
308.180857
 30
0.0
 11
139.468496
 21
308.180857
 31
0.0
  0
INSERT
  5
18C
330
1F
100
AcDbEntity
  8
LC-002-100-D00-0
 62
     7
370
    50
100
AcDbBlockReference
  2
POLY10
 10
0.0
 20
0.0
 30
0.0
  0
LINE
  5
18D
330
1F
100
AcDbEntity
  8
LC-002-100-D00-0
 62
     7
370
    50
100
AcDbLine
 10
87.718495
 20
243.180858
 30
0.0
 11
101.218496
 21
243.180858
 31
0.0
  0
LINE
  5
18E
330
1F
100
AcDbEntity
  8
LC-002-100-D00-0
 62
     7
370
    50
100
AcDbLine
 10
150.218497
 20
243.180858
 30
0.0
 11
163.718496
 21
243.180858
 31
0.0
  0
LINE
  5
18F
330
1F
100
AcDbEntity
  8
LC-002-100-D00-0
 62
     7
370
    50
100
AcDbLine
 10
139.61664
 20
308.280855
 30
0.0
 11
139.61664
 21
308.180857
 31
0.0
  0
INSERT
  5
19B
330
1F
100
AcDbEntity
  8
LC-002-100-D00-0
 62
     7
370
    50
100
AcDbBlockReference
  2
POLY11
 10
0.0
 20
0.0
 30
0.0
  0
LINE
  5
19C
330
1F
100
AcDbEntity
  8
LC-002-100-D00-0
 62
     7
370
    50
100
AcDbLine
 10
140.290001
 20
308.280855
 30
0.0
 11
140.290001
 21
308.180857
 31
0.0
  0
LINE
  5
19D
330
1F
100
AcDbEntity
  8
LC-002-100-D00-0
 62
     7
370
    50
100
AcDbLine
 10
140.290001
 20
308.280855
 30
0.0
 11
139.61664
 21
308.280855
 31
0.0
  0
LINE
  5
19E
330
1F
100
AcDbEntity
  8
LC-002-100-D00-0
 62
     7
370
    50
100
AcDbLine
 10
126.730595
 20
308.280855
 30
0.0
 11
126.730595
 21
308.180857
 31
0.0
  0
LINE
  5
19F
330
1F
100
AcDbEntity
  8
LC-002-100-D00-0
 62
     7
370
    50
100
AcDbLine
 10
127.839005
 20
308.280855
 30
0.0
 11
127.839005
 21
308.180857
 31
0.0
  0
LINE
  5
1A0
330
1F
100
AcDbEntity
  8
LC-002-100-D00-0
 62
     7
370
    50
100
AcDbLine
 10
116.301329
 20
308.280855
 30
0.0
 11
116.301329
 21
308.180857
 31
0.0
  0
LINE
  5
1A1
330
1F
100
AcDbEntity
  8
LC-002-100-D00-0
 62
     7
370
    50
100
AcDbLine
 10
117.115452
 20
308.280855
 30
0.0
 11
117.115452
 21
308.180857
 31
0.0
  0
LINE
  5
1A2
330
1F
100
AcDbEntity
  8
LC-002-100-D00-0
 62
     7
370
    50
100
AcDbLine
 10
125.362883
 20
308.280855
 30
0.0
 11
125.362883
 21
308.180857
 31
0.0
  0
LINE
  5
1A3
330
1F
100
AcDbEntity
  8
LC-002-100-D00-0
 62
     7
370
    50
100
AcDbLine
 10
135.240209
 20
308.280855
 30
0.0
 11
135.240209
 21
308.180857
 31
0.0
  0
LINE
  5
1A4
330
1F
100
AcDbEntity
  8
LC-002-100-D00-0
 62
     7
370
    50
100
AcDbLine
 10
135.456705
 20
308.280855
 30
0.0
 11
135.240209
 21
308.280855
 31
0.0
  0
LINE
  5
1A5
330
1F
100
AcDbEntity
  8
LC-002-100-D00-0
 62
     7
370
    50
100
AcDbLine
 10
119.282471
 20
308.280855
 30
0.0
 11
119.282471
 21
308.180857
 31
0.0
  0
LINE
  5
1A6
330
1F
100
AcDbEntity
  8
LC-002-100-D00-0
 62
     7
370
    50
100
AcDbLine
 10
120.137342
 20
308.280855
 30
0.0
 11
120.137342
 21
308.180857
 31
0.0
  0
LINE
  5
1A7
330
1F
100
AcDbEntity
  8
LC-002-100-D00-0
 62
     7
370
    50
100
AcDbLine
 10
134.60883
 20
308.280855
 30
0.0
 11
134.60883
 21
308.180857
 31
0.0
  0
INSERT
  5
1B7
330
1F
100
AcDbEntity
  8
LC-002-100-D00-0
 62
     7
370
    50
100
AcDbBlockReference
  2
POLY12
 10
0.0
 20
0.0
 30
0.0
  0
LINE
  5
1B8
330
1F
100
AcDbEntity
  8
LC-002-100-D00-0
 62
     7
370
    50
100
AcDbLine
 10
118.355983
 20
308.280855
 30
0.0
 11
118.355983
 21
308.180857
 31
0.0
  0
LINE
  5
1B9
330
1F
100
AcDbEntity
  8
LC-002-100-D00-0
 62
     7
370
    50
100
AcDbLine
 10
129.134278
 20
308.280855
 30
0.0
 11
129.134278
 21
308.180857
 31
0.0
  0
LINE
  5
1BA
330
1F
100
AcDbEntity
  8
LC-002-100-D00-0
 62
     7
370
    50
100
AcDbLine
 10
129.989149
 20
308.280855
 30
0.0
 11
129.989149
 21
308.180857
 31
0.0
  0
LINE
  5
1BB
330
1F
100
AcDbEntity
  8
LC-002-100-D00-0
 62
     7
370
    50
100
AcDbLine
 10
128.20779
 20
308.280855
 30
0.0
 11
128.20779
 21
308.180857
 31
0.0
  0
INSERT
  5
1C9
330
1F
100
AcDbEntity
  8
LC-002-100-D00-0
 62
     7
370
    50
100
AcDbBlockReference
  2
POLY13
 10
0.0
 20
0.0
 30
0.0
  0
LINE
  5
1CA
330
1F
100
AcDbEntity
  8
LC-002-100-D00-0
 62
     7
370
    50
100
AcDbLine
 10
111.968496
 20
308.280855
 30
0.0
 11
111.638841
 21
308.280855
 31
0.0
  0
LINE
  5
1CB
330
1F
100
AcDbEntity
  8
LC-002-100-D00-0
 62
     7
370
    50
100
AcDbLine
 10
117.644756
 20
308.280855
 30
0.0
 11
117.644756
 21
308.180857
 31
0.0
  0
LINE
  5
1CC
330
1F
100
AcDbEntity
  8
LC-002-100-D00-0
 62
     7
370
    50
100
AcDbLine
 10
117.960856
 20
308.280855
 30
0.0
 11
117.960856
 21
308.180857
 31
0.0
  0
LINE
  5
1CD
330
1F
100
AcDbEntity
  8
LC-002-100-D00-0
 62
     7
370
    50
100
AcDbLine
 10
117.960856
 20
308.280855
 30
0.0
 11
117.644756
 21
308.280855
 31
0.0
  0
LINE
  5
1CE
330
1F
100
AcDbEntity
  8
LC-002-100-D00-0
 62
     7
370
    50
100
AcDbLine
 10
122.386267
 20
308.280855
 30
0.0
 11
122.386267
 21
308.180857
 31
0.0
  0
LINE
  5
1CF
330
1F
100
AcDbEntity
  8
LC-002-100-D00-0
 62
     7
370
    50
100
AcDbLine
 10
122.702368
 20
308.280855
 30
0.0
 11
122.386267
 21
308.280855
 31
0.0
  0
LINE
  5
1D0
330
1F
100
AcDbEntity
  8
LC-002-100-D00-0
 62
     7
370
    50
100
AcDbLine
 10
122.702368
 20
308.280855
 30
0.0
 11
122.702368
 21
308.180857
 31
0.0
  0
LINE
  5
1D1
330
1F
100
AcDbEntity
  8
LC-002-100-D00-0
 62
     7
370
    50
100
AcDbLine
 10
123.914088
 20
308.280855
 30
0.0
 11
123.597987
 21
308.280855
 31
0.0
  0
LINE
  5
1D2
330
1F
100
AcDbEntity
  8
LC-002-100-D00-0
 62
     7
370
    50
100
AcDbLine
 10
123.914088
 20
308.280855
 30
0.0
 11
123.914088
 21
308.180857
 31
0.0
  0
LINE
  5
1D3
330
1F
100
AcDbEntity
  8
LC-002-100-D00-0
 62
     7
370
    50
100
AcDbLine
 10
123.597987
 20
308.280855
 30
0.0
 11
123.597987
 21
308.180857
 31
0.0
  0
LINE
  5
1D4
330
1F
100
AcDbEntity
  8
LC-002-100-D00-0
 62
     7
370
    50
100
AcDbLine
 10
133.877436
 20
308.280855
 30
0.0
 11
133.877436
 21
308.180857
 31
0.0
  0
LINE
  5
1D5
330
1F
100
AcDbEntity
  8
LC-002-100-D00-0
 62
     7
370
    50
100
AcDbLine
 10
134.193536
 20
308.280855
 30
0.0
 11
134.193536
 21
308.180857
 31
0.0
  0
LINE
  5
1D6
330
1F
100
AcDbEntity
  8
LC-002-100-D00-0
 62
     7
370
    50
100
AcDbLine
 10
134.193536
 20
308.280855
 30
0.0
 11
133.877436
 21
308.280855
 31
0.0
  0
LINE
  5
1D7
330
1F
100
AcDbEntity
  8
LC-002-100-D00-0
 62
     7
370
    50
100
AcDbLine
 10
116.011568
 20
308.280855
 30
0.0
 11
116.011568
 21
308.180857
 31
0.0
  0
LINE
  5
1D8
330
1F
100
AcDbEntity
  8
LC-002-100-D00-0
 62
     7
370
    50
100
AcDbLine
 10
116.011568
 20
308.280855
 30
0.0
 11
115.968496
 21
308.280855
 31
0.0
  0
LINE
  5
1D9
330
1F
100
AcDbEntity
  8
LC-002-100-D00-0
 62
     7
370
    50
100
AcDbLine
 10
111.638841
 20
308.280855
 30
0.0
 11
111.296399
 21
308.280855
 31
0.0
  0
LINE
  5
1DA
330
1F
100
AcDbEntity
  8
LC-002-100-D00-0
 62
     7
370
    50
100
AcDbLine
 10
111.638841
 20
308.280855
 30
0.0
 11
111.638841
 21
308.180857
 31
0.0
  0
LINE
  5
1DB
330
1F
100
AcDbEntity
  8
LC-002-100-D00-0
 62
     7
370
    50
100
AcDbLine
 10
111.296399
 20
308.280855
 30
0.0
 11
111.296399
 21
308.180857
 31
0.0
  0
LINE
  5
1DC
330
1F
100
AcDbEntity
  8
LC-002-100-D00-0
 62
     7
370
    50
100
AcDbLine
 10
130.394153
 20
308.280855
 30
0.0
 11
130.394153
 21
308.180857
 31
0.0
  0
LINE
  5
1DD
330
1F
100
AcDbEntity
  8
LC-002-100-D00-0
 62
     7
370
    50
100
AcDbLine
 10
130.710254
 20
308.280855
 30
0.0
 11
130.394153
 21
308.280855
 31
0.0
  0
LINE
  5
1DE
330
1F
100
AcDbEntity
  8
LC-002-100-D00-0
 62
     7
370
    50
100
AcDbLine
 10
130.710254
 20
308.280855
 30
0.0
 11
130.710254
 21
308.180857
 31
0.0
  0
LINE
  5
1DF
330
1F
100
AcDbEntity
  8
LC-002-100-D00-0
 62
     7
370
    50
100
AcDbLine
 10
131.928148
 20
308.280855
 30
0.0
 11
131.928148
 21
308.180857
 31
0.0
  0
LINE
  5
1E0
330
1F
100
AcDbEntity
  8
LC-002-100-D00-0
 62
     7
370
    50
100
AcDbLine
 10
131.612047
 20
308.280855
 30
0.0
 11
131.612047
 21
308.180857
 31
0.0
  0
LINE
  5
1E1
330
1F
100
AcDbEntity
  8
LC-002-100-D00-0
 62
     7
370
    50
100
AcDbLine
 10
131.928148
 20
308.280855
 30
0.0
 11
131.612047
 21
308.280855
 31
0.0
  0
LINE
  5
1E2
330
1F
100
AcDbEntity
  8
LC-002-100-D00-0
 62
     7
370
    50
100
AcDbLine
 10
121.569673
 20
308.280855
 30
0.0
 11
121.569673
 21
308.180857
 31
0.0
  0
LINE
  5
1E3
330
1F
100
AcDbEntity
  8
LC-002-100-D00-0
 62
     7
370
    50
100
AcDbLine
 10
121.885774
 20
308.280855
 30
0.0
 11
121.885774
 21
308.180857
 31
0.0
  0
LINE
  5
1E4
330
1F
100
AcDbEntity
  8
LC-002-100-D00-0
 62
     7
370
    50
100
AcDbLine
 10
121.885774
 20
308.280855
 30
0.0
 11
121.569673
 21
308.280855
 31
0.0
  0
LINE
  5
1E5
330
1F
100
AcDbEntity
  8
LC-002-100-D00-0
 62
     7
370
    50
100
AcDbLine
 10
133.060842
 20
308.280855
 30
0.0
 11
133.060842
 21
308.180857
 31
0.0
  0
LINE
  5
1E6
330
1F
100
AcDbEntity
  8
LC-002-100-D00-0
 62
     7
370
    50
100
AcDbLine
 10
132.744741
 20
308.280855
 30
0.0
 11
132.744741
 21
308.180857
 31
0.0
  0
LINE
  5
1E7
330
1F
100
AcDbEntity
  8
LC-002-100-D00-0
 62
     7
370
    50
100
AcDbLine
 10
133.060842
 20
308.280855
 30
0.0
 11
132.744741
 21
308.280855
 31
0.0
  0
LINE
  5
1E8
330
1F
100
AcDbEntity
  8
LC-002-100-D00-0
 62
     7
370
    50
100
AcDbLine
 10
120.145574
 20
308.280855
 30
0.0
 11
120.145574
 21
308.180857
 31
0.0
  0
LINE
  5
1E9
330
1F
100
AcDbEntity
  8
LC-002-100-D00-0
 62
     7
370
    50
100
AcDbLine
 10
120.147221
 20
308.280855
 30
0.0
 11
120.147221
 21
308.180857
 31
0.0
  0
LINE
  5
1EA
330
1F
100
AcDbEntity
  8
LC-002-100-D00-0
 62
     7
370
    50
100
AcDbLine
 10
129.997381
 20
308.280855
 30
0.0
 11
129.997381
 21
308.180857
 31
0.0
  0
LINE
  5
1EB
330
1F
100
AcDbEntity
  8
LC-002-100-D00-0
 62
     7
370
    50
100
AcDbLine
 10
129.999027
 20
308.280855
 30
0.0
 11
129.999027
 21
308.180857
 31
0.0
  0
LINE
  5
1EC
330
1F
100
AcDbEntity
  8
LC-002-100-D00-0
 62
     7
370
    50
100
AcDbLine
 10
132.404357
 20
308.280855
 30
0.0
 11
132.404357
 21
308.180857
 31
0.0
  0
INSERT
  5
1FC
330
1F
100
AcDbEntity
  8
LC-002-100-D00-0
 62
     7
370
    50
100
AcDbBlockReference
  2
POLY14
 10
0.0
 20
0.0
 30
0.0
  0
LINE
  5
1FD
330
1F
100
AcDbEntity
  8
LC-002-100-D00-0
 62
     7
370
    50
100
AcDbLine
 10
130.763761
 20
308.280855
 30
0.0
 11
130.763761
 21
308.180857
 31
0.0
  0
INSERT
  5
209
330
1F
100
AcDbEntity
  8
LC-002-100-D00-0
 62
     7
370
    50
100
AcDbBlockReference
  2
POLY15
 10
0.0
 20
0.0
 30
0.0
  0
LINE
  5
20A
330
1F
100
AcDbEntity
  8
LC-002-100-D00-0
 62
     7
370
    50
100
AcDbLine
 10
123.204508
 20
308.280855
 30
0.0
 11
123.204508
 21
308.180857
 31
0.0
  0
INSERT
  5
21A
330
1F
100
AcDbEntity
  8
LC-002-100-D00-0
 62
     7
370
    50
100
AcDbBlockReference
  2
POLY16
 10
0.0
 20
0.0
 30
0.0
  0
LINE
  5
21B
330
1F
100
AcDbEntity
  8
LC-002-100-D00-0
 62
     7
370
    50
100
AcDbLine
 10
133.533758
 20
308.280855
 30
0.0
 11
133.533758
 21
308.180857
 31
0.0
  0
INSERT
  5
22B
330
1F
100
AcDbEntity
  8
LC-002-100-D00-0
 62
     7
370
    50
100
AcDbBlockReference
  2
POLY17
 10
0.0
 20
0.0
 30
0.0
  0
INSERT
  5
23B
330
1F
100
AcDbEntity
  8
LC-002-100-D00-0
 62
     7
370
    50
100
AcDbBlockReference
  2
POLY18
 10
0.0
 20
0.0
 30
0.0
  0
INSERT
  5
24B
330
1F
100
AcDbEntity
  8
LC-002-100-D00-0
 62
     7
370
    50
100
AcDbBlockReference
  2
POLY19
 10
0.0
 20
0.0
 30
0.0
  0
INSERT
  5
25B
330
1F
100
AcDbEntity
  8
LC-002-100-D00-0
 62
     7
370
    50
100
AcDbBlockReference
  2
POLY20
 10
0.0
 20
0.0
 30
0.0
  0
LINE
  5
25C
330
1F
100
AcDbEntity
  8
LC-002-100-D00-0
 62
     7
370
    50
100
AcDbLine
 10
131.072864
 20
308.280855
 30
0.0
 11
131.072864
 21
308.180857
 31
0.0
  0
INSERT
  5
26C
330
1F
100
AcDbEntity
  8
LC-002-100-D00-0
 62
     7
370
    50
100
AcDbBlockReference
  2
POLY21
 10
0.0
 20
0.0
 30
0.0
  0
LINE
  5
26D
330
1F
100
AcDbEntity
  8
LC-002-100-D00-0
 62
     7
370
    50
100
AcDbLine
 10
131.308294
 20
308.280855
 30
0.0
 11
131.308294
 21
308.180857
 31
0.0
  0
LINE
  5
26E
330
1F
100
AcDbEntity
  8
LC-002-100-D00-0
 62
     7
370
    50
100
AcDbLine
 10
131.421481
 20
308.280855
 30
0.0
 11
131.421481
 21
308.180857
 31
0.0
  0
LINE
  5
26F
330
1F
100
AcDbEntity
  8
LC-002-100-D00-0
 62
     7
370
    50
100
AcDbLine
 10
131.421481
 20
308.280855
 30
0.0
 11
131.308294
 21
308.280855
 31
0.0
  0
INSERT
  5
27B
330
1F
100
AcDbEntity
  8
LC-002-100-D00-0
 62
     7
370
    50
100
AcDbBlockReference
  2
POLY22
 10
0.0
 20
0.0
 30
0.0
  0
LINE
  5
27C
330
1F
100
AcDbEntity
  8
LC-002-100-D00-0
 62
     7
370
    50
100
AcDbLine
 10
111.296399
 20
308.280855
 30
0.0
 11
109.978803
 21
308.280855
 31
0.0
  0
LINE
  5
27D
330
1F
100
AcDbEntity
  8
LC-002-100-D00-0
 62
     7
370
    50
100
AcDbLine
 10
117.960856
 20
308.280855
 30
0.0
 11
118.372473
 21
308.280855
 31
0.0
  0
LINE
  5
27E
330
1F
100
AcDbEntity
  8
LC-002-100-D00-0
 62
     7
370
    50
100
AcDbLine
 10
120.721056
 20
308.280855
 30
0.0
 11
120.721056
 21
308.180857
 31
0.0
  0
LINE
  5
27F
330
1F
100
AcDbEntity
  8
LC-002-100-D00-0
 62
     7
370
    50
100
AcDbLine
 10
120.15218
 20
308.280855
 30
0.0
 11
120.721056
 21
308.280855
 31
0.0
  0
LINE
  5
280
330
1F
100
AcDbEntity
  8
LC-002-100-D00-0
 62
     7
370
    50
100
AcDbLine
 10
121.885774
 20
308.280855
 30
0.0
 11
122.386267
 21
308.280855
 31
0.0
  0
LINE
  5
281
330
1F
100
AcDbEntity
  8
LC-002-100-D00-0
 62
     7
370
    50
100
AcDbLine
 10
122.702368
 20
308.280855
 30
0.0
 11
122.807954
 21
308.280855
 31
0.0
  0
LINE
  5
282
330
1F
100
AcDbEntity
  8
LC-002-100-D00-0
 62
     7
370
    50
100
AcDbLine
 10
123.914088
 20
308.280855
 30
0.0
 11
125.706423
 21
308.280855
 31
0.0
  0
LINE
  5
283
330
1F
100
AcDbEntity
  8
LC-002-100-D00-0
 62
     7
370
    50
100
AcDbLine
 10
127.97628
 20
308.280855
 30
0.0
 11
128.199107
 21
308.280855
 31
0.0
  0
LINE
  5
284
330
1F
100
AcDbEntity
  8
LC-002-100-D00-0
 62
     7
370
    50
100
AcDbLine
 10
128.199107
 20
308.280855
 30
0.0
 11
128.199107
 21
308.180857
 31
0.0
  0
LINE
  5
285
330
1F
100
AcDbEntity
  8
LC-002-100-D00-0
 62
     7
370
    50
100
AcDbLine
 10
130.170066
 20
308.280855
 30
0.0
 11
130.394153
 21
308.280855
 31
0.0
  0
LINE
  5
286
330
1F
100
AcDbEntity
  8
LC-002-100-D00-0
 62
     7
370
    50
100
AcDbLine
 10
130.170066
 20
308.280855
 30
0.0
 11
130.170066
 21
308.180857
 31
0.0
  0
LINE
  5
287
330
1F
100
AcDbEntity
  8
LC-002-100-D00-0
 62
     7
370
    50
100
AcDbLine
 10
134.193536
 20
308.280855
 30
0.0
 11
134.553445
 21
308.280855
 31
0.0
  0
LINE
  5
288
330
1F
100
AcDbEntity
  8
LC-002-100-D00-0
 62
     7
370
    50
100
AcDbLine
 10
133.060842
 20
308.280855
 30
0.0
 11
133.068535
 21
308.280855
 31
0.0
  0
LINE
  5
289
330
1F
100
AcDbEntity
  8
LC-002-100-D00-0
 62
     7
370
    50
100
AcDbLine
 10
120.721056
 20
308.280855
 30
0.0
 11
121.569673
 21
308.280855
 31
0.0
  0
LINE
  5
28A
330
1F
100
AcDbEntity
  8
LC-002-100-D00-0
 62
     7
370
    50
100
AcDbLine
 10
135.452262
 20
288.680857
 30
0.0
 11
135.584522
 21
306.180857
 31
0.0
  0
LINE
  5
28B
330
1F
100
AcDbEntity
  8
LC-002-100-D00-0
 62
     7
370
    50
100
AcDbLine
 10
133.98473
 20
288.680857
 30
0.0
 11
135.452262
 21
288.680857
 31
0.0
  0
LINE
  5
28C
330
1F
100
AcDbEntity
  8
LC-002-100-D00-0
 62
     7
370
    50
100
AcDbLine
 10
133.98473
 20
288.680857
 30
0.0
 11
133.852471
 21
306.180857
 31
0.0
  0
LINE
  5
28D
330
1F
100
AcDbEntity
  8
LC-002-100-D00-0
 62
     7
370
    50
100
AcDbLine
 10
137.184313
 20
288.680857
 30
0.0
 11
137.458409
 21
290.617488
 31
0.0
  0
LINE
  5
28E
330
1F
100
AcDbEntity
  8
LC-002-100-D00-0
 62
     7
370
    50
100
AcDbLine
 10
137.184313
 20
288.680857
 30
0.0
 11
135.452262
 21
288.680857
 31
0.0
  0
LINE
  5
28F
330
1F
100
AcDbEntity
  8
LC-002-100-D00-0
 62
     7
370
    50
100
AcDbLine
 10
109.967644
 20
308.280855
 30
0.0
 11
109.978803
 21
308.280855
 31
0.0
  0
LINE
  5
290
330
1F
100
AcDbEntity
  8
LC-002-100-D00-0
 62
     7
370
    50
100
AcDbLine
 10
131.308294
 20
308.280855
 30
0.0
 11
131.271484
 21
308.280855
 31
0.0
  0
LINE
  5
291
330
1F
100
AcDbEntity
  8
LC-002-100-D00-0
 62
     7
370
    50
100
AcDbLine
 10
130.170066
 20
308.280855
 30
0.0
 11
130.054127
 21
308.280855
 31
0.0
  0
LINE
  5
292
330
1F
100
AcDbEntity
  8
LC-002-100-D00-0
 62
     7
370
    50
100
AcDbLine
 10
131.421481
 20
308.280855
 30
0.0
 11
131.612047
 21
308.280855
 31
0.0
  0
LINE
  5
293
330
1F
100
AcDbEntity
  8
LC-002-100-D00-0
 62
     7
370
    50
100
AcDbLine
 10
265.718498
 20
321.380857
 30
0.0
 11
265.718498
 21
321.580857
 31
0.0
  0
LINE
  5
294
330
1F
100
AcDbEntity
  8
LC-002-100-D00-0
 62
     7
370
    50
100
AcDbLine
 10
-14.281503
 20
321.580857
 30
0.0
 11
-14.281503
 21
321.380857
 31
0.0
  0
LINE
  5
295
330
1F
100
AcDbEntity
  8
LC-002-100-D00-0
 62
     7
370
    50
100
AcDbLine
 10
34.524568
 20
321.580857
 30
0.0
 11
-14.281503
 21
321.580857
 31
0.0
  0
LINE
  5
296
330
1F
100
AcDbEntity
  8
LC-002-100-D00-0
 62
     7
370
    50
100
AcDbLine
 10
36.833965
 20
317.580856
 30
0.0
 11
34.524568
 21
321.580857
 31
0.0
  0
LINE
  5
297
330
1F
100
AcDbEntity
  8
LC-002-100-D00-0
 62
     7
370
    50
100
AcDbLine
 10
61.801337
 20
317.580856
 30
0.0
 11
36.833965
 21
317.580856
 31
0.0
  0
LINE
  5
298
330
1F
100
AcDbEntity
  8
LC-002-100-D00-0
 62
     7
370
    50
100
AcDbLine
 10
65.718495
 20
313.663699
 30
0.0
 11
61.801337
 21
317.580856
 31
0.0
  0
LINE
  5
299
330
1F
100
AcDbEntity
  8
LC-002-100-D00-0
 62
     7
370
    50
100
AcDbLine
 10
65.718495
 20
313.380856
 30
0.0
 11
65.718495
 21
313.663699
 31
0.0
  0
LINE
  5
29A
330
1F
100
AcDbEntity
  8
LC-002-100-D00-0
 62
     7
370
    50
100
AcDbLine
 10
61.718494
 20
317.380857
 30
0.0
 11
65.718495
 21
313.380856
 31
0.0
  0
LINE
  5
29B
330
1F
100
AcDbEntity
  8
LC-002-100-D00-0
 62
     7
370
    50
100
AcDbLine
 10
36.718496
 20
317.380857
 30
0.0
 11
61.718494
 21
317.380857
 31
0.0
  0
LINE
  5
29C
330
1F
100
AcDbEntity
  8
LC-002-100-D00-0
 62
     7
370
    50
100
AcDbLine
 10
34.409092
 20
321.380857
 30
0.0
 11
36.718496
 21
317.380857
 31
0.0
  0
LINE
  5
29D
330
1F
100
AcDbEntity
  8
LC-002-100-D00-0
 62
     7
370
    50
100
AcDbLine
 10
-14.281503
 20
321.380857
 30
0.0
 11
34.409092
 21
321.380857
 31
0.0
  0
LINE
  5
29E
330
1F
100
AcDbEntity
  8
LC-002-100-D00-0
 62
     7
370
    50
100
AcDbLine
 10
216.912427
 20
321.580857
 30
0.0
 11
214.60303
 21
317.580856
 31
0.0
  0
LINE
  5
29F
330
1F
100
AcDbEntity
  8
LC-002-100-D00-0
 62
     7
370
    50
100
AcDbLine
 10
34.524568
 20
321.580857
 30
0.0
 11
216.912427
 21
321.580857
 31
0.0
  0
LINE
  5
2A0
330
1F
100
AcDbEntity
  8
LC-002-100-D00-0
 62
     7
370
    50
100
AcDbLine
 10
214.718499
 20
317.380857
 30
0.0
 11
217.027896
 21
321.380857
 31
0.0
  0
LINE
  5
2A1
330
1F
100
AcDbEntity
  8
LC-002-100-D00-0
 62
     7
370
    50
100
AcDbLine
 10
65.718495
 20
313.663699
 30
0.0
 11
113.164387
 21
313.663699
 31
0.0
  0
LINE
  5
2A2
330
1F
100
AcDbEntity
  8
LC-002-100-D00-0
 62
     7
370
    50
100
AcDbLine
 10
118.753971
 20
313.663699
 30
0.0
 11
132.683021
 21
313.663699
 31
0.0
  0
LINE
  5
2A3
330
1F
100
AcDbEntity
  8
LC-002-100-D00-0
 62
     7
370
    50
100
AcDbLine
 10
138.272606
 20
313.663699
 30
0.0
 11
185.718496
 21
313.663699
 31
0.0
  0
LINE
  5
2A4
330
1F
100
AcDbEntity
  8
LC-002-100-D00-0
 62
     7
370
    50
100
AcDbLine
 10
185.718496
 20
313.663699
 30
0.0
 11
185.718496
 21
313.380856
 31
0.0
  0
LINE
  5
2A5
330
1F
100
AcDbEntity
  8
LC-002-100-D00-0
 62
     7
370
    50
100
AcDbLine
 10
65.718495
 20
313.380856
 30
0.0
 11
113.008597
 21
313.380856
 31
0.0
  0
LINE
  5
2A6
330
1F
100
AcDbEntity
  8
LC-002-100-D00-0
 62
     7
370
    50
100
AcDbLine
 10
118.255564
 20
313.380856
 30
0.0
 11
133.181428
 21
313.380856
 31
0.0
  0
LINE
  5
2A7
330
1F
100
AcDbEntity
  8
LC-002-100-D00-0
 62
     7
370
    50
100
AcDbLine
 10
138.428396
 20
313.380856
 30
0.0
 11
185.718496
 21
313.380856
 31
0.0
  0
LINE
  5
2A8
330
1F
100
AcDbEntity
  8
LC-002-100-D00-0
 62
     7
370
    50
100
AcDbLine
 10
185.718496
 20
313.380856
 30
0.0
 11
189.718497
 21
317.380857
 31
0.0
  0
LINE
  5
2A9
330
1F
100
AcDbEntity
  8
LC-002-100-D00-0
 62
     7
370
    50
100
AcDbLine
 10
189.635654
 20
317.580856
 30
0.0
 11
185.718496
 21
313.663699
 31
0.0
  0
LINE
  5
2AA
330
1F
100
AcDbEntity
  8
LC-002-100-D00-0
 62
     7
370
    50
100
AcDbLine
 10
189.718497
 20
317.380857
 30
0.0
 11
214.718499
 21
317.380857
 31
0.0
  0
LINE
  5
2AB
330
1F
100
AcDbEntity
  8
LC-002-100-D00-0
 62
     7
370
    50
100
AcDbLine
 10
214.60303
 20
317.580856
 30
0.0
 11
189.635654
 21
317.580856
 31
0.0
  0
LINE
  5
2AC
330
1F
100
AcDbEntity
  8
LC-002-100-D00-0
 62
     7
370
    50
100
AcDbLine
 10
265.718498
 20
321.580857
 30
0.0
 11
216.912427
 21
321.580857
 31
0.0
  0
LINE
  5
2AD
330
1F
100
AcDbEntity
  8
LC-002-100-D00-0
 62
     7
370
    50
100
AcDbLine
 10
217.027896
 20
321.380857
 30
0.0
 11
265.718498
 21
321.380857
 31
0.0
  0
LINE
  5
2AE
330
1F
100
AcDbEntity
  8
LC-002-100-D00-0
 62
     7
370
    50
100
AcDbLine
 10
101.522342
 20
170.680854
 30
0.0
 11
100.718495
 21
173.680861
 31
0.0
  0
LINE
  5
2AF
330
1F
100
AcDbEntity
  8
LC-002-100-D00-0
 62
     7
370
    50
100
AcDbLine
 10
150.718496
 20
173.680861
 30
0.0
 11
149.914649
 21
170.680854
 31
0.0
  0
LINE
  5
2B0
330
1F
100
AcDbEntity
  8
LC-002-100-D00-0
 62
     7
370
    50
100
AcDbLine
 10
62.718496
 20
288.680857
 30
0.0
 11
62.718496
 21
312.138215
 31
0.0
  0
LINE
  5
2B1
330
1F
100
AcDbEntity
  8
LC-002-100-D00-0
 62
     7
370
    50
100
AcDbLine
 10
62.718496
 20
312.138215
 30
0.0
 11
60.475857
 21
314.380858
 31
0.0
  0
LINE
  5
2B2
330
1F
100
AcDbEntity
  8
LC-002-100-D00-0
 62
     7
370
    50
100
AcDbLine
 10
60.475857
 20
314.380858
 30
0.0
 11
34.968496
 21
314.380858
 31
0.0
  0
LINE
  5
2B3
330
1F
100
AcDbEntity
  8
LC-002-100-D00-0
 62
     7
370
    50
100
AcDbLine
 10
34.968496
 20
314.380858
 30
0.0
 11
32.659092
 21
318.380859
 31
0.0
  0
LINE
  5
2B4
330
1F
100
AcDbEntity
  8
LC-002-100-D00-0
 62
     7
370
    50
100
AcDbLine
 10
-17.281509
 20
318.380859
 30
0.0
 11
32.659092
 21
318.380859
 31
0.0
  0
LINE
  5
2B5
330
1F
100
AcDbEntity
  8
LC-002-100-D00-0
 62
     7
370
    50
100
AcDbLine
 10
-17.281509
 20
318.380859
 30
0.0
 11
-15.549458
 21
321.380857
 31
0.0
  0
LINE
  5
2B6
330
1F
100
AcDbEntity
  8
LC-002-100-D00-0
 62
     7
370
    50
100
AcDbLine
 10
-15.549458
 20
321.380857
 30
0.0
 11
34.409092
 21
321.380857
 31
0.0
  0
LINE
  5
2B7
330
1F
100
AcDbEntity
  8
LC-002-100-D00-0
 62
     7
370
    50
100
AcDbLine
 10
65.718495
 20
313.380856
 30
0.0
 11
65.718495
 21
289.680857
 31
0.0
  0
LINE
  5
2B8
330
1F
100
AcDbEntity
  8
LC-002-100-D00-0
 62
     7
370
    50
100
AcDbLine
 10
65.718495
 20
289.680857
 30
0.0
 11
73.718496
 21
289.680857
 31
0.0
  0
LINE
  5
2B9
330
1F
100
AcDbEntity
  8
LC-002-100-D00-0
 62
     7
370
    50
100
AcDbLine
 10
73.718496
 20
289.680857
 30
0.0
 11
73.718496
 21
243.377125
 31
0.0
  0
LINE
  5
2BA
330
1F
100
AcDbEntity
  8
LC-002-100-D00-0
 62
     7
370
    50
100
AcDbLine
 10
73.718496
 20
243.377125
 30
0.0
 11
76.256704
 21
233.904401
 31
0.0
  0
ARC
  5
2BB
330
1F
100
AcDbEntity
  8
LC-002-100-D00-0
 62
     7
370
    50
100
AcDbCircle
 10
79.154483
 20
234.680857
 30
0.0
 40
2.999999999999982
100
AcDbArc
 50
195.0
 51
270.0
  0
LINE
  5
2BC
330
1F
100
AcDbEntity
  8
LC-002-100-D00-0
 62
     7
370
    50
100
AcDbLine
 10
79.154481
 20
231.680859
 30
0.0
 11
101.218496
 21
231.680859
 31
0.0
  0
LINE
  5
2BD
330
1F
100
AcDbEntity
  8
LC-002-100-D00-0
 62
     7
370
    50
100
AcDbLine
 10
101.218496
 20
231.680859
 30
0.0
 11
101.218496
 21
293.180857
 31
0.0
  0
LINE
  5
2BE
330
1F
100
AcDbEntity
  8
LC-002-100-D00-0
 62
     7
370
    50
100
AcDbLine
 10
103.718496
 20
293.180857
 30
0.0
 11
103.718496
 21
170.680854
 31
0.0
  0
LINE
  5
2BF
330
1F
100
AcDbEntity
  8
LC-002-100-D00-0
 62
     7
370
    50
100
AcDbLine
 10
100.718495
 20
173.680861
 30
0.0
 11
100.718495
 21
228.680857
 31
0.0
  0
LINE
  5
2C0
330
1F
100
AcDbEntity
  8
LC-002-100-D00-0
 62
     7
370
    50
100
AcDbLine
 10
100.718495
 20
228.680857
 30
0.0
 11
76.958329
 21
228.680857
 31
0.0
  0
ARC
  5
2C1
330
1F
100
AcDbEntity
  8
LC-002-100-D00-0
 62
     7
370
    50
100
AcDbCircle
 10
76.95833
 20
231.680857
 30
0.0
 40
3.000000000000201
100
AcDbArc
 50
195.0
 51
270.0
  0
LINE
  5
2C2
330
1F
100
AcDbEntity
  8
LC-002-100-D00-0
 62
     7
370
    50
100
AcDbLine
 10
74.060553
 20
230.9044
 30
0.0
 11
70.718498
 21
243.377125
 31
0.0
  0
LINE
  5
2C3
330
1F
100
AcDbEntity
  8
LC-002-100-D00-0
 62
     7
370
    50
100
AcDbLine
 10
70.718498
 20
243.377125
 30
0.0
 11
70.718498
 21
285.680857
 31
0.0
  0
LINE
  5
2C4
330
1F
100
AcDbEntity
  8
LC-002-100-D00-0
 62
     7
370
    50
100
AcDbLine
 10
70.718498
 20
285.680857
 30
0.0
 11
65.718495
 21
285.680857
 31
0.0
  0
ARC
  5
2C5
330
1F
100
AcDbEntity
  8
LC-002-100-D00-0
 62
     7
370
    50
100
AcDbCircle
 10
65.718496
 20
288.680857
 30
0.0
 40
3.0
100
AcDbArc
 50
180.0
 51
270.0
  0
LINE
  5
2C6
330
1F
100
AcDbEntity
  8
LC-002-100-D00-0
 62
     7
370
    50
100
AcDbLine
 10
103.718496
 20
170.680854
 30
0.0
 11
101.522342
 21
170.680854
 31
0.0
  0
LINE
  5
2C7
330
1F
100
AcDbEntity
  8
LC-002-100-D00-0
 62
     7
370
    50
100
AcDbLine
 10
150.718496
 20
228.680857
 30
0.0
 11
150.718496
 21
173.680861
 31
0.0
  0
ARC
  5
2C8
330
1F
100
AcDbEntity
  8
LC-002-100-D00-0
 62
     7
370
    50
100
AcDbCircle
 10
174.478663
 20
231.680857
 30
0.0
 40
3.000000000000114
100
AcDbArc
 50
270.0
 51
345.0
  0
LINE
  5
2C9
330
1F
100
AcDbEntity
  8
LC-002-100-D00-0
 62
     7
370
    50
100
AcDbLine
 10
180.718497
 20
243.377125
 30
0.0
 11
177.376439
 21
230.9044
 31
0.0
  0
ARC
  5
2CA
330
1F
100
AcDbEntity
  8
LC-002-100-D00-0
 62
     7
370
    50
100
AcDbCircle
 10
172.28251
 20
234.680857
 30
0.0
 40
3.0
100
AcDbArc
 50
270.0
 51
345.0
  0
LINE
  5
2CB
330
1F
100
AcDbEntity
  8
LC-002-100-D00-0
 62
     7
370
    50
100
AcDbLine
 10
185.718496
 20
285.680857
 30
0.0
 11
180.718497
 21
285.680857
 31
0.0
  0
LINE
  5
2CC
330
1F
100
AcDbEntity
  8
LC-002-100-D00-0
 62
     7
370
    50
100
AcDbLine
 10
180.718497
 20
285.680857
 30
0.0
 11
180.718497
 21
243.377125
 31
0.0
  0
LINE
  5
2CD
330
1F
100
AcDbEntity
  8
LC-002-100-D00-0
 62
     7
370
    50
100
AcDbLine
 10
174.478662
 20
228.680857
 30
0.0
 11
150.718496
 21
228.680857
 31
0.0
  0
LINE
  5
2CE
330
1F
100
AcDbEntity
  8
LC-002-100-D00-0
 62
     7
370
    50
100
AcDbLine
 10
147.718496
 20
170.680854
 30
0.0
 11
147.718496
 21
293.180857
 31
0.0
  0
LINE
  5
2CF
330
1F
100
AcDbEntity
  8
LC-002-100-D00-0
 62
     7
370
    50
100
AcDbLine
 10
147.718496
 20
293.180857
 30
0.0
 11
150.218497
 21
293.180857
 31
0.0
  0
LINE
  5
2D0
330
1F
100
AcDbEntity
  8
LC-002-100-D00-0
 62
     7
370
    50
100
AcDbLine
 10
150.218497
 20
293.180857
 30
0.0
 11
150.218497
 21
231.680859
 31
0.0
  0
LINE
  5
2D1
330
1F
100
AcDbEntity
  8
LC-002-100-D00-0
 62
     7
370
    50
100
AcDbLine
 10
175.180287
 20
233.904401
 30
0.0
 11
177.718495
 21
243.377125
 31
0.0
  0
LINE
  5
2D2
330
1F
100
AcDbEntity
  8
LC-002-100-D00-0
 62
     7
370
    50
100
AcDbLine
 10
177.718495
 20
243.377125
 30
0.0
 11
177.718495
 21
289.680857
 31
0.0
  0
LINE
  5
2D3
330
1F
100
AcDbEntity
  8
LC-002-100-D00-0
 62
     7
370
    50
100
AcDbLine
 10
177.718495
 20
289.680857
 30
0.0
 11
185.718496
 21
289.680857
 31
0.0
  0
LINE
  5
2D4
330
1F
100
AcDbEntity
  8
LC-002-100-D00-0
 62
     7
370
    50
100
AcDbLine
 10
185.718496
 20
289.680857
 30
0.0
 11
185.718496
 21
313.380856
 31
0.0
  0
LINE
  5
2D5
330
1F
100
AcDbEntity
  8
LC-002-100-D00-0
 62
     7
370
    50
100
AcDbLine
 10
217.027896
 20
321.380857
 30
0.0
 11
266.986453
 21
321.380857
 31
0.0
  0
LINE
  5
2D6
330
1F
100
AcDbEntity
  8
LC-002-100-D00-0
 62
     7
370
    50
100
AcDbLine
 10
266.986453
 20
321.380857
 30
0.0
 11
268.718489
 21
318.380859
 31
0.0
  0
LINE
  5
2D7
330
1F
100
AcDbEntity
  8
LC-002-100-D00-0
 62
     7
370
    50
100
AcDbLine
 10
218.777896
 20
318.380859
 30
0.0
 11
268.718489
 21
318.380859
 31
0.0
  0
LINE
  5
2D8
330
1F
100
AcDbEntity
  8
LC-002-100-D00-0
 62
     7
370
    50
100
AcDbLine
 10
218.777896
 20
318.380859
 30
0.0
 11
216.468499
 21
314.380858
 31
0.0
  0
LINE
  5
2D9
330
1F
100
AcDbEntity
  8
LC-002-100-D00-0
 62
     7
370
    50
100
AcDbLine
 10
216.468499
 20
314.380858
 30
0.0
 11
190.961138
 21
314.380858
 31
0.0
  0
LINE
  5
2DA
330
1F
100
AcDbEntity
  8
LC-002-100-D00-0
 62
     7
370
    50
100
AcDbLine
 10
190.961138
 20
314.380858
 30
0.0
 11
188.718495
 21
312.138215
 31
0.0
  0
LINE
  5
2DB
330
1F
100
AcDbEntity
  8
LC-002-100-D00-0
 62
     7
370
    50
100
AcDbLine
 10
188.718495
 20
312.138215
 30
0.0
 11
188.718495
 21
288.680857
 31
0.0
  0
ARC
  5
2DC
330
1F
100
AcDbEntity
  8
LC-002-100-D00-0
 62
     7
370
    50
100
AcDbCircle
 10
185.718496
 20
288.680857
 30
0.0
 40
3.0
100
AcDbArc
 50
270.0
 51
0.0
  0
LINE
  5
2DD
330
1F
100
AcDbEntity
  8
LC-002-100-D00-0
 62
     7
370
    50
100
AcDbLine
 10
150.218497
 20
231.680859
 30
0.0
 11
172.28251
 21
231.680859
 31
0.0
  0
LINE
  5
2DE
330
1F
100
AcDbEntity
  8
LC-002-100-D00-0
 62
     7
370
    50
100
AcDbLine
 10
149.914649
 20
170.680854
 30
0.0
 11
147.718496
 21
170.680854
 31
0.0
  0
LINE
  5
2DF
330
1F
100
AcDbEntity
  8
LC-002-100-D00-0
 62
     7
370
    50
100
AcDbLine
 10
177.718495
 20
243.377125
 30
0.0
 11
165.218496
 21
243.377125
 31
0.0
  0
LINE
  5
2E0
330
1F
100
AcDbEntity
  8
LC-002-100-D00-0
 62
     7
370
    50
100
AcDbLine
 10
86.218496
 20
243.377125
 30
0.0
 11
73.718496
 21
243.377125
 31
0.0
  0
LINE
  5
2E1
330
1F
100
AcDbEntity
  8
LC-002-100-D00-0
 62
     7
370
    50
100
AcDbLine
 10
-29.013551
 20
321.380857
 30
0.0
 11
-27.2815
 21
318.380859
 31
0.0
  0
LINE
  5
2E2
330
1F
100
AcDbEntity
  8
LC-002-100-D00-0
 62
     7
370
    50
100
AcDbLine
 10
-31.781501
 20
318.380859
 30
0.0
 11
-27.2815
 21
318.380859
 31
0.0
  0
LINE
  5
2E3
330
1F
100
AcDbEntity
  8
LC-002-100-D00-0
 62
     7
370
    50
100
AcDbLine
 10
-31.781501
 20
321.380857
 30
0.0
 11
-31.781501
 21
318.380859
 31
0.0
  0
LINE
  5
2E4
330
1F
100
AcDbEntity
  8
LC-002-100-D00-0
 62
     7
370
    50
100
AcDbLine
 10
-31.781501
 20
321.380857
 30
0.0
 11
-29.013551
 21
321.380857
 31
0.0
  0
LINE
  5
2E5
330
1F
100
AcDbEntity
  8
LC-002-100-D00-0
 62
     7
370
    50
100
AcDbLine
 10
283.218496
 20
318.380859
 30
0.0
 11
283.218496
 21
321.380857
 31
0.0
  0
LINE
  5
2E6
330
1F
100
AcDbEntity
  8
LC-002-100-D00-0
 62
     7
370
    50
100
AcDbLine
 10
-29.013551
 20
321.380857
 30
0.0
 11
-28.820089
 21
321.380857
 31
0.0
  0
LINE
  5
2E7
330
1F
100
AcDbEntity
  8
LC-002-100-D00-0
 62
     7
370
    50
100
AcDbLine
 10
-27.2815
 20
318.380859
 30
0.0
 11
-27.090199
 21
318.380859
 31
0.0
  0
LINE
  5
2E8
330
1F
100
AcDbEntity
  8
LC-002-100-D00-0
 62
     7
370
    50
100
AcDbLine
 10
73.733524
 20
289.680857
 30
0.0
 11
73.733524
 21
288.680857
 31
0.0
  0
LINE
  5
2E9
330
1F
100
AcDbEntity
  8
LC-002-100-D00-0
 62
     7
370
    50
100
AcDbLine
 10
86.218496
 20
288.680857
 30
0.0
 11
73.733524
 21
288.680857
 31
0.0
  0
LINE
  5
2EA
330
1F
100
AcDbEntity
  8
LC-002-100-D00-0
 62
     7
370
    50
100
AcDbLine
 10
177.703471
 20
288.680857
 30
0.0
 11
165.218496
 21
288.680857
 31
0.0
  0
LINE
  5
2EB
330
1F
100
AcDbEntity
  8
LC-002-100-D00-0
 62
     7
370
    50
100
AcDbLine
 10
177.703471
 20
289.680857
 30
0.0
 11
177.703471
 21
288.680857
 31
0.0
  0
LINE
  5
2EC
330
1F
100
AcDbEntity
  8
LC-002-100-D00-0
 62
     7
370
    50
100
AcDbLine
 10
177.703471
 20
289.680857
 30
0.0
 11
177.718495
 21
289.680857
 31
0.0
  0
LINE
  5
2ED
330
1F
100
AcDbEntity
  8
LC-002-100-D00-0
 62
     7
370
    50
100
AcDbLine
 10
73.718496
 20
289.680857
 30
0.0
 11
73.733524
 21
289.680857
 31
0.0
  0
LINE
  5
2EE
330
1F
100
AcDbEntity
  8
LC-002-100-D00-0
 62
     7
370
    50
100
AcDbLine
 10
34.409092
 20
321.380857
 30
0.0
 11
217.027896
 21
321.380857
 31
0.0
  0
LINE
  5
2EF
330
1F
100
AcDbEntity
  8
LC-002-100-D00-0
 62
     7
370
    50
100
AcDbLine
 10
169.019577
 20
289.680857
 30
0.0
 11
169.019577
 21
288.680857
 31
0.0
  0
LINE
  5
2F0
330
1F
100
AcDbEntity
  8
LC-002-100-D00-0
 62
     7
370
    50
100
AcDbLine
 10
82.417414
 20
289.680857
 30
0.0
 11
82.417414
 21
288.680857
 31
0.0
  0
LINE
  5
2F1
330
1F
100
AcDbEntity
  8
LC-002-100-D00-0
 62
     7
370
    50
100
AcDbLine
 10
147.718496
 20
293.180857
 30
0.0
 11
137.486272
 21
293.180857
 31
0.0
  0
LINE
  5
2F2
330
1F
100
AcDbEntity
  8
LC-002-100-D00-0
 62
     7
370
    50
100
AcDbLine
 10
133.950721
 20
293.180857
 30
0.0
 11
107.718496
 21
293.180857
 31
0.0
  0
LINE
  5
2F3
330
1F
100
AcDbEntity
  8
LC-002-100-D00-0
 62
     7
370
    50
100
AcDbLine
 10
147.718496
 20
170.680854
 30
0.0
 11
103.718496
 21
170.680854
 31
0.0
  0
LINE
  5
2F4
330
1F
100
AcDbEntity
  8
LC-002-100-D00-0
 62
     7
370
    50
100
AcDbLine
 10
278.718495
 20
318.380859
 30
0.0
 11
280.450546
 21
321.380857
 31
0.0
  0
LINE
  5
2F5
330
1F
100
AcDbEntity
  8
LC-002-100-D00-0
 62
     7
370
    50
100
AcDbLine
 10
280.257084
 20
321.380857
 30
0.0
 11
280.450546
 21
321.380857
 31
0.0
  0
LINE
  5
2F6
330
1F
100
AcDbEntity
  8
LC-002-100-D00-0
 62
     7
370
    50
100
AcDbLine
 10
278.527194
 20
318.380859
 30
0.0
 11
278.718495
 21
318.380859
 31
0.0
  0
LINE
  5
2F7
330
1F
100
AcDbEntity
  8
LC-002-100-D00-0
 62
     7
370
    50
100
AcDbLine
 10
280.450546
 20
321.380857
 30
0.0
 11
283.218496
 21
321.380857
 31
0.0
  0
LINE
  5
2F8
330
1F
100
AcDbEntity
  8
LC-002-100-D00-0
 62
     7
370
    50
100
AcDbLine
 10
278.718495
 20
318.380859
 30
0.0
 11
283.218496
 21
318.380859
 31
0.0
  0
LINE
  5
2F9
330
1F
100
AcDbEntity
  8
LC-002-100-D00-0
 62
     7
370
    50
100
AcDbLine
 10
-28.820089
 20
321.380857
 30
0.0
 11
-26.171825
 21
321.380857
 31
0.0
  0
LINE
  5
2FA
330
1F
100
AcDbEntity
  8
LC-002-100-D00-0
 62
     7
370
    50
100
AcDbLine
 10
-25.5258
 20
318.380859
 30
0.0
 11
-27.090199
 21
318.380859
 31
0.0
  0
LINE
  5
2FB
330
1F
100
AcDbEntity
  8
LC-002-100-D00-0
 62
     7
370
    50
100
AcDbLine
 10
277.60882
 20
321.380857
 30
0.0
 11
280.257084
 21
321.380857
 31
0.0
  0
LINE
  5
2FC
330
1F
100
AcDbEntity
  8
LC-002-100-D00-0
 62
     7
370
    50
100
AcDbLine
 10
278.527194
 20
318.380859
 30
0.0
 11
276.962795
 21
318.380859
 31
0.0
  0
LINE
  5
2FD
330
1F
100
AcDbEntity
  8
LC-002-100-D00-0
 62
     7
370
    50
100
AcDbLine
 10
-21.043948
 20
321.380857
 30
0.0
 11
-15.549458
 21
321.380857
 31
0.0
  0
LINE
  5
2FE
330
1F
100
AcDbEntity
  8
LC-002-100-D00-0
 62
     7
370
    50
100
AcDbLine
 10
-17.281509
 20
318.380859
 30
0.0
 11
-20.397908
 21
318.380859
 31
0.0
  0
LINE
  5
2FF
330
1F
100
AcDbEntity
  8
LC-002-100-D00-0
 62
     7
370
    50
100
AcDbLine
 10
266.986453
 20
321.380857
 30
0.0
 11
272.480943
 21
321.380857
 31
0.0
  0
LINE
  5
300
330
1F
100
AcDbEntity
  8
LC-002-100-D00-0
 62
     7
370
    50
100
AcDbLine
 10
271.834903
 20
318.380859
 30
0.0
 11
268.718489
 21
318.380859
 31
0.0
  0
LINE
  5
301
330
1F
100
AcDbEntity
  8
LC-002-100-D00-0
 62
     7
370
    50
100
AcDbLine
 10
-26.171825
 20
321.380857
 30
0.0
 11
-21.043948
 21
321.380857
 31
0.0
  0
LINE
  5
302
330
1F
100
AcDbEntity
  8
LC-002-100-D00-0
 62
     7
370
    50
100
AcDbLine
 10
-25.5258
 20
318.380859
 30
0.0
 11
-20.397908
 21
318.380859
 31
0.0
  0
LINE
  5
303
330
1F
100
AcDbEntity
  8
LC-002-100-D00-0
 62
     7
370
    50
100
AcDbLine
 10
272.480943
 20
321.380857
 30
0.0
 11
277.60882
 21
321.380857
 31
0.0
  0
LINE
  5
304
330
1F
100
AcDbEntity
  8
LC-002-100-D00-0
 62
     7
370
    50
100
AcDbLine
 10
271.834903
 20
318.380859
 30
0.0
 11
276.962795
 21
318.380859
 31
0.0
  0
LINE
  5
305
330
1F
100
AcDbEntity
  8
LC-002-100-D00-0
 62
     7
370
    50
100
AcDbLine
 10
165.218496
 20
289.680857
 30
0.0
 11
169.019577
 21
289.680857
 31
0.0
  0
LINE
  5
306
330
1F
100
AcDbEntity
  8
LC-002-100-D00-0
 62
     7
370
    50
100
AcDbLine
 10
82.417414
 20
289.680857
 30
0.0
 11
86.218496
 21
289.680857
 31
0.0
  0
INSERT
  5
319
330
1F
100
AcDbEntity
  8
LC-002-100-D00-0
 62
     7
370
    25
100
AcDbBlockReference
  2
KLON1
 10
0.0
 20
0.0
 30
0.0
  0
INSERT
  5
32B
330
1F
100
AcDbEntity
  8
LC-002-100-D00-0
 62
     7
370
    25
100
AcDbBlockReference
  2
KLON2
 10
0.0
 20
0.0
 30
0.0
  0
INSERT
  5
333
330
1F
100
AcDbEntity
  8
LC-002-100-D00-0
 62
     7
370
    50
100
AcDbBlockReference
  2
KLON3
 10
0.0
 20
0.0
 30
0.0
  0
INSERT
  5
33A
330
1F
100
AcDbEntity
  8
LC-002-100-D00-0
 62
     7
370
    50
100
AcDbBlockReference
  2
KLON4
 10
0.0
 20
0.0
 30
0.0
  0
INSERT
  5
349
330
1F
100
AcDbEntity
  8
LC-002-100-D00-0
 62
     7
370
    25
100
AcDbBlockReference
  2
KLON5
 10
0.0
 20
0.0
 30
0.0
  0
LINE
  5
34A
330
1F
100
AcDbEntity
  8
LC-002-100-D00-0
 62
     7
370
    25
100
AcDbLine
 10
64.20664
 20
317.580857
 30
0.0
 11
67.00664
 21
320.380857
 31
0.0
  0
LINE
  5
34B
330
1F
100
AcDbEntity
  8
LC-002-100-D00-0
 62
     7
370
    25
100
AcDbLine
 10
198.910481
 20
317.580857
 30
0.0
 11
201.710481
 21
320.380857
 31
0.0
  0
LINE
  5
34C
330
1F
100
AcDbEntity
  8
LC-002-100-D00-0
 62
     7
370
    50
100
AcDbLine
 10
201.710481
 20
320.380857
 30
0.0
 11
201.760481
 21
320.430857
 31
0.0
  0
LINE
  5
34D
330
1F
100
AcDbEntity
  8
LC-002-100-D00-0
 62
     7
370
    50
100
AcDbLine
 10
67.00664
 20
320.380857
 30
0.0
 11
67.05664
 21
320.430857
 31
0.0
  0
DIMENSION
  5
350
330
1F
100
AcDbEntity
  8
LC-002-100-D00-0
 62
     7
370
    25
100
AcDbDimension
  2
*D28
 10
283.218496
 20
344.423855
 30
0.0
 11
123.852378
 21
375.223855
 31
0.0
 70
   160
  1
%%c315
 71
     5
 42
315.0
  3
LC-DIM-L-0140-02-02
100
AcDbAlignedDimension
 13
-31.781504
 23
318.380857
 33
0.0
 14
283.218496
 24
318.380857
 34
0.0
100
AcDbRotatedDimension
  0
DIMENSION
  5
35E
330
1F
100
AcDbEntity
  8
LC-002-100-D00-0
 62
     7
370
    25
100
AcDbDimension
  2
*D29
 10
33.817596
 20
293.180857
 30
0.0
 11
3.017596
 21
256.655255
 31
0.0
 70
   160
  1
50
 71
     5
 42
50.0
 53
90.0
  3
LC-DIM-L-0140-02-02
100
AcDbAlignedDimension
 13
86.218496
 23
243.180857
 33
0.0
 14
101.218496
 24
293.180857
 34
0.0
 50
90.0
100
AcDbRotatedDimension
  0
DIMENSION
  5
36D
330
1F
100
AcDbEntity
  8
LC-002-100-D00-0
 62
     7
370
    25
100
AcDbDimension
  2
*D30
 10
-83.652887
 20
228.680857
 30
0.0
 11
-114.452887
 21
275.069255
 31
0.0
 70
   160
  1
93
 71
     5
 42
92.7
 53
90.0
  3
LC-DIM-L-0140-02-02
100
AcDbAlignedDimension
 13
-21.043946
 23
321.380857
 33
0.0
 14
76.95833
 24
228.680857
 34
0.0
 50
90.0
100
AcDbRotatedDimension
  0
DIMENSION
  5
37A
330
1F
100
AcDbEntity
  8
LC-002-100-D00-0
 62
     7
370
    25
100
AcDbDimension
  2
*D31
 10
-30.895029
 20
170.680857
 30
0.0
 11
-61.695029
 21
172.901255
 31
0.0
 70
   160
  1
58
 71
     5
 42
58.0
 53
90.0
  3
LC-DIM-L-0140-02-02
100
AcDbAlignedDimension
 13
76.95833
 23
228.680857
 33
0.0
 14
101.522344
 24
170.680857
 34
0.0
 50
90.0
100
AcDbRotatedDimension
  0
DIMENSION
  5
389
330
1F
100
AcDbEntity
  8
LC-002-100-D00-0
 62
     7
370
    25
100
AcDbDimension
  2
*D32
 10
150.718496
 20
194.879255
 30
0.0
 11
238.593163
 21
225.679255
 31
0.0
 70
   160
  1
DN50
 71
     5
 42
50.0
  3
LC-DIM-L-0140-02-02
100
AcDbAlignedDimension
 13
100.718496
 23
173.680857
 33
0.0
 14
150.718496
 24
173.680857
 34
0.0
100
AcDbRotatedDimension
  0
DIMENSION
  5
397
330
1F
100
AcDbEntity
  8
LC-002-100-D00-0
 62
     7
370
    25
100
AcDbDimension
  2
*D33
 10
180.718496
 20
124.193255
 30
0.0
 11
123.351502
 21
154.993255
 31
0.0
 70
   160
  1
%%c110
 71
     5
 42
110.0
  3
LC-DIM-L-0140-02-02
100
AcDbAlignedDimension
 13
70.718496
 23
243.377124
 33
0.0
 14
180.718496
 24
243.377124
 34
0.0
100
AcDbRotatedDimension
  0
DIMENSION
  5
3A4
330
1F
100
AcDbEntity
  8
LC-002-100-D00-0
 62
     7
370
    25
100
AcDbDimension
  2
*D34
 10
188.718496
 20
66.577255
 30
0.0
 11
119.739012
 21
97.377255
 31
0.0
 70
   160
  1
%%c126
 71
     5
 42
126.0
  3
LC-DIM-L-0140-02-02
100
AcDbAlignedDimension
 13
62.718496
 23
288.680857
 33
0.0
 14
188.718496
 24
288.680857
 34
0.0
100
AcDbRotatedDimension
  0
DIMENSION
  5
3B1
330
1F
100
AcDbEntity
  8
LC-002-100-D00-0
 62
     7
370
    25
100
AcDbDimension
  2
*D35
 10
321.921749
 20
285.680857
 30
0.0
 11
291.121749
 21
284.573255
 31
0.0
 70
   160
  1
36
 71
     5
 42
35.7
 53
90.0
  3
LC-DIM-L-0140-02-02
100
AcDbAlignedDimension
 13
283.218496
 23
321.380857
 33
0.0
 14
185.718496
 24
285.680857
 34
0.0
 50
90.0
100
AcDbRotatedDimension
  0
LINE
  5
3BF
330
1F
100
AcDbEntity
  8
LC-002-100-D00-0
  6
DASHDOT
 62
     7
370
    25
100
AcDbLine
 10
125.718496
 20
160.680857
 30
0.0
 11
125.718496
 21
303.180857
 31
0.0
  0
LINE
  5
3C0
330
1F
100
AcDbEntity
  8
LC-002-100-D00-0
 62
     7
370
    50
100
AcDbLine
 10
-25.019
 20
306.381521
 30
0.0
 11
-24.413759
 21
304.122703
 31
0.0
  0
ARC
  5
3C1
330
1F
100
AcDbEntity
  8
LC-002-100-D00-0
 62
     7
370
    50
100
AcDbCircle
 10
-23.447833
 20
304.381521
 30
0.0
 40
1.000000000000003
100
AcDbArc
 50
195.0
 51
270.0
  0
LINE
  5
3C2
330
1F
100
AcDbEntity
  8
LC-002-100-D00-0
 62
     7
370
    50
100
AcDbLine
 10
-12.577885
 20
303.961848
 30
0.0
 11
-8.50563
 21
318.380857
 31
0.0
  0
ARC
  5
3C3
330
1F
100
AcDbEntity
  8
LC-002-100-D00-0
 62
     7
370
    50
100
AcDbCircle
 10
-13.485561
 20
304.381521
 30
0.0
 40
1.00000002306029
100
AcDbArc
 50
269.998205
 51
344.729719
  0
INSERT
  5
3CF
330
1F
100
AcDbEntity
  8
LC-002-100-D00-0
 62
     7
370
    50
100
AcDbBlockReference
  2
POLY23
 10
0.0
 20
0.0
 30
0.0
  0
LINE
  5
3D0
330
1F
100
AcDbEntity
  8
LC-002-100-D00-0
 62
     7
370
    50
100
AcDbLine
 10
30.384054
 20
306.381521
 30
0.0
 11
30.989302
 21
304.122703
 31
0.0
  0
ARC
  5
3D1
330
1F
100
AcDbEntity
  8
LC-002-100-D00-0
 62
     7
370
    50
100
AcDbCircle
 10
31.955227
 20
304.381521
 30
0.0
 40
1.00000000000003
100
AcDbArc
 50
195.0
 51
270.0
  0
ARC
  5
3D2
330
1F
100
AcDbEntity
  8
LC-002-100-D00-0
 62
     7
370
    50
100
AcDbCircle
 10
40.46779
 20
304.381521
 30
0.0
 40
1.0
100
AcDbArc
 50
270.0
 51
350.538427
  0
LINE
  5
3D3
330
1F
100
AcDbEntity
  8
LC-002-100-D00-0
 62
     7
370
    50
100
AcDbLine
 10
-16.560609
 20
304.381521
 30
0.0
 11
-15.936891
 21
306.381521
 31
0.0
  0
LINE
  5
3D4
330
1F
100
AcDbEntity
  8
LC-002-100-D00-0
 62
     7
370
    50
100
AcDbLine
 10
-16.61631
 20
304.122703
 30
0.0
 11
-16.560609
 21
304.381521
 31
0.0
  0
LINE
  5
3D5
330
1F
100
AcDbEntity
  8
LC-002-100-D00-0
 62
     7
370
    50
100
AcDbLine
 10
-25.019
 20
306.381521
 30
0.0
 11
-15.936891
 21
306.381521
 31
0.0
  0
INSERT
  5
3E7
330
1F
100
AcDbEntity
  8
LC-002-100-D00-0
 62
     7
370
    50
100
AcDbBlockReference
  2
POLY24
 10
0.0
 20
0.0
 30
0.0
  0
LINE
  5
3E8
330
1F
100
AcDbEntity
  8
LC-002-100-D00-0
 62
     7
370
    50
100
AcDbLine
 10
-13.485561
 20
303.381521
 30
0.0
 11
-23.447836
 21
303.381521
 31
0.0
  0
LINE
  5
3E9
330
1F
100
AcDbEntity
  8
LC-002-100-D00-0
 62
     7
370
    50
100
AcDbLine
 10
-15.988389
 20
306.381521
 30
0.0
 11
-12.313532
 21
318.380857
 31
0.0
  0
LINE
  5
3EA
330
1F
100
AcDbEntity
  8
LC-002-100-D00-0
 62
     7
370
    50
100
AcDbLine
 10
-12.562016
 20
304.123098
 30
0.0
 11
-12.542466
 21
304.123485
 31
0.0
  0
INSERT
  5
3F6
330
1F
100
AcDbEntity
  8
LC-002-100-D00-0
 62
     7
370
    50
100
AcDbBlockReference
  2
POLY25
 10
0.0
 20
0.0
 30
0.0
  0
LINE
  5
3F7
330
1F
100
AcDbEntity
  8
LC-002-100-D00-0
 62
     7
370
    50
100
AcDbLine
 10
36.098947
 20
306.381521
 30
0.0
 11
38.119127
 21
314.380856
 31
0.0
  0
LINE
  5
3F8
330
1F
100
AcDbEntity
  8
LC-002-100-D00-0
 62
     7
370
    50
100
AcDbLine
 10
35.747228
 20
304.381521
 30
0.0
 11
36.130605
 21
306.381521
 31
0.0
  0
INSERT
  5
406
330
1F
100
AcDbEntity
  8
LC-002-100-D00-0
 62
     7
370
    50
100
AcDbBlockReference
  2
POLY26
 10
0.0
 20
0.0
 30
0.0
  0
LINE
  5
407
330
1F
100
AcDbEntity
  8
LC-002-100-D00-0
 62
     7
370
    50
100
AcDbLine
 10
35.737289
 20
304.122703
 30
0.0
 11
35.747228
 21
304.381521
 31
0.0
  0
LINE
  5
408
330
1F
100
AcDbEntity
  8
LC-002-100-D00-0
 62
     7
370
    50
100
AcDbLine
 10
30.384054
 20
306.381521
 30
0.0
 11
36.130605
 21
306.381521
 31
0.0
  0
LINE
  5
409
330
1F
100
AcDbEntity
  8
LC-002-100-D00-0
 62
     7
370
    50
100
AcDbLine
 10
38.536127
 20
303.381521
 30
0.0
 11
31.955227
 21
303.381521
 31
0.0
  0
INSERT
  5
41B
330
1F
100
AcDbEntity
  8
LC-002-100-D00-0
 62
     7
370
    50
100
AcDbBlockReference
  2
POLY27
 10
0.0
 20
0.0
 30
0.0
  0
DIMENSION
  5
41D
330
1F
100
AcDbEntity
  8
LC-003-003-----0
 62
     7
370
    25
100
AcDbDimension
  2
*D41
 10
-45.107109
 20
303.381521
 30
0.0
 11
-75.907109
 21
329.41686
 31
0.0
 70
   160
 71
     5
 42
17.999335
 53
90.0
  3
LC-DIM-L-0140-02-02
100
AcDbAlignedDimension
 13
-32.404038
 23
321.380856
 33
0.0
 14
-23.447836
 24
303.381521
 34
0.0
 50
90.0
100
AcDbRotatedDimension
  0
LINE
  5
42B
330
1F
100
AcDbEntity
  8
LC-002-100-D00-0
 62
     7
370
    50
100
AcDbLine
 10
275.21092
 20
306.381521
 30
0.0
 11
274.60568
 21
304.122703
 31
0.0
  0
ARC
  5
42C
330
1F
100
AcDbEntity
  8
LC-002-100-D00-0
 62
     7
370
    50
100
AcDbCircle
 10
273.639753
 20
304.381521
 30
0.0
 40
1.0
100
AcDbArc
 50
270.0
 51
345.0
  0
LINE
  5
42D
330
1F
100
AcDbEntity
  8
LC-002-100-D00-0
 62
     7
370
    50
100
AcDbLine
 10
262.769806
 20
303.961848
 30
0.0
 11
258.69755
 21
318.380857
 31
0.0
  0
ARC
  5
42E
330
1F
100
AcDbEntity
  8
LC-002-100-D00-0
 62
     7
370
    50
100
AcDbCircle
 10
263.677481
 20
304.381521
 30
0.0
 40
1.000000023060274
100
AcDbArc
 50
195.270281
 51
270.001795
  0
LINE
  5
42F
330
1F
100
AcDbEntity
  8
LC-002-100-D00-0
 62
     7
370
    50
100
AcDbLine
 10
266.752529
 20
304.381521
 30
0.0
 11
266.128811
 21
306.381521
 31
0.0
  0
LINE
  5
430
330
1F
100
AcDbEntity
  8
LC-002-100-D00-0
 62
     7
370
    50
100
AcDbLine
 10
266.80823
 20
304.122703
 30
0.0
 11
266.752529
 21
304.381521
 31
0.0
  0
LINE
  5
431
330
1F
100
AcDbEntity
  8
LC-002-100-D00-0
 62
     7
370
    50
100
AcDbLine
 10
275.21092
 20
306.381521
 30
0.0
 11
266.128811
 21
306.381521
 31
0.0
  0
INSERT
  5
443
330
1F
100
AcDbEntity
  8
LC-002-100-D00-0
 62
     7
370
    50
100
AcDbBlockReference
  2
POLY28
 10
0.0
 20
0.0
 30
0.0
  0
LINE
  5
444
330
1F
100
AcDbEntity
  8
LC-002-100-D00-0
 62
     7
370
    50
100
AcDbLine
 10
263.677481
 20
303.381521
 30
0.0
 11
273.639757
 21
303.381521
 31
0.0
  0
LINE
  5
445
330
1F
100
AcDbEntity
  8
LC-002-100-D00-0
 62
     7
370
    50
100
AcDbLine
 10
266.18031
 20
306.381521
 30
0.0
 11
262.505453
 21
318.380857
 31
0.0
  0
LINE
  5
446
330
1F
100
AcDbEntity
  8
LC-002-100-D00-0
 62
     7
370
    50
100
AcDbLine
 10
262.753937
 20
304.123098
 30
0.0
 11
262.734386
 21
304.123485
 31
0.0
  0
INSERT
  5
452
330
1F
100
AcDbEntity
  8
LC-002-100-D00-0
 62
     7
370
    50
100
AcDbBlockReference
  2
POLY29
 10
0.0
 20
0.0
 30
0.0
  0
INSERT
  5
45E
330
1F
100
AcDbEntity
  8
LC-002-100-D00-0
 62
     7
370
    50
100
AcDbBlockReference
  2
POLY30
 10
0.0
 20
0.0
 30
0.0
  0
LINE
  5
45F
330
1F
100
AcDbEntity
  8
LC-002-100-D00-0
 62
     7
370
    50
100
AcDbLine
 10
219.807866
 20
306.381521
 30
0.0
 11
219.202618
 21
304.122703
 31
0.0
  0
ARC
  5
460
330
1F
100
AcDbEntity
  8
LC-002-100-D00-0
 62
     7
370
    50
100
AcDbCircle
 10
218.236693
 20
304.381521
 30
0.0
 40
1.000000000000057
100
AcDbArc
 50
270.0
 51
345.0
  0
ARC
  5
461
330
1F
100
AcDbEntity
  8
LC-002-100-D00-0
 62
     7
370
    50
100
AcDbCircle
 10
209.72413
 20
304.381521
 30
0.0
 40
1.00000000000001
100
AcDbArc
 50
189.461573
 51
270.0
  0
LINE
  5
462
330
1F
100
AcDbEntity
  8
LC-002-100-D00-0
 62
     7
370
    50
100
AcDbLine
 10
214.092973
 20
306.381521
 30
0.0
 11
212.072793
 21
314.380856
 31
0.0
  0
LINE
  5
463
330
1F
100
AcDbEntity
  8
LC-002-100-D00-0
 62
     7
370
    50
100
AcDbLine
 10
214.444693
 20
304.381521
 30
0.0
 11
214.061315
 21
306.381521
 31
0.0
  0
INSERT
  5
471
330
1F
100
AcDbEntity
  8
LC-002-100-D00-0
 62
     7
370
    50
100
AcDbBlockReference
  2
POLY31
 10
0.0
 20
0.0
 30
0.0
  0
LINE
  5
472
330
1F
100
AcDbEntity
  8
LC-002-100-D00-0
 62
     7
370
    50
100
AcDbLine
 10
214.454632
 20
304.122703
 30
0.0
 11
214.444693
 21
304.381521
 31
0.0
  0
LINE
  5
473
330
1F
100
AcDbEntity
  8
LC-002-100-D00-0
 62
     7
370
    50
100
AcDbLine
 10
219.807866
 20
306.381521
 30
0.0
 11
214.061315
 21
306.381521
 31
0.0
  0
LINE
  5
474
330
1F
100
AcDbEntity
  8
LC-002-100-D00-0
 62
     7
370
    50
100
AcDbLine
 10
211.655794
 20
303.381521
 30
0.0
 11
218.236693
 21
303.381521
 31
0.0
  0
INSERT
  5
486
330
1F
100
AcDbEntity
  8
LC-002-100-D00-0
 62
     7
370
    50
100
AcDbBlockReference
  2
POLY32
 10
0.0
 20
0.0
 30
0.0
  0
ARC
  5
487
330
1F
100
AcDbEntity
  8
LC-002-100-D00-0
 62
     7
370
    50
100
AcDbCircle
 10
125.718496
 20
-164.227806
 30
0.0
 40
152.4999999999999
100
AcDbArc
 50
66.690633
 51
73.411923
  0
ARC
  5
488
330
1F
100
AcDbEntity
  8
LC-002-100-D00-0
 62
     7
370
    50
100
AcDbCircle
 10
125.718496
 20
-164.227806
 30
0.0
 40
151.4080892972012
100
AcDbArc
 50
66.690633
 51
73.411923
  0
ARC
  5
489
330
1F
100
AcDbEntity
  8
LC-002-100-D00-0
 62
     7
370
    50
100
AcDbCircle
 10
104.506608
 20
-20.787728
 30
0.0
 40
7.500000000000066
100
AcDbArc
 50
98.411923
 51
278.411923
  0
ARC
  5
48A
330
1F
100
AcDbEntity
  8
LC-002-100-D00-0
 62
     7
370
    50
100
AcDbCircle
 10
104.506608
 20
-20.787728
 30
0.0
 40
6.408089297201471
100
AcDbArc
 50
98.411923
 51
278.411923
  0
ARC
  5
48B
330
1F
100
AcDbEntity
  8
LC-002-100-D00-0
 62
     7
370
    50
100
AcDbCircle
 10
-18.05789
 20
-145.430176
 30
0.0
 40
7.196152422706692
100
AcDbArc
 50
12.880129
 51
332.222428
  0
CIRCLE
  5
48C
330
1F
100
AcDbEntity
  8
LC-002-100-D00-0
 62
     7
370
    50
100
AcDbCircle
 10
-18.05789
 20
-145.430176
 30
0.0
 40
8.000000000000057
  0
ARC
  5
48D
330
1F
100
AcDbEntity
  8
LC-002-100-D00-0
 62
     7
370
    50
100
AcDbCircle
 10
260.451482
 20
-110.636551
 30
0.0
 40
7.500000000000072
100
AcDbArc
 50
201.690633
 51
21.690633
  0
ARC
  5
48E
330
1F
100
AcDbEntity
  8
LC-002-100-D00-0
 62
     7
370
    50
100
AcDbCircle
 10
260.451482
 20
-110.636551
 30
0.0
 40
6.408089297201457
100
AcDbArc
 50
201.690633
 51
21.690633
  0
ARC
  5
48F
330
1F
100
AcDbEntity
  8
LC-002-100-D00-0
 62
     7
370
    50
100
AcDbCircle
 10
125.718496
 20
-164.227806
 30
0.0
 40
152.4999999999999
100
AcDbArc
 50
91.690633
 51
98.411923
  0
ARC
  5
490
330
1F
100
AcDbEntity
  8
LC-002-100-D00-0
 62
     7
370
    50
100
AcDbCircle
 10
125.718496
 20
-164.227806
 30
0.0
 40
151.4080892972013
100
AcDbArc
 50
91.690633
 51
98.411923
  0
CIRCLE
  5
491
330
1F
100
AcDbEntity
  8
LC-002-100-D00-0
 62
     7
370
    50
100
AcDbCircle
 10
265.744098
 20
-126.57371
 30
0.0
 40
2.0
  0
CIRCLE
  5
492
330
1F
100
AcDbEntity
  8
LC-002-100-D00-0
 62
     7
370
    50
100
AcDbCircle
 10
265.744098
 20
-126.57371
 30
0.0
 40
4.500000000000227
  0
ARC
  5
493
330
1F
100
AcDbEntity
  8
LC-002-100-D00-0
 62
     7
370
    50
100
AcDbCircle
 10
144.516126
 20
-20.45142
 30
0.0
 40
7.196152422706692
100
AcDbArc
 50
282.880129
 51
242.222428
  0
CIRCLE
  5
494
330
1F
100
AcDbEntity
  8
LC-002-100-D00-0
 62
     7
370
    50
100
AcDbCircle
 10
144.516126
 20
-20.45142
 30
0.0
 40
8.000000000000057
  0
ARC
  5
495
330
1F
100
AcDbEntity
  8
LC-002-100-D00-0
 62
     7
370
    50
100
AcDbCircle
 10
37.34517
 20
-49.270617
 30
0.0
 40
7.196152422706613
100
AcDbArc
 50
327.880129
 51
287.222428
  0
CIRCLE
  5
496
330
1F
100
AcDbEntity
  8
LC-002-100-D00-0
 62
     7
370
    50
100
AcDbCircle
 10
37.34517
 20
-49.270617
 30
0.0
 40
8.0
  0
ARC
  5
497
330
1F
100
AcDbEntity
  8
LC-002-100-D00-0
 62
     7
370
    50
100
AcDbCircle
 10
-7.446851
 20
-106.851938
 30
0.0
 40
7.50000000000002
100
AcDbArc
 50
336.690633
 51
156.690633
  0
ARC
  5
498
330
1F
100
AcDbEntity
  8
LC-002-100-D00-0
 62
     7
370
    50
100
AcDbCircle
 10
-7.446851
 20
-106.851938
 30
0.0
 40
6.408089297201397
100
AcDbArc
 50
336.690633
 51
156.690633
  0
ARC
  5
499
330
1F
100
AcDbEntity
  8
LC-002-100-D00-0
 62
     7
370
    50
100
AcDbCircle
 10
125.718496
 20
-164.227806
 30
0.0
 40
137.4999999999999
100
AcDbArc
 50
156.690633
 51
163.411923
  0
ARC
  5
49A
330
1F
100
AcDbEntity
  8
LC-002-100-D00-0
 62
     7
370
    50
100
AcDbCircle
 10
125.718496
 20
-164.227806
 30
0.0
 40
138.5919107027985
100
AcDbArc
 50
156.690633
 51
163.411923
  0
ARC
  5
49B
330
1F
100
AcDbEntity
  8
LC-002-100-D00-0
 62
     7
370
    50
100
AcDbCircle
 10
167.114392
 20
-25.262415
 30
0.0
 40
7.500000000000076
100
AcDbArc
 50
73.411923
 51
253.411923
  0
ARC
  5
49C
330
1F
100
AcDbEntity
  8
LC-002-100-D00-0
 62
     7
370
    50
100
AcDbCircle
 10
167.114392
 20
-25.262415
 30
0.0
 40
6.408089297201422
100
AcDbArc
 50
73.411923
 51
253.411923
  0
ARC
  5
49D
330
1F
100
AcDbEntity
  8
LC-002-100-D00-0
 62
     7
370
    50
100
AcDbCircle
 10
125.718496
 20
-164.227806
 30
0.0
 40
137.4999999999998
100
AcDbArc
 50
1.690633
 51
8.411923
  0
ARC
  5
49E
330
1F
100
AcDbEntity
  8
LC-002-100-D00-0
 62
     7
370
    50
100
AcDbCircle
 10
125.718496
 20
-164.227806
 30
0.0
 40
138.5919107027984
100
AcDbArc
 50
1.690633
 51
8.411923
  0
ARC
  5
49F
330
1F
100
AcDbEntity
  8
LC-002-100-D00-0
 62
     7
370
    50
100
AcDbCircle
 10
20.207705
 20
-64.766895
 30
0.0
 40
7.500000000000011
100
AcDbArc
 50
316.690633
 51
136.690633
  0
ARC
  5
4A0
330
1F
100
AcDbEntity
  8
LC-002-100-D00-0
 62
     7
370
    50
100
AcDbCircle
 10
20.207705
 20
-64.766895
 30
0.0
 40
6.408089297201507
100
AcDbArc
 50
316.690633
 51
136.690633
  0
ARC
  5
4A1
330
1F
100
AcDbEntity
  8
LC-002-100-D00-0
 62
     7
370
    50
100
AcDbCircle
 10
9.291975
 20
-77.799425
 30
0.0
 40
7.500000000000002
100
AcDbArc
 50
143.411923
 51
323.411923
  0
ARC
  5
4A2
330
1F
100
AcDbEntity
  8
LC-002-100-D00-0
 62
     7
370
    50
100
AcDbCircle
 10
9.291975
 20
-77.799425
 30
0.0
 40
6.40808929720139
100
AcDbArc
 50
143.411923
 51
323.411923
  0
ARC
  5
4A3
330
1F
100
AcDbEntity
  8
LC-002-100-D00-0
 62
     7
370
    50
100
AcDbCircle
 10
125.718496
 20
-164.227806
 30
0.0
 40
152.4999999999999
100
AcDbArc
 50
111.690633
 51
118.411923
  0
ARC
  5
4A4
330
1F
100
AcDbEntity
  8
LC-002-100-D00-0
 62
     7
370
    50
100
AcDbCircle
 10
125.718496
 20
-164.227806
 30
0.0
 40
151.4080892972013
100
AcDbArc
 50
111.690633
 51
118.411923
  0
CIRCLE
  5
4A5
330
1F
100
AcDbEntity
  8
LC-002-100-D00-0
 62
     7
370
    50
100
AcDbCircle
 10
88.0644
 20
-24.202204
 30
0.0
 40
4.500000000000171
  0
CIRCLE
  5
4A6
330
1F
100
AcDbEntity
  8
LC-002-100-D00-0
 62
     7
370
    50
100
AcDbCircle
 10
240.675685
 20
-75.854479
 30
0.0
 40
8.000000000000114
  0
ARC
  5
4A7
330
1F
100
AcDbEntity
  8
LC-002-100-D00-0
 62
     7
370
    50
100
AcDbCircle
 10
125.718496
 20
-164.227806
 30
0.0
 40
137.4999999999998
100
AcDbArc
 50
91.690633
 51
98.411923
  0
ARC
  5
4A8
330
1F
100
AcDbEntity
  8
LC-002-100-D00-0
 62
     7
370
    50
100
AcDbCircle
 10
121.440585
 20
-19.290925
 30
0.0
 40
7.500000000000015
100
AcDbArc
 50
271.690633
 51
91.690633
  0
ARC
  5
4A9
330
1F
100
AcDbEntity
  8
LC-002-100-D00-0
 62
     7
370
    50
100
AcDbCircle
 10
56.726445
 20
-36.693117
 30
0.0
 40
7.500000000000089
100
AcDbArc
 50
118.411923
 51
298.411923
  0
ARC
  5
4AA
330
1F
100
AcDbEntity
  8
LC-002-100-D00-0
 62
     7
370
    50
100
AcDbCircle
 10
125.718496
 20
-164.227806
 30
0.0
 40
137.4999999999999
100
AcDbArc
 50
111.690633
 51
118.411923
  0
ARC
  5
4AB
330
1F
100
AcDbEntity
  8
LC-002-100-D00-0
 62
     7
370
    50
100
AcDbCircle
 10
72.127241
 20
-29.49482
 30
0.0
 40
7.500000000000019
100
AcDbArc
 50
291.690633
 51
111.690633
  0
ARC
  5
4AC
330
1F
100
AcDbEntity
  8
LC-002-100-D00-0
 62
     7
370
    50
100
AcDbCircle
 10
125.718496
 20
-164.227806
 30
0.0
 40
152.4999999999999
100
AcDbArc
 50
156.690633
 51
163.411923
  0
ARC
  5
4AD
330
1F
100
AcDbEntity
  8
LC-002-100-D00-0
 62
     7
370
    50
100
AcDbCircle
 10
-13.246894
 20
-122.831909
 30
0.0
 40
7.500000000000084
100
AcDbArc
 50
163.411923
 51
343.411923
  0
ARC
  5
4AE
330
1F
100
AcDbEntity
  8
LC-002-100-D00-0
 62
     7
370
    50
100
AcDbCircle
 10
125.718496
 20
-164.227806
 30
0.0
 40
152.4999999999998
100
AcDbArc
 50
21.690633
 51
28.411923
  0
ARC
  5
4AF
330
1F
100
AcDbEntity
  8
LC-002-100-D00-0
 62
     7
370
    50
100
AcDbCircle
 10
253.253185
 20
-95.235754
 30
0.0
 40
7.500000000000089
100
AcDbArc
 50
28.411923
 51
208.411923
  0
ARC
  5
4B0
330
1F
100
AcDbEntity
  8
LC-002-100-D00-0
 62
     7
370
    50
100
AcDbCircle
 10
125.718496
 20
-164.227806
 30
0.0
 40
137.4999999999998
100
AcDbArc
 50
21.690633
 51
28.411923
  0
ARC
  5
4B1
330
1F
100
AcDbEntity
  8
LC-002-100-D00-0
 62
     7
370
    50
100
AcDbCircle
 10
125.718496
 20
-164.227806
 30
0.0
 40
137.4999999999998
100
AcDbArc
 50
66.690633
 51
73.411923
  0
ARC
  5
4B2
330
1F
100
AcDbEntity
  8
LC-002-100-D00-0
 62
     7
370
    50
100
AcDbCircle
 10
183.094364
 20
-31.062458
 30
0.0
 40
7.500000000000084
100
AcDbArc
 50
246.690633
 51
66.690633
  0
ARC
  5
4B3
330
1F
100
AcDbEntity
  8
LC-002-100-D00-0
 62
     7
370
    50
100
AcDbCircle
 10
125.718496
 20
-164.227806
 30
0.0
 40
152.4999999999999
100
AcDbArc
 50
136.690633
 51
143.411923
  0
ARC
  5
4B4
330
1F
100
AcDbEntity
  8
LC-002-100-D00-0
 62
     7
370
    50
100
AcDbCircle
 10
125.718496
 20
-164.227806
 30
0.0
 40
137.4999999999999
100
AcDbArc
 50
136.690633
 51
143.411923
  0
ARC
  5
4B5
330
1F
100
AcDbEntity
  8
LC-002-100-D00-0
 62
     7
370
    50
100
AcDbCircle
 10
125.718496
 20
-164.227806
 30
0.0
 40
152.4999999999999
100
AcDbArc
 50
1.690633
 51
8.411923
  0
ARC
  5
4B6
330
1F
100
AcDbEntity
  8
LC-002-100-D00-0
 62
     7
370
    50
100
AcDbCircle
 10
269.158574
 20
-143.015917
 30
0.0
 40
7.500000000000009
100
AcDbArc
 50
8.411923
 51
188.411923
  0
ARC
  5
4B7
330
1F
100
AcDbEntity
  8
LC-002-100-D00-0
 62
     7
370
    50
100
AcDbCircle
 10
125.718496
 20
-164.227806
 30
0.0
 40
152.4999999999999
100
AcDbArc
 50
46.690633
 51
53.411923
  0
ARC
  5
4B8
330
1F
100
AcDbEntity
  8
LC-002-100-D00-0
 62
     7
370
    50
100
AcDbCircle
 10
212.146877
 20
-47.801284
 30
0.0
 40
7.500000000000003
100
AcDbArc
 50
53.411923
 51
233.411923
  0
ARC
  5
4B9
330
1F
100
AcDbEntity
  8
LC-002-100-D00-0
 62
     7
370
    50
100
AcDbCircle
 10
125.718496
 20
-164.227806
 30
0.0
 40
137.4999999999998
100
AcDbArc
 50
46.690633
 51
53.411923
  0
ARC
  5
4BA
330
1F
100
AcDbEntity
  8
LC-002-100-D00-0
 62
     7
370
    50
100
AcDbCircle
 10
225.179407
 20
-58.717014
 30
0.0
 40
7.500000000000091
100
AcDbArc
 50
226.690633
 51
46.690633
  0
ARC
  5
4BB
330
1F
100
AcDbEntity
  8
LC-002-100-D00-0
 62
     7
370
    50
100
AcDbCircle
 10
121.440585
 20
-19.290925
 30
0.0
 40
6.408089297201479
100
AcDbArc
 50
271.690633
 51
91.690633
  0
CIRCLE
  5
4BC
330
1F
100
AcDbEntity
  8
LC-002-100-D00-0
 62
     7
370
    50
100
AcDbCircle
 10
88.0644
 20
-24.202204
 30
0.0
 40
2.0
  0
ARC
  5
4BD
330
1F
100
AcDbEntity
  8
LC-002-100-D00-0
 62
     7
370
    50
100
AcDbCircle
 10
72.127241
 20
-29.49482
 30
0.0
 40
6.408089297201383
100
AcDbArc
 50
291.690633
 51
111.690633
  0
ARC
  5
4BE
330
1F
100
AcDbEntity
  8
LC-002-100-D00-0
 62
     7
370
    50
100
AcDbCircle
 10
125.718496
 20
-164.227806
 30
0.0
 40
138.5919107027985
100
AcDbArc
 50
111.690633
 51
118.411923
  0
ARC
  5
4BF
330
1F
100
AcDbEntity
  8
LC-002-100-D00-0
 62
     7
370
    50
100
AcDbCircle
 10
240.675685
 20
-75.854479
 30
0.0
 40
7.19615242270666
100
AcDbArc
 50
237.880129
 51
197.222428
  0
ARC
  5
4C0
330
1F
100
AcDbEntity
  8
LC-002-100-D00-0
 62
     7
370
    50
100
AcDbCircle
 10
-13.246894
 20
-122.831909
 30
0.0
 40
6.408089297201476
100
AcDbArc
 50
163.411923
 51
343.411923
  0
ARC
  5
4C1
330
1F
100
AcDbEntity
  8
LC-002-100-D00-0
 62
     7
370
    50
100
AcDbCircle
 10
125.718496
 20
-164.227806
 30
0.0
 40
151.4080892972013
100
AcDbArc
 50
156.690633
 51
163.411923
  0
ARC
  5
4C2
330
1F
100
AcDbEntity
  8
LC-002-100-D00-0
 62
     7
370
    50
100
AcDbCircle
 10
270.655377
 20
-159.949894
 30
0.0
 40
6.408089297201479
100
AcDbArc
 50
181.690633
 51
221.880555
  0
ARC
  5
4C3
330
1F
100
AcDbEntity
  8
LC-002-100-D00-0
 62
     7
370
    50
100
AcDbCircle
 10
125.718496
 20
-164.227806
 30
0.0
 40
138.5919107027984
100
AcDbArc
 50
91.690633
 51
98.411923
  0
ARC
  5
4C4
330
1F
100
AcDbEntity
  8
LC-002-100-D00-0
 62
     7
370
    50
100
AcDbCircle
 10
269.158574
 20
-143.015917
 30
0.0
 40
6.408089297201358
100
AcDbArc
 50
8.411923
 51
188.411923
  0
ARC
  5
4C5
330
1F
100
AcDbEntity
  8
LC-002-100-D00-0
 62
     7
370
    50
100
AcDbCircle
 10
225.179407
 20
-58.717014
 30
0.0
 40
6.408089297201507
100
AcDbArc
 50
226.690633
 51
46.690633
  0
ARC
  5
4C6
330
1F
100
AcDbEntity
  8
LC-002-100-D00-0
 62
     7
370
    50
100
AcDbCircle
 10
125.718496
 20
-164.227806
 30
0.0
 40
151.4080892972013
100
AcDbArc
 50
46.690633
 51
53.411923
  0
ARC
  5
4C7
330
1F
100
AcDbEntity
  8
LC-002-100-D00-0
 62
     7
370
    50
100
AcDbCircle
 10
183.094364
 20
-31.062458
 30
0.0
 40
6.40808929720145
100
AcDbArc
 50
246.690633
 51
66.690633
  0
ARC
  5
4C8
330
1F
100
AcDbEntity
  8
LC-002-100-D00-0
 62
     7
370
    50
100
AcDbCircle
 10
125.718496
 20
-164.227806
 30
0.0
 40
138.5919107027983
100
AcDbArc
 50
21.690633
 51
28.411923
  0
ARC
  5
4C9
330
1F
100
AcDbEntity
  8
LC-002-100-D00-0
 62
     7
370
    50
100
AcDbCircle
 10
253.253185
 20
-95.235754
 30
0.0
 40
6.408089297201421
100
AcDbArc
 50
28.411923
 51
208.411923
  0
ARC
  5
4CA
330
1F
100
AcDbEntity
  8
LC-002-100-D00-0
 62
     7
370
    50
100
AcDbCircle
 10
125.718496
 20
-164.227806
 30
0.0
 40
151.4080892972013
100
AcDbArc
 50
136.690633
 51
143.411923
  0
ARC
  5
4CB
330
1F
100
AcDbEntity
  8
LC-002-100-D00-0
 62
     7
370
    50
100
AcDbCircle
 10
125.718496
 20
-164.227806
 30
0.0
 40
151.4080892972013
100
AcDbArc
 50
21.690633
 51
28.411923
  0
ARC
  5
4CC
330
1F
100
AcDbEntity
  8
LC-002-100-D00-0
 62
     7
370
    50
100
AcDbCircle
 10
125.718496
 20
-164.227806
 30
0.0
 40
138.5919107027985
100
AcDbArc
 50
66.690633
 51
73.411923
  0
ARC
  5
4CD
330
1F
100
AcDbEntity
  8
LC-002-100-D00-0
 62
     7
370
    50
100
AcDbCircle
 10
125.718496
 20
-164.227806
 30
0.0
 40
138.5919107027984
100
AcDbArc
 50
46.690633
 51
53.411923
  0
ARC
  5
4CE
330
1F
100
AcDbEntity
  8
LC-002-100-D00-0
 62
     7
370
    50
100
AcDbCircle
 10
125.718496
 20
-164.227806
 30
0.0
 40
138.5919107027985
100
AcDbArc
 50
136.690633
 51
143.411923
  0
ARC
  5
4CF
330
1F
100
AcDbEntity
  8
LC-002-100-D00-0
 62
     7
370
    50
100
AcDbCircle
 10
125.718496
 20
-164.227806
 30
0.0
 40
151.4080892972013
100
AcDbArc
 50
1.690633
 51
8.411923
  0
ARC
  5
4D0
330
1F
100
AcDbEntity
  8
LC-002-100-D00-0
 62
     7
370
    50
100
AcDbCircle
 10
56.726445
 20
-36.693117
 30
0.0
 40
6.408089297201448
100
AcDbArc
 50
118.411923
 51
298.411923
  0
ARC
  5
4D1
330
1F
100
AcDbEntity
  8
LC-002-100-D00-0
 62
     7
370
    50
100
AcDbCircle
 10
212.146877
 20
-47.801284
 30
0.0
 40
6.408089297201436
100
AcDbArc
 50
53.411923
 51
233.411923
  0
LINE
  5
4D2
330
1F
100
AcDbEntity
  8
LC-002-100-D00-0
 62
     7
370
    50
100
AcDbLine
 10
43.439858
 20
-53.096756
 30
0.0
 11
41.97155
 21
-51.186755
 31
0.0
  0
LINE
  5
4D3
330
1F
100
AcDbEntity
  8
LC-002-100-D00-0
 62
     7
370
    50
100
AcDbLine
 10
38.007506
 20
-54.234109
 30
0.0
 11
39.475822
 21
-56.14411
 31
0.0
  0
INSERT
  5
4E3
330
1F
100
AcDbEntity
  8
LC-002-100-D00-0
 62
     7
370
    50
100
AcDbBlockReference
  2
POLY33
 10
0.0
 20
0.0
 30
0.0
  0
LINE
  5
4E4
330
1F
100
AcDbEntity
  8
LC-002-100-D00-0
 62
     7
370
    50
100
AcDbLine
 10
236.849547
 20
-81.949174
 30
0.0
 11
238.759548
 21
-80.480858
 31
0.0
  0
INSERT
  5
4F4
330
1F
100
AcDbEntity
  8
LC-002-100-D00-0
 62
     7
370
    50
100
AcDbBlockReference
  2
POLY34
 10
0.0
 20
0.0
 30
0.0
  0
LINE
  5
4F5
330
1F
100
AcDbEntity
  8
LC-002-100-D00-0
 62
     7
370
    50
100
AcDbLine
 10
235.712194
 20
-76.516814
 30
0.0
 11
233.802193
 21
-77.98513
 31
0.0
  0
INSERT
  5
505
330
1F
100
AcDbEntity
  8
LC-002-100-D00-0
 62
     7
370
    50
100
AcDbBlockReference
  2
POLY35
 10
0.0
 20
0.0
 30
0.0
  0
LINE
  5
506
330
1F
100
AcDbEntity
  8
LC-002-100-D00-0
 62
     7
370
    50
100
AcDbLine
 10
141.474749
 20
-24.429477
 30
0.0
 11
141.162428
 21
-26.818312
 31
0.0
  0
LINE
  5
507
330
1F
100
AcDbEntity
  8
LC-002-100-D00-0
 62
     7
370
    50
100
AcDbLine
 10
146.120234
 20
-27.466513
 30
0.0
 11
146.432555
 21
-25.077678
 31
0.0
  0
INSERT
  5
517
330
1F
100
AcDbEntity
  8
LC-002-100-D00-0
 62
     7
370
    50
100
AcDbBlockReference
  2
POLY36
 10
0.0
 20
0.0
 30
0.0
  0
LINE
  5
518
330
1F
100
AcDbEntity
  8
LC-002-100-D00-0
 62
     7
370
    50
100
AcDbLine
 10
-14.079831
 20
-148.471552
 30
0.0
 11
-11.690996
 21
-148.783873
 31
0.0
  0
LINE
  5
519
330
1F
100
AcDbEntity
  8
LC-002-100-D00-0
 62
     7
370
    50
100
AcDbLine
 10
-11.042795
 20
-143.826067
 30
0.0
 11
-13.43163
 21
-143.513746
 31
0.0
  0
ARC
  5
51A
330
1F
100
AcDbEntity
  8
LC-002-100-D00-0
 62
     7
370
    50
100
AcDbCircle
 10
37.34517
 20
-49.270617
 30
0.0
 40
5.052558883257629
100
AcDbArc
 50
337.207761
 51
277.894795
  0
ARC
  5
51B
330
1F
100
AcDbEntity
  8
LC-002-100-D00-0
 62
     7
370
    50
100
AcDbCircle
 10
240.675685
 20
-75.854479
 30
0.0
 40
5.052558883257651
100
AcDbArc
 50
247.207761
 51
187.894795
  0
ARC
  5
51C
330
1F
100
AcDbEntity
  8
LC-002-100-D00-0
 62
     7
370
    50
100
AcDbCircle
 10
-18.05789
 20
-145.430176
 30
0.0
 40
5.052558883257626
100
AcDbArc
 50
22.207761
 51
322.894795
  0
ARC
  5
51D
330
1F
100
AcDbEntity
  8
LC-002-100-D00-0
 62
     7
370
    50
100
AcDbCircle
 10
144.516126
 20
-20.45142
 30
0.0
 40
5.052558883257678
100
AcDbArc
 50
292.207761
 51
232.894795
  0
ARC
  5
51E
330
1F
100
AcDbEntity
  8
LC-002-100-D00-0
 62
     7
370
    50
100
AcDbCircle
 10
125.718496
 20
-164.227806
 30
0.0
 40
157.5000000000001
100
AcDbArc
 50
0.0
 51
180.0
  0
ARC
  5
51F
330
1F
100
AcDbEntity
  8
LC-002-100-D00-0
 62
     7
370
    50
100
AcDbCircle
 10
125.718496
 20
-164.227806
 30
0.0
 40
134.9999999999999
100
AcDbArc
 50
0.0
 51
180.0
  0
ARC
  5
520
330
1F
100
AcDbEntity
  8
LC-002-100-D00-0
 62
     7
370
    50
100
AcDbCircle
 10
270.655377
 20
-159.949894
 30
0.0
 40
6.408089297200218
100
AcDbArc
 50
318.119445
 51
1.690633
  0
LINE
  5
521
330
1F
100
AcDbEntity
  8
LC-001-002-----0
 62
     7
370
    25
100
AcDbLine
 10
181.718496
 20
-164.227806
 30
0.0
 11
283.218496
 21
-164.227806
 31
0.0
  0
ENDSEC
  0
SECTION
  2
OBJECTS
  0
DICTIONARY
  5
C
330
0
100
AcDbDictionary
281
     1
  3
ACAD_GROUP
350
D
  3
ACAD_LAYOUT
350
1A
  3
ACAD_MLINESTYLE
350
17
  3
ACAD_PLOTSETTINGS
350
19
  3
ACAD_PLOTSTYLENAME
350
E
  0
DICTIONARY
  5
D
102
{ACAD_REACTORS
330
C
102
}
330
C
100
AcDbDictionary
281
     1
  0
DICTIONARY
  5
1A
102
{ACAD_REACTORS
330
C
102
}
330
C
100
AcDbDictionary
281
     1
  3
Layout1
350
1E
  3
Layout2
350
26
  3
Model
350
22
  0
DICTIONARY
  5
17
102
{ACAD_REACTORS
330
C
102
}
330
C
100
AcDbDictionary
281
     1
  3
Standard
350
18
  0
DICTIONARY
  5
19
102
{ACAD_REACTORS
330
C
102
}
330
C
100
AcDbDictionary
281
     1
  0
ACDBDICTIONARYWDFLT
  5
E
102
{ACAD_REACTORS
330
C
102
}
330
C
100
AcDbDictionary
281
     1
  3
Normal
350
F
100
AcDbDictionaryWithDefault
340
F
  0
LAYOUT
  5
1E
102
{ACAD_REACTORS
330
1A
102
}
330
1A
100
AcDbPlotSettings
  1

  2

  4

  6

 40
0.0
 41
0.0
 42
0.0
 43
0.0
 44
0.0
 45
0.0
 46
0.0
 47
0.0
 48
0.0
 49
0.0
140
0.0
141
0.0
142
1.0
143
1.0
 70
   688
 72
     0
 73
     0
 74
     5
  7

 75
    16
147
1.0
148
0.0
149
0.0
100
AcDbLayout
  1
Layout1
 70
     1
 71
     1
 10
-236.368245
 20
-173.398745
 11
603.631755
 21
420.601255
 12
0.0
 22
0.0
 32
0.0
 14
-236.368245
 24
-173.398745
 34
0.0
 15
603.631755
 25
420.601255
 35
0.0
146
0.0
 13
0.0
 23
0.0
 33
0.0
 16
1.0
 26
0.0
 36
0.0
 17
0.0
 27
1.0
 37
0.0
 76
     0
330
1B
  0
LAYOUT
  5
26
102
{ACAD_REACTORS
330
1A
102
}
330
1A
100
AcDbPlotSettings
  1

  2

  4

  6

 40
0.0
 41
0.0
 42
0.0
 43
0.0
 44
0.0
 45
0.0
 46
0.0
 47
0.0
 48
0.0
 49
0.0
140
0.0
141
0.0
142
1.0
143
1.0
 70
   688
 72
     0
 73
     0
 74
     5
  7

 75
    16
147
1.0
148
0.0
149
0.0
100
AcDbLayout
  1
Layout2
 70
     1
 71
     2
 10
0.0
 20
0.0
 11
0.0
 21
0.0
 12
0.0
 22
0.0
 32
0.0
 14
0.0
 24
0.0
 34
0.0
 15
0.0
 25
0.0
 35
0.0
146
0.0
 13
0.0
 23
0.0
 33
0.0
 16
1.0
 26
0.0
 36
0.0
 17
0.0
 27
1.0
 37
0.0
 76
     0
330
23
  0
LAYOUT
  5
22
102
{ACAD_REACTORS
330
1A
102
}
330
1A
100
AcDbPlotSettings
  1

  2

  4

  6

 40
0.0
 41
0.0
 42
0.0
 43
0.0
 44
0.0
 45
0.0
 46
0.0
 47
0.0
 48
0.0
 49
0.0
140
0.0
141
0.0
142
1.0
143
1.0
 70
  1776
 72
     0
 73
     0
 74
     0
  7

 75
     0
147
1.0
148
0.0
149
0.0
100
AcDbLayout
  1
Model
 70
     1
 71
     0
 10
-236.368245
 20
-173.398745
 11
603.631755
 21
420.601255
 12
0.0
 22
0.0
 32
0.0
 14
-236.368245
 24
-173.398745
 34
0.0
 15
603.631755
 25
420.601255
 35
0.0
146
0.0
 13
0.0
 23
0.0
 33
0.0
 16
1.0
 26
0.0
 36
0.0
 17
0.0
 27
1.0
 37
0.0
 76
     0
330
1F
  0
MLINESTYLE
  5
18
102
{ACAD_REACTORS
330
17
102
}
330
17
100
AcDbMlineStyle
  2
Standard
 70
     0
  3

 62
   256
 51
90.0
 52
90.0
 71
     2
 49
0.5
 62
   256
  6
BYLAYER
 49
-0.5
 62
   256
  6
BYLAYER
  0
ACDBPLACEHOLDER
  5
F
102
{ACAD_REACTORS
330
E
102
}
330
E
  0
ENDSEC
  0
EOF
