  0
SECTION
  2
HEADER
  9
$ACADVER
  1
AC1015
  9
$ACADMAINTVER
 70
     6
  9
$DWGCODEPAGE
  3
DOS850
  9
$INSBASE
 10
0.0
 20
0.0
 30
0.0
  9
$EXTMIN
 10
-174.0
 20
-123.0
 30
0.0
  9
$EXTMAX
 10
1014.0
 20
717.0
 30
0.0
  9
$LIMMIN
 10
-174.0
 20
-123.0
  9
$LIMMAX
 10
1014.0
 20
717.0
  9
$ORTHOMODE
 70
     0
  9
$REGENMODE
 70
     1
  9
$FILLMODE
 70
     1
  9
$QTEXTMODE
 70
     0
  9
$MIRRTEXT
 70
     1
  9
$LTSCALE
 40
2.0
  9
$ATTMODE
 70
     1
  9
$TEXTSIZE
 40
2.5
  9
$TRACEWID
 40
1.0
  9
$TEXTSTYLE
  7
Standard
  9
$CLAYER
  8
0
  9
$CELTYPE
  6
ByLayer
  9
$CECOLOR
 62
     7
  9
$CELTSCALE
 40
1.0
  9
$DISPSILH
 70
     0
  9
$DIMSCALE
 40
2.0
  9
$DIMASZ
 40
3.5
  9
$DIMEXO
 40
0.625
  9
$DIMDLI
 40
3.75
  9
$DIMRND
 40
0.0
  9
$DIMDLE
 40
0.0
  9
$DIMEXE
 40
1.25
  9
$DIMTP
 40
0.0
  9
$DIMTM
 40
0.0
  9
$DIMTXT
 40
3.5
  9
$DIMCEN
 40
2.5
  9
$DIMTSZ
 40
0.0
  9
$DIMTOL
 70
     0
  9
$DIMLIM
 70
     0
  9
$DIMTIH
 70
     0
  9
$DIMTOH
 70
     0
  9
$DIMSE1
 70
     0
  9
$DIMSE2
 70
     0
  9
$DIMTAD
 70
     1
  9
$DIMZIN
 70
     8
  9
$DIMBLK
  1

  9
$DIMASO
 70
     1
  9
$DIMSHO
 70
     1
  9
$DIMPOST
  1

  9
$DIMAPOST
  1

  9
$DIMALT
 70
     0
  9
$DIMALTD
 70
     3
  9
$DIMALTF
 40
0.03937
  9
$DIMLFAC
 40
1.0
  9
$DIMTOFL
 70
     1
  9
$DIMTVP
 40
0.0
  9
$DIMTIX
 70
     0
  9
$DIMSOXD
 70
     0
  9
$DIMSAH
 70
     0
  9
$DIMBLK1
  1

  9
$DIMBLK2
  1

  9
$DIMSTYLE
  2
ISO-25
  9
$DIMCLRD
 70
     0
  9
$DIMCLRE
 70
     0
  9
$DIMCLRT
 70
     0
  9
$DIMTFAC
 40
1.0
  9
$DIMGAP
 40
0.625
  9
$DIMJUST
 70
     0
  9
$DIMSD1
 70
     0
  9
$DIMSD2
 70
     0
  9
$DIMTOLJ
 70
     0
  9
$DIMTZIN
 70
     8
  9
$DIMALTZ
 70
     0
  9
$DIMALTTZ
 70
     0
  9
$DIMUPT
 70
     0
  9
$DIMDEC
 70
     2
  9
$DIMTDEC
 70
     2
  9
$DIMALTU
 70
     2
  9
$DIMALTTD
 70
     3
  9
$DIMTXSTY
  7
Standard
  9
$DIMAUNIT
 70
     0
  9
$DIMADEC
 70
     0
  9
$DIMALTRND
 40
0.0
  9
$DIMAZIN
 70
     0
  9
$DIMDSEP
 70
    44
  9
$DIMATFIT
 70
     3
  9
$DIMFRAC
 70
     0
  9
$DIMLDRBLK
  1

  9
$DIMLUNIT
 70
     2
  9
$DIMLWD
 70
    -2
  9
$DIMLWE
 70
    -2
  9
$DIMTMOVE
 70
     0
  9
$LUNITS
 70
     2
  9
$LUPREC
 70
     4
  9
$SKETCHINC
 40
1.0
  9
$FILLETRAD
 40
10.0
  9
$AUNITS
 70
     0
  9
$AUPREC
 70
     0
  9
$MENU
  1
.
  9
$ELEVATION
 40
0.0
  9
$PELEVATION
 40
0.0
  9
$THICKNESS
 40
0.0
  9
$LIMCHECK
 70
     0
  9
$CHAMFERA
 40
10.0
  9
$CHAMFERB
 40
10.0
  9
$CHAMFERC
 40
20.0
  9
$CHAMFERD
 40
0.0
  9
$SKPOLY
 70
     0
  9
$TDCREATE
 40
2453794.505203426
  9
$TDUCREATE
 40
2453794.463536759
  9
$TDUPDATE
 40
2453794.505203438
  9
$TDUUPDATE
 40
2453794.463536771
  9
$TDINDWG
 40
0.0000000116
  9
$TDUSRTIMER
 40
0.0000000116
  9
$USRTIMER
 70
     1
  9
$ANGBASE
 50
0.0
  9
$ANGDIR
 70
     0
  9
$PDMODE
 70
     0
  9
$PDSIZE
 40
0.0
  9
$PLINEWID
 40
0.0
  9
$SPLFRAME
 70
     0
  9
$SPLINETYPE
 70
     6
  9
$SPLINESEGS
 70
     8
  9
$HANDSEED
  5
6FE
  9
$SURFTAB1
 70
     6
  9
$SURFTAB2
 70
     6
  9
$SURFTYPE
 70
     6
  9
$SURFU
 70
     6
  9
$SURFV
 70
     6
  9
$UCSBASE
  2

  9
$UCSNAME
  2

  9
$UCSORG
 10
0.0
 20
0.0
 30
0.0
  9
$UCSXDIR
 10
1.0
 20
0.0
 30
0.0
  9
$UCSYDIR
 10
0.0
 20
1.0
 30
0.0
  9
$UCSORTHOREF
  2

  9
$UCSORTHOVIEW
 70
     0
  9
$UCSORGTOP
 10
0.0
 20
0.0
 30
0.0
  9
$UCSORGBOTTOM
 10
0.0
 20
0.0
 30
0.0
  9
$UCSORGLEFT
 10
0.0
 20
0.0
 30
0.0
  9
$UCSORGRIGHT
 10
0.0
 20
0.0
 30
0.0
  9
$UCSORGFRONT
 10
0.0
 20
0.0
 30
0.0
  9
$UCSORGBACK
 10
0.0
 20
0.0
 30
0.0
  9
$PUCSBASE
  2

  9
$PUCSNAME
  2

  9
$PUCSORG
 10
0.0
 20
0.0
 30
0.0
  9
$PUCSXDIR
 10
1.0
 20
0.0
 30
0.0
  9
$PUCSYDIR
 10
0.0
 20
1.0
 30
0.0
  9
$PUCSORTHOREF
  2

  9
$PUCSORTHOVIEW
 70
     0
  9
$PUCSORGTOP
 10
0.0
 20
0.0
 30
0.0
  9
$PUCSORGBOTTOM
 10
0.0
 20
0.0
 30
0.0
  9
$PUCSORGLEFT
 10
0.0
 20
0.0
 30
0.0
  9
$PUCSORGRIGHT
 10
0.0
 20
0.0
 30
0.0
  9
$PUCSORGFRONT
 10
0.0
 20
0.0
 30
0.0
  9
$PUCSORGBACK
 10
0.0
 20
0.0
 30
0.0
  9
$USERI1
 70
     0
  9
$USERI2
 70
     0
  9
$USERI3
 70
     0
  9
$USERI4
 70
     0
  9
$USERI5
 70
     0
  9
$USERR1
 40
0.0
  9
$USERR2
 40
0.0
  9
$USERR3
 40
0.0
  9
$USERR4
 40
0.0
  9
$USERR5
 40
0.0
  9
$WORLDVIEW
 70
     1
  9
$SHADEDGE
 70
     3
  9
$SHADEDIF
 70
    70
  9
$TILEMODE
 70
     1
  9
$MAXACTVP
 70
    64
  9
$PINSBASE
 10
0.0
 20
0.0
 30
0.0
  9
$PLIMCHECK
 70
     0
  9
$PEXTMIN
 10
-174.0
 20
-123.0
 30
0.0
  9
$PEXTMAX
 10
1014.0
 20
717.0
 30
0.0
  9
$PLIMMIN
 10
-174.0
 20
-123.0
  9
$PLIMMAX
 10
1014.0
 20
717.0
  9
$UNITMODE
 70
     0
  9
$VISRETAIN
 70
     1
  9
$PLINEGEN
 70
     0
  9
$PSLTSCALE
 70
     1
  9
$TREEDEPTH
 70
  3020
  9
$CMLSTYLE
  2
Standard
  9
$CMLJUST
 70
     0
  9
$CMLSCALE
 40
20.0
  9
$PROXYGRAPHICS
 70
     1
  9
$MEASUREMENT
 70
     1
  9
$CELWEIGHT
370
    -1
  9
$ENDCAPS
280
     0
  9
$JOINSTYLE
280
     0
  9
$LWDISPLAY
290
     0
  9
$INSUNITS
 70
     4
  9
$HYPERLINKBASE
  1

  9
$STYLESHEET
  1

  9
$XEDIT
290
     1
  9
$CEPSNTYPE
380
     0
  9
$PSTYLEMODE
290
     1
  9
$FINGERPRINTGUID
  2
{FAEB1C30-E019-11D5-929B-00C0DF256EC4}
  9
$VERSIONGUID
  2
{FAEB1C32-E019-11D5-929B-00C0DF256EC4}
  9
$EXTNAMES
290
     1
  9
$PSVPSCALE
 40
0.0
  9
$OLESTARTUP
290
     0
  0
ENDSEC
  0
SECTION
  2
CLASSES
  0
CLASS
  1
ACDBDICTIONARYWDFLT
  2
AcDbDictionaryWithDefault
  3
ObjectDBX Classes
 90
        0
280
     0
281
     0
  0
CLASS
  1
ACDBPLACEHOLDER
  2
AcDbPlaceHolder
  3
ObjectDBX Classes
 90
        0
280
     0
281
     0
  0
CLASS
  1
LAYOUT
  2
AcDbLayout
  3
ObjectDBX Classes
 90
        0
280
     0
281
     0
  0
ENDSEC
  0
SECTION
  2
TABLES
  0
TABLE
  2
VPORT
  5
8
330
0
100
AcDbSymbolTable
 70
     2
  0
VPORT
  5
29
330
8
100
AcDbSymbolTableRecord
100
AcDbViewportTableRecord
  2
*ACTIVE
 70
     0
 10
0.0
 20
0.0
 11
1.0
 21
1.0
 12
420.0
 22
297.0
 13
0.0
 23
0.0
 14
1.0
 24
1.0
 15
0.0
 25
0.0
 16
0.0
 26
0.0
 36
1.0
 17
0.0
 27
0.0
 37
0.0
 40
840.0
 41
1.414286
 42
50.0
 43
0.0
 44
0.0
 50
0.0
 51
0.0
 71
    16
 72
   100
 73
     1
 74
     0
 75
     0
 76
     0
 77
     0
 78
     0
281
     0
 65
     0
110
0.0
120
0.0
130
0.0
111
1.0
121
0.0
131
0.0
112
0.0
122
1.0
132
0.0
 79
     0
146
0.0
  0
ENDTAB
  0
TABLE
  2
LTYPE
  5
5
330
0
100
AcDbSymbolTable
 70
     4
  0
LTYPE
  5
14
330
5
100
AcDbSymbolTableRecord
100
AcDbLinetypeTableRecord
  2
ByBlock
 70
     0
  3

 72
    65
 73
     0
 40
0.0
  0
LTYPE
  5
15
330
5
100
AcDbSymbolTableRecord
100
AcDbLinetypeTableRecord
  2
ByLayer
 70
     0
  3

 72
    65
 73
     0
 40
0.0
  0
LTYPE
  5
16
330
5
100
AcDbSymbolTableRecord
100
AcDbLinetypeTableRecord
  2
Continuous
 70
     0
  3
Solid line
 72
    65
 73
     0
 40
0.0
  0
LTYPE
  5
2A
330
5
100
AcDbSymbolTableRecord
100
AcDbLinetypeTableRecord
  2
DASHED
 70
     0
  3
__ __ __ __ __
 72
    65
 73
     2
 40
6.25
 49
5.0
 74
     4
 75
     0
340
0
 46
1.0
 50
0.0
 44
0.0
 45
0.0
 49
-1.25
 74
     4
 75
     0
340
0
 46
1.0
 50
0.0
 44
0.0
 45
0.0
  0
LTYPE
  5
34
330
5
100
AcDbSymbolTableRecord
100
AcDbLinetypeTableRecord
  2
DASHDOT
 70
     0
  3
__ . __ . __ . __ . __
 72
    65
 73
     4
 40
7.5
 49
5.0
 74
     4
 75
     0
340
0
 46
1.0
 50
0.0
 44
0.0
 45
0.0
 49
-1.25
 74
     4
 75
     0
340
0
 46
1.0
 50
0.0
 44
0.0
 45
0.0
 49
0.0
 74
     4
 75
     0
340
0
 46
1.0
 50
0.0
 44
0.0
 45
0.0
 49
-1.25
 74
     4
 75
     0
340
0
 46
1.0
 50
0.0
 44
0.0
 45
0.0
  0
LTYPE
  5
388
330
5
100
AcDbSymbolTableRecord
100
AcDbLinetypeTableRecord
  2
CENTER
 70
     0
  3
__ . __ . __ . __ . __
 72
    65
 73
     4
 40
7.5
 49
5.0
 74
     4
 75
     0
340
0
 46
1.0
 50
0.0
 44
0.0
 45
0.0
 49
-1.25
 74
     4
 75
     0
340
0
 46
1.0
 50
0.0
 44
0.0
 45
0.0
 49
0.0
 74
     4
 75
     0
340
0
 46
1.0
 50
0.0
 44
0.0
 45
0.0
 49
-1.25
 74
     4
 75
     0
340
0
 46
1.0
 50
0.0
 44
0.0
 45
0.0
  0
ENDTAB
  0
TABLE
  2
LAYER
  5
2
330
0
100
AcDbSymbolTable
 70
    12
  0
LAYER
  5
10
330
2
100
AcDbSymbolTableRecord
100
AcDbLayerTableRecord
  2
0
 70
     0
 62
     7
  6
Continuous
370
    -3
390
F
  0
LAYER
  5
2B
330
2
100
AcDbSymbolTableRecord
100
AcDbLayerTableRecord
  2
LC-INFO-1-2-mm-A2-0
 70
     1
 62
     7
  6
ByBlock
370
    -3
390
F
  0
LAYER
  5
2C
330
2
100
AcDbSymbolTableRecord
100
AcDbLayerTableRecord
  2
LC-CUT-HIDDEN
 70
     0
 62
     7
  6
DASHED
370
    -3
390
F
  0
LAYER
  5
2D
330
2
100
AcDbSymbolTableRecord
100
AcDbLayerTableRecord
  2
LC-VIEWPORT
 70
     0
 62
     7
  6
ByBlock
370
    -3
390
F
  0
LAYER
  5
2E
330
2
100
AcDbSymbolTableRecord
100
AcDbLayerTableRecord
  2
LC-3D-HIDDEN
 70
     0
 62
     9
  6
DASHED
370
    -3
390
F
  0
LAYER
  5
30
330
2
100
AcDbSymbolTableRecord
100
AcDbLayerTableRecord
  2
LC-001-002-----0
 70
     0
 62
     1
  6
ByBlock
370
    -3
390
F
  0
LAYER
  5
41
330
2
100
AcDbSymbolTableRecord
100
AcDbLayerTableRecord
  2
LC-002-002-RND-0
 70
     0
 62
     1
  6
ByBlock
370
    -3
390
F
  0
LAYER
  5
6E
330
2
100
AcDbSymbolTableRecord
100
AcDbLayerTableRecord
  2
LC-003-005-----0
 70
     0
 62
     2
  6
ByBlock
370
    -3
390
F
  0
LAYER
  5
373
330
2
100
AcDbSymbolTableRecord
100
AcDbLayerTableRecord
  2
LC-004-003-----0
 70
     0
 62
     2
  6
ByBlock
370
    -3
390
F
  0
LAYER
  5
375
330
2
100
AcDbSymbolTableRecord
100
AcDbLayerTableRecord
  2
Defpoints
 70
     0
 62
     7
  6
Continuous
290
     0
370
    -3
390
F
  0
LAYER
  5
389
330
2
100
AcDbSymbolTableRecord
100
AcDbLayerTableRecord
  2
LC-005-006-MLN-0
 70
     0
 62
     2
  6
CENTER
370
    -3
390
F
  0
LAYER
  5
47C
330
2
100
AcDbSymbolTableRecord
100
AcDbLayerTableRecord
  2
LC-006-002-3SD-0
 70
     0
 62
     1
  6
ByBlock
370
    -3
390
F
  0
ENDTAB
  0
TABLE
  2
STYLE
  5
3
330
0
100
AcDbSymbolTable
 70
     3
  0
STYLE
  5
11
330
3
100
AcDbSymbolTableRecord
100
AcDbTextStyleTableRecord
  2
Standard
 70
     0
 40
0.0
 41
1.0
 50
0.0
 71
     0
 42
2.5
  3
txt
  4

  0
STYLE
  5
2F
330
3
100
AcDbSymbolTableRecord
100
AcDbTextStyleTableRecord
  2
LCTX15-400-0-0-Arial
 70
     0
 40
0.0
 41
0.9
 50
0.0
 71
     0
 42
3.5
  3

  4

1001
ACAD
1000
Arial
1071
 16777218
  0
STYLE
  5
371
330
3
100
AcDbSymbolTableRecord
100
AcDbTextStyleTableRecord
  2
LCTX15-400-0-0pDIN-Schrift
 70
     0
 40
2.5
 41
0.8
 50
15.0
 71
     0
 42
3.5
  3
STANDARD
  4

  0
ENDTAB
  0
TABLE
  2
VIEW
  5
6
330
0
100
AcDbSymbolTable
 70
     0
  0
ENDTAB
  0
TABLE
  2
UCS
  5
7
330
0
100
AcDbSymbolTable
 70
     0
  0
ENDTAB
  0
TABLE
  2
APPID
  5
9
330
0
100
AcDbSymbolTable
 70
     1
  0
APPID
  5
12
330
9
100
AcDbSymbolTableRecord
100
AcDbRegAppTableRecord
  2
ACAD
 70
     0
  0
ENDTAB
  0
TABLE
  2
DIMSTYLE
  5
A
330
0
100
AcDbSymbolTable
 70
     2
100
AcDbDimStyleTable
  0
DIMSTYLE
105
27
330
A
100
AcDbSymbolTableRecord
100
AcDbDimStyleTableRecord
  2
ISO-25
 70
     0
 41
2.5
 42
0.625
 43
3.75
 44
1.25
 73
     0
 74
     0
 77
     1
 78
     8
140
2.5
141
2.5
143
0.03937
147
0.625
171
     3
172
     1
271
     2
272
     2
274
     3
278
    44
283
     0
284
     8
340
11
  0
DIMSTYLE
105
372
102
{ACAD_REACTORS
330
374
330
46A
330
482
330
54E
330
597
102
}
330
A
100
AcDbSymbolTableRecord
100
AcDbDimStyleTableRecord
  2
LC-DIM-L-0140-02-02
 70
     0
 40
2.0
 41
14.0
 42
0.0
 43
7.5
 44
1.8
 73
     0
 74
     0
 77
     1
 78
     8
 79
     2
140
14.0
141
0.0
146
0.71
147
1.5
176
     2
177
     2
178
     2
179
     2
271
     2
278
    44
289
     1
340
371
  0
ENDTAB
  0
TABLE
  2
BLOCK_RECORD
  5
1
330
0
100
AcDbSymbolTable
 70
    50
  0
BLOCK_RECORD
  5
1F
330
1
100
AcDbSymbolTableRecord
100
AcDbBlockTableRecord
  2
*Model_Space
340
22
  0
BLOCK_RECORD
  5
1B
330
1
100
AcDbSymbolTableRecord
100
AcDbBlockTableRecord
  2
*Paper_Space
340
1E
  0
BLOCK_RECORD
  5
23
330
1
100
AcDbSymbolTableRecord
100
AcDbBlockTableRecord
  2
*Paper_Space0
340
26
  0
BLOCK_RECORD
  5
6B
330
1
100
AcDbSymbolTableRecord
100
AcDbBlockTableRecord
  2
*X11
340
0
102
{BLKREFS
331
85
102
}
  0
BLOCK_RECORD
  5
86
330
1
100
AcDbSymbolTableRecord
100
AcDbBlockTableRecord
  2
*X22
340
0
102
{BLKREFS
331
ED
102
}
  0
BLOCK_RECORD
  5
106
330
1
100
AcDbSymbolTableRecord
100
AcDbBlockTableRecord
  2
*X33
340
0
102
{BLKREFS
331
11F
102
}
  0
BLOCK_RECORD
  5
122
330
1
100
AcDbSymbolTableRecord
100
AcDbBlockTableRecord
  2
*X44
340
0
102
{BLKREFS
331
132
102
}
  0
BLOCK_RECORD
  5
14D
330
1
100
AcDbSymbolTableRecord
100
AcDbBlockTableRecord
  2
*X55
340
0
102
{BLKREFS
331
1A7
102
}
  0
BLOCK_RECORD
  5
1C7
330
1
100
AcDbSymbolTableRecord
100
AcDbBlockTableRecord
  2
*X66
340
0
102
{BLKREFS
331
1EE
102
}
  0
BLOCK_RECORD
  5
1EF
330
1
100
AcDbSymbolTableRecord
100
AcDbBlockTableRecord
  2
*X77
340
0
102
{BLKREFS
331
212
102
}
  0
BLOCK_RECORD
  5
239
330
1
100
AcDbSymbolTableRecord
100
AcDbBlockTableRecord
  2
*X88
340
0
102
{BLKREFS
331
261
102
}
  0
BLOCK_RECORD
  5
266
330
1
100
AcDbSymbolTableRecord
100
AcDbBlockTableRecord
  2
*X99
340
0
102
{BLKREFS
331
26B
102
}
  0
BLOCK_RECORD
  5
26C
330
1
100
AcDbSymbolTableRecord
100
AcDbBlockTableRecord
  2
*X1010
340
0
102
{BLKREFS
331
272
102
}
  0
BLOCK_RECORD
  5
273
330
1
100
AcDbSymbolTableRecord
100
AcDbBlockTableRecord
  2
*X1111
340
0
102
{BLKREFS
331
27A
102
}
  0
BLOCK_RECORD
  5
27B
330
1
100
AcDbSymbolTableRecord
100
AcDbBlockTableRecord
  2
*X1212
340
0
102
{BLKREFS
331
281
102
}
  0
BLOCK_RECORD
  5
284
330
1
100
AcDbSymbolTableRecord
100
AcDbBlockTableRecord
  2
*X1313
340
0
102
{BLKREFS
331
2AC
102
}
  0
BLOCK_RECORD
  5
2AE
330
1
100
AcDbSymbolTableRecord
100
AcDbBlockTableRecord
  2
*X1414
340
0
102
{BLKREFS
331
2B3
102
}
  0
BLOCK_RECORD
  5
2B5
330
1
100
AcDbSymbolTableRecord
100
AcDbBlockTableRecord
  2
*X1515
340
0
102
{BLKREFS
331
2BC
102
}
  0
BLOCK_RECORD
  5
2BD
330
1
100
AcDbSymbolTableRecord
100
AcDbBlockTableRecord
  2
*X1616
340
0
102
{BLKREFS
331
2C3
102
}
  0
BLOCK_RECORD
  5
2E0
330
1
100
AcDbSymbolTableRecord
100
AcDbBlockTableRecord
  2
*X1717
340
0
102
{BLKREFS
331
2EB
102
}
  0
BLOCK_RECORD
  5
2EC
330
1
100
AcDbSymbolTableRecord
100
AcDbBlockTableRecord
  2
*X1818
340
0
102
{BLKREFS
331
2F7
102
}
  0
BLOCK_RECORD
  5
331
330
1
100
AcDbSymbolTableRecord
100
AcDbBlockTableRecord
  2
*X1919
340
0
102
{BLKREFS
331
34C
102
}
  0
BLOCK_RECORD
  5
35E
330
1
100
AcDbSymbolTableRecord
100
AcDbBlockTableRecord
  2
*X2020
340
0
102
{BLKREFS
331
366
102
}
  0
BLOCK_RECORD
  5
368
330
1
100
AcDbSymbolTableRecord
100
AcDbBlockTableRecord
  2
*X2121
340
0
102
{BLKREFS
331
370
102
}
  0
BLOCK_RECORD
  5
376
330
1
100
AcDbSymbolTableRecord
100
AcDbBlockTableRecord
  2
*D22
340
0
  0
BLOCK_RECORD
  5
3CA
330
1
100
AcDbSymbolTableRecord
100
AcDbBlockTableRecord
  2
*X2223
340
0
102
{BLKREFS
331
3CF
102
}
  0
BLOCK_RECORD
  5
3D1
330
1
100
AcDbSymbolTableRecord
100
AcDbBlockTableRecord
  2
*X2324
340
0
102
{BLKREFS
331
404
102
}
  0
BLOCK_RECORD
  5
406
330
1
100
AcDbSymbolTableRecord
100
AcDbBlockTableRecord
  2
*X2425
340
0
102
{BLKREFS
331
444
102
}
  0
BLOCK_RECORD
  5
464
330
1
100
AcDbSymbolTableRecord
100
AcDbBlockTableRecord
  2
*X2526
340
0
102
{BLKREFS
331
469
102
}
  0
BLOCK_RECORD
  5
46B
330
1
100
AcDbSymbolTableRecord
100
AcDbBlockTableRecord
  2
*D27
340
0
  0
BLOCK_RECORD
  5
479
330
1
100
AcDbSymbolTableRecord
100
AcDbBlockTableRecord
  2
ELM1
340
0
102
{BLKREFS
331
47D
102
}
  0
BLOCK_RECORD
  5
47E
330
1
100
AcDbSymbolTableRecord
100
AcDbBlockTableRecord
  2
ELM2
340
0
102
{BLKREFS
331
481
102
}
  0
BLOCK_RECORD
  5
483
330
1
100
AcDbSymbolTableRecord
100
AcDbBlockTableRecord
  2
*D30
340
0
  0
BLOCK_RECORD
  5
496
330
1
100
AcDbSymbolTableRecord
100
AcDbBlockTableRecord
  2
*X2631
340
0
102
{BLKREFS
331
49C
102
}
  0
BLOCK_RECORD
  5
49D
330
1
100
AcDbSymbolTableRecord
100
AcDbBlockTableRecord
  2
*X2732
340
0
102
{BLKREFS
331
4A4
102
}
  0
BLOCK_RECORD
  5
4A5
330
1
100
AcDbSymbolTableRecord
100
AcDbBlockTableRecord
  2
*X2833
340
0
102
{BLKREFS
331
4AD
102
}
  0
BLOCK_RECORD
  5
4D4
330
1
100
AcDbSymbolTableRecord
100
AcDbBlockTableRecord
  2
*X2934
340
0
102
{BLKREFS
331
4DB
102
}
  0
BLOCK_RECORD
  5
4E2
330
1
100
AcDbSymbolTableRecord
100
AcDbBlockTableRecord
  2
*X3035
340
0
102
{BLKREFS
331
4E9
102
}
  0
BLOCK_RECORD
  5
4EA
330
1
100
AcDbSymbolTableRecord
100
AcDbBlockTableRecord
  2
*X3136
340
0
102
{BLKREFS
331
4F0
102
}
  0
BLOCK_RECORD
  5
4F1
330
1
100
AcDbSymbolTableRecord
100
AcDbBlockTableRecord
  2
*X3237
340
0
102
{BLKREFS
331
4F9
102
}
  0
BLOCK_RECORD
  5
51F
330
1
100
AcDbSymbolTableRecord
100
AcDbBlockTableRecord
  2
*X3338
340
0
102
{BLKREFS
331
526
102
}
  0
BLOCK_RECORD
  5
53D
330
1
100
AcDbSymbolTableRecord
100
AcDbBlockTableRecord
  2
*X3439
340
0
102
{BLKREFS
331
543
102
}
  0
BLOCK_RECORD
  5
544
330
1
100
AcDbSymbolTableRecord
100
AcDbBlockTableRecord
  2
*X3540
340
0
102
{BLKREFS
331
54A
102
}
  0
BLOCK_RECORD
  5
54F
330
1
100
AcDbSymbolTableRecord
100
AcDbBlockTableRecord
  2
*D41
340
0
  0
BLOCK_RECORD
  5
598
330
1
100
AcDbSymbolTableRecord
100
AcDbBlockTableRecord
  2
*D42
340
0
  0
BLOCK_RECORD
  5
5AC
330
1
100
AcDbSymbolTableRecord
100
AcDbBlockTableRecord
  2
*X3643
340
0
102
{BLKREFS
331
5C5
102
}
  0
BLOCK_RECORD
  5
5D0
330
1
100
AcDbSymbolTableRecord
100
AcDbBlockTableRecord
  2
*X3744
340
0
102
{BLKREFS
331
5E9
102
}
  0
BLOCK_RECORD
  5
61B
330
1
100
AcDbSymbolTableRecord
100
AcDbBlockTableRecord
  2
*X3845
340
0
102
{BLKREFS
331
63B
102
}
  0
BLOCK_RECORD
  5
642
330
1
100
AcDbSymbolTableRecord
100
AcDbBlockTableRecord
  2
*X3946
340
0
102
{BLKREFS
331
6CA
102
}
  0
BLOCK_RECORD
  5
6CC
330
1
100
AcDbSymbolTableRecord
100
AcDbBlockTableRecord
  2
*X4047
340
0
102
{BLKREFS
331
6DF
102
}
  0
BLOCK_RECORD
  5
6E0
330
1
100
AcDbSymbolTableRecord
100
AcDbBlockTableRecord
  2
*X4148
340
0
102
{BLKREFS
331
6E3
102
}
  0
BLOCK_RECORD
  5
6E4
330
1
100
AcDbSymbolTableRecord
100
AcDbBlockTableRecord
  2
*X4249
340
0
102
{BLKREFS
331
6E7
102
}
  0
ENDTAB
  0
ENDSEC
  0
SECTION
  2
BLOCKS
  0
BLOCK
  5
20
330
1F
100
AcDbEntity
  8
0
100
AcDbBlockBegin
  2
*Model_Space
 70
     0
 71
     0
 10
0.0
 20
0.0
 30
0.0
  3
*Model_Space
  1

  0
ENDBLK
  5
21
330
1F
100
AcDbEntity
  8
0
100
AcDbBlockEnd
  0
BLOCK
  5
1C
330
1B
100
AcDbEntity
 67
     1
  8
0
100
AcDbBlockBegin
  2
*Paper_Space
 70
     0
 71
     0
 10
0.0
 20
0.0
 30
0.0
  3
*Paper_Space
  1

  0
ENDBLK
  5
1D
330
1B
100
AcDbEntity
 67
     1
  8
0
100
AcDbBlockEnd
  0
BLOCK
  5
24
330
23
100
AcDbEntity
  8
0
100
AcDbBlockBegin
  2
*Paper_Space0
 70
     0
 71
     0
 10
0.0
 20
0.0
 30
0.0
  3
*Paper_Space0
  1

  0
ENDBLK
  5
25
330
23
100
AcDbEntity
  8
0
100
AcDbBlockEnd
  0
BLOCK
  5
6C
330
6B
100
AcDbEntity
  8
0
100
AcDbBlockBegin
  2
*X11
 70
     1
 71
     0
 10
0.0
 20
0.0
 30
0.0
  3
*X11
  1

  4
*X1
  0
LINE
  5
6F
330
6B
100
AcDbEntity
  8
LC-003-005-----0
 62
     7
370
    25
100
AcDbLine
 10
554.271061
 20
483.560383
 30
0.0
 11
555.015799
 21
484.305121
 31
0.0
  0
LINE
  5
70
330
6B
100
AcDbEntity
  8
LC-003-005-----0
 62
     7
370
    25
100
AcDbLine
 10
551.41595
 20
483.533699
 30
0.0
 11
553.787939
 21
485.905688
 31
0.0
  0
LINE
  5
71
330
6B
100
AcDbEntity
  8
LC-003-005-----0
 62
     7
370
    25
100
AcDbLine
 10
548.56084
 20
483.507016
 30
0.0
 11
551.108039
 21
486.054215
 31
0.0
  0
LINE
  5
72
330
6B
100
AcDbEntity
  8
LC-003-005-----0
 62
     7
370
    25
100
AcDbLine
 10
545.70573
 20
483.480333
 30
0.0
 11
548.854755
 21
486.629358
 31
0.0
  0
LINE
  5
73
330
6B
100
AcDbEntity
  8
LC-003-005-----0
 62
     7
370
    25
100
AcDbLine
 10
542.850619
 20
483.45365
 30
0.0
 11
547.061604
 21
487.664634
 31
0.0
  0
LINE
  5
74
330
6B
100
AcDbEntity
  8
LC-003-005-----0
 62
     7
370
    25
100
AcDbLine
 10
539.995509
 20
483.426966
 30
0.0
 11
542.622757
 21
486.054215
 31
0.0
  0
LINE
  5
75
330
6B
100
AcDbEntity
  8
LC-003-005-----0
 62
     7
370
    25
100
AcDbLine
 10
545.0316
 20
488.463057
 30
0.0
 11
545.11882
 21
488.550278
 31
0.0
  0
LINE
  5
76
330
6B
100
AcDbEntity
  8
LC-003-005-----0
 62
     7
370
    25
100
AcDbLine
 10
537.140398
 20
483.400283
 30
0.0
 11
540.0316
 21
486.291484
 31
0.0
  0
LINE
  5
77
330
6B
100
AcDbEntity
  8
LC-003-005-----0
 62
     7
370
    25
100
AcDbLine
 10
534.285288
 20
483.3736
 30
0.0
 11
539.361415
 21
488.449727
 31
0.0
  0
LINE
  5
78
330
6B
100
AcDbEntity
  8
LC-003-005-----0
 62
     7
370
    25
100
AcDbLine
 10
531.430178
 20
483.346916
 30
0.0
 11
534.137476
 21
486.054215
 31
0.0
  0
LINE
  5
79
330
6B
100
AcDbEntity
  8
LC-003-005-----0
 62
     7
370
    25
100
AcDbLine
 10
528.575067
 20
483.320233
 30
0.0
 11
531.309049
 21
486.054215
 31
0.0
  0
LINE
  5
7A
330
6B
100
AcDbEntity
  8
LC-003-005-----0
 62
     7
370
    25
100
AcDbLine
 10
525.719957
 20
483.29355
 30
0.0
 11
528.480622
 21
486.054215
 31
0.0
  0
LINE
  5
7B
330
6B
100
AcDbEntity
  8
LC-003-005-----0
 62
     7
370
    25
100
AcDbLine
 10
522.864846
 20
483.266867
 30
0.0
 11
525.652195
 21
486.054215
 31
0.0
  0
LINE
  5
7C
330
6B
100
AcDbEntity
  8
LC-003-005-----0
 62
     7
370
    25
100
AcDbLine
 10
520.009736
 20
483.240183
 30
0.0
 11
522.823767
 21
486.054215
 31
0.0
  0
LINE
  5
7D
330
6B
100
AcDbEntity
  8
LC-003-005-----0
 62
     7
370
    25
100
AcDbLine
 10
517.154626
 20
483.2135
 30
0.0
 11
519.99534
 21
486.054215
 31
0.0
  0
LINE
  5
7E
330
6B
100
AcDbEntity
  8
LC-003-005-----0
 62
     7
370
    25
100
AcDbLine
 10
514.299515
 20
483.186817
 30
0.0
 11
517.166913
 21
486.054215
 31
0.0
  0
LINE
  5
7F
330
6B
100
AcDbEntity
  8
LC-003-005-----0
 62
     7
370
    25
100
AcDbLine
 10
511.444405
 20
483.160134
 30
0.0
 11
514.338486
 21
486.054215
 31
0.0
  0
LINE
  5
80
330
6B
100
AcDbEntity
  8
LC-003-005-----0
 62
     7
370
    25
100
AcDbLine
 10
508.589294
 20
483.13345
 30
0.0
 11
511.510059
 21
486.054215
 31
0.0
  0
LINE
  5
81
330
6B
100
AcDbEntity
  8
LC-003-005-----0
 62
     7
370
    25
100
AcDbLine
 10
505.734184
 20
483.106767
 30
0.0
 11
508.681632
 21
486.054215
 31
0.0
  0
LINE
  5
82
330
6B
100
AcDbEntity
  8
LC-003-005-----0
 62
     7
370
    25
100
AcDbLine
 10
502.879074
 20
483.080084
 30
0.0
 11
505.853205
 21
486.054215
 31
0.0
  0
LINE
  5
83
330
6B
100
AcDbEntity
  8
LC-003-005-----0
 62
     7
370
    25
100
AcDbLine
 10
502.362308
 20
485.391745
 30
0.0
 11
505.362308
 21
488.391745
 31
0.0
  0
LINE
  5
84
330
6B
100
AcDbEntity
  8
LC-003-005-----0
 62
     7
370
    25
100
AcDbLine
 10
502.362308
 20
488.220173
 30
0.0
 11
502.701232
 21
488.559097
 31
0.0
  0
ENDBLK
  5
6D
330
6B
100
AcDbEntity
  8
0
100
AcDbBlockEnd
  0
BLOCK
  5
87
330
86
100
AcDbEntity
  8
0
100
AcDbBlockBegin
  2
*X22
 70
     1
 71
     0
 10
0.0
 20
0.0
 30
0.0
  3
*X22
  1

  4
*X2
  0
LINE
  5
89
330
86
100
AcDbEntity
  8
LC-003-005-----0
 62
     7
370
    25
100
AcDbLine
 10
551.338317
 20
424.059097
 30
0.0
 11
553.84105
 21
426.561829
 31
0.0
  0
LINE
  5
8A
330
86
100
AcDbEntity
  8
LC-003-005-----0
 62
     7
370
    25
100
AcDbLine
 10
546.677992
 20
422.227198
 30
0.0
 11
551.038812
 21
426.588019
 31
0.0
  0
LINE
  5
8B
330
86
100
AcDbEntity
  8
LC-003-005-----0
 62
     7
370
    25
100
AcDbLine
 10
545.0316
 20
423.409233
 30
0.0
 11
548.236574
 21
426.614208
 31
0.0
  0
LINE
  5
8C
330
86
100
AcDbEntity
  8
LC-003-005-----0
 62
     7
370
    25
100
AcDbLine
 10
542.853036
 20
424.059097
 30
0.0
 11
545.434336
 21
426.640397
 31
0.0
  0
LINE
  5
8D
330
86
100
AcDbEntity
  8
LC-003-005-----0
 62
     7
370
    25
100
AcDbLine
 10
538.263169
 20
422.297657
 30
0.0
 11
542.632098
 21
426.666586
 31
0.0
  0
LINE
  5
8E
330
86
100
AcDbEntity
  8
LC-003-005-----0
 62
     7
370
    25
100
AcDbLine
 10
536.470018
 20
423.332933
 30
0.0
 11
539.82986
 21
426.692775
 31
0.0
  0
LINE
  5
8F
330
86
100
AcDbEntity
  8
LC-003-005-----0
 62
     7
370
    25
100
AcDbLine
 10
534.367755
 20
424.059097
 30
0.0
 11
537.027622
 21
426.718964
 31
0.0
  0
LINE
  5
90
330
86
100
AcDbEntity
  8
LC-003-005-----0
 62
     7
370
    25
100
AcDbLine
 10
531.539327
 20
424.059097
 30
0.0
 11
534.225384
 21
426.745153
 31
0.0
  0
LINE
  5
91
330
86
100
AcDbEntity
  8
LC-003-005-----0
 62
     7
370
    25
100
AcDbLine
 10
528.7109
 20
424.059097
 30
0.0
 11
531.423146
 21
426.771343
 31
0.0
  0
LINE
  5
92
330
86
100
AcDbEntity
  8
LC-003-005-----0
 62
     7
370
    25
100
AcDbLine
 10
525.882473
 20
424.059097
 30
0.0
 11
528.620908
 21
426.797532
 31
0.0
  0
LINE
  5
93
330
86
100
AcDbEntity
  8
LC-003-005-----0
 62
     7
370
    25
100
AcDbLine
 10
523.054046
 20
424.059097
 30
0.0
 11
525.81867
 21
426.823721
 31
0.0
  0
LINE
  5
94
330
86
100
AcDbEntity
  8
LC-003-005-----0
 62
     7
370
    25
100
AcDbLine
 10
520.225619
 20
424.059097
 30
0.0
 11
523.016432
 21
426.84991
 31
0.0
  0
LINE
  5
95
330
86
100
AcDbEntity
  8
LC-003-005-----0
 62
     7
370
    25
100
AcDbLine
 10
517.397192
 20
424.059097
 30
0.0
 11
520.214194
 21
426.876099
 31
0.0
  0
LINE
  5
96
330
86
100
AcDbEntity
  8
LC-003-005-----0
 62
     7
370
    25
100
AcDbLine
 10
514.568765
 20
424.059097
 30
0.0
 11
517.411956
 21
426.902288
 31
0.0
  0
LINE
  5
97
330
86
100
AcDbEntity
  8
LC-003-005-----0
 62
     7
370
    25
100
AcDbLine
 10
511.740338
 20
424.059097
 30
0.0
 11
514.609718
 21
426.928477
 31
0.0
  0
LINE
  5
98
330
86
100
AcDbEntity
  8
LC-003-005-----0
 62
     7
370
    25
100
AcDbLine
 10
508.91191
 20
424.059097
 30
0.0
 11
511.80748
 21
426.954667
 31
0.0
  0
LINE
  5
99
330
86
100
AcDbEntity
  8
LC-003-005-----0
 62
     7
370
    25
100
AcDbLine
 10
506.083483
 20
424.059097
 30
0.0
 11
509.005242
 21
426.980856
 31
0.0
  0
LINE
  5
9A
330
86
100
AcDbEntity
  8
LC-003-005-----0
 62
     7
370
    25
100
AcDbLine
 10
503.255056
 20
424.059097
 30
0.0
 11
506.203004
 21
427.007045
 31
0.0
  0
LINE
  5
9B
330
86
100
AcDbEntity
  8
LC-003-005-----0
 62
     7
370
    25
100
AcDbLine
 10
500.426629
 20
424.059097
 30
0.0
 11
503.400766
 21
427.033234
 31
0.0
  0
LINE
  5
9C
330
86
100
AcDbEntity
  8
LC-003-005-----0
 62
     7
370
    25
100
AcDbLine
 10
497.598202
 20
424.059097
 30
0.0
 11
500.598202
 21
427.059097
 31
0.0
  0
LINE
  5
9D
330
86
100
AcDbEntity
  8
LC-003-005-----0
 62
     7
370
    25
100
AcDbLine
 10
494.769775
 20
424.059097
 30
0.0
 11
497.769775
 21
427.059097
 31
0.0
  0
LINE
  5
9E
330
86
100
AcDbEntity
  8
LC-003-005-----0
 62
     7
370
    25
100
AcDbLine
 10
491.941348
 20
424.059097
 30
0.0
 11
494.941348
 21
427.059097
 31
0.0
  0
LINE
  5
9F
330
86
100
AcDbEntity
  8
LC-003-005-----0
 62
     7
370
    25
100
AcDbLine
 10
489.112921
 20
424.059097
 30
0.0
 11
492.112921
 21
427.059097
 31
0.0
  0
LINE
  5
A0
330
86
100
AcDbEntity
  8
LC-003-005-----0
 62
     7
370
    25
100
AcDbLine
 10
486.284493
 20
424.059097
 30
0.0
 11
489.284493
 21
427.059097
 31
0.0
  0
LINE
  5
A1
330
86
100
AcDbEntity
  8
LC-003-005-----0
 62
     7
370
    25
100
AcDbLine
 10
483.456066
 20
424.059097
 30
0.0
 11
486.456066
 21
427.059097
 31
0.0
  0
LINE
  5
A2
330
86
100
AcDbEntity
  8
LC-003-005-----0
 62
     7
370
    25
100
AcDbLine
 10
480.627639
 20
424.059097
 30
0.0
 11
483.627639
 21
427.059097
 31
0.0
  0
LINE
  5
A3
330
86
100
AcDbEntity
  8
LC-003-005-----0
 62
     7
370
    25
100
AcDbLine
 10
477.799212
 20
424.059097
 30
0.0
 11
480.799212
 21
427.059097
 31
0.0
  0
LINE
  5
A4
330
86
100
AcDbEntity
  8
LC-003-005-----0
 62
     7
370
    25
100
AcDbLine
 10
474.970785
 20
424.059097
 30
0.0
 11
477.970785
 21
427.059097
 31
0.0
  0
LINE
  5
A5
330
86
100
AcDbEntity
  8
LC-003-005-----0
 62
     7
370
    25
100
AcDbLine
 10
472.142358
 20
424.059097
 30
0.0
 11
475.142358
 21
427.059097
 31
0.0
  0
LINE
  5
A6
330
86
100
AcDbEntity
  8
LC-003-005-----0
 62
     7
370
    25
100
AcDbLine
 10
469.313931
 20
424.059097
 30
0.0
 11
472.313931
 21
427.059097
 31
0.0
  0
LINE
  5
A7
330
86
100
AcDbEntity
  8
LC-003-005-----0
 62
     7
370
    25
100
AcDbLine
 10
466.485504
 20
424.059097
 30
0.0
 11
469.485504
 21
427.059097
 31
0.0
  0
LINE
  5
A8
330
86
100
AcDbEntity
  8
LC-003-005-----0
 62
     7
370
    25
100
AcDbLine
 10
463.657076
 20
424.059097
 30
0.0
 11
466.657076
 21
427.059097
 31
0.0
  0
LINE
  5
A9
330
86
100
AcDbEntity
  8
LC-003-005-----0
 62
     7
370
    25
100
AcDbLine
 10
454.329302
 20
417.55975
 30
0.0
 11
456.315474
 21
419.545922
 31
0.0
  0
LINE
  5
AA
330
86
100
AcDbEntity
  8
LC-003-005-----0
 62
     7
370
    25
100
AcDbLine
 10
460.828649
 20
424.059097
 30
0.0
 11
463.828649
 21
427.059097
 31
0.0
  0
LINE
  5
AB
330
86
100
AcDbEntity
  8
LC-003-005-----0
 62
     7
370
    25
100
AcDbLine
 10
450.204004
 20
416.262878
 30
0.0
 11
457.612345
 21
423.67122
 31
0.0
  0
LINE
  5
AC
330
86
100
AcDbEntity
  8
LC-003-005-----0
 62
     7
370
    25
100
AcDbLine
 10
458.000222
 20
424.059097
 30
0.0
 11
461.000222
 21
427.059097
 31
0.0
  0
LINE
  5
AD
330
86
100
AcDbEntity
  8
LC-003-005-----0
 62
     7
370
    25
100
AcDbLine
 10
447.375023
 20
416.262325
 30
0.0
 11
450.333174
 21
419.220475
 31
0.0
  0
LINE
  5
AE
330
86
100
AcDbEntity
  8
LC-003-005-----0
 62
     7
370
    25
100
AcDbLine
 10
454.607504
 20
423.494806
 30
0.0
 11
458.171795
 21
427.059097
 31
0.0
  0
LINE
  5
AF
330
86
100
AcDbEntity
  8
LC-003-005-----0
 62
     7
370
    25
100
AcDbLine
 10
444.546596
 20
416.262325
 30
0.0
 11
447.499352
 21
419.215081
 31
0.0
  0
LINE
  5
B0
330
86
100
AcDbEntity
  8
LC-003-005-----0
 62
     7
370
    25
100
AcDbLine
 10
441.718169
 20
416.262325
 30
0.0
 11
444.670925
 21
419.215081
 31
0.0
  0
LINE
  5
B1
330
86
100
AcDbEntity
  8
LC-003-005-----0
 62
     7
370
    25
100
AcDbLine
 10
438.889742
 20
416.262325
 30
0.0
 11
441.842498
 21
419.215081
 31
0.0
  0
LINE
  5
B2
330
86
100
AcDbEntity
  8
LC-003-005-----0
 62
     7
370
    25
100
AcDbLine
 10
436.061315
 20
416.262325
 30
0.0
 11
439.014071
 21
419.215081
 31
0.0
  0
LINE
  5
B3
330
86
100
AcDbEntity
  8
LC-003-005-----0
 62
     7
370
    25
100
AcDbLine
 10
433.232888
 20
416.262325
 30
0.0
 11
436.185644
 21
419.215081
 31
0.0
  0
LINE
  5
B4
330
86
100
AcDbEntity
  8
LC-003-005-----0
 62
     7
370
    25
100
AcDbLine
 10
430.404461
 20
416.262325
 30
0.0
 11
433.357217
 21
419.215081
 31
0.0
  0
LINE
  5
B5
330
86
100
AcDbEntity
  8
LC-003-005-----0
 62
     7
370
    25
100
AcDbLine
 10
427.576033
 20
416.262325
 30
0.0
 11
430.528789
 21
419.215081
 31
0.0
  0
LINE
  5
B6
330
86
100
AcDbEntity
  8
LC-003-005-----0
 62
     7
370
    25
100
AcDbLine
 10
424.747606
 20
416.262325
 30
0.0
 11
427.700362
 21
419.215081
 31
0.0
  0
LINE
  5
B7
330
86
100
AcDbEntity
  8
LC-003-005-----0
 62
     7
370
    25
100
AcDbLine
 10
421.919179
 20
416.262325
 30
0.0
 11
424.871935
 21
419.215081
 31
0.0
  0
LINE
  5
B8
330
86
100
AcDbEntity
  8
LC-003-005-----0
 62
     7
370
    25
100
AcDbLine
 10
419.090752
 20
416.262325
 30
0.0
 11
422.043508
 21
419.215081
 31
0.0
  0
LINE
  5
B9
330
86
100
AcDbEntity
  8
LC-003-005-----0
 62
     7
370
    25
100
AcDbLine
 10
416.262325
 20
416.262325
 30
0.0
 11
419.215081
 21
419.215081
 31
0.0
  0
LINE
  5
BA
330
86
100
AcDbEntity
  8
LC-003-005-----0
 62
     7
370
    25
100
AcDbLine
 10
413.433898
 20
416.262325
 30
0.0
 11
416.386654
 21
419.215081
 31
0.0
  0
LINE
  5
BB
330
86
100
AcDbEntity
  8
LC-003-005-----0
 62
     7
370
    25
100
AcDbLine
 10
410.605471
 20
416.262325
 30
0.0
 11
413.558227
 21
419.215081
 31
0.0
  0
LINE
  5
BC
330
86
100
AcDbEntity
  8
LC-003-005-----0
 62
     7
370
    25
100
AcDbLine
 10
407.777044
 20
416.262325
 30
0.0
 11
410.7298
 21
419.215081
 31
0.0
  0
LINE
  5
BD
330
86
100
AcDbEntity
  8
LC-003-005-----0
 62
     7
370
    25
100
AcDbLine
 10
404.948617
 20
416.262325
 30
0.0
 11
407.901372
 21
419.215081
 31
0.0
  0
LINE
  5
BE
330
86
100
AcDbEntity
  8
LC-003-005-----0
 62
     7
370
    25
100
AcDbLine
 10
402.120189
 20
416.262325
 30
0.0
 11
405.072945
 21
419.215081
 31
0.0
  0
LINE
  5
BF
330
86
100
AcDbEntity
  8
LC-003-005-----0
 62
     7
370
    25
100
AcDbLine
 10
399.291762
 20
416.262325
 30
0.0
 11
402.244518
 21
419.215081
 31
0.0
  0
LINE
  5
C0
330
86
100
AcDbEntity
  8
LC-003-005-----0
 62
     7
370
    25
100
AcDbLine
 10
396.463335
 20
416.262325
 30
0.0
 11
399.416091
 21
419.215081
 31
0.0
  0
LINE
  5
C1
330
86
100
AcDbEntity
  8
LC-003-005-----0
 62
     7
370
    25
100
AcDbLine
 10
393.634908
 20
416.262325
 30
0.0
 11
396.587664
 21
419.215081
 31
0.0
  0
LINE
  5
C2
330
86
100
AcDbEntity
  8
LC-003-005-----0
 62
     7
370
    25
100
AcDbLine
 10
390.806481
 20
416.262325
 30
0.0
 11
393.759237
 21
419.215081
 31
0.0
  0
LINE
  5
C3
330
86
100
AcDbEntity
  8
LC-003-005-----0
 62
     7
370
    25
100
AcDbLine
 10
387.978054
 20
416.262325
 30
0.0
 11
390.93081
 21
419.215081
 31
0.0
  0
LINE
  5
C4
330
86
100
AcDbEntity
  8
LC-003-005-----0
 62
     7
370
    25
100
AcDbLine
 10
385.149627
 20
416.262325
 30
0.0
 11
388.102383
 21
419.215081
 31
0.0
  0
LINE
  5
C5
330
86
100
AcDbEntity
  8
LC-003-005-----0
 62
     7
370
    25
100
AcDbLine
 10
382.3212
 20
416.262325
 30
0.0
 11
385.273955
 21
419.215081
 31
0.0
  0
LINE
  5
C6
330
86
100
AcDbEntity
  8
LC-003-005-----0
 62
     7
370
    25
100
AcDbLine
 10
379.492772
 20
416.262325
 30
0.0
 11
382.445528
 21
419.215081
 31
0.0
  0
LINE
  5
C7
330
86
100
AcDbEntity
  8
LC-003-005-----0
 62
     7
370
    25
100
AcDbLine
 10
376.664345
 20
416.262325
 30
0.0
 11
379.617101
 21
419.215081
 31
0.0
  0
LINE
  5
C8
330
86
100
AcDbEntity
  8
LC-003-005-----0
 62
     7
370
    25
100
AcDbLine
 10
373.835918
 20
416.262325
 30
0.0
 11
376.788674
 21
419.215081
 31
0.0
  0
LINE
  5
C9
330
86
100
AcDbEntity
  8
LC-003-005-----0
 62
     7
370
    25
100
AcDbLine
 10
371.007491
 20
416.262325
 30
0.0
 11
373.960247
 21
419.215081
 31
0.0
  0
LINE
  5
CA
330
86
100
AcDbEntity
  8
LC-003-005-----0
 62
     7
370
    25
100
AcDbLine
 10
368.19088
 20
416.274141
 30
0.0
 11
371.13182
 21
419.215081
 31
0.0
  0
LINE
  5
CB
330
86
100
AcDbEntity
  8
LC-003-005-----0
 62
     7
370
    25
100
AcDbLine
 10
365.86981
 20
416.781498
 30
0.0
 11
368.313298
 21
419.224987
 31
0.0
  0
LINE
  5
CC
330
86
100
AcDbEntity
  8
LC-003-005-----0
 62
     7
370
    25
100
AcDbLine
 10
364.060765
 20
417.80088
 30
0.0
 11
366.185225
 21
419.92534
 31
0.0
  0
LINE
  5
CD
330
86
100
AcDbEntity
  8
LC-003-005-----0
 62
     7
370
    25
100
AcDbLine
 10
362.647052
 20
419.215594
 30
0.0
 11
364.782628
 21
421.351171
 31
0.0
  0
LINE
  5
CE
330
86
100
AcDbEntity
  8
LC-003-005-----0
 62
     7
370
    25
100
AcDbLine
 10
361.628794
 20
421.025763
 30
0.0
 11
364.116248
 21
423.513217
 31
0.0
  0
LINE
  5
CF
330
86
100
AcDbEntity
  8
LC-003-005-----0
 62
     7
370
    25
100
AcDbLine
 10
361.123141
 20
423.348538
 30
0.0
 11
363.840073
 21
426.06547
 31
0.0
  0
LINE
  5
D0
330
86
100
AcDbEntity
  8
LC-003-005-----0
 62
     7
370
    25
100
AcDbLine
 10
359.024769
 20
424.078593
 30
0.0
 11
362.005273
 21
427.059097
 31
0.0
  0
LINE
  5
D1
330
86
100
AcDbEntity
  8
LC-003-005-----0
 62
     7
370
    25
100
AcDbLine
 10
356.494678
 20
424.376929
 30
0.0
 11
359.191838
 21
427.074089
 31
0.0
  0
LINE
  5
D2
330
86
100
AcDbEntity
  8
LC-003-005-----0
 62
     7
370
    25
100
AcDbLine
 10
354.246784
 20
424.957462
 30
0.0
 11
356.688115
 21
427.398793
 31
0.0
  0
LINE
  5
D3
330
86
100
AcDbEntity
  8
LC-003-005-----0
 62
     7
370
    25
100
AcDbLine
 10
352.221976
 20
425.761081
 30
0.0
 11
354.508117
 21
428.047222
 31
0.0
  0
LINE
  5
D4
330
86
100
AcDbEntity
  8
LC-003-005-----0
 62
     7
370
    25
100
AcDbLine
 10
350.387225
 20
426.754757
 30
0.0
 11
352.578655
 21
428.946187
 31
0.0
  0
LINE
  5
D5
330
86
100
AcDbEntity
  8
LC-003-005-----0
 62
     7
370
    25
100
AcDbLine
 10
348.723547
 20
427.919507
 30
0.0
 11
350.862782
 21
430.058741
 31
0.0
  0
LINE
  5
D6
330
86
100
AcDbEntity
  8
LC-003-005-----0
 62
     7
370
    25
100
AcDbLine
 10
347.220879
 20
429.245266
 30
0.0
 11
349.342258
 21
431.366644
 31
0.0
  0
LINE
  5
D7
330
86
100
AcDbEntity
  8
LC-003-005-----0
 62
     7
370
    25
100
AcDbLine
 10
345.875845
 20
430.728658
 30
0.0
 11
348.01116
 21
432.863974
 31
0.0
  0
LINE
  5
D8
330
86
100
AcDbEntity
  8
LC-003-005-----0
 62
     7
370
    25
100
AcDbLine
 10
344.691076
 20
432.372317
 30
0.0
 11
346.874098
 21
434.555339
 31
0.0
  0
LINE
  5
D9
330
86
100
AcDbEntity
  8
LC-003-005-----0
 62
     7
370
    25
100
AcDbLine
 10
343.675739
 20
434.185407
 30
0.0
 11
345.947589
 21
436.457257
 31
0.0
  0
LINE
  5
DA
330
86
100
AcDbEntity
  8
LC-003-005-----0
 62
     7
370
    25
100
AcDbLine
 10
342.847538
 20
436.185633
 30
0.0
 11
345.265702
 21
438.603797
 31
0.0
  0
LINE
  5
DB
330
86
100
AcDbEntity
  8
LC-003-005-----0
 62
     7
370
    25
100
AcDbLine
 10
342.237346
 20
438.403868
 30
0.0
 11
344.895485
 21
441.062007
 31
0.0
  0
LINE
  5
DC
330
86
100
AcDbEntity
  8
LC-003-005-----0
 62
     7
370
    25
100
AcDbLine
 10
341.899994
 20
440.894943
 30
0.0
 11
344.862308
 21
443.857258
 31
0.0
  0
LINE
  5
DD
330
86
100
AcDbEntity
  8
LC-003-005-----0
 62
     7
370
    25
100
AcDbLine
 10
341.862308
 20
443.685685
 30
0.0
 11
344.862308
 21
446.685685
 31
0.0
  0
LINE
  5
DE
330
86
100
AcDbEntity
  8
LC-003-005-----0
 62
     7
370
    25
100
AcDbLine
 10
341.862308
 20
446.514112
 30
0.0
 11
344.862308
 21
449.514112
 31
0.0
  0
LINE
  5
DF
330
86
100
AcDbEntity
  8
LC-003-005-----0
 62
     7
370
    25
100
AcDbLine
 10
341.862308
 20
449.342539
 30
0.0
 11
344.862308
 21
452.342539
 31
0.0
  0
LINE
  5
E0
330
86
100
AcDbEntity
  8
LC-003-005-----0
 62
     7
370
    25
100
AcDbLine
 10
341.862308
 20
452.170966
 30
0.0
 11
344.862308
 21
455.170966
 31
0.0
  0
LINE
  5
E1
330
86
100
AcDbEntity
  8
LC-003-005-----0
 62
     7
370
    25
100
AcDbLine
 10
341.862308
 20
454.999393
 30
0.0
 11
344.862308
 21
457.999393
 31
0.0
  0
LINE
  5
E2
330
86
100
AcDbEntity
  8
LC-003-005-----0
 62
     7
370
    25
100
AcDbLine
 10
341.862308
 20
457.82782
 30
0.0
 11
344.862308
 21
460.82782
 31
0.0
  0
LINE
  5
E3
330
86
100
AcDbEntity
  8
LC-003-005-----0
 62
     7
370
    25
100
AcDbLine
 10
341.862308
 20
460.656247
 30
0.0
 11
344.862308
 21
463.656247
 31
0.0
  0
LINE
  5
E4
330
86
100
AcDbEntity
  8
LC-003-005-----0
 62
     7
370
    25
100
AcDbLine
 10
341.862308
 20
463.484675
 30
0.0
 11
344.862308
 21
466.484675
 31
0.0
  0
LINE
  5
E5
330
86
100
AcDbEntity
  8
LC-003-005-----0
 62
     7
370
    25
100
AcDbLine
 10
341.862308
 20
466.313102
 30
0.0
 11
344.862308
 21
469.313102
 31
0.0
  0
LINE
  5
E6
330
86
100
AcDbEntity
  8
LC-003-005-----0
 62
     7
370
    25
100
AcDbLine
 10
341.862308
 20
469.141529
 30
0.0
 11
344.862308
 21
472.141529
 31
0.0
  0
LINE
  5
E7
330
86
100
AcDbEntity
  8
LC-003-005-----0
 62
     7
370
    25
100
AcDbLine
 10
341.862308
 20
471.969956
 30
0.0
 11
344.862308
 21
474.969956
 31
0.0
  0
LINE
  5
E8
330
86
100
AcDbEntity
  8
LC-003-005-----0
 62
     7
370
    25
100
AcDbLine
 10
341.862308
 20
474.798383
 30
0.0
 11
344.862308
 21
477.798383
 31
0.0
  0
LINE
  5
E9
330
86
100
AcDbEntity
  8
LC-003-005-----0
 62
     7
370
    25
100
AcDbLine
 10
341.862308
 20
477.62681
 30
0.0
 11
344.862308
 21
480.62681
 31
0.0
  0
LINE
  5
EA
330
86
100
AcDbEntity
  8
LC-003-005-----0
 62
     7
370
    25
100
AcDbLine
 10
341.862308
 20
480.455237
 30
0.0
 11
344.862308
 21
483.455237
 31
0.0
  0
LINE
  5
EB
330
86
100
AcDbEntity
  8
LC-003-005-----0
 62
     7
370
    25
100
AcDbLine
 10
341.862308
 20
483.283664
 30
0.0
 11
344.862308
 21
486.283664
 31
0.0
  0
LINE
  5
EC
330
86
100
AcDbEntity
  8
LC-003-005-----0
 62
     7
370
    25
100
AcDbLine
 10
341.862308
 20
486.112092
 30
0.0
 11
344.309313
 21
488.559097
 31
0.0
  0
ENDBLK
  5
88
330
86
100
AcDbEntity
  8
0
100
AcDbBlockEnd
  0
BLOCK
  5
107
330
106
100
AcDbEntity
  8
0
100
AcDbBlockBegin
  2
*X33
 70
     1
 71
     0
 10
0.0
 20
0.0
 30
0.0
  3
*X33
  1

  4
*X3
  0
LINE
  5
109
330
106
100
AcDbEntity
  8
LC-003-005-----0
 62
     7
370
    25
100
AcDbLine
 10
502.701232
 20
488.559097
 30
0.0
 11
505.361048
 21
491.218913
 31
0.0
  0
LINE
  5
10A
330
106
100
AcDbEntity
  8
LC-003-005-----0
 62
     7
370
    25
100
AcDbLine
 10
502.361048
 20
491.04734
 30
0.0
 11
505.361048
 21
494.04734
 31
0.0
  0
LINE
  5
10B
330
106
100
AcDbEntity
  8
LC-003-005-----0
 62
     7
370
    25
100
AcDbLine
 10
502.361048
 20
493.875767
 30
0.0
 11
505.361048
 21
496.875767
 31
0.0
  0
LINE
  5
10C
330
106
100
AcDbEntity
  8
LC-003-005-----0
 62
     7
370
    25
100
AcDbLine
 10
501.221625
 20
495.564771
 30
0.0
 11
504.218471
 21
498.561616
 31
0.0
  0
LINE
  5
10D
330
106
100
AcDbEntity
  8
LC-003-005-----0
 62
     7
370
    25
100
AcDbLine
 10
498.393198
 20
495.564771
 30
0.0
 11
501.390043
 21
498.561616
 31
0.0
  0
LINE
  5
10E
330
106
100
AcDbEntity
  8
LC-003-005-----0
 62
     7
370
    25
100
AcDbLine
 10
495.564771
 20
495.564771
 30
0.0
 11
498.561616
 21
498.561616
 31
0.0
  0
LINE
  5
10F
330
106
100
AcDbEntity
  8
LC-003-005-----0
 62
     7
370
    25
100
AcDbLine
 10
468.859552
 20
471.687979
 30
0.0
 11
471.862308
 21
474.690735
 31
0.0
  0
LINE
  5
110
330
106
100
AcDbEntity
  8
LC-003-005-----0
 62
     7
370
    25
100
AcDbLine
 10
492.736344
 20
495.564771
 30
0.0
 11
495.733189
 21
498.561616
 31
0.0
  0
LINE
  5
111
330
106
100
AcDbEntity
  8
LC-003-005-----0
 62
     7
370
    25
100
AcDbLine
 10
468.859552
 20
474.516407
 30
0.0
 11
471.862308
 21
477.519162
 31
0.0
  0
LINE
  5
112
330
106
100
AcDbEntity
  8
LC-003-005-----0
 62
     7
370
    25
100
AcDbLine
 10
489.907917
 20
495.564771
 30
0.0
 11
492.904762
 21
498.561616
 31
0.0
  0
LINE
  5
113
330
106
100
AcDbEntity
  8
LC-003-005-----0
 62
     7
370
    25
100
AcDbLine
 10
468.859552
 20
477.344834
 30
0.0
 11
471.862308
 21
480.34759
 31
0.0
  0
LINE
  5
114
330
106
100
AcDbEntity
  8
LC-003-005-----0
 62
     7
370
    25
100
AcDbLine
 10
487.07949
 20
495.564771
 30
0.0
 11
490.076335
 21
498.561616
 31
0.0
  0
LINE
  5
115
330
106
100
AcDbEntity
  8
LC-003-005-----0
 62
     7
370
    25
100
AcDbLine
 10
468.859552
 20
480.173261
 30
0.0
 11
471.862308
 21
483.176017
 31
0.0
  0
LINE
  5
116
330
106
100
AcDbEntity
  8
LC-003-005-----0
 62
     7
370
    25
100
AcDbLine
 10
484.251063
 20
495.564771
 30
0.0
 11
487.247908
 21
498.561616
 31
0.0
  0
LINE
  5
117
330
106
100
AcDbEntity
  8
LC-003-005-----0
 62
     7
370
    25
100
AcDbLine
 10
468.859552
 20
483.001688
 30
0.0
 11
471.862308
 21
486.004444
 31
0.0
  0
LINE
  5
118
330
106
100
AcDbEntity
  8
LC-003-005-----0
 62
     7
370
    25
100
AcDbLine
 10
474.416961
 20
488.559097
 30
0.0
 11
476.863568
 21
491.005704
 31
0.0
  0
LINE
  5
119
330
106
100
AcDbEntity
  8
LC-003-005-----0
 62
     7
370
    25
100
AcDbLine
 10
481.422636
 20
495.564771
 30
0.0
 11
484.419481
 21
498.561616
 31
0.0
  0
LINE
  5
11A
330
106
100
AcDbEntity
  8
LC-003-005-----0
 62
     7
370
    25
100
AcDbLine
 10
468.859552
 20
485.830115
 30
0.0
 11
476.863568
 21
493.834131
 31
0.0
  0
LINE
  5
11B
330
106
100
AcDbEntity
  8
LC-003-005-----0
 62
     7
370
    25
100
AcDbLine
 10
478.594208
 20
495.564771
 30
0.0
 11
481.591054
 21
498.561616
 31
0.0
  0
LINE
  5
11C
330
106
100
AcDbEntity
  8
LC-003-005-----0
 62
     7
370
    25
100
AcDbLine
 10
468.859552
 20
488.658542
 30
0.0
 11
471.762863
 21
491.561853
 31
0.0
  0
LINE
  5
11D
330
106
100
AcDbEntity
  8
LC-003-005-----0
 62
     7
370
    25
100
AcDbLine
 10
473.860812
 20
493.659802
 30
0.0
 11
478.762626
 21
498.561616
 31
0.0
  0
LINE
  5
11E
330
106
100
AcDbEntity
  8
LC-003-005-----0
 62
     7
370
    25
100
AcDbLine
 10
473.860812
 20
496.488229
 30
0.0
 11
475.934199
 21
498.561616
 31
0.0
  0
ENDBLK
  5
108
330
106
100
AcDbEntity
  8
0
100
AcDbBlockEnd
  0
BLOCK
  5
123
330
122
100
AcDbEntity
  8
0
100
AcDbBlockBegin
  2
*X44
 70
     1
 71
     0
 10
0.0
 20
0.0
 30
0.0
  3
*X44
  1

  4
*X4
  0
LINE
  5
125
330
122
100
AcDbEntity
  8
LC-003-005-----0
 62
     7
370
    25
100
AcDbLine
 10
349.435943
 20
471.058309
 30
0.0
 11
349.860064
 21
471.48243
 31
0.0
  0
LINE
  5
126
330
122
100
AcDbEntity
  8
LC-003-005-----0
 62
     7
370
    25
100
AcDbLine
 10
347.317316
 20
471.768109
 30
0.0
 11
349.860064
 21
474.310858
 31
0.0
  0
LINE
  5
127
330
122
100
AcDbEntity
  8
LC-003-005-----0
 62
     7
370
    25
100
AcDbLine
 10
346.862308
 20
474.141529
 30
0.0
 11
349.860064
 21
477.139285
 31
0.0
  0
LINE
  5
128
330
122
100
AcDbEntity
  8
LC-003-005-----0
 62
     7
370
    25
100
AcDbLine
 10
346.862308
 20
476.969956
 30
0.0
 11
349.860064
 21
479.967712
 31
0.0
  0
LINE
  5
129
330
122
100
AcDbEntity
  8
LC-003-005-----0
 62
     7
370
    25
100
AcDbLine
 10
346.862308
 20
479.798383
 30
0.0
 11
349.860064
 21
482.796139
 31
0.0
  0
LINE
  5
12A
330
122
100
AcDbEntity
  8
LC-003-005-----0
 62
     7
370
    25
100
AcDbLine
 10
346.862308
 20
482.62681
 30
0.0
 11
349.860064
 21
485.624566
 31
0.0
  0
LINE
  5
12B
330
122
100
AcDbEntity
  8
LC-003-005-----0
 62
     7
370
    25
100
AcDbLine
 10
346.862308
 20
485.455237
 30
0.0
 11
349.860064
 21
488.452993
 31
0.0
  0
LINE
  5
12C
330
122
100
AcDbEntity
  8
LC-003-005-----0
 62
     7
370
    25
100
AcDbLine
 10
346.862308
 20
488.283664
 30
0.0
 11
349.496677
 21
490.918033
 31
0.0
  0
LINE
  5
12D
330
122
100
AcDbEntity
  8
LC-003-005-----0
 62
     7
370
    25
100
AcDbLine
 10
344.309313
 20
488.559097
 30
0.0
 11
347.312069
 21
491.561853
 31
0.0
  0
LINE
  5
12E
330
122
100
AcDbEntity
  8
LC-003-005-----0
 62
     7
370
    25
100
AcDbLine
 10
341.861048
 20
488.939259
 30
0.0
 11
344.863804
 21
491.942015
 31
0.0
  0
LINE
  5
12F
330
122
100
AcDbEntity
  8
LC-003-005-----0
 62
     7
370
    25
100
AcDbLine
 10
341.861048
 20
491.767686
 30
0.0
 11
344.863804
 21
494.770442
 31
0.0
  0
LINE
  5
130
330
122
100
AcDbEntity
  8
LC-003-005-----0
 62
     7
370
    25
100
AcDbLine
 10
341.861048
 20
494.596113
 30
0.0
 11
344.863804
 21
497.598869
 31
0.0
  0
LINE
  5
131
330
122
100
AcDbEntity
  8
LC-003-005-----0
 62
     7
370
    25
100
AcDbLine
 10
341.861048
 20
497.42454
 30
0.0
 11
342.998124
 21
498.561616
 31
0.0
  0
ENDBLK
  5
124
330
122
100
AcDbEntity
  8
0
100
AcDbBlockEnd
  0
BLOCK
  5
14E
330
14D
100
AcDbEntity
  8
0
100
AcDbBlockBegin
  2
*X55
 70
     1
 71
     0
 10
0.0
 20
0.0
 30
0.0
  3
*X55
  1

  4
*X5
  0
LINE
  5
150
330
14D
100
AcDbEntity
  8
LC-003-005-----0
 62
     7
370
    25
100
AcDbLine
 10
442.722869
 20
428.580733
 30
0.0
 11
451.516355
 21
437.374219
 31
0.0
  0
LINE
  5
151
330
14D
100
AcDbEntity
  8
LC-003-005-----0
 62
     7
370
    25
100
AcDbLine
 10
439.548502
 20
428.234793
 30
0.0
 11
441.72913
 21
430.415421
 31
0.0
  0
LINE
  5
152
330
14D
100
AcDbEntity
  8
LC-003-005-----0
 62
     7
370
    25
100
AcDbLine
 10
449.68351
 20
438.369801
 30
0.0
 11
451.862273
 21
440.548565
 31
0.0
  0
LINE
  5
153
330
14D
100
AcDbEntity
  8
LC-003-005-----0
 62
     7
370
    25
100
AcDbLine
 10
436.720075
 20
428.234793
 30
0.0
 11
438.724426
 21
430.239145
 31
0.0
  0
LINE
  5
154
330
14D
100
AcDbEntity
  8
LC-003-005-----0
 62
     7
370
    25
100
AcDbLine
 10
449.85972
 20
441.374438
 30
0.0
 11
451.862079
 21
443.376798
 31
0.0
  0
LINE
  5
155
330
14D
100
AcDbEntity
  8
LC-003-005-----0
 62
     7
370
    25
100
AcDbLine
 10
433.891647
 20
428.234793
 30
0.0
 11
435.895999
 21
430.239145
 31
0.0
  0
LINE
  5
156
330
14D
100
AcDbEntity
  8
LC-003-005-----0
 62
     7
370
    25
100
AcDbLine
 10
449.859556
 20
444.202702
 30
0.0
 11
451.861885
 21
446.20503
 31
0.0
  0
LINE
  5
157
330
14D
100
AcDbEntity
  8
LC-003-005-----0
 62
     7
370
    25
100
AcDbLine
 10
431.06322
 20
428.234793
 30
0.0
 11
433.067572
 21
430.239145
 31
0.0
  0
LINE
  5
158
330
14D
100
AcDbEntity
  8
LC-003-005-----0
 62
     7
370
    25
100
AcDbLine
 10
449.859392
 20
447.030965
 30
0.0
 11
451.86169
 21
449.033263
 31
0.0
  0
LINE
  5
159
330
14D
100
AcDbEntity
  8
LC-003-005-----0
 62
     7
370
    25
100
AcDbLine
 10
428.234793
 20
428.234793
 30
0.0
 11
430.239145
 21
430.239145
 31
0.0
  0
LINE
  5
15A
330
14D
100
AcDbEntity
  8
LC-003-005-----0
 62
     7
370
    25
100
AcDbLine
 10
449.859228
 20
449.859228
 30
0.0
 11
451.861496
 21
451.861496
 31
0.0
  0
LINE
  5
15B
330
14D
100
AcDbEntity
  8
LC-003-005-----0
 62
     7
370
    25
100
AcDbLine
 10
425.406366
 20
428.234793
 30
0.0
 11
427.410718
 21
430.239145
 31
0.0
  0
LINE
  5
15C
330
14D
100
AcDbEntity
  8
LC-003-005-----0
 62
     7
370
    25
100
AcDbLine
 10
449.859064
 20
452.687491
 30
0.0
 11
451.861301
 21
454.689729
 31
0.0
  0
LINE
  5
15D
330
14D
100
AcDbEntity
  8
LC-003-005-----0
 62
     7
370
    25
100
AcDbLine
 10
422.577939
 20
428.234793
 30
0.0
 11
424.582291
 21
430.239145
 31
0.0
  0
LINE
  5
15E
330
14D
100
AcDbEntity
  8
LC-003-005-----0
 62
     7
370
    25
100
AcDbLine
 10
449.8589
 20
455.515755
 30
0.0
 11
451.861107
 21
457.517961
 31
0.0
  0
LINE
  5
15F
330
14D
100
AcDbEntity
  8
LC-003-005-----0
 62
     7
370
    25
100
AcDbLine
 10
419.749512
 20
428.234793
 30
0.0
 11
421.753864
 21
430.239145
 31
0.0
  0
LINE
  5
160
330
14D
100
AcDbEntity
  8
LC-003-005-----0
 62
     7
370
    25
100
AcDbLine
 10
449.858736
 20
458.344018
 30
0.0
 11
451.860913
 21
460.346194
 31
0.0
  0
LINE
  5
161
330
14D
100
AcDbEntity
  8
LC-003-005-----0
 62
     7
370
    25
100
AcDbLine
 10
416.921085
 20
428.234793
 30
0.0
 11
418.925437
 21
430.239145
 31
0.0
  0
LINE
  5
162
330
14D
100
AcDbEntity
  8
LC-003-005-----0
 62
     7
370
    25
100
AcDbLine
 10
449.858572
 20
461.172281
 30
0.0
 11
451.860718
 21
463.174427
 31
0.0
  0
LINE
  5
163
330
14D
100
AcDbEntity
  8
LC-003-005-----0
 62
     7
370
    25
100
AcDbLine
 10
414.092658
 20
428.234793
 30
0.0
 11
416.097009
 21
430.239145
 31
0.0
  0
LINE
  5
164
330
14D
100
AcDbEntity
  8
LC-003-005-----0
 62
     7
370
    25
100
AcDbLine
 10
449.858409
 20
464.000544
 30
0.0
 11
451.860524
 21
466.00266
 31
0.0
  0
LINE
  5
165
330
14D
100
AcDbEntity
  8
LC-003-005-----0
 62
     7
370
    25
100
AcDbLine
 10
411.26423
 20
428.234793
 30
0.0
 11
413.268582
 21
430.239145
 31
0.0
  0
LINE
  5
166
330
14D
100
AcDbEntity
  8
LC-003-005-----0
 62
     7
370
    25
100
AcDbLine
 10
449.858245
 20
466.828807
 30
0.0
 11
451.86033
 21
468.830892
 31
0.0
  0
LINE
  5
167
330
14D
100
AcDbEntity
  8
LC-003-005-----0
 62
     7
370
    25
100
AcDbLine
 10
408.435803
 20
428.234793
 30
0.0
 11
410.440155
 21
430.239145
 31
0.0
  0
LINE
  5
168
330
14D
100
AcDbEntity
  8
LC-003-005-----0
 62
     7
370
    25
100
AcDbLine
 10
449.858081
 20
469.657071
 30
0.0
 11
451.860135
 21
471.659125
 31
0.0
  0
LINE
  5
169
330
14D
100
AcDbEntity
  8
LC-003-005-----0
 62
     7
370
    25
100
AcDbLine
 10
405.607376
 20
428.234793
 30
0.0
 11
407.611728
 21
430.239145
 31
0.0
  0
LINE
  5
16A
330
14D
100
AcDbEntity
  8
LC-003-005-----0
 62
     7
370
    25
100
AcDbLine
 10
449.857917
 20
472.485334
 30
0.0
 11
451.859941
 21
474.487358
 31
0.0
  0
LINE
  5
16B
330
14D
100
AcDbEntity
  8
LC-003-005-----0
 62
     7
370
    25
100
AcDbLine
 10
402.778949
 20
428.234793
 30
0.0
 11
404.783301
 21
430.239145
 31
0.0
  0
LINE
  5
16C
330
14D
100
AcDbEntity
  8
LC-003-005-----0
 62
     7
370
    25
100
AcDbLine
 10
449.857753
 20
475.313597
 30
0.0
 11
451.859746
 21
477.315591
 31
0.0
  0
LINE
  5
16D
330
14D
100
AcDbEntity
  8
LC-003-005-----0
 62
     7
370
    25
100
AcDbLine
 10
399.950522
 20
428.234793
 30
0.0
 11
401.954874
 21
430.239145
 31
0.0
  0
LINE
  5
16E
330
14D
100
AcDbEntity
  8
LC-003-005-----0
 62
     7
370
    25
100
AcDbLine
 10
449.857589
 20
478.14186
 30
0.0
 11
451.859552
 21
480.143823
 31
0.0
  0
LINE
  5
16F
330
14D
100
AcDbEntity
  8
LC-003-005-----0
 62
     7
370
    25
100
AcDbLine
 10
397.122095
 20
428.234793
 30
0.0
 11
399.126447
 21
430.239145
 31
0.0
  0
LINE
  5
170
330
14D
100
AcDbEntity
  8
LC-003-005-----0
 62
     7
370
    25
100
AcDbLine
 10
449.857425
 20
480.970124
 30
0.0
 11
451.859358
 21
482.972056
 31
0.0
  0
LINE
  5
171
330
14D
100
AcDbEntity
  8
LC-003-005-----0
 62
     7
370
    25
100
AcDbLine
 10
394.293668
 20
428.234793
 30
0.0
 11
396.29802
 21
430.239145
 31
0.0
  0
LINE
  5
172
330
14D
100
AcDbEntity
  8
LC-003-005-----0
 62
     7
370
    25
100
AcDbLine
 10
449.857261
 20
483.798387
 30
0.0
 11
451.859163
 21
485.800289
 31
0.0
  0
LINE
  5
173
330
14D
100
AcDbEntity
  8
LC-003-005-----0
 62
     7
370
    25
100
AcDbLine
 10
391.465241
 20
428.234793
 30
0.0
 11
393.469592
 21
430.239145
 31
0.0
  0
LINE
  5
174
330
14D
100
AcDbEntity
  8
LC-003-005-----0
 62
     7
370
    25
100
AcDbLine
 10
449.857097
 20
486.62665
 30
0.0
 11
452.634837
 21
489.40439
 31
0.0
  0
LINE
  5
175
330
14D
100
AcDbEntity
  8
LC-003-005-----0
 62
     7
370
    25
100
AcDbLine
 10
388.636813
 20
428.234793
 30
0.0
 11
390.641165
 21
430.239145
 31
0.0
  0
LINE
  5
176
330
14D
100
AcDbEntity
  8
LC-003-005-----0
 62
     7
370
    25
100
AcDbLine
 10
449.856933
 20
489.454913
 30
0.0
 11
453.670113
 21
493.268093
 31
0.0
  0
LINE
  5
177
330
14D
100
AcDbEntity
  8
LC-003-005-----0
 62
     7
370
    25
100
AcDbLine
 10
385.808386
 20
428.234793
 30
0.0
 11
387.812738
 21
430.239145
 31
0.0
  0
LINE
  5
178
330
14D
100
AcDbEntity
  8
LC-003-005-----0
 62
     7
370
    25
100
AcDbLine
 10
449.85677
 20
492.283176
 30
0.0
 11
451.810516
 21
494.236923
 31
0.0
  0
LINE
  5
179
330
14D
100
AcDbEntity
  8
LC-003-005-----0
 62
     7
370
    25
100
AcDbLine
 10
451.876963
 20
494.303369
 30
0.0
 11
454.70539
 21
497.131797
 31
0.0
  0
LINE
  5
17A
330
14D
100
AcDbEntity
  8
LC-003-005-----0
 62
     7
370
    25
100
AcDbLine
 10
382.979959
 20
428.234793
 30
0.0
 11
384.984311
 21
430.239145
 31
0.0
  0
LINE
  5
17B
330
14D
100
AcDbEntity
  8
LC-003-005-----0
 62
     7
370
    25
100
AcDbLine
 10
452.912239
 20
498.167073
 30
0.0
 11
455.740666
 21
500.9955
 31
0.0
  0
LINE
  5
17C
330
14D
100
AcDbEntity
  8
LC-003-005-----0
 62
     7
370
    25
100
AcDbLine
 10
462.975237
 20
508.230071
 30
0.0
 11
463.357955
 21
508.612789
 31
0.0
  0
LINE
  5
17D
330
14D
100
AcDbEntity
  8
LC-003-005-----0
 62
     7
370
    25
100
AcDbLine
 10
380.151532
 20
428.234793
 30
0.0
 11
382.155884
 21
430.239145
 31
0.0
  0
LINE
  5
17E
330
14D
100
AcDbEntity
  8
LC-003-005-----0
 62
     7
370
    25
100
AcDbLine
 10
453.947515
 20
502.030776
 30
0.0
 11
456.775942
 21
504.859203
 31
0.0
  0
LINE
  5
17F
330
14D
100
AcDbEntity
  8
LC-003-005-----0
 62
     7
370
    25
100
AcDbLine
 10
460.14681
 20
508.230071
 30
0.0
 11
462.151162
 21
510.234423
 31
0.0
  0
LINE
  5
180
330
14D
100
AcDbEntity
  8
LC-003-005-----0
 62
     7
370
    25
100
AcDbLine
 10
377.411168
 20
428.322857
 30
0.0
 11
379.327457
 21
430.239145
 31
0.0
  0
LINE
  5
181
330
14D
100
AcDbEntity
  8
LC-003-005-----0
 62
     7
370
    25
100
AcDbLine
 10
454.982791
 20
505.894479
 30
0.0
 11
459.322735
 21
510.234423
 31
0.0
  0
LINE
  5
182
330
14D
100
AcDbEntity
  8
LC-003-005-----0
 62
     7
370
    25
100
AcDbLine
 10
375.099787
 20
428.839902
 30
0.0
 11
376.729186
 21
430.469301
 31
0.0
  0
LINE
  5
183
330
14D
100
AcDbEntity
  8
LC-003-005-----0
 62
     7
370
    25
100
AcDbLine
 10
456.018067
 20
509.758183
 30
0.0
 11
456.494307
 21
510.234423
 31
0.0
  0
LINE
  5
184
330
14D
100
AcDbEntity
  8
LC-003-005-----0
 62
     7
370
    25
100
AcDbLine
 10
373.12606
 20
429.694603
 30
0.0
 11
374.616633
 21
431.185176
 31
0.0
  0
LINE
  5
185
330
14D
100
AcDbEntity
  8
LC-003-005-----0
 62
     7
370
    25
100
AcDbLine
 10
371.422466
 20
430.819436
 30
0.0
 11
372.850805
 21
432.247775
 31
0.0
  0
LINE
  5
186
330
14D
100
AcDbEntity
  8
LC-003-005-----0
 62
     7
370
    25
100
AcDbLine
 10
369.961287
 20
432.186684
 30
0.0
 11
371.379694
 21
433.60509
 31
0.0
  0
LINE
  5
187
330
14D
100
AcDbEntity
  8
LC-003-005-----0
 62
     7
370
    25
100
AcDbLine
 10
368.738398
 20
433.792222
 30
0.0
 11
370.195926
 21
435.24975
 31
0.0
  0
LINE
  5
188
330
14D
100
AcDbEntity
  8
LC-003-005-----0
 62
     7
370
    25
100
AcDbLine
 10
367.771235
 20
435.653486
 30
0.0
 11
369.331064
 21
437.213315
 31
0.0
  0
LINE
  5
189
330
14D
100
AcDbEntity
  8
LC-003-005-----0
 62
     7
370
    25
100
AcDbLine
 10
367.108037
 20
437.818716
 30
0.0
 11
368.883139
 21
439.593817
 31
0.0
  0
LINE
  5
18A
330
14D
100
AcDbEntity
  8
LC-003-005-----0
 62
     7
370
    25
100
AcDbLine
 10
366.862283
 20
440.401389
 30
0.0
 11
368.862146
 21
442.401251
 31
0.0
  0
LINE
  5
18B
330
14D
100
AcDbEntity
  8
LC-003-005-----0
 62
     7
370
    25
100
AcDbLine
 10
366.862089
 20
443.229621
 30
0.0
 11
368.861952
 21
445.229484
 31
0.0
  0
LINE
  5
18C
330
14D
100
AcDbEntity
  8
LC-003-005-----0
 62
     7
370
    25
100
AcDbLine
 10
366.861895
 20
446.057854
 30
0.0
 11
368.861757
 21
448.057717
 31
0.0
  0
LINE
  5
18D
330
14D
100
AcDbEntity
  8
LC-003-005-----0
 62
     7
370
    25
100
AcDbLine
 10
366.8617
 20
448.886087
 30
0.0
 11
368.861563
 21
450.885949
 31
0.0
  0
LINE
  5
18E
330
14D
100
AcDbEntity
  8
LC-003-005-----0
 62
     7
370
    25
100
AcDbLine
 10
366.861506
 20
451.71432
 30
0.0
 11
368.861368
 21
453.714182
 31
0.0
  0
LINE
  5
18F
330
14D
100
AcDbEntity
  8
LC-003-005-----0
 62
     7
370
    25
100
AcDbLine
 10
366.861312
 20
454.542552
 30
0.0
 11
368.861174
 21
456.542415
 31
0.0
  0
LINE
  5
190
330
14D
100
AcDbEntity
  8
LC-003-005-----0
 62
     7
370
    25
100
AcDbLine
 10
366.861117
 20
457.370785
 30
0.0
 11
368.86098
 21
459.370648
 31
0.0
  0
LINE
  5
191
330
14D
100
AcDbEntity
  8
LC-003-005-----0
 62
     7
370
    25
100
AcDbLine
 10
366.860923
 20
460.199018
 30
0.0
 11
368.860785
 21
462.19888
 31
0.0
  0
LINE
  5
192
330
14D
100
AcDbEntity
  8
LC-003-005-----0
 62
     7
370
    25
100
AcDbLine
 10
366.860728
 20
463.027251
 30
0.0
 11
368.860591
 21
465.027113
 31
0.0
  0
LINE
  5
193
330
14D
100
AcDbEntity
  8
LC-003-005-----0
 62
     7
370
    25
100
AcDbLine
 10
366.860534
 20
465.855483
 30
0.0
 11
368.860397
 21
467.855346
 31
0.0
  0
LINE
  5
194
330
14D
100
AcDbEntity
  8
LC-003-005-----0
 62
     7
370
    25
100
AcDbLine
 10
366.86034
 20
468.683716
 30
0.0
 11
368.860202
 21
470.683579
 31
0.0
  0
LINE
  5
195
330
14D
100
AcDbEntity
  8
LC-003-005-----0
 62
     7
370
    25
100
AcDbLine
 10
366.860145
 20
471.511949
 30
0.0
 11
368.860008
 21
473.511811
 31
0.0
  0
LINE
  5
196
330
14D
100
AcDbEntity
  8
LC-003-005-----0
 62
     7
370
    25
100
AcDbLine
 10
366.859951
 20
474.340182
 30
0.0
 11
368.859813
 21
476.340044
 31
0.0
  0
LINE
  5
197
330
14D
100
AcDbEntity
  8
LC-003-005-----0
 62
     7
370
    25
100
AcDbLine
 10
366.859757
 20
477.168414
 30
0.0
 11
368.859619
 21
479.168277
 31
0.0
  0
LINE
  5
198
330
14D
100
AcDbEntity
  8
LC-003-005-----0
 62
     7
370
    25
100
AcDbLine
 10
366.859562
 20
479.996647
 30
0.0
 11
368.859425
 21
481.99651
 31
0.0
  0
LINE
  5
199
330
14D
100
AcDbEntity
  8
LC-003-005-----0
 62
     7
370
    25
100
AcDbLine
 10
366.859368
 20
482.82488
 30
0.0
 11
368.85923
 21
484.824742
 31
0.0
  0
LINE
  5
19A
330
14D
100
AcDbEntity
  8
LC-003-005-----0
 62
     7
370
    25
100
AcDbLine
 10
366.859173
 20
485.653113
 30
0.0
 11
368.859036
 21
487.652975
 31
0.0
  0
LINE
  5
19B
330
14D
100
AcDbEntity
  8
LC-003-005-----0
 62
     7
370
    25
100
AcDbLine
 10
366.443067
 20
488.065433
 30
0.0
 11
368.858842
 21
490.481208
 31
0.0
  0
LINE
  5
19C
330
14D
100
AcDbEntity
  8
LC-003-005-----0
 62
     7
370
    25
100
AcDbLine
 10
365.845205
 20
490.295999
 30
0.0
 11
368.858647
 21
493.309441
 31
0.0
  0
LINE
  5
19D
330
14D
100
AcDbEntity
  8
LC-003-005-----0
 62
     7
370
    25
100
AcDbLine
 10
365.247343
 20
492.526564
 30
0.0
 11
366.957702
 21
494.236923
 31
0.0
  0
LINE
  5
19E
330
14D
100
AcDbEntity
  8
LC-003-005-----0
 62
     7
370
    25
100
AcDbLine
 10
364.649481
 20
494.757129
 30
0.0
 11
366.282266
 21
496.389914
 31
0.0
  0
LINE
  5
19F
330
14D
100
AcDbEntity
  8
LC-003-005-----0
 62
     7
370
    25
100
AcDbLine
 10
364.051619
 20
496.987694
 30
0.0
 11
365.684549
 21
498.620624
 31
0.0
  0
LINE
  5
1A0
330
14D
100
AcDbEntity
  8
LC-003-005-----0
 62
     7
370
    25
100
AcDbLine
 10
363.453757
 20
499.218259
 30
0.0
 11
365.086832
 21
500.851334
 31
0.0
  0
LINE
  5
1A1
330
14D
100
AcDbEntity
  8
LC-003-005-----0
 62
     7
370
    25
100
AcDbLine
 10
362.855895
 20
501.448824
 30
0.0
 11
364.489115
 21
503.082044
 31
0.0
  0
LINE
  5
1A2
330
14D
100
AcDbEntity
  8
LC-003-005-----0
 62
     7
370
    25
100
AcDbLine
 10
362.258033
 20
503.67939
 30
0.0
 11
363.891398
 21
505.312754
 31
0.0
  0
LINE
  5
1A3
330
14D
100
AcDbEntity
  8
LC-003-005-----0
 62
     7
370
    25
100
AcDbLine
 10
361.660171
 20
505.909955
 30
0.0
 11
363.293681
 21
507.543464
 31
0.0
  0
LINE
  5
1A4
330
14D
100
AcDbEntity
  8
LC-003-005-----0
 62
     7
370
    25
100
AcDbLine
 10
361.062309
 20
508.14052
 30
0.0
 11
362.695964
 21
509.774175
 31
0.0
  0
LINE
  5
1A5
330
14D
100
AcDbEntity
  8
LC-003-005-----0
 62
     7
370
    25
100
AcDbLine
 10
358.323433
 20
508.230071
 30
0.0
 11
360.327785
 21
510.234423
 31
0.0
  0
LINE
  5
1A6
330
14D
100
AcDbEntity
  8
LC-003-005-----0
 62
     7
370
    25
100
AcDbLine
 10
355.495006
 20
508.230071
 30
0.0
 11
357.499358
 21
510.234423
 31
0.0
  0
ENDBLK
  5
14F
330
14D
100
AcDbEntity
  8
0
100
AcDbBlockEnd
  0
BLOCK
  5
1C8
330
1C7
100
AcDbEntity
  8
0
100
AcDbBlockBegin
  2
*X66
 70
     1
 71
     0
 10
0.0
 20
0.0
 30
0.0
  3
*X66
  1

  4
*X6
  0
LINE
  5
1CA
330
1C7
100
AcDbEntity
  8
LC-003-005-----0
 62
     7
370
    25
100
AcDbLine
 10
379.860269
 20
444.914093
 30
0.0
 11
381.860269
 21
446.914093
 31
0.0
  0
LINE
  5
1CB
330
1C7
100
AcDbEntity
  8
LC-003-005-----0
 62
     7
370
    25
100
AcDbLine
 10
379.860269
 20
447.74252
 30
0.0
 11
381.860269
 21
449.74252
 31
0.0
  0
LINE
  5
1CC
330
1C7
100
AcDbEntity
  8
LC-003-005-----0
 62
     7
370
    25
100
AcDbLine
 10
379.860269
 20
450.570947
 30
0.0
 11
381.860269
 21
452.570947
 31
0.0
  0
LINE
  5
1CD
330
1C7
100
AcDbEntity
  8
LC-003-005-----0
 62
     7
370
    25
100
AcDbLine
 10
379.860269
 20
453.399375
 30
0.0
 11
381.860269
 21
455.399375
 31
0.0
  0
LINE
  5
1CE
330
1C7
100
AcDbEntity
  8
LC-003-005-----0
 62
     7
370
    25
100
AcDbLine
 10
379.860269
 20
456.227802
 30
0.0
 11
381.860269
 21
458.227802
 31
0.0
  0
LINE
  5
1CF
330
1C7
100
AcDbEntity
  8
LC-003-005-----0
 62
     7
370
    25
100
AcDbLine
 10
379.860269
 20
459.056229
 30
0.0
 11
381.860269
 21
461.056229
 31
0.0
  0
LINE
  5
1D0
330
1C7
100
AcDbEntity
  8
LC-003-005-----0
 62
     7
370
    25
100
AcDbLine
 10
379.860269
 20
461.884656
 30
0.0
 11
381.860269
 21
463.884656
 31
0.0
  0
LINE
  5
1D1
330
1C7
100
AcDbEntity
  8
LC-003-005-----0
 62
     7
370
    25
100
AcDbLine
 10
379.860269
 20
464.713083
 30
0.0
 11
381.860269
 21
466.713083
 31
0.0
  0
LINE
  5
1D2
330
1C7
100
AcDbEntity
  8
LC-003-005-----0
 62
     7
370
    25
100
AcDbLine
 10
379.860269
 20
467.54151
 30
0.0
 11
381.860269
 21
469.54151
 31
0.0
  0
LINE
  5
1D3
330
1C7
100
AcDbEntity
  8
LC-003-005-----0
 62
     7
370
    25
100
AcDbLine
 10
379.860269
 20
470.369937
 30
0.0
 11
381.860269
 21
472.369937
 31
0.0
  0
LINE
  5
1D4
330
1C7
100
AcDbEntity
  8
LC-003-005-----0
 62
     7
370
    25
100
AcDbLine
 10
379.860269
 20
473.198364
 30
0.0
 11
381.860269
 21
475.198364
 31
0.0
  0
LINE
  5
1D5
330
1C7
100
AcDbEntity
  8
LC-003-005-----0
 62
     7
370
    25
100
AcDbLine
 10
379.860269
 20
476.026792
 30
0.0
 11
381.860269
 21
478.026792
 31
0.0
  0
LINE
  5
1D6
330
1C7
100
AcDbEntity
  8
LC-003-005-----0
 62
     7
370
    25
100
AcDbLine
 10
379.860269
 20
478.855219
 30
0.0
 11
381.860269
 21
480.855219
 31
0.0
  0
LINE
  5
1D7
330
1C7
100
AcDbEntity
  8
LC-003-005-----0
 62
     7
370
    25
100
AcDbLine
 10
379.860269
 20
481.683646
 30
0.0
 11
381.860269
 21
483.683646
 31
0.0
  0
LINE
  5
1D8
330
1C7
100
AcDbEntity
  8
LC-003-005-----0
 62
     7
370
    25
100
AcDbLine
 10
379.860269
 20
484.512073
 30
0.0
 11
381.860269
 21
486.512073
 31
0.0
  0
LINE
  5
1D9
330
1C7
100
AcDbEntity
  8
LC-003-005-----0
 62
     7
370
    25
100
AcDbLine
 10
379.860269
 20
487.3405
 30
0.0
 11
381.860269
 21
489.3405
 31
0.0
  0
LINE
  5
1DA
330
1C7
100
AcDbEntity
  8
LC-003-005-----0
 62
     7
370
    25
100
AcDbLine
 10
379.860269
 20
490.168927
 30
0.0
 11
381.860269
 21
492.168927
 31
0.0
  0
LINE
  5
1DB
330
1C7
100
AcDbEntity
  8
LC-003-005-----0
 62
     7
370
    25
100
AcDbLine
 10
379.860269
 20
492.997354
 30
0.0
 11
381.860269
 21
494.997354
 31
0.0
  0
LINE
  5
1DC
330
1C7
100
AcDbEntity
  8
LC-003-005-----0
 62
     7
370
    25
100
AcDbLine
 10
379.860269
 20
495.825781
 30
0.0
 11
381.860269
 21
497.825781
 31
0.0
  0
LINE
  5
1DD
330
1C7
100
AcDbEntity
  8
LC-003-005-----0
 62
     7
370
    25
100
AcDbLine
 10
379.851634
 20
498.645573
 30
0.0
 11
381.62993
 21
500.42387
 31
0.0
  0
LINE
  5
1DE
330
1C7
100
AcDbEntity
  8
LC-003-005-----0
 62
     7
370
    25
100
AcDbLine
 10
379.448328
 20
501.070694
 30
0.0
 11
380.973792
 21
502.596158
 31
0.0
  0
LINE
  5
1DF
330
1C7
100
AcDbEntity
  8
LC-003-005-----0
 62
     7
370
    25
100
AcDbLine
 10
378.613914
 20
503.064707
 30
0.0
 11
380.00878
 21
504.459574
 31
0.0
  0
LINE
  5
1E0
330
1C7
100
AcDbEntity
  8
LC-003-005-----0
 62
     7
370
    25
100
AcDbLine
 10
377.455571
 20
504.734792
 30
0.0
 11
378.784765
 21
506.063986
 31
0.0
  0
LINE
  5
1E1
330
1C7
100
AcDbEntity
  8
LC-003-005-----0
 62
     7
370
    25
100
AcDbLine
 10
376.008823
 20
506.11647
 30
0.0
 11
377.319527
 21
507.427175
 31
0.0
  0
LINE
  5
1E2
330
1C7
100
AcDbEntity
  8
LC-003-005-----0
 62
     7
370
    25
100
AcDbLine
 10
374.269463
 20
507.205538
 30
0.0
 11
375.608466
 21
508.54454
 31
0.0
  0
LINE
  5
1E3
330
1C7
100
AcDbEntity
  8
LC-003-005-----0
 62
     7
370
    25
100
AcDbLine
 10
372.190323
 20
507.954825
 30
0.0
 11
373.62226
 21
509.386762
 31
0.0
  0
LINE
  5
1E4
330
1C7
100
AcDbEntity
  8
LC-003-005-----0
 62
     7
370
    25
100
AcDbLine
 10
369.637142
 20
508.230071
 30
0.0
 11
371.402753
 21
509.995682
 31
0.0
  0
LINE
  5
1E5
330
1C7
100
AcDbEntity
  8
LC-003-005-----0
 62
     7
370
    25
100
AcDbLine
 10
366.808715
 20
508.230071
 30
0.0
 11
369.172043
 21
510.593399
 31
0.0
  0
LINE
  5
1E6
330
1C7
100
AcDbEntity
  8
LC-003-005-----0
 62
     7
370
    25
100
AcDbLine
 10
363.980288
 20
508.230071
 30
0.0
 11
366.941333
 21
511.191116
 31
0.0
  0
LINE
  5
1E7
330
1C7
100
AcDbEntity
  8
LC-003-005-----0
 62
     7
370
    25
100
AcDbLine
 10
362.724417
 20
509.802628
 30
0.0
 11
364.710622
 21
511.788833
 31
0.0
  0
LINE
  5
1E8
330
1C7
100
AcDbEntity
  8
LC-003-005-----0
 62
     7
370
    25
100
AcDbLine
 10
360.327785
 20
510.234423
 30
0.0
 11
362.729984
 21
512.636622
 31
0.0
  0
LINE
  5
1E9
330
1C7
100
AcDbEntity
  8
LC-003-005-----0
 62
     7
370
    25
100
AcDbLine
 10
357.499358
 20
510.234423
 30
0.0
 11
361.357749
 21
514.092814
 31
0.0
  0
LINE
  5
1EA
330
1C7
100
AcDbEntity
  8
LC-003-005-----0
 62
     7
370
    25
100
AcDbLine
 10
355.360362
 20
510.923854
 30
0.0
 11
356.375005
 21
511.938497
 31
0.0
  0
LINE
  5
1EB
330
1C7
100
AcDbEntity
  8
LC-003-005-----0
 62
     7
370
    25
100
AcDbLine
 10
358.206751
 20
513.770243
 30
0.0
 11
360.636717
 21
516.200209
 31
0.0
  0
LINE
  5
1EC
330
1C7
100
AcDbEntity
  8
LC-003-005-----0
 62
     7
370
    25
100
AcDbLine
 10
357.838503
 20
516.230422
 30
0.0
 11
359.842874
 21
518.234793
 31
0.0
  0
LINE
  5
1ED
330
1C7
100
AcDbEntity
  8
LC-003-005-----0
 62
     7
370
    25
100
AcDbLine
 10
355.360362
 20
516.580708
 30
0.0
 11
357.014447
 21
518.234793
 31
0.0
  0
ENDBLK
  5
1C9
330
1C7
100
AcDbEntity
  8
0
100
AcDbBlockEnd
  0
BLOCK
  5
1F0
330
1EF
100
AcDbEntity
  8
0
100
AcDbBlockBegin
  2
*X77
 70
     1
 71
     0
 10
0.0
 20
0.0
 30
0.0
  3
*X77
  1

  4
*X7
  0
LINE
  5
1F2
330
1EF
100
AcDbEntity
  8
LC-003-005-----0
 62
     7
370
    25
100
AcDbLine
 10
438.580254
 20
444.237108
 30
0.0
 11
438.858047
 21
444.514901
 31
0.0
  0
LINE
  5
1F3
330
1EF
100
AcDbEntity
  8
LC-003-005-----0
 62
     7
370
    25
100
AcDbLine
 10
436.858047
 20
445.343328
 30
0.0
 11
438.858047
 21
447.343328
 31
0.0
  0
LINE
  5
1F4
330
1EF
100
AcDbEntity
  8
LC-003-005-----0
 62
     7
370
    25
100
AcDbLine
 10
436.858047
 20
448.171756
 30
0.0
 11
438.858047
 21
450.171756
 31
0.0
  0
LINE
  5
1F5
330
1EF
100
AcDbEntity
  8
LC-003-005-----0
 62
     7
370
    25
100
AcDbLine
 10
436.858047
 20
451.000183
 30
0.0
 11
438.858047
 21
453.000183
 31
0.0
  0
LINE
  5
1F6
330
1EF
100
AcDbEntity
  8
LC-003-005-----0
 62
     7
370
    25
100
AcDbLine
 10
436.858047
 20
453.82861
 30
0.0
 11
438.858047
 21
455.82861
 31
0.0
  0
LINE
  5
1F7
330
1EF
100
AcDbEntity
  8
LC-003-005-----0
 62
     7
370
    25
100
AcDbLine
 10
436.858047
 20
456.657037
 30
0.0
 11
438.858047
 21
458.657037
 31
0.0
  0
LINE
  5
1F8
330
1EF
100
AcDbEntity
  8
LC-003-005-----0
 62
     7
370
    25
100
AcDbLine
 10
436.858047
 20
459.485464
 30
0.0
 11
438.858047
 21
461.485464
 31
0.0
  0
LINE
  5
1F9
330
1EF
100
AcDbEntity
  8
LC-003-005-----0
 62
     7
370
    25
100
AcDbLine
 10
436.858047
 20
462.313891
 30
0.0
 11
438.858047
 21
464.313891
 31
0.0
  0
LINE
  5
1FA
330
1EF
100
AcDbEntity
  8
LC-003-005-----0
 62
     7
370
    25
100
AcDbLine
 10
436.858047
 20
465.142318
 30
0.0
 11
438.858047
 21
467.142318
 31
0.0
  0
LINE
  5
1FB
330
1EF
100
AcDbEntity
  8
LC-003-005-----0
 62
     7
370
    25
100
AcDbLine
 10
436.858047
 20
467.970745
 30
0.0
 11
438.858047
 21
469.970745
 31
0.0
  0
LINE
  5
1FC
330
1EF
100
AcDbEntity
  8
LC-003-005-----0
 62
     7
370
    25
100
AcDbLine
 10
436.858047
 20
470.799173
 30
0.0
 11
438.858047
 21
472.799173
 31
0.0
  0
LINE
  5
1FD
330
1EF
100
AcDbEntity
  8
LC-003-005-----0
 62
     7
370
    25
100
AcDbLine
 10
436.858047
 20
473.6276
 30
0.0
 11
438.858047
 21
475.6276
 31
0.0
  0
LINE
  5
1FE
330
1EF
100
AcDbEntity
  8
LC-003-005-----0
 62
     7
370
    25
100
AcDbLine
 10
436.858047
 20
476.456027
 30
0.0
 11
438.858047
 21
478.456027
 31
0.0
  0
LINE
  5
1FF
330
1EF
100
AcDbEntity
  8
LC-003-005-----0
 62
     7
370
    25
100
AcDbLine
 10
436.858047
 20
479.284454
 30
0.0
 11
438.858047
 21
481.284454
 31
0.0
  0
LINE
  5
200
330
1EF
100
AcDbEntity
  8
LC-003-005-----0
 62
     7
370
    25
100
AcDbLine
 10
436.858047
 20
482.112881
 30
0.0
 11
438.858047
 21
484.112881
 31
0.0
  0
LINE
  5
201
330
1EF
100
AcDbEntity
  8
LC-003-005-----0
 62
     7
370
    25
100
AcDbLine
 10
436.858047
 20
484.941308
 30
0.0
 11
438.858047
 21
486.941308
 31
0.0
  0
LINE
  5
202
330
1EF
100
AcDbEntity
  8
LC-003-005-----0
 62
     7
370
    25
100
AcDbLine
 10
462.151162
 20
510.234423
 30
0.0
 11
463.357955
 21
511.441216
 31
0.0
  0
LINE
  5
203
330
1EF
100
AcDbEntity
  8
LC-003-005-----0
 62
     7
370
    25
100
AcDbLine
 10
436.858047
 20
487.769735
 30
0.0
 11
438.858047
 21
489.769735
 31
0.0
  0
LINE
  5
204
330
1EF
100
AcDbEntity
  8
LC-003-005-----0
 62
     7
370
    25
100
AcDbLine
 10
459.322735
 20
510.234423
 30
0.0
 11
461.026809
 21
511.938497
 31
0.0
  0
LINE
  5
205
330
1EF
100
AcDbEntity
  8
LC-003-005-----0
 62
     7
370
    25
100
AcDbLine
 10
436.858047
 20
490.598162
 30
0.0
 11
438.858047
 21
492.598162
 31
0.0
  0
LINE
  5
206
330
1EF
100
AcDbEntity
  8
LC-003-005-----0
 62
     7
370
    25
100
AcDbLine
 10
454.489956
 20
508.230071
 30
0.0
 11
455.968785
 21
509.708901
 31
0.0
  0
LINE
  5
207
330
1EF
100
AcDbEntity
  8
LC-003-005-----0
 62
     7
370
    25
100
AcDbLine
 10
456.494307
 20
510.234423
 30
0.0
 11
460.511566
 21
514.251681
 31
0.0
  0
LINE
  5
208
330
1EF
100
AcDbEntity
  8
LC-003-005-----0
 62
     7
370
    25
100
AcDbLine
 10
462.490307
 20
516.230422
 30
0.0
 11
463.357955
 21
517.09807
 31
0.0
  0
LINE
  5
209
330
1EF
100
AcDbEntity
  8
LC-003-005-----0
 62
     7
370
    25
100
AcDbLine
 10
436.858047
 20
493.42659
 30
0.0
 11
438.858047
 21
495.42659
 31
0.0
  0
LINE
  5
20A
330
1EF
100
AcDbEntity
  8
LC-003-005-----0
 62
     7
370
    25
100
AcDbLine
 10
451.661528
 20
508.230071
 30
0.0
 11
456.339576
 21
512.908119
 31
0.0
  0
LINE
  5
20B
330
1EF
100
AcDbEntity
  8
LC-003-005-----0
 62
     7
370
    25
100
AcDbLine
 10
456.925492
 20
513.494034
 30
0.0
 11
461.666251
 21
518.234793
 31
0.0
  0
LINE
  5
20C
330
1EF
100
AcDbEntity
  8
LC-003-005-----0
 62
     7
370
    25
100
AcDbLine
 10
436.858047
 20
496.255017
 30
0.0
 11
438.858078
 21
498.255048
 31
0.0
  0
LINE
  5
20D
330
1EF
100
AcDbEntity
  8
LC-003-005-----0
 62
     7
370
    25
100
AcDbLine
 10
448.83307
 20
508.23004
 30
0.0
 11
451.800428
 21
511.197398
 31
0.0
  0
LINE
  5
20E
330
1EF
100
AcDbEntity
  8
LC-003-005-----0
 62
     7
370
    25
100
AcDbLine
 10
458.109158
 20
517.506128
 30
0.0
 11
458.837824
 21
518.234793
 31
0.0
  0
LINE
  5
20F
330
1EF
100
AcDbEntity
  8
LC-003-005-----0
 62
     7
370
    25
100
AcDbLine
 10
436.902863
 20
499.12826
 30
0.0
 11
439.482174
 21
501.707571
 31
0.0
  0
LINE
  5
210
330
1EF
100
AcDbEntity
  8
LC-003-005-----0
 62
     7
370
    25
100
AcDbLine
 10
445.380547
 20
507.605944
 30
0.0
 11
447.936725
 21
510.162122
 31
0.0
  0
LINE
  5
211
330
1EF
100
AcDbEntity
  8
LC-003-005-----0
 62
     7
370
    25
100
AcDbLine
 10
437.896591
 20
502.950415
 30
0.0
 11
443.859096
 21
508.91292
 31
0.0
  0
ENDBLK
  5
1F1
330
1EF
100
AcDbEntity
  8
0
100
AcDbBlockEnd
  0
BLOCK
  5
23A
330
239
100
AcDbEntity
  8
0
100
AcDbBlockBegin
  2
*X88
 70
     1
 71
     0
 10
0.0
 20
0.0
 30
0.0
  3
*X88
  1

  4
*X8
  0
LINE
  5
23C
330
239
100
AcDbEntity
  8
LC-003-005-----0
 62
     7
370
    25
100
AcDbLine
 10
354.359158
 20
480.026844
 30
0.0
 11
357.359158
 21
477.026844
 31
0.0
  0
LINE
  5
23D
330
239
100
AcDbEntity
  8
LC-003-005-----0
 62
     7
370
    25
100
AcDbLine
 10
354.359158
 20
482.855271
 30
0.0
 11
357.359158
 21
479.855271
 31
0.0
  0
LINE
  5
23E
330
239
100
AcDbEntity
  8
LC-003-005-----0
 62
     7
370
    25
100
AcDbLine
 10
354.359158
 20
485.683698
 30
0.0
 11
357.359158
 21
482.683698
 31
0.0
  0
LINE
  5
23F
330
239
100
AcDbEntity
  8
LC-003-005-----0
 62
     7
370
    25
100
AcDbLine
 10
354.359158
 20
488.512125
 30
0.0
 11
357.359158
 21
485.512125
 31
0.0
  0
LINE
  5
240
330
239
100
AcDbEntity
  8
LC-003-005-----0
 62
     7
370
    25
100
AcDbLine
 10
354.359158
 20
491.340552
 30
0.0
 11
357.359158
 21
488.340552
 31
0.0
  0
LINE
  5
241
330
239
100
AcDbEntity
  8
LC-003-005-----0
 62
     7
370
    25
100
AcDbLine
 10
354.359158
 20
494.168979
 30
0.0
 11
357.359158
 21
491.168979
 31
0.0
  0
LINE
  5
242
330
239
100
AcDbEntity
  8
LC-003-005-----0
 62
     7
370
    25
100
AcDbLine
 10
354.359158
 20
496.997406
 30
0.0
 11
357.359158
 21
493.997406
 31
0.0
  0
LINE
  5
243
330
239
100
AcDbEntity
  8
LC-003-005-----0
 62
     7
370
    25
100
AcDbLine
 10
354.359158
 20
499.825833
 30
0.0
 11
357.359158
 21
496.825833
 31
0.0
  0
LINE
  5
244
330
239
100
AcDbEntity
  8
LC-003-005-----0
 62
     7
370
    25
100
AcDbLine
 10
354.359158
 20
502.654261
 30
0.0
 11
357.359158
 21
499.654261
 31
0.0
  0
LINE
  5
245
330
239
100
AcDbEntity
  8
LC-003-005-----0
 62
     7
370
    25
100
AcDbLine
 10
354.359158
 20
505.482688
 30
0.0
 11
357.359158
 21
502.482688
 31
0.0
  0
LINE
  5
246
330
239
100
AcDbEntity
  8
LC-003-005-----0
 62
     7
370
    25
100
AcDbLine
 10
343.799671
 20
518.870603
 30
0.0
 11
344.111454
 21
518.558819
 31
0.0
  0
LINE
  5
247
330
239
100
AcDbEntity
  8
LC-003-005-----0
 62
     7
370
    25
100
AcDbLine
 10
353.259158
 20
509.411115
 30
0.0
 11
357.359158
 21
505.311115
 31
0.0
  0
LINE
  5
248
330
239
100
AcDbEntity
  8
LC-003-005-----0
 62
     7
370
    25
100
AcDbLine
 10
345.686246
 20
519.812454
 30
0.0
 11
350.803585
 21
514.695115
 31
0.0
  0
LINE
  5
249
330
239
100
AcDbEntity
  8
LC-003-005-----0
 62
     7
370
    25
100
AcDbLine
 10
353.259158
 20
512.239542
 30
0.0
 11
355.159158
 21
510.339542
 31
0.0
  0
LINE
  5
24A
330
239
100
AcDbEntity
  8
LC-003-005-----0
 62
     7
370
    25
100
AcDbLine
 10
357.268629
 20
508.230071
 30
0.0
 11
357.359158
 21
508.139542
 31
0.0
  0
LINE
  5
24B
330
239
100
AcDbEntity
  8
LC-003-005-----0
 62
     7
370
    25
100
AcDbLine
 10
348.785854
 20
519.541273
 30
0.0
 11
355.159158
 21
513.167969
 31
0.0
  0
LINE
  5
24C
330
239
100
AcDbEntity
  8
LC-003-005-----0
 62
     7
370
    25
100
AcDbLine
 10
351.885462
 20
519.270093
 30
0.0
 11
355.159158
 21
515.996396
 31
0.0
  0
LINE
  5
24D
330
239
100
AcDbEntity
  8
LC-003-005-----0
 62
     7
370
    25
100
AcDbLine
 10
461.359158
 20
477.678647
 30
0.0
 11
462.107734
 21
476.930071
 31
0.0
  0
LINE
  5
24E
330
239
100
AcDbEntity
  8
LC-003-005-----0
 62
     7
370
    25
100
AcDbLine
 10
461.359158
 20
480.507074
 30
0.0
 11
464.359158
 21
477.507074
 31
0.0
  0
LINE
  5
24F
330
239
100
AcDbEntity
  8
LC-003-005-----0
 62
     7
370
    25
100
AcDbLine
 10
461.359158
 20
483.335501
 30
0.0
 11
464.359158
 21
480.335501
 31
0.0
  0
LINE
  5
250
330
239
100
AcDbEntity
  8
LC-003-005-----0
 62
     7
370
    25
100
AcDbLine
 10
461.359158
 20
486.163929
 30
0.0
 11
464.359158
 21
483.163929
 31
0.0
  0
LINE
  5
251
330
239
100
AcDbEntity
  8
LC-003-005-----0
 62
     7
370
    25
100
AcDbLine
 10
461.359158
 20
488.992356
 30
0.0
 11
464.359158
 21
485.992356
 31
0.0
  0
LINE
  5
252
330
239
100
AcDbEntity
  8
LC-003-005-----0
 62
     7
370
    25
100
AcDbLine
 10
461.359158
 20
491.820783
 30
0.0
 11
464.359158
 21
488.820783
 31
0.0
  0
LINE
  5
253
330
239
100
AcDbEntity
  8
LC-003-005-----0
 62
     7
370
    25
100
AcDbLine
 10
461.359158
 20
494.64921
 30
0.0
 11
464.359158
 21
491.64921
 31
0.0
  0
LINE
  5
254
330
239
100
AcDbEntity
  8
LC-003-005-----0
 62
     7
370
    25
100
AcDbLine
 10
461.359158
 20
497.477637
 30
0.0
 11
464.359158
 21
494.477637
 31
0.0
  0
LINE
  5
255
330
239
100
AcDbEntity
  8
LC-003-005-----0
 62
     7
370
    25
100
AcDbLine
 10
461.359158
 20
500.306064
 30
0.0
 11
464.359158
 21
497.306064
 31
0.0
  0
LINE
  5
256
330
239
100
AcDbEntity
  8
LC-003-005-----0
 62
     7
370
    25
100
AcDbLine
 10
461.359158
 20
503.134491
 30
0.0
 11
464.359158
 21
500.134491
 31
0.0
  0
LINE
  5
257
330
239
100
AcDbEntity
  8
LC-003-005-----0
 62
     7
370
    25
100
AcDbLine
 10
461.359158
 20
505.962918
 30
0.0
 11
464.359158
 21
502.962918
 31
0.0
  0
LINE
  5
258
330
239
100
AcDbEntity
  8
LC-003-005-----0
 62
     7
370
    25
100
AcDbLine
 10
461.920433
 20
508.230071
 30
0.0
 11
464.359158
 21
505.791346
 31
0.0
  0
LINE
  5
259
330
239
100
AcDbEntity
  8
LC-003-005-----0
 62
     7
370
    25
100
AcDbLine
 10
463.559158
 20
509.419773
 30
0.0
 11
465.454009
 21
507.524922
 31
0.0
  0
LINE
  5
25A
330
239
100
AcDbEntity
  8
LC-003-005-----0
 62
     7
370
    25
100
AcDbLine
 10
463.559158
 20
512.2482
 30
0.0
 11
465.459158
 21
510.3482
 31
0.0
  0
LINE
  5
25B
330
239
100
AcDbEntity
  8
LC-003-005-----0
 62
     7
370
    25
100
AcDbLine
 10
463.559158
 20
515.076627
 30
0.0
 11
465.459158
 21
513.176627
 31
0.0
  0
LINE
  5
25C
330
239
100
AcDbEntity
  8
LC-003-005-----0
 62
     7
370
    25
100
AcDbLine
 10
463.559158
 20
517.905054
 30
0.0
 11
467.188428
 21
514.275784
 31
0.0
  0
LINE
  5
25D
330
239
100
AcDbEntity
  8
LC-003-005-----0
 62
     7
370
    25
100
AcDbLine
 10
465.168186
 20
519.124453
 30
0.0
 11
468.981579
 21
515.31106
 31
0.0
  0
LINE
  5
25E
330
239
100
AcDbEntity
  8
LC-003-005-----0
 62
     7
370
    25
100
AcDbLine
 10
467.769066
 20
519.352001
 30
0.0
 11
470.77473
 21
516.346337
 31
0.0
  0
LINE
  5
25F
330
239
100
AcDbEntity
  8
LC-003-005-----0
 62
     7
370
    25
100
AcDbLine
 10
470.369945
 20
519.579548
 30
0.0
 11
472.567881
 21
517.381613
 31
0.0
  0
LINE
  5
260
330
239
100
AcDbEntity
  8
LC-003-005-----0
 62
     7
370
    25
100
AcDbLine
 10
472.970825
 20
519.807096
 30
0.0
 11
474.361032
 21
518.416889
 31
0.0
  0
ENDBLK
  5
23B
330
239
100
AcDbEntity
  8
0
100
AcDbBlockEnd
  0
BLOCK
  5
267
330
266
100
AcDbEntity
  8
0
100
AcDbBlockBegin
  2
*X99
 70
     1
 71
     0
 10
0.0
 20
0.0
 30
0.0
  3
*X99
  1

  4
*X9
  0
LINE
  5
269
330
266
100
AcDbEntity
  8
LC-003-005-----0
 62
     7
370
    25
100
AcDbLine
 10
348.910746
 20
515.787946
 30
0.0
 11
349.399193
 21
516.276393
 31
0.0
  0
LINE
  5
26A
330
266
100
AcDbEntity
  8
LC-003-005-----0
 62
     7
370
    25
100
AcDbLine
 10
348.014171
 20
516.305584
 30
0.0
 11
348.52652
 21
516.817934
 31
0.0
  0
ENDBLK
  5
268
330
266
100
AcDbEntity
  8
0
100
AcDbBlockEnd
  0
BLOCK
  5
26D
330
26C
100
AcDbEntity
  8
0
100
AcDbBlockBegin
  2
*X1010
 70
     1
 71
     0
 10
0.0
 20
0.0
 30
0.0
  3
*X1010
  1

  4
*X10
  0
LINE
  5
26F
330
26C
100
AcDbEntity
  8
LC-003-005-----0
 62
     7
370
    25
100
AcDbLine
 10
349.130149
 20
514.593136
 30
0.0
 11
349.347972
 21
514.810958
 31
0.0
  0
LINE
  5
270
330
26C
100
AcDbEntity
  8
LC-003-005-----0
 62
     7
370
    25
100
AcDbLine
 10
347.664715
 20
514.541915
 30
0.0
 11
348.910746
 21
515.787946
 31
0.0
  0
LINE
  5
271
330
26C
100
AcDbEntity
  8
LC-003-005-----0
 62
     7
370
    25
100
AcDbLine
 10
347.123174
 20
515.414588
 30
0.0
 11
348.014171
 21
516.305584
 31
0.0
  0
ENDBLK
  5
26E
330
26C
100
AcDbEntity
  8
0
100
AcDbBlockEnd
  0
BLOCK
  5
274
330
273
100
AcDbEntity
  8
0
100
AcDbBlockBegin
  2
*X1111
 70
     1
 71
     0
 10
0.0
 20
0.0
 30
0.0
  3
*X1111
  1

  4
*X11
  0
LINE
  5
276
330
273
100
AcDbEntity
  8
LC-003-005-----0
 62
     7
370
    25
100
AcDbLine
 10
356.375005
 20
511.938497
 30
0.0
 11
358.206751
 21
513.770243
 31
0.0
  0
LINE
  5
277
330
273
100
AcDbEntity
  8
LC-003-005-----0
 62
     7
370
    25
100
AcDbLine
 10
355.159158
 20
512.136864
 30
0.0
 11
358.053928
 21
515.031634
 31
0.0
  0
LINE
  5
278
330
273
100
AcDbEntity
  8
LC-003-005-----0
 62
     7
370
    25
100
AcDbLine
 10
355.159158
 20
513.551077
 30
0.0
 11
357.410142
 21
515.802061
 31
0.0
  0
LINE
  5
279
330
273
100
AcDbEntity
  8
LC-003-005-----0
 62
     7
370
    25
100
AcDbLine
 10
355.159158
 20
514.965291
 30
0.0
 11
356.409203
 21
516.215335
 31
0.0
  0
ENDBLK
  5
275
330
273
100
AcDbEntity
  8
0
100
AcDbBlockEnd
  0
BLOCK
  5
27C
330
27B
100
AcDbEntity
  8
0
100
AcDbBlockBegin
  2
*X1212
 70
     1
 71
     0
 10
0.0
 20
0.0
 30
0.0
  3
*X1212
  1

  4
*X12
  0
LINE
  5
27E
330
27B
100
AcDbEntity
  8
LC-003-005-----0
 62
     7
370
    25
100
AcDbLine
 10
355.12768
 20
512.105385
 30
0.0
 11
355.159158
 21
512.136864
 31
0.0
  0
LINE
  5
27F
330
27B
100
AcDbEntity
  8
LC-003-005-----0
 62
     7
370
    25
100
AcDbLine
 10
354.357253
 20
512.749172
 30
0.0
 11
355.159158
 21
513.551077
 31
0.0
  0
LINE
  5
280
330
27B
100
AcDbEntity
  8
LC-003-005-----0
 62
     7
370
    25
100
AcDbLine
 10
353.943978
 20
513.750111
 30
0.0
 11
355.159158
 21
514.965291
 31
0.0
  0
ENDBLK
  5
27D
330
27B
100
AcDbEntity
  8
0
100
AcDbBlockEnd
  0
BLOCK
  5
285
330
284
100
AcDbEntity
  8
0
100
AcDbBlockBegin
  2
*X1313
 70
     1
 71
     0
 10
0.0
 20
0.0
 30
0.0
  3
*X1313
  1

  4
*X13
  0
LINE
  5
287
330
284
100
AcDbEntity
  8
LC-003-005-----0
 62
     7
370
    25
100
AcDbLine
 10
354.365458
 20
480.020544
 30
0.0
 11
357.365458
 21
477.020544
 31
0.0
  0
LINE
  5
288
330
284
100
AcDbEntity
  8
LC-003-005-----0
 62
     7
370
    25
100
AcDbLine
 10
354.365458
 20
482.848971
 30
0.0
 11
357.365458
 21
479.848971
 31
0.0
  0
LINE
  5
289
330
284
100
AcDbEntity
  8
LC-003-005-----0
 62
     7
370
    25
100
AcDbLine
 10
354.365458
 20
485.677398
 30
0.0
 11
357.365458
 21
482.677398
 31
0.0
  0
LINE
  5
28A
330
284
100
AcDbEntity
  8
LC-003-005-----0
 62
     7
370
    25
100
AcDbLine
 10
354.365458
 20
488.505825
 30
0.0
 11
357.365458
 21
485.505825
 31
0.0
  0
LINE
  5
28B
330
284
100
AcDbEntity
  8
LC-003-005-----0
 62
     7
370
    25
100
AcDbLine
 10
354.365458
 20
491.334252
 30
0.0
 11
357.365458
 21
488.334252
 31
0.0
  0
LINE
  5
28C
330
284
100
AcDbEntity
  8
LC-003-005-----0
 62
     7
370
    25
100
AcDbLine
 10
354.365458
 20
494.162679
 30
0.0
 11
357.365458
 21
491.162679
 31
0.0
  0
LINE
  5
28D
330
284
100
AcDbEntity
  8
LC-003-005-----0
 62
     7
370
    25
100
AcDbLine
 10
354.365458
 20
496.991106
 30
0.0
 11
357.365458
 21
493.991106
 31
0.0
  0
LINE
  5
28E
330
284
100
AcDbEntity
  8
LC-003-005-----0
 62
     7
370
    25
100
AcDbLine
 10
354.365458
 20
499.819533
 30
0.0
 11
357.365458
 21
496.819533
 31
0.0
  0
LINE
  5
28F
330
284
100
AcDbEntity
  8
LC-003-005-----0
 62
     7
370
    25
100
AcDbLine
 10
354.365458
 20
502.647961
 30
0.0
 11
357.365458
 21
499.647961
 31
0.0
  0
LINE
  5
290
330
284
100
AcDbEntity
  8
LC-003-005-----0
 62
     7
370
    25
100
AcDbLine
 10
354.365458
 20
505.476388
 30
0.0
 11
357.365458
 21
502.476388
 31
0.0
  0
LINE
  5
291
330
284
100
AcDbEntity
  8
LC-003-005-----0
 62
     7
370
    25
100
AcDbLine
 10
343.809944
 20
518.860329
 30
0.0
 11
344.102847
 21
518.567426
 31
0.0
  0
LINE
  5
292
330
284
100
AcDbEntity
  8
LC-003-005-----0
 62
     7
370
    25
100
AcDbLine
 10
353.265458
 20
509.404815
 30
0.0
 11
357.365458
 21
505.304815
 31
0.0
  0
LINE
  5
293
330
284
100
AcDbEntity
  8
LC-003-005-----0
 62
     7
370
    25
100
AcDbLine
 10
345.685642
 20
519.813058
 30
0.0
 11
350.794978
 21
514.703722
 31
0.0
  0
LINE
  5
294
330
284
100
AcDbEntity
  8
LC-003-005-----0
 62
     7
370
    25
100
AcDbLine
 10
353.265458
 20
512.233242
 30
0.0
 11
355.165458
 21
510.333242
 31
0.0
  0
LINE
  5
295
330
284
100
AcDbEntity
  8
LC-003-005-----0
 62
     7
370
    25
100
AcDbLine
 10
357.268629
 20
508.230071
 30
0.0
 11
357.365458
 21
508.133242
 31
0.0
  0
LINE
  5
296
330
284
100
AcDbEntity
  8
LC-003-005-----0
 62
     7
370
    25
100
AcDbLine
 10
348.78525
 20
519.541877
 30
0.0
 11
355.165458
 21
513.161669
 31
0.0
  0
LINE
  5
297
330
284
100
AcDbEntity
  8
LC-003-005-----0
 62
     7
370
    25
100
AcDbLine
 10
351.884858
 20
519.270697
 30
0.0
 11
355.165458
 21
515.990096
 31
0.0
  0
LINE
  5
298
330
284
100
AcDbEntity
  8
LC-003-005-----0
 62
     7
370
    25
100
AcDbLine
 10
461.365458
 20
477.672347
 30
0.0
 11
462.107734
 21
476.930071
 31
0.0
  0
LINE
  5
299
330
284
100
AcDbEntity
  8
LC-003-005-----0
 62
     7
370
    25
100
AcDbLine
 10
461.365458
 20
480.500774
 30
0.0
 11
464.365458
 21
477.500774
 31
0.0
  0
LINE
  5
29A
330
284
100
AcDbEntity
  8
LC-003-005-----0
 62
     7
370
    25
100
AcDbLine
 10
461.365458
 20
483.329201
 30
0.0
 11
464.365458
 21
480.329201
 31
0.0
  0
LINE
  5
29B
330
284
100
AcDbEntity
  8
LC-003-005-----0
 62
     7
370
    25
100
AcDbLine
 10
461.365458
 20
486.157629
 30
0.0
 11
464.365458
 21
483.157629
 31
0.0
  0
LINE
  5
29C
330
284
100
AcDbEntity
  8
LC-003-005-----0
 62
     7
370
    25
100
AcDbLine
 10
461.365458
 20
488.986056
 30
0.0
 11
464.365458
 21
485.986056
 31
0.0
  0
LINE
  5
29D
330
284
100
AcDbEntity
  8
LC-003-005-----0
 62
     7
370
    25
100
AcDbLine
 10
461.365458
 20
491.814483
 30
0.0
 11
464.365458
 21
488.814483
 31
0.0
  0
LINE
  5
29E
330
284
100
AcDbEntity
  8
LC-003-005-----0
 62
     7
370
    25
100
AcDbLine
 10
461.365458
 20
494.64291
 30
0.0
 11
464.365458
 21
491.64291
 31
0.0
  0
LINE
  5
29F
330
284
100
AcDbEntity
  8
LC-003-005-----0
 62
     7
370
    25
100
AcDbLine
 10
461.365458
 20
497.471337
 30
0.0
 11
464.365458
 21
494.471337
 31
0.0
  0
LINE
  5
2A0
330
284
100
AcDbEntity
  8
LC-003-005-----0
 62
     7
370
    25
100
AcDbLine
 10
461.365458
 20
500.299764
 30
0.0
 11
464.365458
 21
497.299764
 31
0.0
  0
LINE
  5
2A1
330
284
100
AcDbEntity
  8
LC-003-005-----0
 62
     7
370
    25
100
AcDbLine
 10
461.365458
 20
503.128191
 30
0.0
 11
464.365458
 21
500.128191
 31
0.0
  0
LINE
  5
2A2
330
284
100
AcDbEntity
  8
LC-003-005-----0
 62
     7
370
    25
100
AcDbLine
 10
461.365458
 20
505.956618
 30
0.0
 11
464.365458
 21
502.956618
 31
0.0
  0
LINE
  5
2A3
330
284
100
AcDbEntity
  8
LC-003-005-----0
 62
     7
370
    25
100
AcDbLine
 10
461.920433
 20
508.230071
 30
0.0
 11
464.365458
 21
505.785046
 31
0.0
  0
LINE
  5
2A4
330
284
100
AcDbEntity
  8
LC-003-005-----0
 62
     7
370
    25
100
AcDbLine
 10
463.565458
 20
509.413473
 30
0.0
 11
465.457159
 21
507.521772
 31
0.0
  0
LINE
  5
2A5
330
284
100
AcDbEntity
  8
LC-003-005-----0
 62
     7
370
    25
100
AcDbLine
 10
463.565458
 20
512.2419
 30
0.0
 11
465.465458
 21
510.3419
 31
0.0
  0
LINE
  5
2A6
330
284
100
AcDbEntity
  8
LC-003-005-----0
 62
     7
370
    25
100
AcDbLine
 10
463.565458
 20
515.070327
 30
0.0
 11
465.465458
 21
513.170327
 31
0.0
  0
LINE
  5
2A7
330
284
100
AcDbEntity
  8
LC-003-005-----0
 62
     7
370
    25
100
AcDbLine
 10
463.565458
 20
517.898754
 30
0.0
 11
467.190734
 21
514.273478
 31
0.0
  0
LINE
  5
2A8
330
284
100
AcDbEntity
  8
LC-003-005-----0
 62
     7
370
    25
100
AcDbLine
 10
465.168693
 20
519.123946
 30
0.0
 11
468.983885
 21
515.308754
 31
0.0
  0
LINE
  5
2A9
330
284
100
AcDbEntity
  8
LC-003-005-----0
 62
     7
370
    25
100
AcDbLine
 10
467.769573
 20
519.351494
 30
0.0
 11
470.777036
 21
516.34403
 31
0.0
  0
LINE
  5
2AA
330
284
100
AcDbEntity
  8
LC-003-005-----0
 62
     7
370
    25
100
AcDbLine
 10
470.370452
 20
519.579041
 30
0.0
 11
472.570187
 21
517.379307
 31
0.0
  0
LINE
  5
2AB
330
284
100
AcDbEntity
  8
LC-003-005-----0
 62
     7
370
    25
100
AcDbLine
 10
472.971332
 20
519.806589
 30
0.0
 11
474.363338
 21
518.414583
 31
0.0
  0
ENDBLK
  5
286
330
284
100
AcDbEntity
  8
0
100
AcDbBlockEnd
  0
BLOCK
  5
2AF
330
2AE
100
AcDbEntity
  8
0
100
AcDbBlockBegin
  2
*X1414
 70
     1
 71
     0
 10
0.0
 20
0.0
 30
0.0
  3
*X1414
  1

  4
*X14
  0
LINE
  5
2B1
330
2AE
100
AcDbEntity
  8
LC-003-005-----0
 62
     7
370
    25
100
AcDbLine
 10
470.495762
 20
514.336382
 30
0.0
 11
471.605187
 21
515.445808
 31
0.0
  0
LINE
  5
2B2
330
2AE
100
AcDbEntity
  8
LC-003-005-----0
 62
     7
370
    25
100
AcDbLine
 10
469.459856
 20
514.71469
 30
0.0
 11
471.22688
 21
516.481714
 31
0.0
  0
ENDBLK
  5
2B0
330
2AE
100
AcDbEntity
  8
0
100
AcDbBlockEnd
  0
BLOCK
  5
2B6
330
2B5
100
AcDbEntity
  8
0
100
AcDbBlockBegin
  2
*X1515
 70
     1
 71
     0
 10
0.0
 20
0.0
 30
0.0
  3
*X1515
  1

  4
*X15
  0
LINE
  5
2B8
330
2B5
100
AcDbEntity
  8
LC-003-005-----0
 62
     7
370
    25
100
AcDbLine
 10
462.441022
 20
511.938497
 30
0.0
 11
463.565458
 21
513.062933
 31
0.0
  0
LINE
  5
2B9
330
2B5
100
AcDbEntity
  8
LC-003-005-----0
 62
     7
370
    25
100
AcDbLine
 10
461.362885
 20
512.274574
 30
0.0
 11
463.565458
 21
514.477146
 31
0.0
  0
LINE
  5
2BA
330
2B5
100
AcDbEntity
  8
LC-003-005-----0
 62
     7
370
    25
100
AcDbLine
 10
460.699225
 20
513.025127
 30
0.0
 11
463.565458
 21
515.89136
 31
0.0
  0
LINE
  5
2BB
330
2B5
100
AcDbEntity
  8
LC-003-005-----0
 62
     7
370
    25
100
AcDbLine
 10
460.517866
 20
514.257981
 30
0.0
 11
462.490307
 21
516.230422
 31
0.0
  0
ENDBLK
  5
2B7
330
2B5
100
AcDbEntity
  8
0
100
AcDbBlockEnd
  0
BLOCK
  5
2BE
330
2BD
100
AcDbEntity
  8
0
100
AcDbBlockBegin
  2
*X1616
 70
     1
 71
     0
 10
0.0
 20
0.0
 30
0.0
  3
*X1616
  1

  4
*X16
  0
LINE
  5
2C0
330
2BD
100
AcDbEntity
  8
LC-003-005-----0
 62
     7
370
    25
100
AcDbLine
 10
463.565458
 20
513.062933
 30
0.0
 11
464.789871
 21
514.287346
 31
0.0
  0
LINE
  5
2C1
330
2BD
100
AcDbEntity
  8
LC-003-005-----0
 62
     7
370
    25
100
AcDbLine
 10
463.565458
 20
514.477146
 30
0.0
 11
464.402566
 21
515.314255
 31
0.0
  0
LINE
  5
2C2
330
2BD
100
AcDbEntity
  8
LC-003-005-----0
 62
     7
370
    25
100
AcDbLine
 10
463.565458
 20
515.89136
 30
0.0
 11
463.652013
 21
515.977915
 31
0.0
  0
ENDBLK
  5
2BF
330
2BD
100
AcDbEntity
  8
0
100
AcDbBlockEnd
  0
BLOCK
  5
2E1
330
2E0
100
AcDbEntity
  8
0
100
AcDbBlockBegin
  2
*X1717
 70
     1
 71
     0
 10
0.0
 20
0.0
 30
0.0
  3
*X1717
  1

  4
*X17
  0
LINE
  5
2E3
330
2E0
100
AcDbEntity
  8
LC-003-005-----0
 62
     7
370
    25
100
AcDbLine
 10
463.864231
 20
468.106872
 30
0.0
 11
466.362642
 21
470.605282
 31
0.0
  0
LINE
  5
2E4
330
2E0
100
AcDbEntity
  8
LC-003-005-----0
 62
     7
370
    25
100
AcDbLine
 10
463.112308
 20
471.59759
 30
0.0
 11
466.362642
 21
474.847923
 31
0.0
  0
LINE
  5
2E5
330
2E0
100
AcDbEntity
  8
LC-003-005-----0
 62
     7
370
    25
100
AcDbLine
 10
463.112308
 20
475.84023
 30
0.0
 11
466.362642
 21
479.090564
 31
0.0
  0
LINE
  5
2E6
330
2E0
100
AcDbEntity
  8
LC-003-005-----0
 62
     7
370
    25
100
AcDbLine
 10
463.112308
 20
480.082871
 30
0.0
 11
466.362642
 21
483.333204
 31
0.0
  0
LINE
  5
2E7
330
2E0
100
AcDbEntity
  8
LC-003-005-----0
 62
     7
370
    25
100
AcDbLine
 10
463.112308
 20
484.325512
 30
0.0
 11
466.362642
 21
487.575845
 31
0.0
  0
LINE
  5
2E8
330
2E0
100
AcDbEntity
  8
LC-003-005-----0
 62
     7
370
    25
100
AcDbLine
 10
464.612308
 20
490.068152
 30
0.0
 11
466.362642
 21
491.818486
 31
0.0
  0
LINE
  5
2E9
330
2E0
100
AcDbEntity
  8
LC-003-005-----0
 62
     7
370
    25
100
AcDbLine
 10
467.102625
 20
492.558469
 30
0.0
 11
470.102012
 21
495.557856
 31
0.0
  0
LINE
  5
2EA
330
2E0
100
AcDbEntity
  8
LC-003-005-----0
 62
     7
370
    25
100
AcDbLine
 10
464.612308
 20
494.310793
 30
0.0
 11
465.859371
 21
495.557856
 31
0.0
  0
ENDBLK
  5
2E2
330
2E0
100
AcDbEntity
  8
0
100
AcDbBlockEnd
  0
BLOCK
  5
2ED
330
2EC
100
AcDbEntity
  8
0
100
AcDbBlockBegin
  2
*X1818
 70
     1
 71
     0
 10
0.0
 20
0.0
 30
0.0
  3
*X1818
  1

  4
*X18
  0
LINE
  5
2EF
330
2EC
100
AcDbEntity
  8
LC-003-005-----0
 62
     7
370
    25
100
AcDbLine
 10
353.055513
 20
467.606812
 30
0.0
 11
355.612308
 21
470.163607
 31
0.0
  0
LINE
  5
2F0
330
2EC
100
AcDbEntity
  8
LC-003-005-----0
 62
     7
370
    25
100
AcDbLine
 10
352.361975
 20
471.155914
 30
0.0
 11
355.612308
 21
474.406247
 31
0.0
  0
LINE
  5
2F1
330
2EC
100
AcDbEntity
  8
LC-003-005-----0
 62
     7
370
    25
100
AcDbLine
 10
352.361975
 20
475.398555
 30
0.0
 11
355.612308
 21
478.648888
 31
0.0
  0
LINE
  5
2F2
330
2EC
100
AcDbEntity
  8
LC-003-005-----0
 62
     7
370
    25
100
AcDbLine
 10
352.361975
 20
479.641195
 30
0.0
 11
355.612308
 21
482.891529
 31
0.0
  0
LINE
  5
2F3
330
2EC
100
AcDbEntity
  8
LC-003-005-----0
 62
     7
370
    25
100
AcDbLine
 10
352.361975
 20
483.883836
 30
0.0
 11
355.612308
 21
487.13417
 31
0.0
  0
LINE
  5
2F4
330
2EC
100
AcDbEntity
  8
LC-003-005-----0
 62
     7
370
    25
100
AcDbLine
 10
352.361975
 20
488.126477
 30
0.0
 11
354.112308
 21
489.87681
 31
0.0
  0
LINE
  5
2F5
330
2EC
100
AcDbEntity
  8
LC-003-005-----0
 62
     7
370
    25
100
AcDbLine
 10
352.361975
 20
492.369117
 30
0.0
 11
354.112308
 21
494.119451
 31
0.0
  0
LINE
  5
2F6
330
2EC
100
AcDbEntity
  8
LC-003-005-----0
 62
     7
370
    25
100
AcDbLine
 10
348.347017
 20
492.596801
 30
0.0
 11
351.308072
 21
495.557856
 31
0.0
  0
ENDBLK
  5
2EE
330
2EC
100
AcDbEntity
  8
0
100
AcDbBlockEnd
  0
BLOCK
  5
332
330
331
100
AcDbEntity
  8
0
100
AcDbBlockBegin
  2
*X1919
 70
     1
 71
     0
 10
0.0
 20
0.0
 30
0.0
  3
*X1919
  1

  4
*X19
  0
LINE
  5
334
330
331
100
AcDbEntity
  8
LC-003-005-----0
  6
DASHED
 62
     7
370
    25
100
AcDbLine
 10
473.362412
 20
493.959665
 30
0.0
 11
470.066684
 21
497.255393
 31
0.0
  0
LINE
  5
335
330
331
100
AcDbEntity
  8
LC-003-005-----0
  6
DASHED
 62
     7
370
    25
100
AcDbLine
 10
468.493589
 20
498.828488
 30
0.0
 11
468.314461
 21
499.007616
 31
0.0
  0
LINE
  5
336
330
331
100
AcDbEntity
  8
LC-003-005-----0
  6
DASHED
 62
     7
370
    25
100
AcDbLine
 10
472.927538
 20
491.566112
 30
0.0
 11
471.098837
 21
493.394813
 31
0.0
  0
LINE
  5
337
330
331
100
AcDbEntity
  8
LC-003-005-----0
  6
DASHED
 62
     7
370
    25
100
AcDbLine
 10
468.935794
 20
495.557856
 30
0.0
 11
466.947603
 21
497.546046
 31
0.0
  0
LINE
  5
338
330
331
100
AcDbEntity
  8
LC-003-005-----0
 62
     7
370
    25
100
AcDbLine
 10
467.362625
 20
491.47417
 30
0.0
 11
466.362625
 21
492.47417
 31
0.0
  0
LINE
  5
339
330
331
100
AcDbEntity
  8
LC-003-005-----0
 62
     7
370
    25
100
AcDbLine
 10
467.362625
 20
488.645743
 30
0.0
 11
466.362625
 21
489.645743
 31
0.0
  0
LINE
  5
33A
330
331
100
AcDbEntity
  8
LC-003-005-----0
  6
DASHED
 62
     7
370
    25
100
AcDbLine
 10
471.138414
 20
479.213099
 30
0.0
 11
470.296017
 21
480.055497
 31
0.0
  0
LINE
  5
33B
330
331
100
AcDbEntity
  8
LC-003-005-----0
  6
DASHED
 62
     7
370
    25
100
AcDbLine
 10
467.362625
 20
482.988889
 30
0.0
 11
466.362625
 21
483.988889
 31
0.0
  0
LINE
  5
33C
330
331
100
AcDbEntity
  8
LC-003-005-----0
  6
DASHED
 62
     7
370
    25
100
AcDbLine
 10
468.758238
 20
478.764849
 30
0.0
 11
466.362625
 21
481.160462
 31
0.0
  0
LINE
  5
33D
330
331
100
AcDbEntity
  8
LC-003-005-----0
 62
     7
370
    25
100
AcDbLine
 10
470.325103
 20
471.541129
 30
0.0
 11
469.310736
 21
472.555497
 31
0.0
  0
LINE
  5
33E
330
331
100
AcDbEntity
  8
LC-003-005-----0
 62
     7
370
    25
100
AcDbLine
 10
467.362625
 20
474.503608
 30
0.0
 11
466.362625
 21
475.503608
 31
0.0
  0
LINE
  5
33F
330
331
100
AcDbEntity
  8
LC-003-005-----0
 62
     7
370
    25
100
AcDbLine
 10
467.948102
 20
471.089703
 30
0.0
 11
466.362625
 21
472.67518
 31
0.0
  0
LINE
  5
340
330
331
100
AcDbEntity
  8
LC-003-005-----0
  6
DASHED
 62
     7
370
    25
100
AcDbLine
 10
465.821811
 20
467.55914
 30
0.0
 11
465.745579
 21
467.635372
 31
0.0
  0
LINE
  5
341
330
331
100
AcDbEntity
  8
LC-003-005-----0
  6
DASHED
 62
     7
370
    25
100
AcDbLine
 10
352.362325
 20
496.165813
 30
0.0
 11
350.03336
 21
498.494778
 31
0.0
  0
LINE
  5
342
330
331
100
AcDbEntity
  8
LC-003-005-----0
  6
DASHED
 62
     7
370
    25
100
AcDbLine
 10
350.141855
 20
495.557856
 30
0.0
 11
346.939616
 21
498.760094
 31
0.0
  0
LINE
  5
343
330
331
100
AcDbEntity
  8
LC-003-005-----0
 62
     7
370
    25
100
AcDbLine
 10
352.361991
 20
487.680865
 30
0.0
 11
351.361991
 21
488.680865
 31
0.0
  0
LINE
  5
344
330
331
100
AcDbEntity
  8
LC-003-005-----0
 62
     7
370
    25
100
AcDbLine
 10
348.481003
 20
491.561853
 30
0.0
 11
345.362204
 21
494.680652
 31
0.0
  0
LINE
  5
345
330
331
100
AcDbEntity
  8
LC-003-005-----0
 62
     7
370
    25
100
AcDbLine
 10
352.361991
 20
484.852438
 30
0.0
 11
351.361991
 21
485.852438
 31
0.0
  0
LINE
  5
346
330
331
100
AcDbEntity
  8
LC-003-005-----0
  6
DASHED
 62
     7
370
    25
100
AcDbLine
 10
352.361991
 20
479.195583
 30
0.0
 11
351.27858
 21
480.278994
 31
0.0
  0
LINE
  5
347
330
331
100
AcDbEntity
  8
LC-003-005-----0
  6
DASHED
 62
     7
370
    25
100
AcDbLine
 10
352.361991
 20
476.367156
 30
0.0
 11
351.361991
 21
477.367156
 31
0.0
  0
LINE
  5
348
330
331
100
AcDbEntity
  8
LC-003-005-----0
  6
DASHED
 62
     7
370
    25
100
AcDbLine
 10
349.963854
 20
478.765294
 30
0.0
 11
348.673651
 21
480.055497
 31
0.0
  0
LINE
  5
349
330
331
100
AcDbEntity
  8
LC-003-005-----0
 62
     7
370
    25
100
AcDbLine
 10
352.361991
 20
470.710302
 30
0.0
 11
350.516796
 21
472.555497
 31
0.0
  0
LINE
  5
34A
330
331
100
AcDbEntity
  8
LC-003-005-----0
 62
     7
370
    25
100
AcDbLine
 10
352.684726
 20
467.55914
 30
0.0
 11
351.361991
 21
468.881875
 31
0.0
  0
LINE
  5
34B
330
331
100
AcDbEntity
  8
LC-003-005-----0
 62
     7
370
    25
100
AcDbLine
 10
348.767649
 20
471.476217
 30
0.0
 11
347.702453
 21
472.541413
 31
0.0
  0
ENDBLK
  5
333
330
331
100
AcDbEntity
  8
0
100
AcDbBlockEnd
  0
BLOCK
  5
35F
330
35E
100
AcDbEntity
  8
0
100
AcDbBlockBegin
  2
*X2020
 70
     1
 71
     0
 10
0.0
 20
0.0
 30
0.0
  3
*X2020
  1

  4
*X20
  0
LINE
  5
361
330
35E
100
AcDbEntity
  8
LC-003-005-----0
 62
     7
370
    25
100
AcDbLine
 10
543.953927
 20
419.503133
 30
0.0
 11
544.587563
 21
420.136769
 31
0.0
  0
LINE
  5
362
330
35E
100
AcDbEntity
  8
LC-003-005-----0
 62
     7
370
    25
100
AcDbLine
 10
542.128404
 20
419.091824
 30
0.0
 11
544.998872
 21
421.962292
 31
0.0
  0
LINE
  5
363
330
35E
100
AcDbEntity
  8
LC-003-005-----0
 62
     7
370
    25
100
AcDbLine
 10
541.118884
 20
419.496517
 30
0.0
 11
544.594179
 21
422.971813
 31
0.0
  0
LINE
  5
364
330
35E
100
AcDbEntity
  8
LC-003-005-----0
 62
     7
370
    25
100
AcDbLine
 10
540.423463
 20
420.21531
 30
0.0
 11
543.875386
 21
423.667233
 31
0.0
  0
LINE
  5
365
330
35E
100
AcDbEntity
  8
LC-003-005-----0
 62
     7
370
    25
100
AcDbLine
 10
540.05003
 20
421.256091
 30
0.0
 11
542.834605
 21
424.040666
 31
0.0
  0
ENDBLK
  5
360
330
35E
100
AcDbEntity
  8
0
100
AcDbBlockEnd
  0
BLOCK
  5
369
330
368
100
AcDbEntity
  8
0
100
AcDbBlockBegin
  2
*X2121
 70
     1
 71
     0
 10
0.0
 20
0.0
 30
0.0
  3
*X2121
  1

  4
*X21
  0
LINE
  5
36B
330
368
100
AcDbEntity
  8
LC-003-005-----0
 62
     7
370
    25
100
AcDbLine
 10
542.738585
 20
486.170042
 30
0.0
 11
545.023016
 21
488.454474
 31
0.0
  0
LINE
  5
36C
330
368
100
AcDbEntity
  8
LC-003-005-----0
 62
     7
370
    25
100
AcDbLine
 10
541.526661
 20
486.372333
 30
0.0
 11
544.820726
 21
489.666397
 31
0.0
  0
LINE
  5
36D
330
368
100
AcDbEntity
  8
LC-003-005-----0
 62
     7
370
    25
100
AcDbLine
 10
540.700016
 20
486.9599
 30
0.0
 11
544.233158
 21
490.493043
 31
0.0
  0
LINE
  5
36E
330
368
100
AcDbEntity
  8
LC-003-005-----0
 62
     7
370
    25
100
AcDbLine
 10
540.16925
 20
487.843348
 30
0.0
 11
543.34971
 21
491.023808
 31
0.0
  0
LINE
  5
36F
330
368
100
AcDbEntity
  8
LC-003-005-----0
 62
     7
370
    25
100
AcDbLine
 10
540.084443
 20
489.172754
 30
0.0
 11
542.020304
 21
491.108616
 31
0.0
  0
ENDBLK
  5
36A
330
368
100
AcDbEntity
  8
0
100
AcDbBlockEnd
  0
BLOCK
  5
381
330
376
100
AcDbEntity
  8
0
100
AcDbBlockBegin
  2
*D22
 70
     1
 71
     0
 10
0.0
 20
0.0
 30
0.0
  3
*D22
  1

  0
LINE
  5
377
330
376
100
AcDbEntity
  8
LC-004-003-----0
 62
     2
370
    -2
100
AcDbLine
 10
379.860269
 20
444.237108
 30
0.0
 11
254.831751
 21
444.237108
 31
0.0
  0
LINE
  5
378
330
376
100
AcDbEntity
  8
LC-004-003-----0
 62
     2
370
    -2
100
AcDbLine
 10
366.859158
 20
494.236923
 30
0.0
 11
254.831751
 21
494.236923
 31
0.0
  0
LINE
  5
379
330
376
100
AcDbEntity
  8
LC-004-003-----0
 62
     2
370
    -2
100
AcDbLine
 10
258.431751
 20
522.236923
 30
0.0
 11
258.431751
 21
550.236923
 31
0.0
  0
LINE
  5
37A
330
376
100
AcDbEntity
  8
LC-004-003-----0
 62
     2
370
    -2
100
AcDbLine
 10
258.431751
 20
416.237108
 30
0.0
 11
258.431751
 21
352.06744
 31
0.0
  0
SOLID
  5
37B
330
376
100
AcDbEntity
  8
LC-004-003-----0
 62
     2
100
AcDbTrace
 10
263.098418
 20
416.237108
 30
0.0
 11
253.765085
 21
416.237108
 31
0.0
 12
258.431751
 22
444.237108
 32
0.0
 13
258.431751
 23
444.237108
 33
0.0
  0
SOLID
  5
37C
330
376
100
AcDbEntity
  8
LC-004-003-----0
 62
     2
100
AcDbTrace
 10
253.765085
 20
522.236923
 30
0.0
 11
263.098418
 21
522.236923
 31
0.0
 12
258.431751
 22
494.236923
 32
0.0
 13
258.431751
 23
494.236923
 33
0.0
  0
MTEXT
  5
37D
330
376
100
AcDbEntity
  8
LC-004-003-----0
 62
     2
100
AcDbMText
 10
227.631751
 20
374.989667
 30
0.0
 40
28.0
 41
0.0
 71
     5
 72
     1
  1
\A1;50
  7
LCTX15-400-0-0pDIN-Schrift
 11
6.123031769111886E-17
 21
1.0
 31
0.0
 73
     1
 44
1.0
  0
POINT
  5
37E
330
376
100
AcDbEntity
  8
Defpoints
 62
     0
100
AcDbPoint
 10
379.860269
 20
444.237108
 30
0.0
  0
POINT
  5
37F
330
376
100
AcDbEntity
  8
Defpoints
 62
     0
100
AcDbPoint
 10
366.859158
 20
494.236923
 30
0.0
  0
POINT
  5
380
330
376
100
AcDbEntity
  8
Defpoints
 62
     0
100
AcDbPoint
 10
258.431751
 20
494.236923
 30
0.0
  0
ENDBLK
  5
382
330
376
100
AcDbEntity
  8
0
100
AcDbBlockEnd
  0
BLOCK
  5
3CB
330
3CA
100
AcDbEntity
  8
0
100
AcDbBlockBegin
  2
*X2223
 70
     1
 71
     0
 10
0.0
 20
0.0
 30
0.0
  3
*X2223
  1

  4
*X22
  0
LINE
  5
3CD
330
3CA
100
AcDbEntity
  8
LC-003-005-----0
  6
DASHED
 62
     7
370
    25
100
AcDbLine
 10
545.572314
 20
412.636239
 30
0.0
 11
548.735627
 21
415.799552
 31
0.0
  0
LINE
  5
3CE
330
3CA
100
AcDbEntity
  8
LC-003-005-----0
  6
DASHED
 62
     7
370
    25
100
AcDbLine
 10
543.850805
 20
413.743157
 30
0.0
 11
548.563401
 21
418.455753
 31
0.0
  0
ENDBLK
  5
3CC
330
3CA
100
AcDbEntity
  8
0
100
AcDbBlockEnd
  0
BLOCK
  5
3D2
330
3D1
100
AcDbEntity
  8
0
100
AcDbBlockBegin
  2
*X2324
 70
     1
 71
     0
 10
0.0
 20
0.0
 30
0.0
  3
*X2324
  1

  4
*X23
  0
LINE
  5
3D4
330
3D1
100
AcDbEntity
  8
LC-003-005-----0
 62
     7
370
    25
100
AcDbLine
 10
661.483438
 20
415.410278
 30
0.0
 11
663.483438
 21
417.410278
 31
0.0
  0
LINE
  5
3D5
330
3D1
100
AcDbEntity
  8
LC-003-005-----0
 62
     7
370
    25
100
AcDbLine
 10
658.65501
 20
415.410278
 30
0.0
 11
660.65501
 21
417.410278
 31
0.0
  0
LINE
  5
3D6
330
3D1
100
AcDbEntity
  8
LC-003-005-----0
 62
     7
370
    25
100
AcDbLine
 10
655.826583
 20
415.410278
 30
0.0
 11
657.826583
 21
417.410278
 31
0.0
  0
LINE
  5
3D7
330
3D1
100
AcDbEntity
  8
LC-003-005-----0
 62
     7
370
    25
100
AcDbLine
 10
652.998156
 20
415.410278
 30
0.0
 11
654.998156
 21
417.410278
 31
0.0
  0
LINE
  5
3D8
330
3D1
100
AcDbEntity
  8
LC-003-005-----0
 62
     7
370
    25
100
AcDbLine
 10
650.169729
 20
415.410278
 30
0.0
 11
652.169729
 21
417.410278
 31
0.0
  0
LINE
  5
3D9
330
3D1
100
AcDbEntity
  8
LC-003-005-----0
 62
     7
370
    25
100
AcDbLine
 10
647.341302
 20
415.410278
 30
0.0
 11
649.341302
 21
417.410278
 31
0.0
  0
LINE
  5
3DA
330
3D1
100
AcDbEntity
  8
LC-003-005-----0
 62
     7
370
    25
100
AcDbLine
 10
644.512875
 20
415.410278
 30
0.0
 11
646.512875
 21
417.410278
 31
0.0
  0
LINE
  5
3DB
330
3D1
100
AcDbEntity
  8
LC-003-005-----0
 62
     7
370
    25
100
AcDbLine
 10
641.684448
 20
415.410278
 30
0.0
 11
643.684448
 21
417.410278
 31
0.0
  0
LINE
  5
3DC
330
3D1
100
AcDbEntity
  8
LC-003-005-----0
 62
     7
370
    25
100
AcDbLine
 10
638.856021
 20
415.410278
 30
0.0
 11
640.856021
 21
417.410278
 31
0.0
  0
LINE
  5
3DD
330
3D1
100
AcDbEntity
  8
LC-003-005-----0
 62
     7
370
    25
100
AcDbLine
 10
636.027593
 20
415.410278
 30
0.0
 11
638.027593
 21
417.410278
 31
0.0
  0
LINE
  5
3DE
330
3D1
100
AcDbEntity
  8
LC-003-005-----0
 62
     7
370
    25
100
AcDbLine
 10
633.199166
 20
415.410278
 30
0.0
 11
635.199166
 21
417.410278
 31
0.0
  0
LINE
  5
3DF
330
3D1
100
AcDbEntity
  8
LC-003-005-----0
 62
     7
370
    25
100
AcDbLine
 10
630.370739
 20
415.410278
 30
0.0
 11
632.370739
 21
417.410278
 31
0.0
  0
LINE
  5
3E0
330
3D1
100
AcDbEntity
  8
LC-003-005-----0
 62
     7
370
    25
100
AcDbLine
 10
627.542312
 20
415.410278
 30
0.0
 11
629.542312
 21
417.410278
 31
0.0
  0
LINE
  5
3E1
330
3D1
100
AcDbEntity
  8
LC-003-005-----0
 62
     7
370
    25
100
AcDbLine
 10
624.713885
 20
415.410278
 30
0.0
 11
626.713885
 21
417.410278
 31
0.0
  0
LINE
  5
3E2
330
3D1
100
AcDbEntity
  8
LC-003-005-----0
 62
     7
370
    25
100
AcDbLine
 10
621.885458
 20
415.410278
 30
0.0
 11
623.885458
 21
417.410278
 31
0.0
  0
LINE
  5
3E3
330
3D1
100
AcDbEntity
  8
LC-003-005-----0
 62
     7
370
    25
100
AcDbLine
 10
619.057031
 20
415.410278
 30
0.0
 11
621.057031
 21
417.410278
 31
0.0
  0
LINE
  5
3E4
330
3D1
100
AcDbEntity
  8
LC-003-005-----0
 62
     7
370
    25
100
AcDbLine
 10
616.228604
 20
415.410278
 30
0.0
 11
618.228604
 21
417.410278
 31
0.0
  0
LINE
  5
3E5
330
3D1
100
AcDbEntity
  8
LC-003-005-----0
 62
     7
370
    25
100
AcDbLine
 10
613.400176
 20
415.410278
 30
0.0
 11
615.400176
 21
417.410278
 31
0.0
  0
LINE
  5
3E6
330
3D1
100
AcDbEntity
  8
LC-003-005-----0
 62
     7
370
    25
100
AcDbLine
 10
610.571749
 20
415.410278
 30
0.0
 11
612.571749
 21
417.410278
 31
0.0
  0
LINE
  5
3E7
330
3D1
100
AcDbEntity
  8
LC-003-005-----0
 62
     7
370
    25
100
AcDbLine
 10
607.743322
 20
415.410278
 30
0.0
 11
609.743322
 21
417.410278
 31
0.0
  0
LINE
  5
3E8
330
3D1
100
AcDbEntity
  8
LC-003-005-----0
 62
     7
370
    25
100
AcDbLine
 10
604.914895
 20
415.410278
 30
0.0
 11
606.914895
 21
417.410278
 31
0.0
  0
LINE
  5
3E9
330
3D1
100
AcDbEntity
  8
LC-003-005-----0
 62
     7
370
    25
100
AcDbLine
 10
602.086468
 20
415.410278
 30
0.0
 11
604.086468
 21
417.410278
 31
0.0
  0
LINE
  5
3EA
330
3D1
100
AcDbEntity
  8
LC-003-005-----0
 62
     7
370
    25
100
AcDbLine
 10
599.258041
 20
415.410278
 30
0.0
 11
601.258041
 21
417.410278
 31
0.0
  0
LINE
  5
3EB
330
3D1
100
AcDbEntity
  8
LC-003-005-----0
 62
     7
370
    25
100
AcDbLine
 10
596.429614
 20
415.410278
 30
0.0
 11
598.429614
 21
417.410278
 31
0.0
  0
LINE
  5
3EC
330
3D1
100
AcDbEntity
  8
LC-003-005-----0
 62
     7
370
    25
100
AcDbLine
 10
593.601187
 20
415.410278
 30
0.0
 11
595.601187
 21
417.410278
 31
0.0
  0
LINE
  5
3ED
330
3D1
100
AcDbEntity
  8
LC-003-005-----0
 62
     7
370
    25
100
AcDbLine
 10
590.772759
 20
415.410278
 30
0.0
 11
592.772759
 21
417.410278
 31
0.0
  0
LINE
  5
3EE
330
3D1
100
AcDbEntity
  8
LC-003-005-----0
 62
     7
370
    25
100
AcDbLine
 10
587.944332
 20
415.410278
 30
0.0
 11
589.944332
 21
417.410278
 31
0.0
  0
LINE
  5
3EF
330
3D1
100
AcDbEntity
  8
LC-003-005-----0
 62
     7
370
    25
100
AcDbLine
 10
585.115905
 20
415.410278
 30
0.0
 11
587.115905
 21
417.410278
 31
0.0
  0
LINE
  5
3F0
330
3D1
100
AcDbEntity
  8
LC-003-005-----0
 62
     7
370
    25
100
AcDbLine
 10
582.287478
 20
415.410278
 30
0.0
 11
584.287478
 21
417.410278
 31
0.0
  0
LINE
  5
3F1
330
3D1
100
AcDbEntity
  8
LC-003-005-----0
 62
     7
370
    25
100
AcDbLine
 10
579.459051
 20
415.410278
 30
0.0
 11
581.459051
 21
417.410278
 31
0.0
  0
LINE
  5
3F2
330
3D1
100
AcDbEntity
  8
LC-003-005-----0
 62
     7
370
    25
100
AcDbLine
 10
576.630624
 20
415.410278
 30
0.0
 11
578.630624
 21
417.410278
 31
0.0
  0
LINE
  5
3F3
330
3D1
100
AcDbEntity
  8
LC-003-005-----0
 62
     7
370
    25
100
AcDbLine
 10
573.802197
 20
415.410278
 30
0.0
 11
575.802197
 21
417.410278
 31
0.0
  0
LINE
  5
3F4
330
3D1
100
AcDbEntity
  8
LC-003-005-----0
 62
     7
370
    25
100
AcDbLine
 10
570.97377
 20
415.410278
 30
0.0
 11
572.97377
 21
417.410278
 31
0.0
  0
LINE
  5
3F5
330
3D1
100
AcDbEntity
  8
LC-003-005-----0
 62
     7
370
    25
100
AcDbLine
 10
568.145342
 20
415.410278
 30
0.0
 11
570.145342
 21
417.410278
 31
0.0
  0
LINE
  5
3F6
330
3D1
100
AcDbEntity
  8
LC-003-005-----0
 62
     7
370
    25
100
AcDbLine
 10
565.316915
 20
415.410278
 30
0.0
 11
567.316915
 21
417.410278
 31
0.0
  0
LINE
  5
3F7
330
3D1
100
AcDbEntity
  8
LC-003-005-----0
 62
     7
370
    25
100
AcDbLine
 10
562.488488
 20
415.410278
 30
0.0
 11
564.488488
 21
417.410278
 31
0.0
  0
LINE
  5
3F8
330
3D1
100
AcDbEntity
  8
LC-003-005-----0
 62
     7
370
    25
100
AcDbLine
 10
559.660061
 20
415.410278
 30
0.0
 11
561.660061
 21
417.410278
 31
0.0
  0
LINE
  5
3F9
330
3D1
100
AcDbEntity
  8
LC-003-005-----0
 62
     7
370
    25
100
AcDbLine
 10
556.831634
 20
415.410278
 30
0.0
 11
558.831634
 21
417.410278
 31
0.0
  0
LINE
  5
3FA
330
3D1
100
AcDbEntity
  8
LC-003-005-----0
 62
     7
370
    25
100
AcDbLine
 10
549.453207
 20
410.860278
 30
0.0
 11
552.889375
 21
414.296446
 31
0.0
  0
LINE
  5
3FB
330
3D1
100
AcDbEntity
  8
LC-003-005-----0
 62
     7
370
    25
100
AcDbLine
 10
554.003207
 20
415.410278
 30
0.0
 11
556.003207
 21
417.410278
 31
0.0
  0
LINE
  5
3FC
330
3D1
100
AcDbEntity
  8
LC-003-005-----0
 62
     7
370
    25
100
AcDbLine
 10
546.62478
 20
410.860278
 30
0.0
 11
548.62478
 21
412.860278
 31
0.0
  0
LINE
  5
3FD
330
3D1
100
AcDbEntity
  8
LC-003-005-----0
 62
     7
370
    25
100
AcDbLine
 10
550.889375
 20
415.124873
 30
0.0
 11
553.17478
 21
417.410278
 31
0.0
  0
LINE
  5
3FE
330
3D1
100
AcDbEntity
  8
LC-003-005-----0
 62
     7
370
    25
100
AcDbLine
 10
543.796353
 20
410.860278
 30
0.0
 11
545.796353
 21
412.860278
 31
0.0
  0
LINE
  5
3FF
330
3D1
100
AcDbEntity
  8
LC-003-005-----0
 62
     7
370
    25
100
AcDbLine
 10
541.405918
 20
411.298271
 30
0.0
 11
542.967925
 21
412.860278
 31
0.0
  0
LINE
  5
400
330
3D1
100
AcDbEntity
  8
LC-003-005-----0
 62
     7
370
    25
100
AcDbLine
 10
540.101762
 20
412.822541
 30
0.0
 11
541.565863
 21
414.286643
 31
0.0
  0
LINE
  5
401
330
3D1
100
AcDbEntity
  8
LC-003-005-----0
 62
     7
370
    25
100
AcDbLine
 10
539.066485
 20
414.615692
 30
0.0
 11
540.530587
 21
416.079794
 31
0.0
  0
LINE
  5
402
330
3D1
100
AcDbEntity
  8
LC-003-005-----0
 62
     7
370
    25
100
AcDbLine
 10
536.732644
 20
415.110278
 30
0.0
 11
538.732644
 21
417.110278
 31
0.0
  0
LINE
  5
403
330
3D1
100
AcDbEntity
  8
LC-003-005-----0
 62
     7
370
    25
100
AcDbLine
 10
534.889375
 20
416.095436
 30
0.0
 11
535.904217
 21
417.110278
 31
0.0
  0
ENDBLK
  5
3D3
330
3D1
100
AcDbEntity
  8
0
100
AcDbBlockEnd
  0
BLOCK
  5
407
330
406
100
AcDbEntity
  8
0
100
AcDbBlockBegin
  2
*X2425
 70
     1
 71
     0
 10
0.0
 20
0.0
 30
0.0
  3
*X2425
  1

  4
*X24
  0
LINE
  5
409
330
406
100
AcDbEntity
  8
LC-003-005-----0
 62
     7
370
    25
100
AcDbLine
 10
664.228604
 20
463.410278
 30
0.0
 11
665.089375
 21
464.271049
 31
0.0
  0
LINE
  5
40A
330
406
100
AcDbEntity
  8
LC-003-005-----0
 62
     7
370
    25
100
AcDbLine
 10
661.400176
 20
463.410278
 30
0.0
 11
663.123172
 21
465.133273
 31
0.0
  0
LINE
  5
40B
330
406
100
AcDbEntity
  8
LC-003-005-----0
 62
     7
370
    25
100
AcDbLine
 10
658.571749
 20
463.410278
 30
0.0
 11
660.571749
 21
465.410278
 31
0.0
  0
LINE
  5
40C
330
406
100
AcDbEntity
  8
LC-003-005-----0
 62
     7
370
    25
100
AcDbLine
 10
655.743322
 20
463.410278
 30
0.0
 11
657.743322
 21
465.410278
 31
0.0
  0
LINE
  5
40D
330
406
100
AcDbEntity
  8
LC-003-005-----0
 62
     7
370
    25
100
AcDbLine
 10
652.914895
 20
463.410278
 30
0.0
 11
654.914895
 21
465.410278
 31
0.0
  0
LINE
  5
40E
330
406
100
AcDbEntity
  8
LC-003-005-----0
 62
     7
370
    25
100
AcDbLine
 10
650.086468
 20
463.410278
 30
0.0
 11
652.086468
 21
465.410278
 31
0.0
  0
LINE
  5
40F
330
406
100
AcDbEntity
  8
LC-003-005-----0
 62
     7
370
    25
100
AcDbLine
 10
647.258041
 20
463.410278
 30
0.0
 11
649.258041
 21
465.410278
 31
0.0
  0
LINE
  5
410
330
406
100
AcDbEntity
  8
LC-003-005-----0
 62
     7
370
    25
100
AcDbLine
 10
644.429614
 20
463.410278
 30
0.0
 11
646.429614
 21
465.410278
 31
0.0
  0
LINE
  5
411
330
406
100
AcDbEntity
  8
LC-003-005-----0
 62
     7
370
    25
100
AcDbLine
 10
641.601187
 20
463.410278
 30
0.0
 11
643.601187
 21
465.410278
 31
0.0
  0
LINE
  5
412
330
406
100
AcDbEntity
  8
LC-003-005-----0
 62
     7
370
    25
100
AcDbLine
 10
638.772759
 20
463.410278
 30
0.0
 11
640.772759
 21
465.410278
 31
0.0
  0
LINE
  5
413
330
406
100
AcDbEntity
  8
LC-003-005-----0
 62
     7
370
    25
100
AcDbLine
 10
635.944332
 20
463.410278
 30
0.0
 11
637.944332
 21
465.410278
 31
0.0
  0
LINE
  5
414
330
406
100
AcDbEntity
  8
LC-003-005-----0
 62
     7
370
    25
100
AcDbLine
 10
633.115905
 20
463.410278
 30
0.0
 11
635.115905
 21
465.410278
 31
0.0
  0
LINE
  5
415
330
406
100
AcDbEntity
  8
LC-003-005-----0
 62
     7
370
    25
100
AcDbLine
 10
630.287478
 20
463.410278
 30
0.0
 11
632.287478
 21
465.410278
 31
0.0
  0
LINE
  5
416
330
406
100
AcDbEntity
  8
LC-003-005-----0
 62
     7
370
    25
100
AcDbLine
 10
627.459051
 20
463.410278
 30
0.0
 11
629.459051
 21
465.410278
 31
0.0
  0
LINE
  5
417
330
406
100
AcDbEntity
  8
LC-003-005-----0
 62
     7
370
    25
100
AcDbLine
 10
624.630624
 20
463.410278
 30
0.0
 11
626.630624
 21
465.410278
 31
0.0
  0
LINE
  5
418
330
406
100
AcDbEntity
  8
LC-003-005-----0
 62
     7
370
    25
100
AcDbLine
 10
621.802197
 20
463.410278
 30
0.0
 11
623.802197
 21
465.410278
 31
0.0
  0
LINE
  5
419
330
406
100
AcDbEntity
  8
LC-003-005-----0
 62
     7
370
    25
100
AcDbLine
 10
618.97377
 20
463.410278
 30
0.0
 11
620.97377
 21
465.410278
 31
0.0
  0
LINE
  5
41A
330
406
100
AcDbEntity
  8
LC-003-005-----0
 62
     7
370
    25
100
AcDbLine
 10
616.203145
 20
463.468081
 30
0.0
 11
618.145342
 21
465.410278
 31
0.0
  0
LINE
  5
41B
330
406
100
AcDbEntity
  8
LC-003-005-----0
 62
     7
370
    25
100
AcDbLine
 10
614.788932
 20
464.882294
 30
0.0
 11
616.203145
 21
466.296508
 31
0.0
  0
LINE
  5
41C
330
406
100
AcDbEntity
  8
LC-003-005-----0
 62
     7
370
    25
100
AcDbLine
 10
613.374718
 20
466.296508
 30
0.0
 11
614.788932
 21
467.710721
 31
0.0
  0
LINE
  5
41D
330
406
100
AcDbEntity
  8
LC-003-005-----0
 62
     7
370
    25
100
AcDbLine
 10
611.960505
 20
467.710721
 30
0.0
 11
613.374718
 21
469.124935
 31
0.0
  0
LINE
  5
41E
330
406
100
AcDbEntity
  8
LC-003-005-----0
 62
     7
370
    25
100
AcDbLine
 10
610.546291
 20
469.124935
 30
0.0
 11
611.960505
 21
470.539148
 31
0.0
  0
LINE
  5
41F
330
406
100
AcDbEntity
  8
LC-003-005-----0
 62
     7
370
    25
100
AcDbLine
 10
609.132078
 20
470.539148
 30
0.0
 11
610.546291
 21
471.953362
 31
0.0
  0
LINE
  5
420
330
406
100
AcDbEntity
  8
LC-003-005-----0
 62
     7
370
    25
100
AcDbLine
 10
607.717864
 20
471.953362
 30
0.0
 11
609.132078
 21
473.367576
 31
0.0
  0
LINE
  5
421
330
406
100
AcDbEntity
  8
LC-003-005-----0
 62
     7
370
    25
100
AcDbLine
 10
606.30365
 20
473.367576
 30
0.0
 11
607.717864
 21
474.781789
 31
0.0
  0
LINE
  5
422
330
406
100
AcDbEntity
  8
LC-003-005-----0
 62
     7
370
    25
100
AcDbLine
 10
604.889437
 20
474.781789
 30
0.0
 11
606.30365
 21
476.196003
 31
0.0
  0
LINE
  5
423
330
406
100
AcDbEntity
  8
LC-003-005-----0
 62
     7
370
    25
100
AcDbLine
 10
603.475223
 20
476.196003
 30
0.0
 11
604.889437
 21
477.610216
 31
0.0
  0
LINE
  5
424
330
406
100
AcDbEntity
  8
LC-003-005-----0
 62
     7
370
    25
100
AcDbLine
 10
602.06101
 20
477.610216
 30
0.0
 11
603.475223
 21
479.02443
 31
0.0
  0
LINE
  5
425
330
406
100
AcDbEntity
  8
LC-003-005-----0
 62
     7
370
    25
100
AcDbLine
 10
600.646796
 20
479.02443
 30
0.0
 11
602.06101
 21
480.438643
 31
0.0
  0
LINE
  5
426
330
406
100
AcDbEntity
  8
LC-003-005-----0
 62
     7
370
    25
100
AcDbLine
 10
599.232583
 20
480.438643
 30
0.0
 11
600.646796
 21
481.852857
 31
0.0
  0
LINE
  5
427
330
406
100
AcDbEntity
  8
LC-003-005-----0
 62
     7
370
    25
100
AcDbLine
 10
597.818369
 20
481.852857
 30
0.0
 11
599.232583
 21
483.26707
 31
0.0
  0
LINE
  5
428
330
406
100
AcDbEntity
  8
LC-003-005-----0
 62
     7
370
    25
100
AcDbLine
 10
596.404155
 20
483.26707
 30
0.0
 11
597.818369
 21
484.681284
 31
0.0
  0
LINE
  5
429
330
406
100
AcDbEntity
  8
LC-003-005-----0
 62
     7
370
    25
100
AcDbLine
 10
594.989942
 20
484.681284
 30
0.0
 11
596.404155
 21
486.095498
 31
0.0
  0
LINE
  5
42A
330
406
100
AcDbEntity
  8
LC-003-005-----0
 62
     7
370
    25
100
AcDbLine
 10
593.575728
 20
486.095498
 30
0.0
 11
594.989942
 21
487.509711
 31
0.0
  0
LINE
  5
42B
330
406
100
AcDbEntity
  8
LC-003-005-----0
 62
     7
370
    25
100
AcDbLine
 10
592.161515
 20
487.509711
 30
0.0
 11
593.575728
 21
488.923925
 31
0.0
  0
LINE
  5
42C
330
406
100
AcDbEntity
  8
LC-003-005-----0
 62
     7
370
    25
100
AcDbLine
 10
590.747301
 20
488.923925
 30
0.0
 11
592.161515
 21
490.338138
 31
0.0
  0
LINE
  5
42D
330
406
100
AcDbEntity
  8
LC-003-005-----0
 62
     7
370
    25
100
AcDbLine
 10
589.333088
 20
490.338138
 30
0.0
 11
590.747301
 21
491.752352
 31
0.0
  0
LINE
  5
42E
330
406
100
AcDbEntity
  8
LC-003-005-----0
 62
     7
370
    25
100
AcDbLine
 10
587.918874
 20
491.752352
 30
0.0
 11
589.333088
 21
493.166565
 31
0.0
  0
LINE
  5
42F
330
406
100
AcDbEntity
  8
LC-003-005-----0
 62
     7
370
    25
100
AcDbLine
 10
586.148373
 20
492.810278
 30
0.0
 11
587.918874
 21
494.580779
 31
0.0
  0
LINE
  5
430
330
406
100
AcDbEntity
  8
LC-003-005-----0
 62
     7
370
    25
100
AcDbLine
 10
583.319946
 20
492.810278
 30
0.0
 11
585.319946
 21
494.810278
 31
0.0
  0
LINE
  5
431
330
406
100
AcDbEntity
  8
LC-003-005-----0
 62
     7
370
    25
100
AcDbLine
 10
580.491519
 20
492.810278
 30
0.0
 11
582.491519
 21
494.810278
 31
0.0
  0
LINE
  5
432
330
406
100
AcDbEntity
  8
LC-003-005-----0
 62
     7
370
    25
100
AcDbLine
 10
577.663091
 20
492.810278
 30
0.0
 11
579.663091
 21
494.810278
 31
0.0
  0
LINE
  5
433
330
406
100
AcDbEntity
  8
LC-003-005-----0
 62
     7
370
    25
100
AcDbLine
 10
574.834664
 20
492.810278
 30
0.0
 11
576.834664
 21
494.810278
 31
0.0
  0
LINE
  5
434
330
406
100
AcDbEntity
  8
LC-003-005-----0
 62
     7
370
    25
100
AcDbLine
 10
572.006237
 20
492.810278
 30
0.0
 11
574.006237
 21
494.810278
 31
0.0
  0
LINE
  5
435
330
406
100
AcDbEntity
  8
LC-003-005-----0
 62
     7
370
    25
100
AcDbLine
 10
569.17781
 20
492.810278
 30
0.0
 11
571.17781
 21
494.810278
 31
0.0
  0
LINE
  5
436
330
406
100
AcDbEntity
  8
LC-003-005-----0
 62
     7
370
    25
100
AcDbLine
 10
566.349383
 20
492.810278
 30
0.0
 11
568.349383
 21
494.810278
 31
0.0
  0
LINE
  5
437
330
406
100
AcDbEntity
  8
LC-003-005-----0
 62
     7
370
    25
100
AcDbLine
 10
563.520956
 20
492.810278
 30
0.0
 11
565.520956
 21
494.810278
 31
0.0
  0
LINE
  5
438
330
406
100
AcDbEntity
  8
LC-003-005-----0
 62
     7
370
    25
100
AcDbLine
 10
560.692529
 20
492.810278
 30
0.0
 11
562.692529
 21
494.810278
 31
0.0
  0
LINE
  5
439
330
406
100
AcDbEntity
  8
LC-003-005-----0
 62
     7
370
    25
100
AcDbLine
 10
557.864102
 20
492.810278
 30
0.0
 11
559.864102
 21
494.810278
 31
0.0
  0
LINE
  5
43A
330
406
100
AcDbEntity
  8
LC-003-005-----0
 62
     7
370
    25
100
AcDbLine
 10
555.035675
 20
492.810278
 30
0.0
 11
557.035675
 21
494.810278
 31
0.0
  0
LINE
  5
43B
330
406
100
AcDbEntity
  8
LC-003-005-----0
 62
     7
370
    25
100
AcDbLine
 10
552.207247
 20
492.810278
 30
0.0
 11
554.207247
 21
494.810278
 31
0.0
  0
LINE
  5
43C
330
406
100
AcDbEntity
  8
LC-003-005-----0
 62
     7
370
    25
100
AcDbLine
 10
550.889375
 20
494.320833
 30
0.0
 11
552.889375
 21
496.320833
 31
0.0
  0
LINE
  5
43D
330
406
100
AcDbEntity
  8
LC-003-005-----0
 62
     7
370
    25
100
AcDbLine
 10
550.694075
 20
496.95396
 30
0.0
 11
552.113579
 21
498.373464
 31
0.0
  0
LINE
  5
43E
330
406
100
AcDbEntity
  8
LC-003-005-----0
 62
     7
370
    25
100
AcDbLine
 10
548.271966
 20
497.360278
 30
0.0
 11
550.250189
 21
499.338501
 31
0.0
  0
LINE
  5
43F
330
406
100
AcDbEntity
  8
LC-003-005-----0
 62
     7
370
    25
100
AcDbLine
 10
545.443539
 20
497.360278
 30
0.0
 11
547.443539
 21
499.360278
 31
0.0
  0
LINE
  5
440
330
406
100
AcDbEntity
  8
LC-003-005-----0
 62
     7
370
    25
100
AcDbLine
 10
538.365112
 20
493.110278
 30
0.0
 11
542.081014
 21
496.82618
 31
0.0
  0
LINE
  5
441
330
406
100
AcDbEntity
  8
LC-003-005-----0
 62
     7
370
    25
100
AcDbLine
 10
542.615112
 20
497.360278
 30
0.0
 11
544.615112
 21
499.360278
 31
0.0
  0
LINE
  5
442
330
406
100
AcDbEntity
  8
LC-003-005-----0
 62
     7
370
    25
100
AcDbLine
 10
535.536685
 20
493.110278
 30
0.0
 11
537.536685
 21
495.110278
 31
0.0
  0
LINE
  5
443
330
406
100
AcDbEntity
  8
LC-003-005-----0
 62
     7
370
    25
100
AcDbLine
 10
540.513643
 20
498.087236
 30
0.0
 11
541.239768
 21
498.813361
 31
0.0
  0
ENDBLK
  5
408
330
406
100
AcDbEntity
  8
0
100
AcDbBlockEnd
  0
BLOCK
  5
465
330
464
100
AcDbEntity
  8
0
100
AcDbBlockBegin
  2
*X2526
 70
     1
 71
     0
 10
0.0
 20
0.0
 30
0.0
  3
*X2526
  1

  4
*X25
  0
LINE
  5
467
330
464
100
AcDbEntity
  8
LC-003-005-----0
  6
DASHED
 62
     7
370
    25
100
AcDbLine
 10
546.418603
 20
492.678488
 30
0.0
 11
550.57683
 21
496.836715
 31
0.0
  0
LINE
  5
468
330
464
100
AcDbEntity
  8
LC-003-005-----0
  6
DASHED
 62
     7
370
    25
100
AcDbLine
 10
544.791997
 20
493.880309
 30
0.0
 11
548.349029
 21
497.43734
 31
0.0
  0
ENDBLK
  5
466
330
464
100
AcDbEntity
  8
0
100
AcDbBlockEnd
  0
BLOCK
  5
477
330
46B
100
AcDbEntity
  8
0
100
AcDbBlockBegin
  2
*D27
 70
     1
 71
     0
 10
0.0
 20
0.0
 30
0.0
  3
*D27
  1

  0
LINE
  5
46C
330
46B
100
AcDbEntity
  8
LC-004-003-----0
 62
     2
370
    -2
100
AcDbLine
 10
662.089375
 20
465.410278
 30
0.0
 11
708.984789
 21
465.410278
 31
0.0
  0
LINE
  5
46D
330
46B
100
AcDbEntity
  8
LC-004-003-----0
 62
     2
370
    -2
100
AcDbLine
 10
662.089375
 20
415.410278
 30
0.0
 11
708.984789
 21
415.410278
 31
0.0
  0
LINE
  5
46E
330
46B
100
AcDbEntity
  8
LC-004-003-----0
 62
     2
370
    -2
100
AcDbLine
 10
705.384789
 20
493.410278
 30
0.0
 11
705.384789
 21
521.410278
 31
0.0
  0
LINE
  5
46F
330
46B
100
AcDbEntity
  8
LC-004-003-----0
 62
     2
370
    -2
100
AcDbLine
 10
705.384789
 20
387.410278
 30
0.0
 11
705.384789
 21
359.410278
 31
0.0
  0
LINE
  5
470
330
46B
100
AcDbEntity
  8
LC-004-003-----0
 62
     2
370
    -2
100
AcDbLine
 10
705.384789
 20
465.410278
 30
0.0
 11
705.384789
 21
415.410278
 31
0.0
  0
SOLID
  5
471
330
46B
100
AcDbEntity
  8
LC-004-003-----0
 62
     2
100
AcDbTrace
 10
700.718122
 20
493.410278
 30
0.0
 11
710.051455
 21
493.410278
 31
0.0
 12
705.384789
 22
465.410278
 32
0.0
 13
705.384789
 23
465.410278
 33
0.0
  0
SOLID
  5
472
330
46B
100
AcDbEntity
  8
LC-004-003-----0
 62
     2
100
AcDbTrace
 10
710.051455
 20
387.410278
 30
0.0
 11
700.718122
 21
387.410278
 31
0.0
 12
705.384789
 22
415.410278
 32
0.0
 13
705.384789
 23
415.410278
 33
0.0
  0
MTEXT
  5
473
330
46B
100
AcDbEntity
  8
LC-004-003-----0
 62
     2
100
AcDbMText
 10
674.584789
 20
426.849762
 30
0.0
 40
28.0
 41
0.0
 71
     5
 72
     1
  1
\A1;DN50
  7
LCTX15-400-0-0pDIN-Schrift
 11
6.123031769111886E-17
 21
1.0
 31
0.0
 73
     1
 44
1.0
  0
POINT
  5
474
330
46B
100
AcDbEntity
  8
Defpoints
 62
     0
100
AcDbPoint
 10
662.089375
 20
465.410278
 30
0.0
  0
POINT
  5
475
330
46B
100
AcDbEntity
  8
Defpoints
 62
     0
100
AcDbPoint
 10
662.089375
 20
415.410278
 30
0.0
  0
POINT
  5
476
330
46B
100
AcDbEntity
  8
Defpoints
 62
     0
100
AcDbPoint
 10
705.384789
 20
415.410278
 30
0.0
  0
ENDBLK
  5
478
330
46B
100
AcDbEntity
  8
0
100
AcDbBlockEnd
  0
BLOCK
  5
47A
330
479
100
AcDbEntity
  8
0
100
AcDbBlockBegin
  2
ELM1
 70
     0
 71
     0
 10
0.0
 20
0.0
 30
0.0
  3
ELM1
  1

  4
ELM1
  0
ENDBLK
  5
47B
330
479
100
AcDbEntity
  8
0
100
AcDbBlockEnd
  0
BLOCK
  5
47F
330
47E
100
AcDbEntity
  8
0
100
AcDbBlockBegin
  2
ELM2
 70
     0
 71
     0
 10
0.0
 20
0.0
 30
0.0
  3
ELM2
  1

  4
ELM2
  0
ENDBLK
  5
480
330
47E
100
AcDbEntity
  8
0
100
AcDbBlockEnd
  0
BLOCK
  5
48D
330
483
100
AcDbEntity
  8
0
100
AcDbBlockBegin
  2
*D30
 70
     1
 71
     0
 10
0.0
 20
0.0
 30
0.0
  3
*D30
  1

  0
LINE
  5
484
330
483
100
AcDbEntity
  8
LC-004-003-----0
 62
     2
370
    -2
100
AcDbLine
 10
319.862308
 20
499.262325
 30
0.0
 11
201.673832
 21
499.262325
 31
0.0
  0
LINE
  5
485
330
483
100
AcDbEntity
  8
LC-004-003-----0
 62
     2
370
    -2
100
AcDbLine
 10
290.362308
 20
414.262325
 30
0.0
 11
201.673832
 21
414.262325
 31
0.0
  0
LINE
  5
486
330
483
100
AcDbEntity
  8
LC-004-003-----0
 62
     2
370
    -2
100
AcDbLine
 10
205.273832
 20
471.262325
 30
0.0
 11
205.273832
 21
442.262325
 31
0.0
  0
SOLID
  5
487
330
483
100
AcDbEntity
  8
LC-004-003-----0
 62
     2
100
AcDbTrace
 10
209.940499
 20
471.262325
 30
0.0
 11
200.607166
 21
471.262325
 31
0.0
 12
205.273832
 22
499.262325
 32
0.0
 13
205.273832
 23
499.262325
 33
0.0
  0
SOLID
  5
488
330
483
100
AcDbEntity
  8
LC-004-003-----0
 62
     2
100
AcDbTrace
 10
200.607166
 20
442.262325
 30
0.0
 11
209.940499
 21
442.262325
 31
0.0
 12
205.273832
 22
414.262325
 32
0.0
 13
205.273832
 23
414.262325
 33
0.0
  0
MTEXT
  5
489
330
483
100
AcDbEntity
  8
LC-004-003-----0
 62
     2
100
AcDbMText
 10
174.473832
 20
447.118897
 30
0.0
 40
28.0
 41
0.0
 71
     5
 72
     1
  1
\A1;85
  7
LCTX15-400-0-0pDIN-Schrift
 11
6.123031769111886E-17
 21
1.0
 31
0.0
 73
     1
 44
1.0
  0
POINT
  5
48A
330
483
100
AcDbEntity
  8
Defpoints
 62
     0
100
AcDbPoint
 10
319.862308
 20
499.262325
 30
0.0
  0
POINT
  5
48B
330
483
100
AcDbEntity
  8
Defpoints
 62
     0
100
AcDbPoint
 10
290.362308
 20
414.262325
 30
0.0
  0
POINT
  5
48C
330
483
100
AcDbEntity
  8
Defpoints
 62
     0
100
AcDbPoint
 10
205.273832
 20
414.262325
 30
0.0
  0
ENDBLK
  5
48E
330
483
100
AcDbEntity
  8
0
100
AcDbBlockEnd
  0
BLOCK
  5
497
330
496
100
AcDbEntity
  8
0
100
AcDbBlockBegin
  2
*X2631
 70
     1
 71
     0
 10
0.0
 20
0.0
 30
0.0
  3
*X2631
  1

  4
*X26
  0
LINE
  5
499
330
496
100
AcDbEntity
  8
LC-003-005-----0
 62
     7
370
    25
100
AcDbLine
 10
392.983482
 20
534.404838
 30
0.0
 11
394.362308
 21
535.783664
 31
0.0
  0
LINE
  5
49A
330
496
100
AcDbEntity
  8
LC-003-005-----0
 62
     7
370
    25
100
AcDbLine
 10
392.458154
 20
536.707937
 30
0.0
 11
393.523408
 21
537.773192
 31
0.0
  0
LINE
  5
49B
330
496
100
AcDbEntity
  8
LC-003-005-----0
 62
     7
370
    25
100
AcDbLine
 10
388.362308
 20
535.440519
 30
0.0
 11
391.326627
 21
538.404838
 31
0.0
  0
ENDBLK
  5
498
330
496
100
AcDbEntity
  8
0
100
AcDbBlockEnd
  0
BLOCK
  5
49E
330
49D
100
AcDbEntity
  8
0
100
AcDbBlockBegin
  2
*X2732
 70
     1
 71
     0
 10
0.0
 20
0.0
 30
0.0
  3
*X2732
  1

  4
*X27
  0
LINE
  5
4A0
330
49D
100
AcDbEntity
  8
LC-003-005-----0
 62
     7
370
    25
100
AcDbLine
 10
381.669773
 20
534.404838
 30
0.0
 11
382.362308
 21
535.097373
 31
0.0
  0
LINE
  5
4A1
330
49D
100
AcDbEntity
  8
LC-003-005-----0
 62
     7
370
    25
100
AcDbLine
 10
380.767132
 20
536.330624
 30
0.0
 11
381.853292
 21
537.416784
 31
0.0
  0
LINE
  5
4A2
330
49D
100
AcDbEntity
  8
LC-003-005-----0
 62
     7
370
    25
100
AcDbLine
 10
376.362308
 20
534.754227
 30
0.0
 11
377.975984
 21
536.367903
 31
0.0
  0
LINE
  5
4A3
330
49D
100
AcDbEntity
  8
LC-003-005-----0
 62
     7
370
    25
100
AcDbLine
 10
378.399243
 20
536.791162
 30
0.0
 11
380.008633
 21
538.400552
 31
0.0
  0
ENDBLK
  5
49F
330
49D
100
AcDbEntity
  8
0
100
AcDbBlockEnd
  0
BLOCK
  5
4A6
330
4A5
100
AcDbEntity
  8
0
100
AcDbBlockBegin
  2
*X2833
 70
     1
 71
     0
 10
0.0
 20
0.0
 30
0.0
  3
*X2833
  1

  4
*X28
  0
LINE
  5
4A8
330
4A5
100
AcDbEntity
  8
LC-003-005-----0
 62
     7
370
    25
100
AcDbLine
 10
370.356065
 20
534.404838
 30
0.0
 11
370.362308
 21
534.411081
 31
0.0
  0
LINE
  5
4A9
330
4A5
100
AcDbEntity
  8
LC-003-005-----0
 62
     7
370
    25
100
AcDbLine
 10
368.862308
 20
535.739509
 30
0.0
 11
370.113955
 21
536.991156
 31
0.0
  0
LINE
  5
4AA
330
4A5
100
AcDbEntity
  8
LC-003-005-----0
 62
     7
370
    25
100
AcDbLine
 10
363.862308
 20
533.567936
 30
0.0
 11
365.362308
 21
535.067936
 31
0.0
  0
LINE
  5
4AB
330
4A5
100
AcDbEntity
  8
LC-003-005-----0
 62
     7
370
    25
100
AcDbLine
 10
367.19921
 20
536.904838
 30
0.0
 11
368.590736
 21
538.296363
 31
0.0
  0
LINE
  5
4AC
330
4A5
100
AcDbEntity
  8
LC-003-005-----0
 62
     7
370
    25
100
AcDbLine
 10
363.92437
 20
536.458425
 30
0.0
 11
365.808721
 21
538.342776
 31
0.0
  0
ENDBLK
  5
4A7
330
4A5
100
AcDbEntity
  8
0
100
AcDbBlockEnd
  0
BLOCK
  5
4D5
330
4D4
100
AcDbEntity
  8
0
100
AcDbBlockBegin
  2
*X2934
 70
     1
 71
     0
 10
0.0
 20
0.0
 30
0.0
  3
*X2934
  1

  4
*X29
  0
LINE
  5
4D7
330
4D4
100
AcDbEntity
  8
LC-003-005-----0
 62
     7
370
    25
100
AcDbLine
 10
416.862308
 20
535.656247
 30
0.0
 11
418.140464
 21
536.934403
 31
0.0
  0
LINE
  5
4D8
330
4D4
100
AcDbEntity
  8
LC-003-005-----0
 62
     7
370
    25
100
AcDbLine
 10
415.282472
 20
536.904838
 30
0.0
 11
416.653854
 21
538.27622
 31
0.0
  0
LINE
  5
4D9
330
4D4
100
AcDbEntity
  8
LC-003-005-----0
 62
     7
370
    25
100
AcDbLine
 10
412.454044
 20
536.904838
 30
0.0
 11
413.954044
 21
538.404838
 31
0.0
  0
LINE
  5
4DA
330
4D4
100
AcDbEntity
  8
LC-003-005-----0
 62
     7
370
    25
100
AcDbLine
 10
409.625617
 20
536.904838
 30
0.0
 11
411.125617
 21
538.404838
 31
0.0
  0
ENDBLK
  5
4D6
330
4D4
100
AcDbEntity
  8
0
100
AcDbBlockEnd
  0
BLOCK
  5
4E3
330
4E2
100
AcDbEntity
  8
0
100
AcDbBlockBegin
  2
*X3035
 70
     1
 71
     0
 10
0.0
 20
0.0
 30
0.0
  3
*X3035
  1

  4
*X30
  0
LINE
  5
4E5
330
4E2
100
AcDbEntity
  8
LC-003-005-----0
 62
     7
370
    25
100
AcDbLine
 10
429.753034
 20
534.404838
 30
0.0
 11
430.362308
 21
535.014112
 31
0.0
  0
LINE
  5
4E6
330
4E2
100
AcDbEntity
  8
LC-003-005-----0
 62
     7
370
    25
100
AcDbLine
 10
428.792268
 20
536.272499
 30
0.0
 11
429.888724
 21
537.368955
 31
0.0
  0
LINE
  5
4E7
330
4E2
100
AcDbEntity
  8
LC-003-005-----0
 62
     7
370
    25
100
AcDbLine
 10
424.362308
 20
534.670966
 30
0.0
 11
425.914236
 21
536.222894
 31
0.0
  0
LINE
  5
4E8
330
4E2
100
AcDbEntity
  8
LC-003-005-----0
 62
     7
370
    25
100
AcDbLine
 10
426.544252
 20
536.85291
 30
0.0
 11
428.08614
 21
538.394798
 31
0.0
  0
ENDBLK
  5
4E4
330
4E2
100
AcDbEntity
  8
0
100
AcDbBlockEnd
  0
BLOCK
  5
4EB
330
4EA
100
AcDbEntity
  8
0
100
AcDbBlockBegin
  2
*X3136
 70
     1
 71
     0
 10
0.0
 20
0.0
 30
0.0
  3
*X3136
  1

  4
*X31
  0
LINE
  5
4ED
330
4EA
100
AcDbEntity
  8
LC-003-005-----0
 62
     7
370
    25
100
AcDbLine
 10
441.066743
 20
534.404838
 30
0.0
 11
442.362308
 21
535.700403
 31
0.0
  0
LINE
  5
4EE
330
4EA
100
AcDbEntity
  8
LC-003-005-----0
 62
     7
370
    25
100
AcDbLine
 10
440.504696
 20
536.671218
 30
0.0
 11
441.566991
 21
537.733514
 31
0.0
  0
LINE
  5
4EF
330
4EA
100
AcDbEntity
  8
LC-003-005-----0
 62
     7
370
    25
100
AcDbLine
 10
436.362308
 20
535.357258
 30
0.0
 11
439.409889
 21
538.404838
 31
0.0
  0
ENDBLK
  5
4EC
330
4EA
100
AcDbEntity
  8
0
100
AcDbBlockEnd
  0
BLOCK
  5
4F2
330
4F1
100
AcDbEntity
  8
0
100
AcDbBlockBegin
  2
*X3237
 70
     1
 71
     0
 10
0.0
 20
0.0
 30
0.0
  3
*X3237
  1

  4
*X32
  0
LINE
  5
4F4
330
4F1
100
AcDbEntity
  8
LC-003-005-----0
 62
     7
370
    25
100
AcDbLine
 10
454.208878
 20
533.404838
 30
0.0
 11
454.862308
 21
534.058268
 31
0.0
  0
LINE
  5
4F5
330
4F1
100
AcDbEntity
  8
LC-003-005-----0
 62
     7
370
    25
100
AcDbLine
 10
453.362308
 20
535.386695
 30
0.0
 11
454.717879
 21
536.742266
 31
0.0
  0
LINE
  5
4F6
330
4F1
100
AcDbEntity
  8
LC-003-005-----0
 62
     7
370
    25
100
AcDbLine
 10
449.552024
 20
534.404838
 30
0.0
 11
449.862308
 21
534.715122
 31
0.0
  0
LINE
  5
4F7
330
4F1
100
AcDbEntity
  8
LC-003-005-----0
 62
     7
370
    25
100
AcDbLine
 10
452.052024
 20
536.904838
 30
0.0
 11
453.349052
 21
538.201866
 31
0.0
  0
LINE
  5
4F8
330
4F1
100
AcDbEntity
  8
LC-003-005-----0
 62
     7
370
    25
100
AcDbLine
 10
448.366389
 20
536.04763
 30
0.0
 11
450.719516
 21
538.400757
 31
0.0
  0
ENDBLK
  5
4F3
330
4F1
100
AcDbEntity
  8
0
100
AcDbBlockEnd
  0
BLOCK
  5
520
330
51F
100
AcDbEntity
  8
0
100
AcDbBlockBegin
  2
*X3338
 70
     1
 71
     0
 10
0.0
 20
0.0
 30
0.0
  3
*X3338
  1

  4
*X33
  0
LINE
  5
522
330
51F
100
AcDbEntity
  8
LC-003-005-----0
 62
     7
370
    25
100
AcDbLine
 10
406.79719
 20
536.904838
 30
0.0
 11
408.29719
 21
538.404838
 31
0.0
  0
LINE
  5
523
330
51F
100
AcDbEntity
  8
LC-003-005-----0
 62
     7
370
    25
100
AcDbLine
 10
401.468763
 20
534.404838
 30
0.0
 11
401.862308
 21
534.798383
 31
0.0
  0
LINE
  5
524
330
51F
100
AcDbEntity
  8
LC-003-005-----0
 62
     7
370
    25
100
AcDbLine
 10
403.968763
 20
536.904838
 30
0.0
 11
405.468763
 21
538.404838
 31
0.0
  0
LINE
  5
525
330
51F
100
AcDbEntity
  8
LC-003-005-----0
 62
     7
370
    25
100
AcDbLine
 10
400.373175
 20
536.137677
 30
0.0
 11
402.629469
 21
538.393971
 31
0.0
  0
ENDBLK
  5
521
330
51F
100
AcDbEntity
  8
0
100
AcDbBlockEnd
  0
BLOCK
  5
53E
330
53D
100
AcDbEntity
  8
0
100
AcDbBlockBegin
  2
*X3439
 70
     1
 71
     0
 10
0.0
 20
0.0
 30
0.0
  3
*X3439
  1

  4
*X34
  0
LINE
  5
540
330
53D
100
AcDbEntity
  8
LC-003-005-----0
 62
     7
370
    25
100
AcDbLine
 10
362.862308
 20
536.577517
 30
0.0
 11
361.362308
 21
538.077517
 31
0.0
  0
LINE
  5
541
330
53D
100
AcDbEntity
  8
LC-003-005-----0
 62
     7
370
    25
100
AcDbLine
 10
362.862307
 20
528.092238
 30
0.0
 11
361.362308
 21
529.592236
 31
0.0
  0
LINE
  5
542
330
53D
100
AcDbEntity
  8
LC-003-005-----0
 62
     7
370
    25
100
AcDbLine
 10
357.064425
 20
525.404838
 30
0.0
 11
355.264425
 21
527.204838
 31
0.0
  0
ENDBLK
  5
53F
330
53D
100
AcDbEntity
  8
0
100
AcDbBlockEnd
  0
BLOCK
  5
545
330
544
100
AcDbEntity
  8
0
100
AcDbBlockBegin
  2
*X3540
 70
     1
 71
     0
 10
0.0
 20
0.0
 30
0.0
  3
*X3540
  1

  4
*X35
  0
LINE
  5
547
330
544
100
AcDbEntity
  8
LC-003-005-----0
 62
     7
370
    25
100
AcDbLine
 10
467.112308
 20
525.665613
 30
0.0
 11
465.573083
 21
527.204838
 31
0.0
  0
LINE
  5
548
330
544
100
AcDbEntity
  8
LC-003-005-----0
 62
     7
370
    25
100
AcDbLine
 10
457.362308
 20
535.415613
 30
0.0
 11
455.862308
 21
536.915613
 31
0.0
  0
LINE
  5
549
330
544
100
AcDbEntity
  8
LC-003-005-----0
 62
     7
370
    25
100
AcDbLine
 10
458.887802
 20
525.404838
 30
0.0
 11
455.862309
 21
528.43033
 31
0.0
  0
ENDBLK
  5
546
330
544
100
AcDbEntity
  8
0
100
AcDbBlockEnd
  0
BLOCK
  5
559
330
54F
100
AcDbEntity
  8
0
100
AcDbBlockBegin
  2
*D41
 70
     1
 71
     0
 10
0.0
 20
0.0
 30
0.0
  3
*D41
  1

  0
LINE
  5
550
330
54F
100
AcDbEntity
  8
LC-004-003-----0
 62
     2
370
    -2
100
AcDbLine
 10
361.362308
 20
538.904838
 30
0.0
 11
361.362308
 21
558.211013
 31
0.0
  0
LINE
  5
551
330
54F
100
AcDbEntity
  8
LC-004-003-----0
 62
     2
370
    -2
100
AcDbLine
 10
457.362308
 20
538.904838
 30
0.0
 11
457.362308
 21
558.211013
 31
0.0
  0
LINE
  5
552
330
54F
100
AcDbEntity
  8
LC-004-003-----0
 62
     2
370
    -2
100
AcDbLine
 10
389.362308
 20
554.611013
 30
0.0
 11
429.362308
 21
554.611013
 31
0.0
  0
SOLID
  5
553
330
54F
100
AcDbEntity
  8
LC-004-003-----0
 62
     2
100
AcDbTrace
 10
389.362308
 20
559.27768
 30
0.0
 11
389.362308
 21
549.944347
 31
0.0
 12
361.362308
 22
554.611013
 32
0.0
 13
361.362308
 23
554.611013
 33
0.0
  0
SOLID
  5
554
330
54F
100
AcDbEntity
  8
LC-004-003-----0
 62
     2
100
AcDbTrace
 10
429.362308
 20
549.944347
 30
0.0
 11
429.362308
 21
559.27768
 31
0.0
 12
457.362308
 22
554.611013
 32
0.0
 13
457.362308
 23
554.611013
 33
0.0
  0
MTEXT
  5
555
330
54F
100
AcDbEntity
  8
LC-004-003-----0
 62
     2
100
AcDbMText
 10
419.243559
 20
585.411013
 30
0.0
 40
28.0
 41
0.0
 71
     5
 72
     1
  1
\A1;95
  7
LCTX15-400-0-0pDIN-Schrift
 73
     1
 44
1.0
  0
POINT
  5
556
330
54F
100
AcDbEntity
  8
Defpoints
 62
     0
100
AcDbPoint
 10
361.362308
 20
538.904838
 30
0.0
  0
POINT
  5
557
330
54F
100
AcDbEntity
  8
Defpoints
 62
     0
100
AcDbPoint
 10
457.362308
 20
538.904838
 30
0.0
  0
POINT
  5
558
330
54F
100
AcDbEntity
  8
Defpoints
 62
     0
100
AcDbPoint
 10
457.362308
 20
554.611013
 30
0.0
  0
ENDBLK
  5
55A
330
54F
100
AcDbEntity
  8
0
100
AcDbBlockEnd
  0
BLOCK
  5
5A2
330
598
100
AcDbEntity
  8
0
100
AcDbBlockBegin
  2
*D42
 70
     1
 71
     0
 10
0.0
 20
0.0
 30
0.0
  3
*D42
  1

  0
LINE
  5
599
330
598
100
AcDbEntity
  8
LC-004-003-----0
 62
     2
370
    -2
100
AcDbLine
 10
361.862323
 20
104.248536
 30
0.0
 11
361.862323
 21
42.24
 31
0.0
  0
LINE
  5
59A
330
598
100
AcDbEntity
  8
LC-004-003-----0
 62
     2
370
    -2
100
AcDbLine
 10
456.862323
 20
104.248536
 30
0.0
 11
456.862323
 21
42.24
 31
0.0
  0
LINE
  5
59B
330
598
100
AcDbEntity
  8
LC-004-003-----0
 62
     2
370
    -2
100
AcDbLine
 10
389.862323
 20
45.84
 30
0.0
 11
428.862323
 21
45.84
 31
0.0
  0
SOLID
  5
59C
330
598
100
AcDbEntity
  8
LC-004-003-----0
 62
     2
100
AcDbTrace
 10
389.862323
 20
50.506667
 30
0.0
 11
389.862323
 21
41.173333
 31
0.0
 12
361.862323
 22
45.84
 32
0.0
 13
361.862323
 23
45.84
 33
0.0
  0
SOLID
  5
59D
330
598
100
AcDbEntity
  8
LC-004-003-----0
 62
     2
100
AcDbTrace
 10
428.862323
 20
41.173333
 30
0.0
 11
428.862323
 21
50.506667
 31
0.0
 12
456.862323
 22
45.84
 32
0.0
 13
456.862323
 23
45.84
 33
0.0
  0
MTEXT
  5
59E
330
598
100
AcDbEntity
  8
LC-004-003-----0
 62
     2
100
AcDbMText
 10
410.627547
 20
76.64
 30
0.0
 40
28.0
 41
0.0
 71
     5
 72
     1
  1
\A1;95
  7
LCTX15-400-0-0pDIN-Schrift
 73
     1
 44
1.0
  0
POINT
  5
59F
330
598
100
AcDbEntity
  8
Defpoints
 62
     0
100
AcDbPoint
 10
361.862323
 20
104.248536
 30
0.0
  0
POINT
  5
5A0
330
598
100
AcDbEntity
  8
Defpoints
 62
     0
100
AcDbPoint
 10
456.862323
 20
104.248536
 30
0.0
  0
POINT
  5
5A1
330
598
100
AcDbEntity
  8
Defpoints
 62
     0
100
AcDbPoint
 10
456.862323
 20
45.84
 30
0.0
  0
ENDBLK
  5
5A3
330
598
100
AcDbEntity
  8
0
100
AcDbBlockEnd
  0
BLOCK
  5
5AD
330
5AC
100
AcDbEntity
  8
0
100
AcDbBlockBegin
  2
*X3643
 70
     1
 71
     0
 10
0.0
 20
0.0
 30
0.0
  3
*X3643
  1

  4
*X36
  0
LINE
  5
5AF
330
5AC
100
AcDbEntity
  8
LC-003-005-----0
 62
     7
370
    25
100
AcDbLine
 10
298.212308
 20
434.350317
 30
0.0
 11
295.950308
 21
436.612317
 31
0.0
  0
LINE
  5
5B0
330
5AC
100
AcDbEntity
  8
LC-003-005-----0
 62
     7
370
    25
100
AcDbLine
 10
298.212308
 20
431.52189
 30
0.0
 11
295.950308
 21
433.78389
 31
0.0
  0
LINE
  5
5B1
330
5AC
100
AcDbEntity
  8
LC-003-005-----0
 62
     7
370
    25
100
AcDbLine
 10
298.212308
 20
428.693463
 30
0.0
 11
295.950308
 21
430.955463
 31
0.0
  0
LINE
  5
5B2
330
5AC
100
AcDbEntity
  8
LC-003-005-----0
 62
     7
370
    25
100
AcDbLine
 10
298.212308
 20
425.865036
 30
0.0
 11
295.950308
 21
428.127036
 31
0.0
  0
LINE
  5
5B3
330
5AC
100
AcDbEntity
  8
LC-003-005-----0
 62
     7
370
    25
100
AcDbLine
 10
298.212308
 20
423.036609
 30
0.0
 11
295.950308
 21
425.298609
 31
0.0
  0
LINE
  5
5B4
330
5AC
100
AcDbEntity
  8
LC-003-005-----0
 62
     7
370
    25
100
AcDbLine
 10
298.212308
 20
420.208181
 30
0.0
 11
295.950308
 21
422.470181
 31
0.0
  0
LINE
  5
5B5
330
5AC
100
AcDbEntity
  8
LC-003-005-----0
 62
     7
370
    25
100
AcDbLine
 10
298.212308
 20
417.379754
 30
0.0
 11
295.950308
 21
419.641754
 31
0.0
  0
LINE
  5
5B6
330
5AC
100
AcDbEntity
  8
LC-003-005-----0
 62
     7
370
    25
100
AcDbLine
 10
298.212308
 20
414.551327
 30
0.0
 11
295.950308
 21
416.813327
 31
0.0
  0
LINE
  5
5B7
330
5AC
100
AcDbEntity
  8
LC-003-005-----0
 62
     7
370
    25
100
AcDbLine
 10
298.212308
 20
411.7229
 30
0.0
 11
295.950308
 21
413.9849
 31
0.0
  0
LINE
  5
5B8
330
5AC
100
AcDbEntity
  8
LC-003-005-----0
 62
     7
370
    25
100
AcDbLine
 10
298.212308
 20
408.894473
 30
0.0
 11
295.950308
 21
411.156473
 31
0.0
  0
LINE
  5
5B9
330
5AC
100
AcDbEntity
  8
LC-003-005-----0
 62
     7
370
    25
100
AcDbLine
 10
298.212308
 20
406.066046
 30
0.0
 11
295.950308
 21
408.328046
 31
0.0
  0
LINE
  5
5BA
330
5AC
100
AcDbEntity
  8
LC-003-005-----0
 62
     7
370
    25
100
AcDbLine
 10
298.212308
 20
403.237619
 30
0.0
 11
295.950308
 21
405.499619
 31
0.0
  0
LINE
  5
5BB
330
5AC
100
AcDbEntity
  8
LC-003-005-----0
 62
     7
370
    25
100
AcDbLine
 10
298.212308
 20
400.409192
 30
0.0
 11
295.950308
 21
402.671192
 31
0.0
  0
LINE
  5
5BC
330
5AC
100
AcDbEntity
  8
LC-003-005-----0
 62
     7
370
    25
100
AcDbLine
 10
298.212308
 20
397.580764
 30
0.0
 11
295.950308
 21
399.842764
 31
0.0
  0
LINE
  5
5BD
330
5AC
100
AcDbEntity
  8
LC-003-005-----0
 62
     7
370
    25
100
AcDbLine
 10
298.212308
 20
394.752337
 30
0.0
 11
295.950308
 21
397.014337
 31
0.0
  0
LINE
  5
5BE
330
5AC
100
AcDbEntity
  8
LC-003-005-----0
 62
     7
370
    25
100
AcDbLine
 10
298.212308
 20
391.92391
 30
0.0
 11
295.950308
 21
394.18591
 31
0.0
  0
LINE
  5
5BF
330
5AC
100
AcDbEntity
  8
LC-003-005-----0
 62
     7
370
    25
100
AcDbLine
 10
298.212308
 20
389.095483
 30
0.0
 11
295.950308
 21
391.357483
 31
0.0
  0
LINE
  5
5C0
330
5AC
100
AcDbEntity
  8
LC-003-005-----0
 62
     7
370
    25
100
AcDbLine
 10
298.212308
 20
386.267056
 30
0.0
 11
295.950308
 21
388.529056
 31
0.0
  0
LINE
  5
5C1
330
5AC
100
AcDbEntity
  8
LC-003-005-----0
 62
     7
370
    25
100
AcDbLine
 10
298.212308
 20
383.438629
 30
0.0
 11
295.950308
 21
385.700629
 31
0.0
  0
LINE
  5
5C2
330
5AC
100
AcDbEntity
  8
LC-003-005-----0
 62
     7
370
    25
100
AcDbLine
 10
298.212308
 20
380.610202
 30
0.0
 11
295.950308
 21
382.872202
 31
0.0
  0
LINE
  5
5C3
330
5AC
100
AcDbEntity
  8
LC-003-005-----0
 62
     7
370
    25
100
AcDbLine
 10
298.212308
 20
377.781775
 30
0.0
 11
295.950308
 21
380.043775
 31
0.0
  0
LINE
  5
5C4
330
5AC
100
AcDbEntity
  8
LC-003-005-----0
 62
     7
370
    25
100
AcDbLine
 10
295.979354
 20
377.186301
 30
0.0
 11
295.950308
 21
377.215347
 31
0.0
  0
ENDBLK
  5
5AE
330
5AC
100
AcDbEntity
  8
0
100
AcDbBlockEnd
  0
BLOCK
  5
5D1
330
5D0
100
AcDbEntity
  8
0
100
AcDbBlockBegin
  2
*X3744
 70
     1
 71
     0
 10
0.0
 20
0.0
 30
0.0
  3
*X3744
  1

  4
*X37
  0
LINE
  5
5D3
330
5D0
100
AcDbEntity
  8
LC-003-005-----0
 62
     7
370
    25
100
AcDbLine
 10
312.774308
 20
436.75888
 30
0.0
 11
312.346887
 21
437.186301
 31
0.0
  0
LINE
  5
5D4
330
5D0
100
AcDbEntity
  8
LC-003-005-----0
 62
     7
370
    25
100
AcDbLine
 10
312.774308
 20
433.930453
 30
0.0
 11
310.512308
 21
436.192453
 31
0.0
  0
LINE
  5
5D5
330
5D0
100
AcDbEntity
  8
LC-003-005-----0
 62
     7
370
    25
100
AcDbLine
 10
312.774308
 20
431.102026
 30
0.0
 11
310.512308
 21
433.364026
 31
0.0
  0
LINE
  5
5D6
330
5D0
100
AcDbEntity
  8
LC-003-005-----0
 62
     7
370
    25
100
AcDbLine
 10
312.774308
 20
428.273598
 30
0.0
 11
310.512308
 21
430.535598
 31
0.0
  0
LINE
  5
5D7
330
5D0
100
AcDbEntity
  8
LC-003-005-----0
 62
     7
370
    25
100
AcDbLine
 10
312.774308
 20
425.445171
 30
0.0
 11
310.512308
 21
427.707171
 31
0.0
  0
LINE
  5
5D8
330
5D0
100
AcDbEntity
  8
LC-003-005-----0
 62
     7
370
    25
100
AcDbLine
 10
312.774308
 20
422.616744
 30
0.0
 11
310.512308
 21
424.878744
 31
0.0
  0
LINE
  5
5D9
330
5D0
100
AcDbEntity
  8
LC-003-005-----0
 62
     7
370
    25
100
AcDbLine
 10
312.774308
 20
419.788317
 30
0.0
 11
310.512308
 21
422.050317
 31
0.0
  0
LINE
  5
5DA
330
5D0
100
AcDbEntity
  8
LC-003-005-----0
 62
     7
370
    25
100
AcDbLine
 10
312.774308
 20
416.95989
 30
0.0
 11
310.512308
 21
419.22189
 31
0.0
  0
LINE
  5
5DB
330
5D0
100
AcDbEntity
  8
LC-003-005-----0
 62
     7
370
    25
100
AcDbLine
 10
312.774308
 20
414.131463
 30
0.0
 11
310.512308
 21
416.393463
 31
0.0
  0
LINE
  5
5DC
330
5D0
100
AcDbEntity
  8
LC-003-005-----0
 62
     7
370
    25
100
AcDbLine
 10
312.774308
 20
411.303036
 30
0.0
 11
310.512308
 21
413.565036
 31
0.0
  0
LINE
  5
5DD
330
5D0
100
AcDbEntity
  8
LC-003-005-----0
 62
     7
370
    25
100
AcDbLine
 10
312.774308
 20
408.474609
 30
0.0
 11
310.512308
 21
410.736609
 31
0.0
  0
LINE
  5
5DE
330
5D0
100
AcDbEntity
  8
LC-003-005-----0
 62
     7
370
    25
100
AcDbLine
 10
312.774308
 20
405.646181
 30
0.0
 11
310.512308
 21
407.908181
 31
0.0
  0
LINE
  5
5DF
330
5D0
100
AcDbEntity
  8
LC-003-005-----0
 62
     7
370
    25
100
AcDbLine
 10
312.774308
 20
402.817754
 30
0.0
 11
310.512308
 21
405.079754
 31
0.0
  0
LINE
  5
5E0
330
5D0
100
AcDbEntity
  8
LC-003-005-----0
 62
     7
370
    25
100
AcDbLine
 10
312.774308
 20
399.989327
 30
0.0
 11
310.512308
 21
402.251327
 31
0.0
  0
LINE
  5
5E1
330
5D0
100
AcDbEntity
  8
LC-003-005-----0
 62
     7
370
    25
100
AcDbLine
 10
312.774308
 20
397.1609
 30
0.0
 11
310.512308
 21
399.4229
 31
0.0
  0
LINE
  5
5E2
330
5D0
100
AcDbEntity
  8
LC-003-005-----0
 62
     7
370
    25
100
AcDbLine
 10
312.774308
 20
394.332473
 30
0.0
 11
310.512308
 21
396.594473
 31
0.0
  0
LINE
  5
5E3
330
5D0
100
AcDbEntity
  8
LC-003-005-----0
 62
     7
370
    25
100
AcDbLine
 10
312.774308
 20
391.504046
 30
0.0
 11
310.512308
 21
393.766046
 31
0.0
  0
LINE
  5
5E4
330
5D0
100
AcDbEntity
  8
LC-003-005-----0
 62
     7
370
    25
100
AcDbLine
 10
312.774308
 20
388.675619
 30
0.0
 11
310.512308
 21
390.937619
 31
0.0
  0
LINE
  5
5E5
330
5D0
100
AcDbEntity
  8
LC-003-005-----0
 62
     7
370
    25
100
AcDbLine
 10
312.774308
 20
385.847192
 30
0.0
 11
310.512308
 21
388.109192
 31
0.0
  0
LINE
  5
5E6
330
5D0
100
AcDbEntity
  8
LC-003-005-----0
 62
     7
370
    25
100
AcDbLine
 10
312.774308
 20
383.018764
 30
0.0
 11
310.512308
 21
385.280764
 31
0.0
  0
LINE
  5
5E7
330
5D0
100
AcDbEntity
  8
LC-003-005-----0
 62
     7
370
    25
100
AcDbLine
 10
312.774308
 20
380.190337
 30
0.0
 11
310.512308
 21
382.452337
 31
0.0
  0
LINE
  5
5E8
330
5D0
100
AcDbEntity
  8
LC-003-005-----0
 62
     7
370
    25
100
AcDbLine
 10
312.774308
 20
377.36191
 30
0.0
 11
310.512308
 21
379.62391
 31
0.0
  0
ENDBLK
  5
5D2
330
5D0
100
AcDbEntity
  8
0
100
AcDbBlockEnd
  0
BLOCK
  5
61C
330
61B
100
AcDbEntity
  8
0
100
AcDbBlockBegin
  2
*X3845
 70
     1
 71
     0
 10
0.0
 20
0.0
 30
0.0
  3
*X3845
  1

  4
*X38
  0
LINE
  5
61E
330
61B
100
AcDbEntity
  8
LC-003-005-----0
 62
     7
370
    25
100
AcDbLine
 10
586.2768
 20
490.110278
 30
0.0
 11
586.859248
 21
490.692726
 31
0.0
  0
LINE
  5
61F
330
61B
100
AcDbEntity
  8
LC-003-005-----0
 62
     7
370
    25
100
AcDbLine
 10
583.448373
 20
490.110278
 30
0.0
 11
585.743242
 21
492.405147
 31
0.0
  0
LINE
  5
620
330
61B
100
AcDbEntity
  8
LC-003-005-----0
 62
     7
370
    25
100
AcDbLine
 10
580.619946
 20
490.110278
 30
0.0
 11
583.119946
 21
492.610278
 31
0.0
  0
LINE
  5
621
330
61B
100
AcDbEntity
  8
LC-003-005-----0
 62
     7
370
    25
100
AcDbLine
 10
577.791519
 20
490.110278
 30
0.0
 11
580.291519
 21
492.610278
 31
0.0
  0
LINE
  5
622
330
61B
100
AcDbEntity
  8
LC-003-005-----0
 62
     7
370
    25
100
AcDbLine
 10
574.963091
 20
490.110278
 30
0.0
 11
577.463091
 21
492.610278
 31
0.0
  0
LINE
  5
623
330
61B
100
AcDbEntity
  8
LC-003-005-----0
 62
     7
370
    25
100
AcDbLine
 10
572.134664
 20
490.110278
 30
0.0
 11
574.634664
 21
492.610278
 31
0.0
  0
LINE
  5
624
330
61B
100
AcDbEntity
  8
LC-003-005-----0
 62
     7
370
    25
100
AcDbLine
 10
569.306237
 20
490.110278
 30
0.0
 11
571.806237
 21
492.610278
 31
0.0
  0
LINE
  5
625
330
61B
100
AcDbEntity
  8
LC-003-005-----0
 62
     7
370
    25
100
AcDbLine
 10
566.47781
 20
490.110278
 30
0.0
 11
568.97781
 21
492.610278
 31
0.0
  0
LINE
  5
626
330
61B
100
AcDbEntity
  8
LC-003-005-----0
 62
     7
370
    25
100
AcDbLine
 10
563.649383
 20
490.110278
 30
0.0
 11
566.149383
 21
492.610278
 31
0.0
  0
LINE
  5
627
330
61B
100
AcDbEntity
  8
LC-003-005-----0
 62
     7
370
    25
100
AcDbLine
 10
560.820956
 20
490.110278
 30
0.0
 11
563.320956
 21
492.610278
 31
0.0
  0
LINE
  5
628
330
61B
100
AcDbEntity
  8
LC-003-005-----0
 62
     7
370
    25
100
AcDbLine
 10
557.992529
 20
490.110278
 30
0.0
 11
560.492529
 21
492.610278
 31
0.0
  0
LINE
  5
629
330
61B
100
AcDbEntity
  8
LC-003-005-----0
 62
     7
370
    25
100
AcDbLine
 10
555.164102
 20
490.110278
 30
0.0
 11
557.664102
 21
492.610278
 31
0.0
  0
LINE
  5
62A
330
61B
100
AcDbEntity
  8
LC-003-005-----0
 62
     7
370
    25
100
AcDbLine
 10
552.335675
 20
490.110278
 30
0.0
 11
554.835675
 21
492.610278
 31
0.0
  0
LINE
  5
62B
330
61B
100
AcDbEntity
  8
LC-003-005-----0
 62
     7
370
    25
100
AcDbLine
 10
549.507247
 20
490.110278
 30
0.0
 11
552.007247
 21
492.610278
 31
0.0
  0
LINE
  5
62C
330
61B
100
AcDbEntity
  8
LC-003-005-----0
 62
     7
370
    25
100
AcDbLine
 10
546.67882
 20
490.110278
 30
0.0
 11
548.083354
 21
491.514811
 31
0.0
  0
LINE
  5
62D
330
61B
100
AcDbEntity
  8
LC-003-005-----0
 62
     7
370
    25
100
AcDbLine
 10
548.609586
 20
492.041044
 30
0.0
 11
549.17882
 21
492.610278
 31
0.0
  0
LINE
  5
62E
330
61B
100
AcDbEntity
  8
LC-003-005-----0
 62
     7
370
    25
100
AcDbLine
 10
544.233158
 20
490.493043
 30
0.0
 11
546.350393
 21
492.610278
 31
0.0
  0
LINE
  5
62F
330
61B
100
AcDbEntity
  8
LC-003-005-----0
 62
     7
370
    25
100
AcDbLine
 10
542.020304
 20
491.108616
 30
0.0
 11
543.521966
 21
492.610278
 31
0.0
  0
LINE
  5
630
330
61B
100
AcDbEntity
  8
LC-003-005-----0
 62
     7
370
    25
100
AcDbLine
 10
538.193539
 20
490.110278
 30
0.0
 11
540.693539
 21
492.610278
 31
0.0
  0
LINE
  5
631
330
61B
100
AcDbEntity
  8
LC-003-005-----0
 62
     7
370
    25
100
AcDbLine
 10
535.365112
 20
490.110278
 30
0.0
 11
537.865112
 21
492.610278
 31
0.0
  0
LINE
  5
632
330
61B
100
AcDbEntity
  8
LC-003-005-----0
 62
     7
370
    25
100
AcDbLine
 10
532.536685
 20
490.110278
 30
0.0
 11
535.036685
 21
492.610278
 31
0.0
  0
LINE
  5
633
330
61B
100
AcDbEntity
  8
LC-003-005-----0
 62
     7
370
    25
100
AcDbLine
 10
529.708258
 20
490.110278
 30
0.0
 11
532.208258
 21
492.610278
 31
0.0
  0
LINE
  5
634
330
61B
100
AcDbEntity
  8
LC-003-005-----0
 62
     7
370
    25
100
AcDbLine
 10
526.87983
 20
490.110278
 30
0.0
 11
529.37983
 21
492.610278
 31
0.0
  0
LINE
  5
635
330
61B
100
AcDbEntity
  8
LC-003-005-----0
 62
     7
370
    25
100
AcDbLine
 10
524.051403
 20
490.110278
 30
0.0
 11
526.551403
 21
492.610278
 31
0.0
  0
LINE
  5
636
330
61B
100
AcDbEntity
  8
LC-003-005-----0
 62
     7
370
    25
100
AcDbLine
 10
521.222976
 20
490.110278
 30
0.0
 11
523.722976
 21
492.610278
 31
0.0
  0
LINE
  5
637
330
61B
100
AcDbEntity
  8
LC-003-005-----0
 62
     7
370
    25
100
AcDbLine
 10
518.860948
 20
490.576677
 30
0.0
 11
522.360948
 21
494.076677
 31
0.0
  0
LINE
  5
638
330
61B
100
AcDbEntity
  8
LC-003-005-----0
 62
     7
370
    25
100
AcDbLine
 10
518.860948
 20
493.405104
 30
0.0
 11
522.360948
 21
496.905104
 31
0.0
  0
LINE
  5
639
330
61B
100
AcDbEntity
  8
LC-003-005-----0
 62
     7
370
    25
100
AcDbLine
 10
518.860948
 20
496.233531
 30
0.0
 11
521.889742
 21
499.262325
 31
0.0
  0
LINE
  5
63A
330
61B
100
AcDbEntity
  8
LC-003-005-----0
 62
     7
370
    25
100
AcDbLine
 10
518.860948
 20
499.061958
 30
0.0
 11
519.061315
 21
499.262325
 31
0.0
  0
ENDBLK
  5
61D
330
61B
100
AcDbEntity
  8
0
100
AcDbBlockEnd
  0
BLOCK
  5
643
330
642
100
AcDbEntity
  8
0
100
AcDbBlockBegin
  2
*X3946
 70
     1
 71
     0
 10
0.0
 20
0.0
 30
0.0
  3
*X3946
  1

  4
*X39
  0
LINE
  5
645
330
642
100
AcDbEntity
  8
LC-003-005-----0
 62
     7
370
    25
100
AcDbLine
 10
584.487478
 20
417.610278
 30
0.0
 11
586.860948
 21
419.983748
 31
0.0
  0
LINE
  5
646
330
642
100
AcDbEntity
  8
LC-003-005-----0
 62
     7
370
    25
100
AcDbLine
 10
581.659051
 20
417.610278
 30
0.0
 11
584.159051
 21
420.110278
 31
0.0
  0
LINE
  5
647
330
642
100
AcDbEntity
  8
LC-003-005-----0
 62
     7
370
    25
100
AcDbLine
 10
578.830624
 20
417.610278
 30
0.0
 11
581.330624
 21
420.110278
 31
0.0
  0
LINE
  5
648
330
642
100
AcDbEntity
  8
LC-003-005-----0
 62
     7
370
    25
100
AcDbLine
 10
576.002197
 20
417.610278
 30
0.0
 11
578.502197
 21
420.110278
 31
0.0
  0
LINE
  5
649
330
642
100
AcDbEntity
  8
LC-003-005-----0
 62
     7
370
    25
100
AcDbLine
 10
573.17377
 20
417.610278
 30
0.0
 11
575.67377
 21
420.110278
 31
0.0
  0
LINE
  5
64A
330
642
100
AcDbEntity
  8
LC-003-005-----0
 62
     7
370
    25
100
AcDbLine
 10
570.345342
 20
417.610278
 30
0.0
 11
572.845342
 21
420.110278
 31
0.0
  0
LINE
  5
64B
330
642
100
AcDbEntity
  8
LC-003-005-----0
 62
     7
370
    25
100
AcDbLine
 10
567.516915
 20
417.610278
 30
0.0
 11
570.016915
 21
420.110278
 31
0.0
  0
LINE
  5
64C
330
642
100
AcDbEntity
  8
LC-003-005-----0
 62
     7
370
    25
100
AcDbLine
 10
564.688488
 20
417.610278
 30
0.0
 11
567.188488
 21
420.110278
 31
0.0
  0
LINE
  5
64D
330
642
100
AcDbEntity
  8
LC-003-005-----0
 62
     7
370
    25
100
AcDbLine
 10
561.860061
 20
417.610278
 30
0.0
 11
564.360061
 21
420.110278
 31
0.0
  0
LINE
  5
64E
330
642
100
AcDbEntity
  8
LC-003-005-----0
 62
     7
370
    25
100
AcDbLine
 10
559.031634
 20
417.610278
 30
0.0
 11
561.531634
 21
420.110278
 31
0.0
  0
LINE
  5
64F
330
642
100
AcDbEntity
  8
LC-003-005-----0
 62
     7
370
    25
100
AcDbLine
 10
556.203207
 20
417.610278
 30
0.0
 11
558.703207
 21
420.110278
 31
0.0
  0
LINE
  5
650
330
642
100
AcDbEntity
  8
LC-003-005-----0
 62
     7
370
    25
100
AcDbLine
 10
553.37478
 20
417.610278
 30
0.0
 11
555.87478
 21
420.110278
 31
0.0
  0
LINE
  5
651
330
642
100
AcDbEntity
  8
LC-003-005-----0
 62
     7
370
    25
100
AcDbLine
 10
550.546353
 20
417.610278
 30
0.0
 11
553.046353
 21
420.110278
 31
0.0
  0
LINE
  5
652
330
642
100
AcDbEntity
  8
LC-003-005-----0
 62
     7
370
    25
100
AcDbLine
 10
548.563401
 20
418.455753
 30
0.0
 11
550.217925
 21
420.110278
 31
0.0
  0
LINE
  5
653
330
642
100
AcDbEntity
  8
LC-003-005-----0
 62
     7
370
    25
100
AcDbLine
 10
544.889498
 20
417.610278
 30
0.0
 11
547.389498
 21
420.110278
 31
0.0
  0
LINE
  5
654
330
642
100
AcDbEntity
  8
LC-003-005-----0
 62
     7
370
    25
100
AcDbLine
 10
542.061071
 20
417.610278
 30
0.0
 11
543.953927
 21
419.503133
 31
0.0
  0
LINE
  5
655
330
642
100
AcDbEntity
  8
LC-003-005-----0
 62
     7
370
    25
100
AcDbLine
 10
539.232644
 20
417.610278
 30
0.0
 11
541.118884
 21
419.496517
 31
0.0
  0
LINE
  5
656
330
642
100
AcDbEntity
  8
LC-003-005-----0
 62
     7
370
    25
100
AcDbLine
 10
536.404217
 20
417.610278
 30
0.0
 11
538.904217
 21
420.110278
 31
0.0
  0
LINE
  5
657
330
642
100
AcDbEntity
  8
LC-003-005-----0
 62
     7
370
    25
100
AcDbLine
 10
533.57579
 20
417.610278
 30
0.0
 11
536.07579
 21
420.110278
 31
0.0
  0
LINE
  5
658
330
642
100
AcDbEntity
  8
LC-003-005-----0
 62
     7
370
    25
100
AcDbLine
 10
530.747363
 20
417.610278
 30
0.0
 11
533.247363
 21
420.110278
 31
0.0
  0
LINE
  5
659
330
642
100
AcDbEntity
  8
LC-003-005-----0
 62
     7
370
    25
100
AcDbLine
 10
527.918936
 20
417.610278
 30
0.0
 11
530.418936
 21
420.110278
 31
0.0
  0
LINE
  5
65A
330
642
100
AcDbEntity
  8
LC-003-005-----0
 62
     7
370
    25
100
AcDbLine
 10
525.090508
 20
417.610278
 30
0.0
 11
527.590508
 21
420.110278
 31
0.0
  0
LINE
  5
65B
330
642
100
AcDbEntity
  8
LC-003-005-----0
 62
     7
370
    25
100
AcDbLine
 10
521.202649
 20
416.550846
 30
0.0
 11
524.762081
 21
420.110278
 31
0.0
  0
LINE
  5
65C
330
642
100
AcDbEntity
  8
LC-003-005-----0
 62
     7
370
    25
100
AcDbLine
 10
518.210566
 20
416.387189
 30
0.0
 11
521.933654
 21
420.110278
 31
0.0
  0
LINE
  5
65D
330
642
100
AcDbEntity
  8
LC-003-005-----0
 62
     7
370
    25
100
AcDbLine
 10
515.218482
 20
416.223533
 30
0.0
 11
519.105227
 21
420.110278
 31
0.0
  0
LINE
  5
65E
330
642
100
AcDbEntity
  8
LC-003-005-----0
 62
     7
370
    25
100
AcDbLine
 10
512.226398
 20
416.059876
 30
0.0
 11
516.127278
 21
419.960756
 31
0.0
  0
LINE
  5
65F
330
642
100
AcDbEntity
  8
LC-003-005-----0
 62
     7
370
    25
100
AcDbLine
 10
509.234315
 20
415.896219
 30
0.0
 11
513.135194
 21
419.797099
 31
0.0
  0
LINE
  5
660
330
642
100
AcDbEntity
  8
LC-003-005-----0
 62
     7
370
    25
100
AcDbLine
 10
506.242231
 20
415.732563
 30
0.0
 11
510.14311
 21
419.633442
 31
0.0
  0
LINE
  5
661
330
642
100
AcDbEntity
  8
LC-003-005-----0
 62
     7
370
    25
100
AcDbLine
 10
503.250147
 20
415.568906
 30
0.0
 11
507.151027
 21
419.469786
 31
0.0
  0
LINE
  5
662
330
642
100
AcDbEntity
  8
LC-003-005-----0
 62
     7
370
    25
100
AcDbLine
 10
500.258064
 20
415.40525
 30
0.0
 11
504.158943
 21
419.306129
 31
0.0
  0
LINE
  5
663
330
642
100
AcDbEntity
  8
LC-003-005-----0
 62
     7
370
    25
100
AcDbLine
 10
497.26598
 20
415.241593
 30
0.0
 11
501.166859
 21
419.142473
 31
0.0
  0
LINE
  5
664
330
642
100
AcDbEntity
  8
LC-003-005-----0
 62
     7
370
    25
100
AcDbLine
 10
494.273896
 20
415.077937
 30
0.0
 11
498.174776
 21
418.978816
 31
0.0
  0
LINE
  5
665
330
642
100
AcDbEntity
  8
LC-003-005-----0
 62
     7
370
    25
100
AcDbLine
 10
491.281813
 20
414.91428
 30
0.0
 11
495.182692
 21
418.81516
 31
0.0
  0
LINE
  5
666
330
642
100
AcDbEntity
  8
LC-003-005-----0
 62
     7
370
    25
100
AcDbLine
 10
488.289729
 20
414.750624
 30
0.0
 11
492.190609
 21
418.651503
 31
0.0
  0
LINE
  5
667
330
642
100
AcDbEntity
  8
LC-003-005-----0
 62
     7
370
    25
100
AcDbLine
 10
485.297645
 20
414.586967
 30
0.0
 11
489.198525
 21
418.487847
 31
0.0
  0
LINE
  5
668
330
642
100
AcDbEntity
  8
LC-003-005-----0
 62
     7
370
    25
100
AcDbLine
 10
482.305562
 20
414.423311
 30
0.0
 11
486.206441
 21
418.32419
 31
0.0
  0
LINE
  5
669
330
642
100
AcDbEntity
  8
LC-003-005-----0
 62
     7
370
    25
100
AcDbLine
 10
479.316149
 20
414.262325
 30
0.0
 11
483.214358
 21
418.160534
 31
0.0
  0
LINE
  5
66A
330
642
100
AcDbEntity
  8
LC-003-005-----0
 62
     7
370
    25
100
AcDbLine
 10
476.487722
 20
414.262325
 30
0.0
 11
478.487722
 21
416.262325
 31
0.0
  0
LINE
  5
66B
330
642
100
AcDbEntity
  8
LC-003-005-----0
 62
     7
370
    25
100
AcDbLine
 10
479.686794
 20
417.461398
 30
0.0
 11
479.930553
 21
417.705156
 31
0.0
  0
LINE
  5
66C
330
642
100
AcDbEntity
  8
LC-003-005-----0
 62
     7
370
    25
100
AcDbLine
 10
473.659295
 20
414.262325
 30
0.0
 11
475.659295
 21
416.262325
 31
0.0
  0
LINE
  5
66D
330
642
100
AcDbEntity
  8
LC-003-005-----0
 62
     7
370
    25
100
AcDbLine
 10
470.830867
 20
414.262325
 30
0.0
 11
472.830867
 21
416.262325
 31
0.0
  0
LINE
  5
66E
330
642
100
AcDbEntity
  8
LC-003-005-----0
 62
     7
370
    25
100
AcDbLine
 10
468.00244
 20
414.262325
 30
0.0
 11
470.00244
 21
416.262325
 31
0.0
  0
LINE
  5
66F
330
642
100
AcDbEntity
  8
LC-003-005-----0
 62
     7
370
    25
100
AcDbLine
 10
465.174013
 20
414.262325
 30
0.0
 11
467.174013
 21
416.262325
 31
0.0
  0
LINE
  5
670
330
642
100
AcDbEntity
  8
LC-003-005-----0
 62
     7
370
    25
100
AcDbLine
 10
462.345586
 20
414.262325
 30
0.0
 11
464.345586
 21
416.262325
 31
0.0
  0
LINE
  5
671
330
642
100
AcDbEntity
  8
LC-003-005-----0
 62
     7
370
    25
100
AcDbLine
 10
459.517159
 20
414.262325
 30
0.0
 11
461.517159
 21
416.262325
 31
0.0
  0
LINE
  5
672
330
642
100
AcDbEntity
  8
LC-003-005-----0
 62
     7
370
    25
100
AcDbLine
 10
456.688732
 20
414.262325
 30
0.0
 11
458.688732
 21
416.262325
 31
0.0
  0
LINE
  5
673
330
642
100
AcDbEntity
  8
LC-003-005-----0
 62
     7
370
    25
100
AcDbLine
 10
453.860305
 20
414.262325
 30
0.0
 11
455.860305
 21
416.262325
 31
0.0
  0
LINE
  5
674
330
642
100
AcDbEntity
  8
LC-003-005-----0
 62
     7
370
    25
100
AcDbLine
 10
451.031878
 20
414.262325
 30
0.0
 11
453.031878
 21
416.262325
 31
0.0
  0
LINE
  5
675
330
642
100
AcDbEntity
  8
LC-003-005-----0
 62
     7
370
    25
100
AcDbLine
 10
448.20345
 20
414.262325
 30
0.0
 11
450.20345
 21
416.262325
 31
0.0
  0
LINE
  5
676
330
642
100
AcDbEntity
  8
LC-003-005-----0
 62
     7
370
    25
100
AcDbLine
 10
445.375023
 20
414.262325
 30
0.0
 11
447.375023
 21
416.262325
 31
0.0
  0
LINE
  5
677
330
642
100
AcDbEntity
  8
LC-003-005-----0
 62
     7
370
    25
100
AcDbLine
 10
442.546596
 20
414.262325
 30
0.0
 11
444.546596
 21
416.262325
 31
0.0
  0
LINE
  5
678
330
642
100
AcDbEntity
  8
LC-003-005-----0
 62
     7
370
    25
100
AcDbLine
 10
439.718169
 20
414.262325
 30
0.0
 11
441.718169
 21
416.262325
 31
0.0
  0
LINE
  5
679
330
642
100
AcDbEntity
  8
LC-003-005-----0
 62
     7
370
    25
100
AcDbLine
 10
436.889742
 20
414.262325
 30
0.0
 11
438.889742
 21
416.262325
 31
0.0
  0
LINE
  5
67A
330
642
100
AcDbEntity
  8
LC-003-005-----0
 62
     7
370
    25
100
AcDbLine
 10
434.061315
 20
414.262325
 30
0.0
 11
436.061315
 21
416.262325
 31
0.0
  0
LINE
  5
67B
330
642
100
AcDbEntity
  8
LC-003-005-----0
 62
     7
370
    25
100
AcDbLine
 10
431.232888
 20
414.262325
 30
0.0
 11
433.232888
 21
416.262325
 31
0.0
  0
LINE
  5
67C
330
642
100
AcDbEntity
  8
LC-003-005-----0
 62
     7
370
    25
100
AcDbLine
 10
428.404461
 20
414.262325
 30
0.0
 11
430.404461
 21
416.262325
 31
0.0
  0
LINE
  5
67D
330
642
100
AcDbEntity
  8
LC-003-005-----0
 62
     7
370
    25
100
AcDbLine
 10
425.576033
 20
414.262325
 30
0.0
 11
427.576033
 21
416.262325
 31
0.0
  0
LINE
  5
67E
330
642
100
AcDbEntity
  8
LC-003-005-----0
 62
     7
370
    25
100
AcDbLine
 10
422.747606
 20
414.262325
 30
0.0
 11
424.747606
 21
416.262325
 31
0.0
  0
LINE
  5
67F
330
642
100
AcDbEntity
  8
LC-003-005-----0
 62
     7
370
    25
100
AcDbLine
 10
419.919179
 20
414.262325
 30
0.0
 11
421.919179
 21
416.262325
 31
0.0
  0
LINE
  5
680
330
642
100
AcDbEntity
  8
LC-003-005-----0
 62
     7
370
    25
100
AcDbLine
 10
417.090752
 20
414.262325
 30
0.0
 11
419.090752
 21
416.262325
 31
0.0
  0
LINE
  5
681
330
642
100
AcDbEntity
  8
LC-003-005-----0
 62
     7
370
    25
100
AcDbLine
 10
414.262325
 20
414.262325
 30
0.0
 11
416.262325
 21
416.262325
 31
0.0
  0
LINE
  5
682
330
642
100
AcDbEntity
  8
LC-003-005-----0
 62
     7
370
    25
100
AcDbLine
 10
411.433898
 20
414.262325
 30
0.0
 11
413.433898
 21
416.262325
 31
0.0
  0
LINE
  5
683
330
642
100
AcDbEntity
  8
LC-003-005-----0
 62
     7
370
    25
100
AcDbLine
 10
408.605471
 20
414.262325
 30
0.0
 11
410.605471
 21
416.262325
 31
0.0
  0
LINE
  5
684
330
642
100
AcDbEntity
  8
LC-003-005-----0
 62
     7
370
    25
100
AcDbLine
 10
405.777044
 20
414.262325
 30
0.0
 11
407.777044
 21
416.262325
 31
0.0
  0
LINE
  5
685
330
642
100
AcDbEntity
  8
LC-003-005-----0
 62
     7
370
    25
100
AcDbLine
 10
402.948617
 20
414.262325
 30
0.0
 11
404.948617
 21
416.262325
 31
0.0
  0
LINE
  5
686
330
642
100
AcDbEntity
  8
LC-003-005-----0
 62
     7
370
    25
100
AcDbLine
 10
400.120189
 20
414.262325
 30
0.0
 11
402.120189
 21
416.262325
 31
0.0
  0
LINE
  5
687
330
642
100
AcDbEntity
  8
LC-003-005-----0
 62
     7
370
    25
100
AcDbLine
 10
397.291762
 20
414.262325
 30
0.0
 11
399.291762
 21
416.262325
 31
0.0
  0
LINE
  5
688
330
642
100
AcDbEntity
  8
LC-003-005-----0
 62
     7
370
    25
100
AcDbLine
 10
394.463335
 20
414.262325
 30
0.0
 11
396.463335
 21
416.262325
 31
0.0
  0
LINE
  5
689
330
642
100
AcDbEntity
  8
LC-003-005-----0
 62
     7
370
    25
100
AcDbLine
 10
391.634908
 20
414.262325
 30
0.0
 11
393.634908
 21
416.262325
 31
0.0
  0
LINE
  5
68A
330
642
100
AcDbEntity
  8
LC-003-005-----0
 62
     7
370
    25
100
AcDbLine
 10
388.806481
 20
414.262325
 30
0.0
 11
390.806481
 21
416.262325
 31
0.0
  0
LINE
  5
68B
330
642
100
AcDbEntity
  8
LC-003-005-----0
 62
     7
370
    25
100
AcDbLine
 10
385.978054
 20
414.262325
 30
0.0
 11
387.978054
 21
416.262325
 31
0.0
  0
LINE
  5
68C
330
642
100
AcDbEntity
  8
LC-003-005-----0
 62
     7
370
    25
100
AcDbLine
 10
383.149627
 20
414.262325
 30
0.0
 11
385.149627
 21
416.262325
 31
0.0
  0
LINE
  5
68D
330
642
100
AcDbEntity
  8
LC-003-005-----0
 62
     7
370
    25
100
AcDbLine
 10
380.3212
 20
414.262325
 30
0.0
 11
382.3212
 21
416.262325
 31
0.0
  0
LINE
  5
68E
330
642
100
AcDbEntity
  8
LC-003-005-----0
 62
     7
370
    25
100
AcDbLine
 10
377.492772
 20
414.262325
 30
0.0
 11
379.492772
 21
416.262325
 31
0.0
  0
LINE
  5
68F
330
642
100
AcDbEntity
  8
LC-003-005-----0
 62
     7
370
    25
100
AcDbLine
 10
374.664345
 20
414.262325
 30
0.0
 11
376.664345
 21
416.262325
 31
0.0
  0
LINE
  5
690
330
642
100
AcDbEntity
  8
LC-003-005-----0
 62
     7
370
    25
100
AcDbLine
 10
371.835918
 20
414.262325
 30
0.0
 11
373.835918
 21
416.262325
 31
0.0
  0
LINE
  5
691
330
642
100
AcDbEntity
  8
LC-003-005-----0
 62
     7
370
    25
100
AcDbLine
 10
369.007491
 20
414.262325
 30
0.0
 11
371.007491
 21
416.262325
 31
0.0
  0
LINE
  5
692
330
642
100
AcDbEntity
  8
LC-003-005-----0
 62
     7
370
    25
100
AcDbLine
 10
366.179064
 20
414.262325
 30
0.0
 11
368.179064
 21
416.262325
 31
0.0
  0
LINE
  5
693
330
642
100
AcDbEntity
  8
LC-003-005-----0
 62
     7
370
    25
100
AcDbLine
 10
363.350637
 20
414.262325
 30
0.0
 11
365.350637
 21
416.262325
 31
0.0
  0
LINE
  5
694
330
642
100
AcDbEntity
  8
LC-003-005-----0
 62
     7
370
    25
100
AcDbLine
 10
360.52221
 20
414.262325
 30
0.0
 11
362.52221
 21
416.262325
 31
0.0
  0
LINE
  5
695
330
642
100
AcDbEntity
  8
LC-003-005-----0
 62
     7
370
    25
100
AcDbLine
 10
357.693783
 20
414.262325
 30
0.0
 11
359.693783
 21
416.262325
 31
0.0
  0
LINE
  5
696
330
642
100
AcDbEntity
  8
LC-003-005-----0
 62
     7
370
    25
100
AcDbLine
 10
354.865355
 20
414.262325
 30
0.0
 11
356.865355
 21
416.262325
 31
0.0
  0
LINE
  5
697
330
642
100
AcDbEntity
  8
LC-003-005-----0
 62
     7
370
    25
100
AcDbLine
 10
352.036928
 20
414.262325
 30
0.0
 11
354.036928
 21
416.262325
 31
0.0
  0
LINE
  5
698
330
642
100
AcDbEntity
  8
LC-003-005-----0
 62
     7
370
    25
100
AcDbLine
 10
349.208501
 20
414.262325
 30
0.0
 11
351.208501
 21
416.262325
 31
0.0
  0
LINE
  5
699
330
642
100
AcDbEntity
  8
LC-003-005-----0
 62
     7
370
    25
100
AcDbLine
 10
346.380074
 20
414.262325
 30
0.0
 11
348.380074
 21
416.262325
 31
0.0
  0
LINE
  5
69A
330
642
100
AcDbEntity
  8
LC-003-005-----0
 62
     7
370
    25
100
AcDbLine
 10
343.551647
 20
414.262325
 30
0.0
 11
345.551647
 21
416.262325
 31
0.0
  0
LINE
  5
69B
330
642
100
AcDbEntity
  8
LC-003-005-----0
 62
     7
370
    25
100
AcDbLine
 10
340.72322
 20
414.262325
 30
0.0
 11
342.72322
 21
416.262325
 31
0.0
  0
LINE
  5
69C
330
642
100
AcDbEntity
  8
LC-003-005-----0
 62
     7
370
    25
100
AcDbLine
 10
337.894793
 20
414.262325
 30
0.0
 11
339.894793
 21
416.262325
 31
0.0
  0
LINE
  5
69D
330
642
100
AcDbEntity
  8
LC-003-005-----0
 62
     7
370
    25
100
AcDbLine
 10
335.066366
 20
414.262325
 30
0.0
 11
338.574192
 21
417.770151
 31
0.0
  0
LINE
  5
69E
330
642
100
AcDbEntity
  8
LC-003-005-----0
 62
     7
370
    25
100
AcDbLine
 10
332.237938
 20
414.262325
 30
0.0
 11
335.925453
 21
417.94984
 31
0.0
  0
LINE
  5
69F
330
642
100
AcDbEntity
  8
LC-003-005-----0
 62
     7
370
    25
100
AcDbLine
 10
329.409511
 20
414.262325
 30
0.0
 11
333.097026
 21
417.94984
 31
0.0
  0
LINE
  5
6A0
330
642
100
AcDbEntity
  8
LC-003-005-----0
 62
     7
370
    25
100
AcDbLine
 10
326.581084
 20
414.262325
 30
0.0
 11
330.268599
 21
417.94984
 31
0.0
  0
LINE
  5
6A1
330
642
100
AcDbEntity
  8
LC-003-005-----0
 62
     7
370
    25
100
AcDbLine
 10
323.752657
 20
414.262325
 30
0.0
 11
327.440172
 21
417.94984
 31
0.0
  0
LINE
  5
6A2
330
642
100
AcDbEntity
  8
LC-003-005-----0
 62
     7
370
    25
100
AcDbLine
 10
321.339472
 20
414.677568
 30
0.0
 11
324.718276
 21
418.056372
 31
0.0
  0
LINE
  5
6A3
330
642
100
AcDbEntity
  8
LC-003-005-----0
 62
     7
370
    25
100
AcDbLine
 10
320.05036
 20
416.216883
 30
0.0
 11
323.399486
 21
419.566008
 31
0.0
  0
LINE
  5
6A4
330
642
100
AcDbEntity
  8
LC-003-005-----0
 62
     7
370
    25
100
AcDbLine
 10
315.267376
 20
414.262325
 30
0.0
 11
317.362308
 21
416.357258
 31
0.0
  0
LINE
  5
6A5
330
642
100
AcDbEntity
  8
LC-003-005-----0
 62
     7
370
    25
100
AcDbLine
 10
319.862308
 20
418.857258
 30
0.0
 11
323.362308
 21
422.357258
 31
0.0
  0
LINE
  5
6A6
330
642
100
AcDbEntity
  8
LC-003-005-----0
 62
     7
370
    25
100
AcDbLine
 10
314.862308
 20
416.685685
 30
0.0
 11
317.362308
 21
419.185685
 31
0.0
  0
LINE
  5
6A7
330
642
100
AcDbEntity
  8
LC-003-005-----0
 62
     7
370
    25
100
AcDbLine
 10
319.862308
 20
421.685685
 30
0.0
 11
323.362308
 21
425.185685
 31
0.0
  0
LINE
  5
6A8
330
642
100
AcDbEntity
  8
LC-003-005-----0
 62
     7
370
    25
100
AcDbLine
 10
314.862308
 20
419.514112
 30
0.0
 11
317.362308
 21
422.014112
 31
0.0
  0
LINE
  5
6A9
330
642
100
AcDbEntity
  8
LC-003-005-----0
 62
     7
370
    25
100
AcDbLine
 10
319.862308
 20
424.514112
 30
0.0
 11
323.362308
 21
428.014112
 31
0.0
  0
LINE
  5
6AA
330
642
100
AcDbEntity
  8
LC-003-005-----0
 62
     7
370
    25
100
AcDbLine
 10
314.862308
 20
422.342539
 30
0.0
 11
317.362308
 21
424.842539
 31
0.0
  0
LINE
  5
6AB
330
642
100
AcDbEntity
  8
LC-003-005-----0
 62
     7
370
    25
100
AcDbLine
 10
319.862308
 20
427.342539
 30
0.0
 11
323.362308
 21
430.842539
 31
0.0
  0
LINE
  5
6AC
330
642
100
AcDbEntity
  8
LC-003-005-----0
 62
     7
370
    25
100
AcDbLine
 10
314.862308
 20
425.170966
 30
0.0
 11
317.362308
 21
427.670966
 31
0.0
  0
LINE
  5
6AD
330
642
100
AcDbEntity
  8
LC-003-005-----0
 62
     7
370
    25
100
AcDbLine
 10
319.862308
 20
430.170966
 30
0.0
 11
323.362308
 21
433.670966
 31
0.0
  0
LINE
  5
6AE
330
642
100
AcDbEntity
  8
LC-003-005-----0
 62
     7
370
    25
100
AcDbLine
 10
314.862308
 20
427.999393
 30
0.0
 11
317.362308
 21
430.499393
 31
0.0
  0
LINE
  5
6AF
330
642
100
AcDbEntity
  8
LC-003-005-----0
 62
     7
370
    25
100
AcDbLine
 10
319.862308
 20
432.999393
 30
0.0
 11
323.362308
 21
436.499393
 31
0.0
  0
LINE
  5
6B0
330
642
100
AcDbEntity
  8
LC-003-005-----0
 62
     7
370
    25
100
AcDbLine
 10
314.862308
 20
430.82782
 30
0.0
 11
317.362308
 21
433.32782
 31
0.0
  0
LINE
  5
6B1
330
642
100
AcDbEntity
  8
LC-003-005-----0
 62
     7
370
    25
100
AcDbLine
 10
318.720789
 20
434.686301
 30
0.0
 11
323.362308
 21
439.32782
 31
0.0
  0
LINE
  5
6B2
330
642
100
AcDbEntity
  8
LC-003-005-----0
 62
     7
370
    25
100
AcDbLine
 10
314.362308
 20
433.156247
 30
0.0
 11
323.362308
 21
442.156247
 31
0.0
  0
LINE
  5
6B3
330
642
100
AcDbEntity
  8
LC-003-005-----0
 62
     7
370
    25
100
AcDbLine
 10
314.362308
 20
435.984675
 30
0.0
 11
323.362308
 21
444.984675
 31
0.0
  0
LINE
  5
6B4
330
642
100
AcDbEntity
  8
LC-003-005-----0
 62
     7
370
    25
100
AcDbLine
 10
314.862308
 20
439.313102
 30
0.0
 11
323.362308
 21
447.813102
 31
0.0
  0
LINE
  5
6B5
330
642
100
AcDbEntity
  8
LC-003-005-----0
 62
     7
370
    25
100
AcDbLine
 10
314.862308
 20
442.141529
 30
0.0
 11
323.362308
 21
450.641529
 31
0.0
  0
LINE
  5
6B6
330
642
100
AcDbEntity
  8
LC-003-005-----0
 62
     7
370
    25
100
AcDbLine
 10
314.862308
 20
444.969956
 30
0.0
 11
323.362308
 21
453.469956
 31
0.0
  0
LINE
  5
6B7
330
642
100
AcDbEntity
  8
LC-003-005-----0
 62
     7
370
    25
100
AcDbLine
 10
314.862308
 20
447.798383
 30
0.0
 11
323.362308
 21
456.298383
 31
0.0
  0
LINE
  5
6B8
330
642
100
AcDbEntity
  8
LC-003-005-----0
 62
     7
370
    25
100
AcDbLine
 10
314.862308
 20
450.62681
 30
0.0
 11
319.345776
 21
455.110278
 31
0.0
  0
LINE
  5
6B9
330
642
100
AcDbEntity
  8
LC-003-005-----0
 62
     7
370
    25
100
AcDbLine
 10
319.862308
 20
455.62681
 30
0.0
 11
323.362308
 21
459.12681
 31
0.0
  0
LINE
  5
6BA
330
642
100
AcDbEntity
  8
LC-003-005-----0
 62
     7
370
    25
100
AcDbLine
 10
314.862308
 20
453.455237
 30
0.0
 11
316.517349
 21
455.110278
 31
0.0
  0
LINE
  5
6BB
330
642
100
AcDbEntity
  8
LC-003-005-----0
 62
     7
370
    25
100
AcDbLine
 10
319.862308
 20
458.455237
 30
0.0
 11
323.362308
 21
461.955237
 31
0.0
  0
LINE
  5
6BC
330
642
100
AcDbEntity
  8
LC-003-005-----0
 62
     7
370
    25
100
AcDbLine
 10
319.862308
 20
461.283664
 30
0.0
 11
323.362308
 21
464.783664
 31
0.0
  0
LINE
  5
6BD
330
642
100
AcDbEntity
  8
LC-003-005-----0
 62
     7
370
    25
100
AcDbLine
 10
319.862308
 20
464.112092
 30
0.0
 11
323.362308
 21
467.612092
 31
0.0
  0
LINE
  5
6BE
330
642
100
AcDbEntity
  8
LC-003-005-----0
 62
     7
370
    25
100
AcDbLine
 10
319.862308
 20
466.940519
 30
0.0
 11
323.362308
 21
470.440519
 31
0.0
  0
LINE
  5
6BF
330
642
100
AcDbEntity
  8
LC-003-005-----0
 62
     7
370
    25
100
AcDbLine
 10
319.862308
 20
469.768946
 30
0.0
 11
323.362308
 21
473.268946
 31
0.0
  0
LINE
  5
6C0
330
642
100
AcDbEntity
  8
LC-003-005-----0
 62
     7
370
    25
100
AcDbLine
 10
319.862308
 20
472.597373
 30
0.0
 11
323.362308
 21
476.097373
 31
0.0
  0
LINE
  5
6C1
330
642
100
AcDbEntity
  8
LC-003-005-----0
 62
     7
370
    25
100
AcDbLine
 10
319.862308
 20
475.4258
 30
0.0
 11
323.362308
 21
478.9258
 31
0.0
  0
LINE
  5
6C2
330
642
100
AcDbEntity
  8
LC-003-005-----0
 62
     7
370
    25
100
AcDbLine
 10
319.862308
 20
478.254227
 30
0.0
 11
323.362308
 21
481.754227
 31
0.0
  0
LINE
  5
6C3
330
642
100
AcDbEntity
  8
LC-003-005-----0
 62
     7
370
    25
100
AcDbLine
 10
319.862308
 20
481.082654
 30
0.0
 11
323.362308
 21
484.582654
 31
0.0
  0
LINE
  5
6C4
330
642
100
AcDbEntity
  8
LC-003-005-----0
 62
     7
370
    25
100
AcDbLine
 10
319.862308
 20
483.911081
 30
0.0
 11
323.362308
 21
487.411081
 31
0.0
  0
LINE
  5
6C5
330
642
100
AcDbEntity
  8
LC-003-005-----0
 62
     7
370
    25
100
AcDbLine
 10
319.862308
 20
486.739509
 30
0.0
 11
323.362308
 21
490.239509
 31
0.0
  0
LINE
  5
6C6
330
642
100
AcDbEntity
  8
LC-003-005-----0
 62
     7
370
    25
100
AcDbLine
 10
319.862308
 20
489.567936
 30
0.0
 11
323.362308
 21
493.067936
 31
0.0
  0
LINE
  5
6C7
330
642
100
AcDbEntity
  8
LC-003-005-----0
 62
     7
370
    25
100
AcDbLine
 10
319.862308
 20
492.396363
 30
0.0
 11
323.362308
 21
495.896363
 31
0.0
  0
LINE
  5
6C8
330
642
100
AcDbEntity
  8
LC-003-005-----0
 62
     7
370
    25
100
AcDbLine
 10
319.862308
 20
495.22479
 30
0.0
 11
323.362308
 21
498.72479
 31
0.0
  0
LINE
  5
6C9
330
642
100
AcDbEntity
  8
LC-003-005-----0
 62
     7
370
    25
100
AcDbLine
 10
319.862308
 20
498.053217
 30
0.0
 11
321.071416
 21
499.262325
 31
0.0
  0
ENDBLK
  5
644
330
642
100
AcDbEntity
  8
0
100
AcDbBlockEnd
  0
BLOCK
  5
6CD
330
6CC
100
AcDbEntity
  8
0
100
AcDbBlockBegin
  2
*X4047
 70
     1
 71
     0
 10
0.0
 20
0.0
 30
0.0
  3
*X4047
  1

  4
*X40
  0
LINE
  5
6CF
330
6CC
100
AcDbEntity
  8
LC-003-005-----0
 62
     7
370
    25
100
AcDbLine
 10
292.639959
 20
414.262325
 30
0.0
 11
293.862308
 21
415.484675
 31
0.0
  0
LINE
  5
6D0
330
6CC
100
AcDbEntity
  8
LC-003-005-----0
 62
     7
370
    25
100
AcDbLine
 10
291.362308
 20
415.813102
 30
0.0
 11
293.862308
 21
418.313102
 31
0.0
  0
LINE
  5
6D1
330
6CC
100
AcDbEntity
  8
LC-003-005-----0
 62
     7
370
    25
100
AcDbLine
 10
291.362308
 20
418.641529
 30
0.0
 11
293.862308
 21
421.141529
 31
0.0
  0
LINE
  5
6D2
330
6CC
100
AcDbEntity
  8
LC-003-005-----0
 62
     7
370
    25
100
AcDbLine
 10
291.362308
 20
421.469956
 30
0.0
 11
293.862308
 21
423.969956
 31
0.0
  0
LINE
  5
6D3
330
6CC
100
AcDbEntity
  8
LC-003-005-----0
 62
     7
370
    25
100
AcDbLine
 10
291.362308
 20
424.298383
 30
0.0
 11
293.862308
 21
426.798383
 31
0.0
  0
LINE
  5
6D4
330
6CC
100
AcDbEntity
  8
LC-003-005-----0
 62
     7
370
    25
100
AcDbLine
 10
291.362308
 20
427.12681
 30
0.0
 11
293.862308
 21
429.62681
 31
0.0
  0
LINE
  5
6D5
330
6CC
100
AcDbEntity
  8
LC-003-005-----0
 62
     7
370
    25
100
AcDbLine
 10
291.362308
 20
429.955237
 30
0.0
 11
294.362308
 21
432.955237
 31
0.0
  0
LINE
  5
6D6
330
6CC
100
AcDbEntity
  8
LC-003-005-----0
 62
     7
370
    25
100
AcDbLine
 10
291.362308
 20
432.783664
 30
0.0
 11
294.362308
 21
435.783664
 31
0.0
  0
LINE
  5
6D7
330
6CC
100
AcDbEntity
  8
LC-003-005-----0
 62
     7
370
    25
100
AcDbLine
 10
291.362308
 20
435.612092
 30
0.0
 11
293.862308
 21
438.112092
 31
0.0
  0
LINE
  5
6D8
330
6CC
100
AcDbEntity
  8
LC-003-005-----0
 62
     7
370
    25
100
AcDbLine
 10
291.362308
 20
438.440519
 30
0.0
 11
293.862308
 21
440.940519
 31
0.0
  0
LINE
  5
6D9
330
6CC
100
AcDbEntity
  8
LC-003-005-----0
 62
     7
370
    25
100
AcDbLine
 10
291.362308
 20
441.268946
 30
0.0
 11
293.862308
 21
443.768946
 31
0.0
  0
LINE
  5
6DA
330
6CC
100
AcDbEntity
  8
LC-003-005-----0
 62
     7
370
    25
100
AcDbLine
 10
291.362308
 20
444.097373
 30
0.0
 11
293.862308
 21
446.597373
 31
0.0
  0
LINE
  5
6DB
330
6CC
100
AcDbEntity
  8
LC-003-005-----0
 62
     7
370
    25
100
AcDbLine
 10
291.362308
 20
446.9258
 30
0.0
 11
293.862308
 21
449.4258
 31
0.0
  0
LINE
  5
6DC
330
6CC
100
AcDbEntity
  8
LC-003-005-----0
 62
     7
370
    25
100
AcDbLine
 10
291.362308
 20
449.754227
 30
0.0
 11
293.862308
 21
452.254227
 31
0.0
  0
LINE
  5
6DD
330
6CC
100
AcDbEntity
  8
LC-003-005-----0
 62
     7
370
    25
100
AcDbLine
 10
290.362308
 20
451.582654
 30
0.0
 11
293.862308
 21
455.082654
 31
0.0
  0
LINE
  5
6DE
330
6CC
100
AcDbEntity
  8
LC-003-005-----0
 62
     7
370
    25
100
AcDbLine
 10
290.362308
 20
454.411081
 30
0.0
 11
291.061505
 21
455.110278
 31
0.0
  0
ENDBLK
  5
6CE
330
6CC
100
AcDbEntity
  8
0
100
AcDbBlockEnd
  0
BLOCK
  5
6E1
330
6E0
100
AcDbEntity
  8
0
100
AcDbBlockBegin
  2
*X4148
 70
     1
 71
     0
 10
0.0
 20
0.0
 30
0.0
  3
*X4148
  1

  4
*X41
  0
ENDBLK
  5
6E2
330
6E0
100
AcDbEntity
  8
0
100
AcDbBlockEnd
  0
BLOCK
  5
6E5
330
6E4
100
AcDbEntity
  8
0
100
AcDbBlockBegin
  2
*X4249
 70
     1
 71
     0
 10
0.0
 20
0.0
 30
0.0
  3
*X4249
  1

  4
*X42
  0
ENDBLK
  5
6E6
330
6E4
100
AcDbEntity
  8
0
100
AcDbBlockEnd
  0
ENDSEC
  0
SECTION
  2
ENTITIES
  0
LINE
  5
31
330
1F
100
AcDbEntity
  8
LC-001-002-----0
 62
     7
370
    50
100
AcDbLine
 10
479.362308
 20
378.186301
 30
0.0
 11
499.362308
 21
378.186301
 31
0.0
  0
CIRCLE
  5
32
330
1F
100
AcDbEntity
  8
LC-001-002-----0
 62
     7
370
    50
100
AcDbCircle
 10
542.5316
 20
421.559097
 30
0.0
 40
2.499999999999773
  0
LINE
  5
33
330
1F
100
AcDbEntity
  8
LC-001-002-----0
 62
     7
370
    25
100
AcDbLine
 10
369.722046
 20
566.343623
 30
0.0
 11
369.722046
 21
581.343623
 31
0.0
  0
LINE
  5
35
330
1F
100
AcDbEntity
  8
LC-001-002-----0
  6
DASHDOT
 62
     7
370
    25
100
AcDbLine
 10
586.860948
 20
455.110278
 30
0.0
 11
502.362308
 21
455.110278
 31
0.0
  0
LINE
  5
36
330
1F
100
AcDbEntity
  8
LC-001-002-----0
 62
     7
370
    50
100
AcDbLine
 10
364.315063
 20
511.894823
 30
0.0
 11
454.403253
 21
511.894823
 31
0.0
  0
LINE
  5
37
330
1F
100
AcDbEntity
  8
LC-001-002-----0
 62
     7
370
    25
100
AcDbLine
 10
369.722046
 20
581.343623
 30
0.0
 11
384.722046
 21
581.343623
 31
0.0
  0
LINE
  5
38
330
1F
100
AcDbEntity
  8
LC-001-002-----0
 62
     7
370
    25
100
AcDbLine
 10
384.722046
 20
581.343623
 30
0.0
 11
384.722046
 21
566.343623
 31
0.0
  0
LINE
  5
39
330
1F
100
AcDbEntity
  8
LC-001-002-----0
 62
     7
370
    25
100
AcDbLine
 10
384.722046
 20
566.343623
 30
0.0
 11
369.722046
 21
566.343623
 31
0.0
  0
LINE
  5
3A
330
1F
100
AcDbEntity
  8
LC-001-002-----0
 62
     7
370
    50
100
AcDbLine
 10
534.889375
 20
417.110278
 30
0.0
 11
534.889375
 21
415.110278
 31
0.0
  0
LINE
  5
3B
330
1F
100
AcDbEntity
  8
LC-001-002-----0
 62
     7
370
    50
100
AcDbLine
 10
319.862308
 20
499.262325
 30
0.0
 11
354.359158
 21
499.262325
 31
0.0
  0
ARC
  5
3C
102
{ACAD_REACTORS
330
6F8
102
}
330
1F
100
AcDbEntity
  8
LC-001-002-----0
 62
     7
370
    50
100
AcDbCircle
 10
359.862308
 20
442.059097
 30
0.0
 40
15.0
100
AcDbArc
 50
180.0
 51
270.0
  0
LINE
  5
3D
102
{ACAD_REACTORS
330
6F8
102
}
330
1F
100
AcDbEntity
  8
LC-001-002-----0
 62
     7
370
    50
100
AcDbLine
 10
505.362308
 20
486.054215
 30
0.0
 11
505.362308
 21
488.559097
 31
0.0
  0
LINE
  5
3E
102
{ACAD_REACTORS
330
6F8
102
}
330
1F
100
AcDbEntity
  8
LC-001-002-----0
 62
     7
370
    50
100
AcDbLine
 10
359.862308
 20
424.059097
 30
0.0
 11
361.111718
 21
424.059097
 31
0.0
  0
LINE
  5
3F
102
{ACAD_REACTORS
330
6F8
102
}
330
1F
100
AcDbEntity
  8
LC-001-002-----0
 62
     7
370
    50
100
AcDbLine
 10
361.111718
 20
423.762325
 30
0.0
 11
361.111718
 21
424.059097
 31
0.0
  0
LINE
  5
40
102
{ACAD_REACTORS
330
6F8
102
}
330
1F
100
AcDbEntity
  8
LC-001-002-----0
 62
     7
370
    50
100
AcDbLine
 10
553.0316
 20
486.054215
 30
0.0
 11
549.850933
 21
486.054215
 31
0.0
  0
ARC
  5
42
102
{ACAD_REACTORS
330
6F8
102
}
330
1F
100
AcDbEntity
  8
LC-002-002-RND-0
 62
     7
370
    50
100
AcDbCircle
 10
362.111718
 20
425.059097
 30
0.0
 40
2.0
100
AcDbArc
 50
0.0
 51
90.0
  0
LINE
  5
43
102
{ACAD_REACTORS
330
6F8
102
}
330
1F
100
AcDbEntity
  8
LC-001-002-----0
 62
     7
370
    50
100
AcDbLine
 10
364.111718
 20
423.715081
 30
0.0
 11
364.111718
 21
425.059097
 31
0.0
  0
LINE
  5
44
102
{ACAD_REACTORS
330
6F8
102
}
330
1F
100
AcDbEntity
  8
LC-001-002-----0
 62
     7
370
    50
100
AcDbLine
 10
368.611718
 20
416.262325
 30
0.0
 11
450.112899
 21
416.262325
 31
0.0
  0
LINE
  5
45
102
{ACAD_REACTORS
330
6F8
102
}
330
1F
100
AcDbEntity
  8
LC-001-002-----0
 62
     7
370
    50
100
AcDbLine
 10
341.862308
 20
488.559097
 30
0.0
 11
341.862308
 21
442.059097
 31
0.0
  0
ARC
  5
46
102
{ACAD_REACTORS
330
6F8
102
}
330
1F
100
AcDbEntity
  8
LC-002-002-RND-0
 62
     7
370
    50
100
AcDbCircle
 10
368.611718
 20
423.762325
 30
0.0
 40
7.5
100
AcDbArc
 50
180.0
 51
270.0
  0
LINE
  5
47
102
{ACAD_REACTORS
330
6F8
102
}
330
1F
100
AcDbEntity
  8
LC-001-002-----0
 62
     7
370
    50
100
AcDbLine
 10
555.0316
 20
426.059097
 30
0.0
 11
555.0316
 21
484.054215
 31
0.0
  0
LINE
  5
48
102
{ACAD_REACTORS
330
6F8
102
}
330
1F
100
AcDbEntity
  8
LC-001-002-----0
 62
     7
370
    50
100
AcDbLine
 10
502.362308
 20
488.559097
 30
0.0
 11
502.362308
 21
427.042939
 31
0.0
  0
ARC
  5
49
102
{ACAD_REACTORS
330
6F8
102
}
330
1F
100
AcDbEntity
  8
LC-002-002-RND-0
 62
     7
370
    50
100
AcDbCircle
 10
450.112899
 20
423.762325
 30
0.0
 40
7.5
100
AcDbArc
 50
270.0
 51
0.0
  0
LINE
  5
4A
102
{ACAD_REACTORS
330
6F8
102
}
330
1F
100
AcDbEntity
  8
LC-001-002-----0
 62
     7
370
    50
100
AcDbLine
 10
450.112899
 20
419.215081
 30
0.0
 11
368.611718
 21
419.215081
 31
0.0
  0
ARC
  5
4B
102
{ACAD_REACTORS
330
6F8
102
}
330
1F
100
AcDbEntity
  8
LC-002-002-RND-0
 62
     7
370
    50
100
AcDbCircle
 10
553.0316
 20
484.054215
 30
0.0
 40
2.0
100
AcDbArc
 50
0.0
 51
90.0
  0
ARC
  5
4C
102
{ACAD_REACTORS
330
6F8
102
}
330
1F
100
AcDbEntity
  8
LC-002-002-RND-0
 62
     7
370
    50
100
AcDbCircle
 10
450.112899
 20
423.715081
 30
0.0
 40
4.5
100
AcDbArc
 50
270.0
 51
0.0
  0
ARC
  5
4D
102
{ACAD_REACTORS
330
6F8
102
}
330
1F
100
AcDbEntity
  8
LC-002-002-RND-0
 62
     7
370
    50
100
AcDbCircle
 10
368.611718
 20
423.715081
 30
0.0
 40
4.5
100
AcDbArc
 50
180.0
 51
270.0
  0
ARC
  5
4E
102
{ACAD_REACTORS
330
6F8
102
}
330
1F
100
AcDbEntity
  8
LC-002-002-RND-0
 62
     7
370
    50
100
AcDbCircle
 10
456.612899
 20
425.059097
 30
0.0
 40
2.0
100
AcDbArc
 50
90.0
 51
180.0
  0
LINE
  5
4F
102
{ACAD_REACTORS
330
6F8
102
}
330
1F
100
AcDbEntity
  8
LC-001-002-----0
 62
     7
370
    50
100
AcDbLine
 10
344.862308
 20
488.559097
 30
0.0
 11
341.862308
 21
488.559097
 31
0.0
  0
LINE
  5
50
102
{ACAD_REACTORS
330
6F8
102
}
330
1F
100
AcDbEntity
  8
LC-001-002-----0
 62
     7
370
    50
100
AcDbLine
 10
344.862308
 20
442.059097
 30
0.0
 11
344.862308
 21
488.559097
 31
0.0
  0
ARC
  5
51
102
{ACAD_REACTORS
330
6F8
102
}
330
1F
100
AcDbEntity
  8
LC-001-002-----0
 62
     7
370
    50
100
AcDbCircle
 10
359.862308
 20
442.059097
 30
0.0
 40
18.0
100
AcDbArc
 50
180.0
 51
270.0
  0
LINE
  5
52
102
{ACAD_REACTORS
330
6F8
102
}
330
1F
100
AcDbEntity
  8
LC-001-002-----0
 62
     7
370
    50
100
AcDbLine
 10
500.633454
 20
427.059097
 30
0.0
 11
359.862308
 21
427.059097
 31
0.0
  0
ARC
  5
53
102
{ACAD_REACTORS
330
6F8
102
}
330
1F
100
AcDbEntity
  8
LC-002-002-RND-0
 62
     7
370
    50
100
AcDbCircle
 10
553.0316
 20
426.059097
 30
0.0
 40
2.0
100
AcDbArc
 50
270.0
 51
0.0
  0
LINE
  5
54
102
{ACAD_REACTORS
330
6F8
102
}
330
1F
100
AcDbEntity
  8
LC-001-002-----0
 62
     7
370
    50
100
AcDbLine
 10
454.612899
 20
423.715081
 30
0.0
 11
454.612899
 21
425.059097
 31
0.0
  0
LINE
  5
55
102
{ACAD_REACTORS
330
6F8
102
}
330
1F
100
AcDbEntity
  8
LC-001-002-----0
 62
     7
370
    50
100
AcDbLine
 10
457.612899
 20
423.762325
 30
0.0
 11
457.612899
 21
424.059097
 31
0.0
  0
LINE
  5
56
102
{ACAD_REACTORS
330
6F8
102
}
330
1F
100
AcDbEntity
  8
LC-001-002-----0
 62
     7
370
    50
100
AcDbLine
 10
457.612899
 20
424.059097
 30
0.0
 11
535.212266
 21
424.059097
 31
0.0
  0
LINE
  5
57
102
{ACAD_REACTORS
330
6F8
102
}
330
1F
100
AcDbEntity
  8
LC-001-002-----0
 62
     7
370
    50
100
AcDbLine
 10
555.0316
 20
426.550703
 30
0.0
 11
500.633454
 21
427.059097
 31
0.0
  0
LINE
  5
58
102
{ACAD_REACTORS
330
6F8
102
}
330
1F
100
AcDbEntity
  8
LC-001-002-----0
 62
     7
370
    50
100
AcDbLine
 10
555.0316
 20
483.567491
 30
0.0
 11
502.362308
 21
483.075254
 31
0.0
  0
LINE
  5
59
102
{ACAD_REACTORS
330
6F8
102
}
330
1F
100
AcDbEntity
  8
LC-001-002-----0
 62
     7
370
    50
100
AcDbLine
 10
545.527625
 20
488.550278
 30
0.0
 11
549.850933
 21
486.054215
 31
0.0
  0
LINE
  5
5A
102
{ACAD_REACTORS
330
6F8
102
}
330
1F
100
AcDbEntity
  8
LC-001-002-----0
 62
     7
370
    50
100
AcDbLine
 10
545.0316
 20
488.550278
 30
0.0
 11
545.527625
 21
488.550278
 31
0.0
  0
LINE
  5
5B
102
{ACAD_REACTORS
330
6F8
102
}
330
1F
100
AcDbEntity
  8
LC-001-002-----0
 62
     7
370
    50
100
AcDbLine
 10
545.0316
 20
488.550278
 30
0.0
 11
545.0316
 21
486.054215
 31
0.0
  0
LINE
  5
5C
102
{ACAD_REACTORS
330
6F8
102
}
330
1F
100
AcDbEntity
  8
LC-001-002-----0
 62
     7
370
    50
100
AcDbLine
 10
540.0316
 20
488.550278
 30
0.0
 11
540.0316
 21
486.054215
 31
0.0
  0
LINE
  5
5D
102
{ACAD_REACTORS
330
6F8
102
}
330
1F
100
AcDbEntity
  8
LC-001-002-----0
 62
     7
370
    50
100
AcDbLine
 10
545.0316
 20
486.054215
 30
0.0
 11
540.0316
 21
486.054215
 31
0.0
  0
LINE
  5
5E
102
{ACAD_REACTORS
330
6F8
102
}
330
1F
100
AcDbEntity
  8
LC-001-002-----0
 62
     7
370
    50
100
AcDbLine
 10
540.0316
 20
488.550278
 30
0.0
 11
539.535574
 21
488.550278
 31
0.0
  0
LINE
  5
5F
102
{ACAD_REACTORS
330
6F8
102
}
330
1F
100
AcDbEntity
  8
LC-001-002-----0
 62
     7
370
    50
100
AcDbLine
 10
539.535574
 20
488.550278
 30
0.0
 11
535.212266
 21
486.054215
 31
0.0
  0
LINE
  5
60
102
{ACAD_REACTORS
330
6F8
102
}
330
1F
100
AcDbEntity
  8
LC-001-002-----0
 62
     7
370
    50
100
AcDbLine
 10
545.527625
 20
421.563034
 30
0.0
 11
549.850933
 21
424.059097
 31
0.0
  0
LINE
  5
61
102
{ACAD_REACTORS
330
6F8
102
}
330
1F
100
AcDbEntity
  8
LC-001-002-----0
 62
     7
370
    50
100
AcDbLine
 10
545.0316
 20
421.563034
 30
0.0
 11
545.527625
 21
421.563034
 31
0.0
  0
LINE
  5
62
102
{ACAD_REACTORS
330
6F8
102
}
330
1F
100
AcDbEntity
  8
LC-001-002-----0
 62
     7
370
    50
100
AcDbLine
 10
545.0316
 20
421.563034
 30
0.0
 11
545.0316
 21
424.059097
 31
0.0
  0
LINE
  5
63
102
{ACAD_REACTORS
330
6F8
102
}
330
1F
100
AcDbEntity
  8
LC-001-002-----0
 62
     7
370
    50
100
AcDbLine
 10
540.0316
 20
421.563034
 30
0.0
 11
540.0316
 21
424.059097
 31
0.0
  0
LINE
  5
64
102
{ACAD_REACTORS
330
6F8
102
}
330
1F
100
AcDbEntity
  8
LC-001-002-----0
 62
     7
370
    50
100
AcDbLine
 10
545.0316
 20
424.059097
 30
0.0
 11
540.0316
 21
424.059097
 31
0.0
  0
LINE
  5
65
102
{ACAD_REACTORS
330
6F8
102
}
330
1F
100
AcDbEntity
  8
LC-001-002-----0
 62
     7
370
    50
100
AcDbLine
 10
540.0316
 20
421.563034
 30
0.0
 11
539.535574
 21
421.563034
 31
0.0
  0
LINE
  5
66
102
{ACAD_REACTORS
330
6F8
102
}
330
1F
100
AcDbEntity
  8
LC-001-002-----0
 62
     7
370
    50
100
AcDbLine
 10
539.535574
 20
421.563034
 30
0.0
 11
535.212266
 21
424.059097
 31
0.0
  0
LINE
  5
67
102
{ACAD_REACTORS
330
6F8
102
}
330
1F
100
AcDbEntity
  8
LC-001-002-----0
 62
     7
370
    50
100
AcDbLine
 10
535.212266
 20
486.054215
 30
0.0
 11
505.362308
 21
486.054215
 31
0.0
  0
LINE
  5
68
102
{ACAD_REACTORS
330
6F8
102
}
330
1F
100
AcDbEntity
  8
LC-001-002-----0
 62
     7
370
    50
100
AcDbLine
 10
545.0316
 20
486.054215
 30
0.0
 11
540.0316
 21
486.054215
 31
0.0
  0
LINE
  5
69
102
{ACAD_REACTORS
330
6F8
102
}
330
1F
100
AcDbEntity
  8
LC-001-002-----0
 62
     7
370
    50
100
AcDbLine
 10
540.0316
 20
424.059097
 30
0.0
 11
545.0316
 21
424.059097
 31
0.0
  0
LINE
  5
6A
102
{ACAD_REACTORS
330
6F8
102
}
330
1F
100
AcDbEntity
  8
LC-001-002-----0
 62
     7
370
    50
100
AcDbLine
 10
549.850933
 20
424.059097
 30
0.0
 11
553.0316
 21
424.059097
 31
0.0
  0
INSERT
  5
85
102
{ACAD_REACTORS
330
6F8
102
}
330
1F
100
AcDbEntity
  8
LC-003-005-----0
 62
     7
370
    25
100
AcDbBlockReference
  2
*X11
 10
0.0
 20
0.0
 30
0.0
  0
INSERT
  5
ED
102
{ACAD_REACTORS
330
6F8
102
}
330
1F
100
AcDbEntity
  8
LC-003-005-----0
 62
     7
370
    25
100
AcDbBlockReference
  2
*X22
 10
0.0
 20
0.0
 30
0.0
  0
LINE
  5
EE
102
{ACAD_REACTORS
330
6F3
102
}
330
1F
100
AcDbEntity
  8
LC-001-002-----0
 62
     7
370
    50
100
AcDbLine
 10
469.395451
 20
491.561853
 30
0.0
 11
473.860812
 21
491.561853
 31
0.0
  0
LINE
  5
EF
102
{ACAD_REACTORS
330
6F3
102
}
330
1F
100
AcDbEntity
  8
LC-001-002-----0
 62
     7
370
    50
100
AcDbLine
 10
346.862308
 20
488.559097
 30
0.0
 11
346.862308
 21
473.026813
 31
0.0
  0
LINE
  5
F0
102
{ACAD_REACTORS
330
6F3
102
}
330
1F
100
AcDbEntity
  8
LC-001-002-----0
 62
     7
370
    50
100
AcDbLine
 10
348.830812
 20
471.058309
 30
0.0
 11
349.860064
 21
471.058309
 31
0.0
  0
LINE
  5
F1
102
{ACAD_REACTORS
330
6F3
102
}
330
1F
100
AcDbEntity
  8
LC-001-002-----0
 62
     7
370
    50
100
AcDbLine
 10
344.863804
 20
491.561853
 30
0.0
 11
344.863804
 21
498.561616
 31
0.0
  0
LINE
  5
F2
102
{ACAD_REACTORS
330
6F3
102
}
330
1F
100
AcDbEntity
  8
LC-001-002-----0
 62
     7
370
    50
100
AcDbLine
 10
502.361048
 20
488.559097
 30
0.0
 11
505.361048
 21
488.559097
 31
0.0
  0
LINE
  5
F3
102
{ACAD_REACTORS
330
6F3
102
}
330
1F
100
AcDbEntity
  8
LC-001-002-----0
 62
     7
370
    50
100
AcDbLine
 10
471.862308
 20
473.026813
 30
0.0
 11
471.862308
 21
488.559097
 31
0.0
  0
LINE
  5
F4
102
{ACAD_REACTORS
330
6F3
102
}
330
1F
100
AcDbEntity
  8
LC-001-002-----0
 62
     7
370
    50
100
AcDbLine
 10
505.361048
 20
488.559097
 30
0.0
 11
505.361048
 21
498.484771
 31
0.0
  0
LINE
  5
F5
102
{ACAD_REACTORS
330
6F3
102
}
330
1F
100
AcDbEntity
  8
LC-001-002-----0
 62
     7
370
    50
100
AcDbLine
 10
476.863568
 20
495.564771
 30
0.0
 11
502.361048
 21
495.564771
 31
0.0
  0
LINE
  5
F6
102
{ACAD_REACTORS
330
6F3
102
}
330
1F
100
AcDbEntity
  8
LC-001-002-----0
 62
     7
370
    50
100
AcDbLine
 10
473.860812
 20
498.561616
 30
0.0
 11
473.860812
 21
491.561853
 31
0.0
  0
LINE
  5
F7
102
{ACAD_REACTORS
330
6F3
102
}
330
1F
100
AcDbEntity
  8
LC-001-002-----0
 62
     7
370
    50
100
AcDbLine
 10
471.862308
 20
488.559097
 30
0.0
 11
476.863568
 21
488.559097
 31
0.0
  0
LINE
  5
F8
102
{ACAD_REACTORS
330
6F3
102
}
330
1F
100
AcDbEntity
  8
LC-001-002-----0
 62
     7
370
    50
100
AcDbLine
 10
468.859552
 20
471.058309
 30
0.0
 11
468.859552
 21
489.561853
 31
0.0
  0
LINE
  5
F9
102
{ACAD_REACTORS
330
6F3
102
}
330
1F
100
AcDbEntity
  8
LC-001-002-----0
 62
     7
370
    50
100
AcDbLine
 10
341.861048
 20
488.559097
 30
0.0
 11
346.862308
 21
488.559097
 31
0.0
  0
LINE
  5
FA
102
{ACAD_REACTORS
330
6F3
102
}
330
1F
100
AcDbEntity
  8
LC-001-002-----0
 62
     7
370
    50
100
AcDbLine
 10
341.861048
 20
498.561616
 30
0.0
 11
341.861048
 21
488.559097
 31
0.0
  0
ARC
  5
FB
102
{ACAD_REACTORS
330
6F3
102
}
330
1F
100
AcDbEntity
  8
LC-001-002-----0
 62
     7
370
    50
100
AcDbCircle
 10
348.830812
 20
473.026813
 30
0.0
 40
1.968503937007881
100
AcDbArc
 50
180.0
 51
270.0
  0
LINE
  5
FC
102
{ACAD_REACTORS
330
6F3
102
}
330
1F
100
AcDbEntity
  8
LC-001-002-----0
 62
     7
370
    50
100
AcDbLine
 10
349.324166
 20
491.561853
 30
0.0
 11
344.863804
 21
491.561853
 31
0.0
  0
LINE
  5
FD
102
{ACAD_REACTORS
330
6F3
102
}
330
1F
100
AcDbEntity
  8
LC-001-002-----0
 62
     7
370
    50
100
AcDbLine
 10
349.860064
 20
471.058309
 30
0.0
 11
349.860064
 21
489.561853
 31
0.0
  0
LINE
  5
FE
102
{ACAD_REACTORS
330
6F3
102
}
330
1F
100
AcDbEntity
  8
LC-001-002-----0
 62
     7
370
    50
100
AcDbLine
 10
476.863568
 20
488.559097
 30
0.0
 11
476.863568
 21
495.564771
 31
0.0
  0
LINE
  5
FF
102
{ACAD_REACTORS
330
6F3
102
}
330
1F
100
AcDbEntity
  8
LC-001-002-----0
 62
     7
370
    50
100
AcDbLine
 10
476.863568
 20
488.559097
 30
0.0
 11
502.361048
 21
488.559097
 31
0.0
  0
LINE
  5
100
102
{ACAD_REACTORS
330
6F3
102
}
330
1F
100
AcDbEntity
  8
LC-001-002-----0
 62
     7
370
    50
100
AcDbLine
 10
344.863804
 20
498.561616
 30
0.0
 11
341.861048
 21
498.561616
 31
0.0
  0
LINE
  5
101
102
{ACAD_REACTORS
330
6F3
102
}
330
1F
100
AcDbEntity
  8
LC-001-002-----0
 62
     7
370
    50
100
AcDbLine
 10
476.863568
 20
498.561616
 30
0.0
 11
473.860812
 21
498.561616
 31
0.0
  0
ARC
  5
102
102
{ACAD_REACTORS
330
6F3
102
}
330
1F
100
AcDbEntity
  8
LC-001-002-----0
 62
     7
370
    50
100
AcDbCircle
 10
469.893804
 20
473.026813
 30
0.0
 40
1.968503937007881
100
AcDbArc
 50
270.0
 51
0.0
  0
LINE
  5
103
102
{ACAD_REACTORS
330
6F3
102
}
330
1F
100
AcDbEntity
  8
LC-001-002-----0
 62
     7
370
    50
100
AcDbLine
 10
502.361048
 20
495.564771
 30
0.0
 11
502.361048
 21
488.559097
 31
0.0
  0
LINE
  5
104
102
{ACAD_REACTORS
330
6F3
102
}
330
1F
100
AcDbEntity
  8
LC-001-002-----0
 62
     7
370
    50
100
AcDbLine
 10
505.361048
 20
498.561616
 30
0.0
 11
473.860812
 21
498.561616
 31
0.0
  0
LINE
  5
105
102
{ACAD_REACTORS
330
6F3
102
}
330
1F
100
AcDbEntity
  8
LC-001-002-----0
 62
     7
370
    50
100
AcDbLine
 10
505.361048
 20
488.559097
 30
0.0
 11
505.361048
 21
498.561616
 31
0.0
  0
INSERT
  5
11F
102
{ACAD_REACTORS
330
6F3
102
}
330
1F
100
AcDbEntity
  8
LC-003-005-----0
 62
     7
370
    25
100
AcDbBlockReference
  2
*X33
 10
0.0
 20
0.0
 30
0.0
  0
LINE
  5
120
102
{ACAD_REACTORS
330
6F3
102
}
330
1F
100
AcDbEntity
  8
LC-001-002-----0
 62
     7
370
    50
100
AcDbLine
 10
468.859552
 20
489.561853
 30
0.0
 11
469.395451
 21
491.561853
 31
0.0
  0
LINE
  5
121
102
{ACAD_REACTORS
330
6F3
102
}
330
1F
100
AcDbEntity
  8
LC-001-002-----0
 62
     7
370
    50
100
AcDbLine
 10
349.860064
 20
489.561853
 30
0.0
 11
349.324166
 21
491.561853
 31
0.0
  0
INSERT
  5
132
330
1F
100
AcDbEntity
  8
LC-003-005-----0
 62
     7
370
    25
100
AcDbBlockReference
  2
*X44
 10
0.0
 20
0.0
 30
0.0
  0
LINE
  5
133
102
{ACAD_REACTORS
330
6F4
102
}
330
1F
100
AcDbEntity
  8
LC-001-002-----0
 62
     7
370
    50
100
AcDbLine
 10
378.862295
 20
430.239145
 30
0.0
 11
409.362308
 21
430.239145
 31
0.0
  0
LINE
  5
134
102
{ACAD_REACTORS
330
6F4
102
}
330
1F
100
AcDbEntity
  8
LC-001-002-----0
 62
     7
370
    50
100
AcDbLine
 10
378.862295
 20
428.234793
 30
0.0
 11
409.362308
 21
428.234793
 31
0.0
  0
LINE
  5
135
102
{ACAD_REACTORS
330
6F4
102
}
330
1F
100
AcDbEntity
  8
LC-001-002-----0
 62
     7
370
    50
100
AcDbLine
 10
368.858584
 20
494.236923
 30
0.0
 11
368.862295
 21
440.238458
 31
0.0
  0
LINE
  5
136
102
{ACAD_REACTORS
330
6F4
102
}
330
1F
100
AcDbEntity
  8
LC-001-002-----0
 62
     7
370
    50
100
AcDbLine
 10
366.859158
 20
494.236923
 30
0.0
 11
379.860269
 21
494.236923
 31
0.0
  0
ARC
  5
137
102
{ACAD_REACTORS
330
6F4
102
}
330
1F
100
AcDbEntity
  8
LC-002-002-RND-0
 62
     7
370
    50
100
AcDbCircle
 10
439.859786
 20
440.239145
 30
0.0
 40
10.0
100
AcDbArc
 50
270.0
 51
0.00332
  0
ARC
  5
138
102
{ACAD_REACTORS
330
6F4
102
}
330
1F
100
AcDbEntity
  8
LC-002-002-RND-0
 62
     7
370
    50
100
AcDbCircle
 10
439.862295
 20
440.234793
 30
0.0
 40
12.0
100
AcDbArc
 50
270.0
 51
0.003938
  0
ARC
  5
139
102
{ACAD_REACTORS
330
6F4
102
}
330
1F
100
AcDbEntity
  8
LC-002-002-RND-0
 62
     7
370
    50
100
AcDbCircle
 10
378.862295
 20
440.239145
 30
0.0
 40
10.00000000000006
100
AcDbArc
 50
180.003938
 51
270.0
  0
LINE
  5
13A
102
{ACAD_REACTORS
330
6F4
102
}
330
1F
100
AcDbEntity
  8
LC-001-002-----0
 62
     7
370
    50
100
AcDbLine
 10
366.859114
 20
486.513201
 30
0.0
 11
366.862295
 21
440.233968
 31
0.0
  0
LINE
  5
13B
102
{ACAD_REACTORS
330
6F4
102
}
330
1F
100
AcDbEntity
  8
LC-001-002-----0
 62
     7
370
    50
100
AcDbLine
 10
355.360362
 20
508.230071
 30
0.0
 11
361.038307
 21
508.230071
 31
0.0
  0
LINE
  5
13C
102
{ACAD_REACTORS
330
6F4
102
}
330
1F
100
AcDbEntity
  8
LC-001-002-----0
 62
     7
370
    50
100
AcDbLine
 10
355.360362
 20
508.230071
 30
0.0
 11
355.360362
 21
510.234423
 31
0.0
  0
LINE
  5
13D
102
{ACAD_REACTORS
330
6F4
102
}
330
1F
100
AcDbEntity
  8
LC-001-002-----0
 62
     7
370
    50
100
AcDbLine
 10
366.859158
 20
494.236923
 30
0.0
 11
362.572641
 21
510.234423
 31
0.0
  0
LINE
  5
13E
102
{ACAD_REACTORS
330
6F4
102
}
330
1F
100
AcDbEntity
  8
LC-001-002-----0
 62
     7
370
    50
100
AcDbLine
 10
355.360362
 20
510.234423
 30
0.0
 11
362.608718
 21
510.234423
 31
0.0
  0
LINE
  5
13F
102
{ACAD_REACTORS
330
6F4
102
}
330
1F
100
AcDbEntity
  8
LC-001-002-----0
 62
     7
370
    50
100
AcDbLine
 10
463.357955
 20
510.234423
 30
0.0
 11
456.109598
 21
510.234423
 31
0.0
  0
LINE
  5
140
102
{ACAD_REACTORS
330
6F4
102
}
330
1F
100
AcDbEntity
  8
LC-001-002-----0
 62
     7
370
    50
100
AcDbLine
 10
451.859158
 20
494.236923
 30
0.0
 11
456.145675
 21
510.234423
 31
0.0
  0
LINE
  5
141
102
{ACAD_REACTORS
330
6F4
102
}
330
1F
100
AcDbEntity
  8
LC-001-002-----0
 62
     7
370
    50
100
AcDbLine
 10
463.357955
 20
508.230071
 30
0.0
 11
463.357955
 21
510.234423
 31
0.0
  0
LINE
  5
142
102
{ACAD_REACTORS
330
6F4
102
}
330
1F
100
AcDbEntity
  8
LC-001-002-----0
 62
     7
370
    50
100
AcDbLine
 10
463.357955
 20
508.230071
 30
0.0
 11
457.679163
 21
508.230071
 31
0.0
  0
LINE
  5
143
102
{ACAD_REACTORS
330
6F4
102
}
330
1F
100
AcDbEntity
  8
LC-001-002-----0
 62
     7
370
    50
100
AcDbLine
 10
451.859115
 20
486.509353
 30
0.0
 11
451.862295
 21
440.235618
 31
0.0
  0
LINE
  5
144
102
{ACAD_REACTORS
330
6F4
102
}
330
1F
100
AcDbEntity
  8
LC-001-002-----0
 62
     7
370
    50
100
AcDbLine
 10
439.862295
 20
428.234793
 30
0.0
 11
409.362308
 21
428.234793
 31
0.0
  0
LINE
  5
145
102
{ACAD_REACTORS
330
6F4
102
}
330
1F
100
AcDbEntity
  8
LC-001-002-----0
 62
     7
370
    50
100
AcDbLine
 10
439.859786
 20
430.239145
 30
0.0
 11
409.362308
 21
430.239145
 31
0.0
  0
LINE
  5
146
102
{ACAD_REACTORS
330
6F4
102
}
330
1F
100
AcDbEntity
  8
LC-001-002-----0
 62
     7
370
    50
100
AcDbLine
 10
449.856656
 20
494.236923
 30
0.0
 11
449.859786
 21
440.239725
 31
0.0
  0
ARC
  5
147
102
{ACAD_REACTORS
330
6F4
102
}
330
1F
100
AcDbEntity
  8
LC-002-002-RND-0
 62
     7
370
    50
100
AcDbCircle
 10
378.862295
 20
440.234793
 30
0.0
 40
12.00000000000009
100
AcDbArc
 50
180.003938
 51
270.0
  0
LINE
  5
148
102
{ACAD_REACTORS
330
6F4
102
}
330
1F
100
AcDbEntity
  8
LC-001-002-----0
 62
     7
370
    50
100
AcDbLine
 10
451.859158
 20
494.236923
 30
0.0
 11
438.858047
 21
494.236923
 31
0.0
  0
LINE
  5
149
102
{ACAD_REACTORS
330
6F4
102
}
330
1F
100
AcDbEntity
  8
LC-001-002-----0
 62
     7
370
    50
100
AcDbLine
 10
363.109705
 20
508.230071
 30
0.0
 11
369.860269
 21
508.230071
 31
0.0
  0
LINE
  5
14A
102
{ACAD_REACTORS
330
6F4
102
}
330
1F
100
AcDbEntity
  8
LC-001-002-----0
 62
     7
370
    50
100
AcDbLine
 10
455.608611
 20
508.230071
 30
0.0
 11
448.858047
 21
508.230071
 31
0.0
  0
LINE
  5
14B
102
{ACAD_REACTORS
330
6F4
102
}
330
1F
100
AcDbEntity
  8
LC-001-002-----0
 62
     7
370
    50
100
AcDbLine
 10
451.859115
 20
486.509353
 30
0.0
 11
457.679163
 21
508.230071
 31
0.0
  0
LINE
  5
14C
102
{ACAD_REACTORS
330
6F4
102
}
330
1F
100
AcDbEntity
  8
LC-001-002-----0
 62
     7
370
    50
100
AcDbLine
 10
366.859114
 20
486.513201
 30
0.0
 11
361.038307
 21
508.230071
 31
0.0
  0
INSERT
  5
1A7
102
{ACAD_REACTORS
330
6F4
102
}
330
1F
100
AcDbEntity
  8
LC-003-005-----0
 62
     7
370
    25
100
AcDbBlockReference
  2
*X55
 10
0.0
 20
0.0
 30
0.0
  0
LINE
  5
1A8
102
{ACAD_REACTORS
330
6F6
102
}
330
1F
100
AcDbEntity
  8
LC-001-002-----0
 62
     7
370
    50
100
AcDbLine
 10
379.860269
 20
444.237108
 30
0.0
 11
438.858047
 21
444.237108
 31
0.0
  0
ARC
  5
1A9
102
{ACAD_REACTORS
330
6F6
102
}
330
1F
100
AcDbEntity
  8
LC-001-002-----0
 62
     7
370
    50
100
AcDbCircle
 10
370.007306
 20
498.098501
 30
0.0
 40
11.85296296296292
100
AcDbArc
 50
0.0
 51
75.0
  0
ARC
  5
1AA
102
{ACAD_REACTORS
330
6F6
102
}
330
1F
100
AcDbEntity
  8
LC-002-002-RND-0
 62
     7
370
    50
100
AcDbCircle
 10
369.860269
 20
498.230071
 30
0.0
 40
10.0
100
AcDbArc
 50
0.0
 51
90.0
  0
LINE
  5
1AB
102
{ACAD_REACTORS
330
6F6
102
}
330
1F
100
AcDbEntity
  8
LC-001-002-----0
 62
     7
370
    50
100
AcDbLine
 10
360.609158
 20
518.234793
 30
0.0
 11
360.609158
 21
516.724452
 31
0.0
  0
ARC
  5
1AC
102
{ACAD_REACTORS
330
6F6
102
}
330
1F
100
AcDbEntity
  8
LC-002-002-RND-0
 62
     7
370
    50
100
AcDbCircle
 10
365.609158
 20
516.724452
 30
0.0
 40
5.0
100
AcDbArc
 50
180.0
 51
255.0
  0
LINE
  5
1AD
102
{ACAD_REACTORS
330
6F6
102
}
330
1F
100
AcDbEntity
  8
LC-001-002-----0
 62
     7
370
    50
100
AcDbLine
 10
463.357955
 20
518.234793
 30
0.0
 11
458.109158
 21
518.234793
 31
0.0
  0
LINE
  5
1AE
102
{ACAD_REACTORS
330
6F6
102
}
330
1F
100
AcDbEntity
  8
LC-001-002-----0
 62
     7
370
    50
100
AcDbLine
 10
381.860269
 20
444.237108
 30
0.0
 11
381.860269
 21
498.230071
 31
0.0
  0
LINE
  5
1AF
102
{ACAD_REACTORS
330
6F6
102
}
330
1F
100
AcDbEntity
  8
LC-001-002-----0
 62
     7
370
    50
100
AcDbLine
 10
355.360362
 20
516.230422
 30
0.0
 11
355.360362
 21
518.234793
 31
0.0
  0
LINE
  5
1B0
102
{ACAD_REACTORS
330
6F6
102
}
330
1F
100
AcDbEntity
  8
LC-001-002-----0
 62
     7
370
    50
100
AcDbLine
 10
358.206751
 20
511.938497
 30
0.0
 11
358.206751
 21
516.230422
 31
0.0
  0
LINE
  5
1B1
102
{ACAD_REACTORS
330
6F6
102
}
330
1F
100
AcDbEntity
  8
LC-001-002-----0
 62
     7
370
    50
100
AcDbLine
 10
355.360362
 20
511.938497
 30
0.0
 11
358.206751
 21
511.938497
 31
0.0
  0
LINE
  5
1B2
102
{ACAD_REACTORS
330
6F6
102
}
330
1F
100
AcDbEntity
  8
LC-001-002-----0
 62
     7
370
    50
100
AcDbLine
 10
358.206751
 20
516.230422
 30
0.0
 11
355.360362
 21
516.230422
 31
0.0
  0
LINE
  5
1B3
102
{ACAD_REACTORS
330
6F6
102
}
330
1F
100
AcDbEntity
  8
LC-001-002-----0
 62
     7
370
    50
100
AcDbLine
 10
355.360362
 20
510.234423
 30
0.0
 11
355.360362
 21
511.938497
 31
0.0
  0
LINE
  5
1B4
102
{ACAD_REACTORS
330
6F6
102
}
330
1F
100
AcDbEntity
  8
LC-001-002-----0
 62
     7
370
    50
100
AcDbLine
 10
379.860269
 20
444.237108
 30
0.0
 11
379.860269
 21
498.230071
 31
0.0
  0
LINE
  5
1B5
102
{ACAD_REACTORS
330
6F6
102
}
330
1F
100
AcDbEntity
  8
LC-001-002-----0
 62
     7
370
    50
100
AcDbLine
 10
363.145782
 20
508.230071
 30
0.0
 11
369.860269
 21
508.230071
 31
0.0
  0
LINE
  5
1B6
102
{ACAD_REACTORS
330
6F6
102
}
330
1F
100
AcDbEntity
  8
LC-001-002-----0
 62
     7
370
    50
100
AcDbLine
 10
373.075079
 20
509.547584
 30
0.0
 11
364.315063
 21
511.894823
 31
0.0
  0
LINE
  5
1B7
102
{ACAD_REACTORS
330
6F6
102
}
330
1F
100
AcDbEntity
  8
LC-001-002-----0
 62
     7
370
    50
100
AcDbLine
 10
363.145782
 20
508.230071
 30
0.0
 11
362.608718
 21
510.234423
 31
0.0
  0
LINE
  5
1B8
102
{ACAD_REACTORS
330
6F6
102
}
330
1F
100
AcDbEntity
  8
LC-001-002-----0
 62
     7
370
    50
100
AcDbLine
 10
355.360362
 20
510.234423
 30
0.0
 11
362.608718
 21
510.234423
 31
0.0
  0
ARC
  5
1B9
102
{ACAD_REACTORS
330
6F6
102
}
330
1F
100
AcDbEntity
  8
LC-001-002-----0
 62
     7
370
    50
100
AcDbCircle
 10
448.71101
 20
498.098501
 30
0.0
 40
11.85296296296293
100
AcDbArc
 50
105.0
 51
180.0
  0
ARC
  5
1BA
102
{ACAD_REACTORS
330
6F6
102
}
330
1F
100
AcDbEntity
  8
LC-002-002-RND-0
 62
     7
370
    50
100
AcDbCircle
 10
448.858047
 20
498.230071
 30
0.0
 40
10.0
100
AcDbArc
 50
90.0
 51
180.0
  0
LINE
  5
1BB
102
{ACAD_REACTORS
330
6F6
102
}
330
1F
100
AcDbEntity
  8
LC-001-002-----0
 62
     7
370
    50
100
AcDbLine
 10
436.858047
 20
444.237108
 30
0.0
 11
436.858047
 21
498.230071
 31
0.0
  0
LINE
  5
1BC
102
{ACAD_REACTORS
330
6F6
102
}
330
1F
100
AcDbEntity
  8
LC-001-002-----0
 62
     7
370
    50
100
AcDbLine
 10
463.357955
 20
516.230422
 30
0.0
 11
463.357955
 21
518.234793
 31
0.0
  0
LINE
  5
1BD
102
{ACAD_REACTORS
330
6F6
102
}
330
1F
100
AcDbEntity
  8
LC-001-002-----0
 62
     7
370
    50
100
AcDbLine
 10
460.511566
 20
511.938497
 30
0.0
 11
460.511566
 21
516.230422
 31
0.0
  0
LINE
  5
1BE
102
{ACAD_REACTORS
330
6F6
102
}
330
1F
100
AcDbEntity
  8
LC-001-002-----0
 62
     7
370
    50
100
AcDbLine
 10
463.357955
 20
511.938497
 30
0.0
 11
460.511566
 21
511.938497
 31
0.0
  0
LINE
  5
1BF
102
{ACAD_REACTORS
330
6F6
102
}
330
1F
100
AcDbEntity
  8
LC-001-002-----0
 62
     7
370
    50
100
AcDbLine
 10
460.511566
 20
516.230422
 30
0.0
 11
463.357955
 21
516.230422
 31
0.0
  0
LINE
  5
1C0
102
{ACAD_REACTORS
330
6F6
102
}
330
1F
100
AcDbEntity
  8
LC-001-002-----0
 62
     7
370
    50
100
AcDbLine
 10
463.357955
 20
510.234423
 30
0.0
 11
463.357955
 21
511.938497
 31
0.0
  0
LINE
  5
1C1
102
{ACAD_REACTORS
330
6F6
102
}
330
1F
100
AcDbEntity
  8
LC-001-002-----0
 62
     7
370
    50
100
AcDbLine
 10
438.858047
 20
444.237108
 30
0.0
 11
438.858047
 21
498.230071
 31
0.0
  0
LINE
  5
1C2
102
{ACAD_REACTORS
330
6F6
102
}
330
1F
100
AcDbEntity
  8
LC-001-002-----0
 62
     7
370
    50
100
AcDbLine
 10
455.572534
 20
508.230071
 30
0.0
 11
448.858047
 21
508.230071
 31
0.0
  0
LINE
  5
1C3
102
{ACAD_REACTORS
330
6F6
102
}
330
1F
100
AcDbEntity
  8
LC-001-002-----0
 62
     7
370
    50
100
AcDbLine
 10
445.643238
 20
509.547584
 30
0.0
 11
454.403253
 21
511.894823
 31
0.0
  0
LINE
  5
1C4
102
{ACAD_REACTORS
330
6F6
102
}
330
1F
100
AcDbEntity
  8
LC-001-002-----0
 62
     7
370
    50
100
AcDbLine
 10
463.357955
 20
510.234423
 30
0.0
 11
456.109598
 21
510.234423
 31
0.0
  0
LINE
  5
1C5
102
{ACAD_REACTORS
330
6F6
102
}
330
1F
100
AcDbEntity
  8
LC-001-002-----0
 62
     7
370
    50
100
AcDbLine
 10
458.109158
 20
518.234793
 30
0.0
 11
458.109158
 21
516.724452
 31
0.0
  0
ARC
  5
1C6
102
{ACAD_REACTORS
330
6F6
102
}
330
1F
100
AcDbEntity
  8
LC-002-002-RND-0
 62
     7
370
    50
100
AcDbCircle
 10
453.109158
 20
516.724452
 30
0.0
 40
4.999999999999984
100
AcDbArc
 50
285.0
 51
0.0
  0
INSERT
  5
1EE
102
{ACAD_REACTORS
330
6F6
102
}
330
1F
100
AcDbEntity
  8
LC-003-005-----0
 62
     7
370
    25
100
AcDbBlockReference
  2
*X66
 10
0.0
 20
0.0
 30
0.0
  0
INSERT
  5
212
102
{ACAD_REACTORS
330
6F6
102
}
330
1F
100
AcDbEntity
  8
LC-003-005-----0
 62
     7
370
    25
100
AcDbBlockReference
  2
*X77
 10
0.0
 20
0.0
 30
0.0
  0
LINE
  5
213
102
{ACAD_REACTORS
330
6F6
102
}
330
1F
100
AcDbEntity
  8
LC-001-002-----0
 62
     7
370
    50
100
AcDbLine
 10
455.572534
 20
508.230071
 30
0.0
 11
456.109598
 21
510.234423
 31
0.0
  0
LINE
  5
214
102
{ACAD_REACTORS
330
6F7
102
}
330
1F
100
AcDbEntity
  8
LC-001-002-----0
 62
     7
370
    50
100
AcDbLine
 10
461.359158
 20
508.230071
 30
0.0
 11
463.559158
 21
508.230071
 31
0.0
  0
LINE
  5
215
102
{ACAD_REACTORS
330
6F7
102
}
330
1F
100
AcDbEntity
  8
LC-001-002-----0
 62
     7
370
    50
100
AcDbLine
 10
465.459158
 20
507.530071
 30
0.0
 11
465.459158
 21
513.277389
 31
0.0
  0
LINE
  5
216
102
{ACAD_REACTORS
330
6F7
102
}
330
1F
100
AcDbEntity
  8
LC-001-002-----0
 62
     7
370
    50
100
AcDbLine
 10
353.259158
 20
507.530071
 30
0.0
 11
353.259158
 21
513.277389
 31
0.0
  0
LINE
  5
217
102
{ACAD_REACTORS
330
6F7
102
}
330
1F
100
AcDbEntity
  8
LC-001-002-----0
 62
     7
370
    50
100
AcDbLine
 10
463.559158
 20
508.230071
 30
0.0
 11
463.559158
 21
512.086941
 31
0.0
  0
LINE
  5
218
102
{ACAD_REACTORS
330
6F7
102
}
330
1F
100
AcDbEntity
  8
LC-001-002-----0
 62
     7
370
    50
100
AcDbLine
 10
355.159158
 20
508.230071
 30
0.0
 11
357.359158
 21
508.230071
 31
0.0
  0
LINE
  5
219
102
{ACAD_REACTORS
330
6F7
102
}
330
1F
100
AcDbEntity
  8
LC-001-002-----0
 62
     7
370
    50
100
AcDbLine
 10
474.710347
 20
518.618566
 30
0.0
 11
471.140228
 21
516.557357
 31
0.0
  0
LINE
  5
21A
102
{ACAD_REACTORS
330
6F7
102
}
330
1F
100
AcDbEntity
  8
LC-001-002-----0
 62
     7
370
    25
100
AcDbLine
 10
463.559158
 20
476.930071
 30
0.0
 11
463.559158
 21
505.630071
 31
0.0
  0
LINE
  5
21B
102
{ACAD_REACTORS
330
6F7
102
}
330
1F
100
AcDbEntity
  8
LC-001-002-----0
 62
     7
370
    50
100
AcDbLine
 10
461.359158
 20
476.930071
 30
0.0
 11
461.359158
 21
508.230071
 31
0.0
  0
LINE
  5
21C
102
{ACAD_REACTORS
330
6F7
102
}
330
1F
100
AcDbEntity
  8
LC-001-002-----0
 62
     7
370
    50
100
AcDbLine
 10
463.859158
 20
476.930071
 30
0.0
 11
451.859773
 21
476.930071
 31
0.0
  0
LINE
  5
21D
102
{ACAD_REACTORS
330
6F7
102
}
330
1F
100
AcDbEntity
  8
LC-001-002-----0
 62
     7
370
    50
100
AcDbLine
 10
464.359158
 20
477.430071
 30
0.0
 11
464.359158
 21
506.430071
 31
0.0
  0
LINE
  5
21E
102
{ACAD_REACTORS
330
6F7
102
}
330
1F
100
AcDbEntity
  8
LC-001-002-----0
 62
     7
370
    50
100
AcDbLine
 10
463.559158
 20
505.630071
 30
0.0
 11
465.459158
 21
507.530071
 31
0.0
  0
LINE
  5
21F
102
{ACAD_REACTORS
330
6F7
102
}
330
1F
100
AcDbEntity
  8
LC-001-002-----0
 62
     7
370
    50
100
AcDbLine
 10
464.359158
 20
477.430071
 30
0.0
 11
463.859158
 21
476.930071
 31
0.0
  0
LINE
  5
220
102
{ACAD_REACTORS
330
6F7
102
}
330
1F
100
AcDbEntity
  8
LC-001-002-----0
 62
     7
370
    50
100
AcDbLine
 10
354.359158
 20
477.430071
 30
0.0
 11
354.859158
 21
476.930071
 31
0.0
  0
LINE
  5
221
102
{ACAD_REACTORS
330
6F7
102
}
330
1F
100
AcDbEntity
  8
LC-001-002-----0
 62
     7
370
    50
100
AcDbLine
 10
355.159158
 20
505.630071
 30
0.0
 11
353.259158
 21
507.530071
 31
0.0
  0
LINE
  5
222
102
{ACAD_REACTORS
330
6F7
102
}
330
1F
100
AcDbEntity
  8
LC-001-002-----0
 62
     7
370
    50
100
AcDbLine
 10
361.659158
 20
490.430071
 30
0.0
 11
361.659158
 21
493.930071
 31
0.0
  0
LINE
  5
223
102
{ACAD_REACTORS
330
6F7
102
}
330
1F
100
AcDbEntity
  8
LC-001-002-----0
 62
     7
370
    50
100
AcDbLine
 10
354.359158
 20
477.430071
 30
0.0
 11
354.359158
 21
506.430071
 31
0.0
  0
LINE
  5
224
102
{ACAD_REACTORS
330
6F7
102
}
330
1F
100
AcDbEntity
  8
LC-001-002-----0
 62
     7
370
    50
100
AcDbLine
 10
354.859158
 20
476.930071
 30
0.0
 11
366.859773
 21
476.930071
 31
0.0
  0
LINE
  5
225
102
{ACAD_REACTORS
330
6F7
102
}
330
1F
100
AcDbEntity
  8
LC-001-002-----0
 62
     7
370
    50
100
AcDbLine
 10
357.359158
 20
476.930071
 30
0.0
 11
357.359158
 21
508.230071
 31
0.0
  0
LINE
  5
226
102
{ACAD_REACTORS
330
6F7
102
}
330
1F
100
AcDbEntity
  8
LC-001-002-----0
 62
     7
370
    50
100
AcDbLine
 10
357.359158
 20
490.430071
 30
0.0
 11
361.659158
 21
490.430071
 31
0.0
  0
LINE
  5
227
102
{ACAD_REACTORS
330
6F7
102
}
330
1F
100
AcDbEntity
  8
LC-001-002-----0
 62
     7
370
    50
100
AcDbLine
 10
344.00797
 20
518.618566
 30
0.0
 11
347.581742
 21
516.555247
 31
0.0
  0
LINE
  5
228
102
{ACAD_REACTORS
330
6F7
102
}
330
1F
100
AcDbEntity
  8
LC-001-002-----0
 62
     7
370
    25
100
AcDbLine
 10
355.159158
 20
476.930071
 30
0.0
 11
355.159158
 21
505.630071
 31
0.0
  0
LINE
  5
229
102
{ACAD_REACTORS
330
6F7
102
}
330
1F
100
AcDbEntity
  8
LC-001-002-----0
 62
     7
370
    50
100
AcDbLine
 10
357.359158
 20
502.430071
 30
0.0
 11
361.659158
 21
493.930071
 31
0.0
  0
LINE
  5
22A
102
{ACAD_REACTORS
330
6F7
102
}
330
1F
100
AcDbEntity
  8
LC-001-002-----0
 62
     7
370
    50
100
AcDbLine
 10
461.359158
 20
502.430071
 30
0.0
 11
457.059158
 21
493.930071
 31
0.0
  0
LINE
  5
22B
102
{ACAD_REACTORS
330
6F7
102
}
330
1F
100
AcDbEntity
  8
LC-001-002-----0
 62
     7
370
    50
100
AcDbLine
 10
457.059158
 20
490.430071
 30
0.0
 11
457.059158
 21
493.930071
 31
0.0
  0
LINE
  5
22C
102
{ACAD_REACTORS
330
6F7
102
}
330
1F
100
AcDbEntity
  8
LC-001-002-----0
 62
     7
370
    50
100
AcDbLine
 10
461.359158
 20
490.430071
 30
0.0
 11
457.059158
 21
490.430071
 31
0.0
  0
LINE
  5
22D
102
{ACAD_REACTORS
330
6F7
102
}
330
1F
100
AcDbEntity
  8
LC-001-002-----0
 62
     7
370
    50
100
AcDbLine
 10
464.01558
 20
519.023613
 30
0.0
 11
474.406769
 21
519.932724
 31
0.0
  0
ARC
  5
22E
102
{ACAD_REACTORS
330
6F7
102
}
330
1F
100
AcDbEntity
  8
LC-001-002-----0
 62
     7
370
    50
100
AcDbCircle
 10
464.059158
 20
518.525516
 30
0.0
 40
0.5000000000000333
100
AcDbArc
 50
95.0
 51
180.0
  0
LINE
  5
22F
102
{ACAD_REACTORS
330
6F7
102
}
330
1F
100
AcDbEntity
  8
LC-001-002-----0
 62
     7
370
    50
100
AcDbLine
 10
474.960347
 20
519.434627
 30
0.0
 11
474.960347
 21
519.051579
 31
0.0
  0
ARC
  5
230
102
{ACAD_REACTORS
330
6F7
102
}
330
1F
100
AcDbEntity
  8
LC-002-002-RND-0
 62
     7
370
    50
100
AcDbCircle
 10
474.460347
 20
519.051579
 30
0.0
 40
0.4999999999999945
100
AcDbArc
 50
300.000004
 51
0.0
  0
ARC
  5
231
102
{ACAD_REACTORS
330
6F7
102
}
330
1F
100
AcDbEntity
  8
LC-002-002-RND-0
 62
     7
370
    50
100
AcDbCircle
 10
474.460347
 20
519.434627
 30
0.0
 40
0.5
100
AcDbArc
 50
0.0
 51
90.0
  0
ARC
  5
232
102
{ACAD_REACTORS
330
6F7
102
}
330
1F
100
AcDbEntity
  8
LC-001-002-----0
 62
     7
370
    50
100
AcDbCircle
 10
354.659158
 20
518.525516
 30
0.0
 40
0.5
100
AcDbArc
 50
0.0
 51
85.0
  0
LINE
  5
233
102
{ACAD_REACTORS
330
6F7
102
}
330
1F
100
AcDbEntity
  8
LC-001-002-----0
 62
     7
370
    50
100
AcDbLine
 10
354.702736
 20
519.023613
 30
0.0
 11
344.311548
 21
519.932724
 31
0.0
  0
LINE
  5
234
102
{ACAD_REACTORS
330
6F7
102
}
330
1F
100
AcDbEntity
  8
LC-001-002-----0
 62
     7
370
    50
100
AcDbLine
 10
355.159158
 20
508.230071
 30
0.0
 11
355.159158
 21
512.089954
 31
0.0
  0
ARC
  5
235
102
{ACAD_REACTORS
330
6F7
102
}
330
1F
100
AcDbEntity
  8
LC-002-002-RND-0
 62
     7
370
    50
100
AcDbCircle
 10
344.25797
 20
519.051578
 30
0.0
 40
0.5
100
AcDbArc
 50
180.0
 51
239.999999
  0
LINE
  5
236
102
{ACAD_REACTORS
330
6F7
102
}
330
1F
100
AcDbEntity
  8
LC-001-002-----0
 62
     7
370
    50
100
AcDbLine
 10
343.75797
 20
519.434627
 30
0.0
 11
343.75797
 21
519.051578
 31
0.0
  0
ARC
  5
237
102
{ACAD_REACTORS
330
6F7
102
}
330
1F
100
AcDbEntity
  8
LC-002-002-RND-0
 62
     7
370
    50
100
AcDbCircle
 10
344.25797
 20
519.434627
 30
0.0
 40
0.5
100
AcDbArc
 50
90.0
 51
180.0
  0
LINE
  5
238
102
{ACAD_REACTORS
330
6F7
102
}
330
1F
100
AcDbEntity
  8
LC-001-002-----0
 62
     7
370
    50
100
AcDbLine
 10
344.25797
 20
519.934627
 30
0.0
 11
474.460347
 21
519.934627
 31
0.0
  0
INSERT
  5
261
102
{ACAD_REACTORS
330
6F7
102
}
330
1F
100
AcDbEntity
  8
LC-003-005-----0
 62
     7
370
    25
100
AcDbBlockReference
  2
*X88
 10
0.0
 20
0.0
 30
0.0
  0
LINE
  5
262
102
{ACAD_REACTORS
330
6F6
102
}
330
1F
100
AcDbEntity
  8
LC-001-002-----0
 62
     7
370
    50
100
AcDbLine
 10
460.733556
 20
518.234793
 30
0.0
 11
355.360362
 21
518.234793
 31
0.0
  0
LINE
  5
263
102
{ACAD_REACTORS
330
6F3
102
}
330
1F
100
AcDbEntity
  8
LC-001-002-----0
 62
     7
370
    50
100
AcDbLine
 10
468.859552
 20
471.058309
 30
0.0
 11
469.893804
 21
471.058309
 31
0.0
  0
CIRCLE
  5
264
330
1F
100
AcDbEntity
  8
LC-001-002-----0
 62
     7
370
    40
100
AcDbCircle
 10
348.362077
 20
515.579031
 30
0.0
 40
1.249769000000015
  0
CIRCLE
  5
265
330
1F
100
AcDbEntity
  8
LC-001-002-----0
 62
     7
370
    40
100
AcDbCircle
 10
356.103395
 20
514.055919
 30
0.0
 40
2.18096300000002
  0
INSERT
  5
26B
330
1F
100
AcDbEntity
  8
LC-003-005-----0
 62
     7
370
    25
100
AcDbBlockReference
  2
*X99
 10
0.0
 20
0.0
 30
0.0
  0
INSERT
  5
272
330
1F
100
AcDbEntity
  8
LC-003-005-----0
 62
     7
370
    25
100
AcDbBlockReference
  2
*X1010
 10
0.0
 20
0.0
 30
0.0
  0
INSERT
  5
27A
330
1F
100
AcDbEntity
  8
LC-003-005-----0
 62
     7
370
    25
100
AcDbBlockReference
  2
*X1111
 10
0.0
 20
0.0
 30
0.0
  0
INSERT
  5
281
330
1F
100
AcDbEntity
  8
LC-003-005-----0
 62
     7
370
    25
100
AcDbBlockReference
  2
*X1212
 10
0.0
 20
0.0
 30
0.0
  0
LINE
  5
282
102
{ACAD_REACTORS
330
6F7
102
}
330
1F
100
AcDbEntity
  8
LC-001-002-----0
 62
     7
370
    50
100
AcDbLine
 10
349.597673
 20
515.391349
 30
0.0
 11
353.259158
 21
513.277389
 31
0.0
  0
LINE
  5
283
102
{ACAD_REACTORS
330
6F7
102
}
330
1F
100
AcDbEntity
  8
LC-001-002-----0
 62
     7
370
    50
100
AcDbLine
 10
355.159158
 20
516.021883
 30
0.0
 11
355.159158
 21
518.525516
 31
0.0
  0
INSERT
  5
2AC
330
1F
100
AcDbEntity
  8
LC-003-005-----0
 62
     7
370
    25
100
AcDbBlockReference
  2
*X1313
 10
0.0
 20
0.0
 30
0.0
  0
CIRCLE
  5
2AD
330
1F
100
AcDbEntity
  8
LC-001-002-----0
 62
     7
370
    40
100
AcDbCircle
 10
470.362539
 20
515.579031
 30
0.0
 40
1.249769000000015
  0
INSERT
  5
2B3
330
1F
100
AcDbEntity
  8
LC-003-005-----0
 62
     7
370
    25
100
AcDbBlockReference
  2
*X1414
 10
0.0
 20
0.0
 30
0.0
  0
CIRCLE
  5
2B4
330
1F
100
AcDbEntity
  8
LC-001-002-----0
 62
     7
370
    40
100
AcDbCircle
 10
462.621221
 20
514.055919
 30
0.0
 40
2.18096300000002
  0
INSERT
  5
2BC
330
1F
100
AcDbEntity
  8
LC-003-005-----0
 62
     7
370
    25
100
AcDbBlockReference
  2
*X1515
 10
0.0
 20
0.0
 30
0.0
  0
INSERT
  5
2C3
330
1F
100
AcDbEntity
  8
LC-003-005-----0
 62
     7
370
    25
100
AcDbBlockReference
  2
*X1616
 10
0.0
 20
0.0
 30
0.0
  0
LINE
  5
2C4
102
{ACAD_REACTORS
330
6F7
102
}
330
1F
100
AcDbEntity
  8
LC-001-002-----0
 62
     7
370
    50
100
AcDbLine
 10
463.559158
 20
516.024896
 30
0.0
 11
463.559158
 21
518.525516
 31
0.0
  0
LINE
  5
2C5
102
{ACAD_REACTORS
330
6F7
102
}
330
1F
100
AcDbEntity
  8
LC-001-002-----0
 62
     7
370
    50
100
AcDbLine
 10
469.126439
 20
515.394695
 30
0.0
 11
465.459158
 21
513.277389
 31
0.0
  0
LINE
  5
2C6
102
{ACAD_REACTORS
330
6FA
102
}
330
1F
100
AcDbEntity
  8
LC-001-002-----0
 62
     7
370
    50
100
AcDbLine
 10
352.361975
 20
492.557856
 30
0.0
 11
348.612325
 21
492.557856
 31
0.0
  0
ARC
  5
2C7
102
{ACAD_REACTORS
330
6FA
102
}
330
1F
100
AcDbEntity
  8
LC-002-002-RND-0
 62
     7
370
    50
100
AcDbCircle
 10
348.612325
 20
493.557856
 30
0.0
 40
1.0
100
AcDbArc
 50
180.0
 51
270.0
  0
LINE
  5
2C8
102
{ACAD_REACTORS
330
6FA
102
}
330
1F
100
AcDbEntity
  8
LC-001-002-----0
 62
     7
370
    50
100
AcDbLine
 10
470.112292
 20
492.557856
 30
0.0
 11
466.362642
 21
492.557856
 31
0.0
  0
ARC
  5
2C9
102
{ACAD_REACTORS
330
6FA
102
}
330
1F
100
AcDbEntity
  8
LC-002-002-RND-0
 62
     7
370
    50
100
AcDbCircle
 10
470.112292
 20
493.557856
 30
0.0
 40
1.0
100
AcDbArc
 50
270.0
 51
0.0
  0
LINE
  5
2CA
102
{ACAD_REACTORS
330
6FA
102
}
330
1F
100
AcDbEntity
  8
LC-003-005-----0
 62
     7
370
    25
100
AcDbLine
 10
354.312309
 20
489.557856
 30
0.0
 11
354.312309
 21
467.558695
 31
0.0
  0
LINE
  5
2CB
102
{ACAD_REACTORS
330
6FA
102
}
330
1F
100
AcDbEntity
  8
LC-003-005-----0
 62
     7
370
    25
100
AcDbLine
 10
464.412308
 20
489.557856
 30
0.0
 11
464.412308
 21
467.558695
 31
0.0
  0
ARC
  5
2CC
102
{ACAD_REACTORS
330
6FA
102
}
330
1F
100
AcDbEntity
  8
LC-001-002-----0
 62
     7
370
    50
100
AcDbCircle
 10
465.612308
 20
494.557856
 30
0.0
 40
1.0
100
AcDbArc
 50
90.0
 51
180.0
  0
LINE
  5
2CD
102
{ACAD_REACTORS
330
6FA
102
}
330
1F
100
AcDbEntity
  8
LC-001-002-----0
 62
     7
370
    50
100
AcDbLine
 10
354.312309
 20
489.557856
 30
0.0
 11
354.112308
 21
489.557856
 31
0.0
  0
LINE
  5
2CE
102
{ACAD_REACTORS
330
6FA
102
}
330
1F
100
AcDbEntity
  8
LC-001-002-----0
 62
     7
370
    50
100
AcDbLine
 10
463.112308
 20
488.257857
 30
0.0
 11
463.112308
 21
467.559138
 31
0.0
  0
LINE
  5
2CF
102
{ACAD_REACTORS
330
6FA
102
}
330
1F
100
AcDbEntity
  8
LC-001-002-----0
 62
     7
370
    50
100
AcDbLine
 10
464.412308
 20
489.557856
 30
0.0
 11
463.112308
 21
488.257857
 31
0.0
  0
LINE
  5
2D0
102
{ACAD_REACTORS
330
6FA
102
}
330
1F
100
AcDbEntity
  8
LC-001-002-----0
 62
     7
370
    50
100
AcDbLine
 10
466.362642
 20
468.558695
 30
0.0
 11
466.362642
 21
492.557856
 31
0.0
  0
ARC
  5
2D1
102
{ACAD_REACTORS
330
6FA
102
}
330
1F
100
AcDbEntity
  8
LC-001-002-----0
 62
     7
370
    50
100
AcDbCircle
 10
465.362642
 20
468.558695
 30
0.0
 40
1.0
100
AcDbArc
 50
270.0
 51
0.0
  0
LINE
  5
2D2
102
{ACAD_REACTORS
330
6FA
102
}
330
1F
100
AcDbEntity
  8
LC-001-002-----0
 62
     7
370
    50
100
AcDbLine
 10
355.612308
 20
467.559138
 30
0.0
 11
355.612308
 21
488.257857
 31
0.0
  0
LINE
  5
2D3
102
{ACAD_REACTORS
330
6FA
102
}
330
1F
100
AcDbEntity
  8
LC-001-002-----0
 62
     7
370
    50
100
AcDbLine
 10
352.361975
 20
492.557856
 30
0.0
 11
352.361975
 21
468.558695
 31
0.0
  0
LINE
  5
2D4
102
{ACAD_REACTORS
330
6FA
102
}
330
1F
100
AcDbEntity
  8
LC-001-002-----0
 62
     7
370
    50
100
AcDbLine
 10
464.612308
 20
489.557856
 30
0.0
 11
464.412308
 21
489.557856
 31
0.0
  0
LINE
  5
2D5
102
{ACAD_REACTORS
330
6FA
102
}
330
1F
100
AcDbEntity
  8
LC-001-002-----0
 62
     7
370
    50
100
AcDbLine
 10
353.361991
 20
467.558695
 30
0.0
 11
354.312198
 21
467.558695
 31
0.0
  0
ARC
  5
2D6
102
{ACAD_REACTORS
330
6FA
102
}
330
1F
100
AcDbEntity
  8
LC-001-002-----0
 62
     7
370
    50
100
AcDbCircle
 10
353.112308
 20
494.557856
 30
0.0
 40
1.0
100
AcDbArc
 50
0.0
 51
90.0
  0
ARC
  5
2D7
102
{ACAD_REACTORS
330
6FA
102
}
330
1F
100
AcDbEntity
  8
LC-001-002-----0
 62
     7
370
    50
100
AcDbCircle
 10
353.361975
 20
468.558695
 30
0.0
 40
1.0
100
AcDbArc
 50
180.0
 51
270.0
  0
LINE
  5
2D8
102
{ACAD_REACTORS
330
6FA
102
}
330
1F
100
AcDbEntity
  8
LC-001-002-----0
 62
     7
370
    50
100
AcDbLine
 10
464.612308
 20
494.557856
 30
0.0
 11
464.612308
 21
489.557856
 31
0.0
  0
LINE
  5
2D9
102
{ACAD_REACTORS
330
6FA
102
}
330
1F
100
AcDbEntity
  8
LC-001-002-----0
 62
     7
370
    50
100
AcDbLine
 10
471.112292
 20
495.557856
 30
0.0
 11
465.612308
 21
495.557856
 31
0.0
  0
LINE
  5
2DA
102
{ACAD_REACTORS
330
6FA
102
}
330
1F
100
AcDbEntity
  8
LC-001-002-----0
 62
     7
370
    50
100
AcDbLine
 10
347.612325
 20
495.557856
 30
0.0
 11
347.612325
 21
493.557856
 31
0.0
  0
LINE
  5
2DB
102
{ACAD_REACTORS
330
6FA
102
}
330
1F
100
AcDbEntity
  8
LC-001-002-----0
 62
     7
370
    50
100
AcDbLine
 10
471.112292
 20
493.557856
 30
0.0
 11
471.112292
 21
495.557856
 31
0.0
  0
LINE
  5
2DC
102
{ACAD_REACTORS
330
6FA
102
}
330
1F
100
AcDbEntity
  8
LC-001-002-----0
 62
     7
370
    50
100
AcDbLine
 10
355.612308
 20
488.257857
 30
0.0
 11
354.312309
 21
489.557856
 31
0.0
  0
LINE
  5
2DD
102
{ACAD_REACTORS
330
6FA
102
}
330
1F
100
AcDbEntity
  8
LC-001-002-----0
 62
     7
370
    50
100
AcDbLine
 10
354.112308
 20
489.557856
 30
0.0
 11
354.112308
 21
494.557856
 31
0.0
  0
LINE
  5
2DE
102
{ACAD_REACTORS
330
6FA
102
}
330
1F
100
AcDbEntity
  8
LC-001-002-----0
 62
     7
370
    50
100
AcDbLine
 10
451.860417
 20
467.558695
 30
0.0
 11
465.362642
 21
467.558695
 31
0.0
  0
LINE
  5
2DF
102
{ACAD_REACTORS
330
6FA
102
}
330
1F
100
AcDbEntity
  8
LC-001-002-----0
 62
     7
370
    50
100
AcDbLine
 10
353.361975
 20
467.558695
 30
0.0
 11
355.612308
 21
467.558695
 31
0.0
  0
INSERT
  5
2EB
102
{ACAD_REACTORS
330
6FA
102
}
330
1F
100
AcDbEntity
  8
LC-003-005-----0
 62
     7
370
    25
100
AcDbBlockReference
  2
*X1717
 10
0.0
 20
0.0
 30
0.0
  0
INSERT
  5
2F7
102
{ACAD_REACTORS
330
6FA
102
}
330
1F
100
AcDbEntity
  8
LC-003-005-----0
 62
     7
370
    25
100
AcDbBlockReference
  2
*X1818
 10
0.0
 20
0.0
 30
0.0
  0
ARC
  5
2F8
102
{ACAD_REACTORS
330
6FC
102
}
330
1F
100
AcDbEntity
  8
LC-002-002-RND-0
 62
     7
370
    50
100
AcDbCircle
 10
350.361991
 20
477.679665
 30
0.0
 40
1.0
100
AcDbArc
 50
0.0
 51
80.0
  0
LINE
  5
2F9
102
{ACAD_REACTORS
330
6FC
102
}
330
1F
100
AcDbEntity
  8
LC-001-002-----0
 62
     7
370
    50
100
AcDbLine
 10
347.612325
 20
495.557856
 30
0.0
 11
353.112308
 21
495.557856
 31
0.0
  0
ARC
  5
2FA
102
{ACAD_REACTORS
330
6FC
102
}
330
1F
100
AcDbEntity
  8
LC-002-002-RND-0
 62
     7
370
    50
100
AcDbCircle
 10
350.361991
 20
470.179665
 30
0.0
 40
1.0
100
AcDbArc
 50
0.0
 51
80.0
  0
LINE
  5
2FB
102
{ACAD_REACTORS
330
6FC
102
}
330
1F
100
AcDbEntity
  8
LC-001-002-----0
 62
     7
370
    50
100
AcDbLine
 10
350.53564
 20
478.664472
 30
0.0
 11
347.735912
 21
479.15814
 31
0.0
  0
LINE
  5
2FC
102
{ACAD_REACTORS
330
6FC
102
}
330
1F
100
AcDbEntity
  8
LC-001-002-----0
 62
     7
370
    50
100
AcDbLine
 10
350.53564
 20
471.164472
 30
0.0
 11
347.735912
 21
471.65814
 31
0.0
  0
LINE
  5
2FD
102
{ACAD_REACTORS
330
6FC
102
}
330
1F
100
AcDbEntity
  8
LC-001-002-----0
 62
     7
370
    50
100
AcDbLine
 10
347.361905
 20
499.058506
 30
0.0
 11
354.359158
 21
499.058506
 31
0.0
  0
LINE
  5
2FE
102
{ACAD_REACTORS
330
6FC
102
}
330
1F
100
AcDbEntity
  8
LC-001-002-----0
 62
     7
370
    50
100
AcDbLine
 10
352.362325
 20
495.555546
 30
0.0
 11
352.362325
 21
497.058506
 31
0.0
  0
LINE
  5
2FF
102
{ACAD_REACTORS
330
6FC
102
}
330
1F
100
AcDbEntity
  8
LC-001-002-----0
 62
     7
370
    50
100
AcDbLine
 10
351.361991
 20
470.179665
 30
0.0
 11
351.361991
 21
468.059141
 31
0.0
  0
LINE
  5
300
102
{ACAD_REACTORS
330
6FC
102
}
330
1F
100
AcDbEntity
  8
LC-001-002-----0
 62
     7
370
    50
100
AcDbLine
 10
466.672412
 20
497.058506
 30
0.0
 11
464.359158
 21
497.058506
 31
0.0
  0
LINE
  5
301
102
{ACAD_REACTORS
330
6FC
102
}
330
1F
100
AcDbEntity
  8
LC-001-002-----0
 62
     7
370
    50
100
AcDbLine
 10
466.862625
 20
467.559141
 30
0.0
 11
463.112308
 21
467.559138
 31
0.0
  0
ARC
  5
302
102
{ACAD_REACTORS
330
6FC
102
}
330
1F
100
AcDbEntity
  8
LC-001-002-----0
 62
     7
370
    50
100
AcDbCircle
 10
350.861991
 20
480.555497
 30
0.0
 40
0.5
100
AcDbArc
 50
270.0
 51
360.0
  0
LINE
  5
303
102
{ACAD_REACTORS
330
6FC
102
}
330
1F
100
AcDbEntity
  8
LC-001-002-----0
 62
     7
370
    50
100
AcDbLine
 10
352.361991
 20
468.55914
 30
0.0
 11
352.361991
 21
492.5583
 31
0.0
  0
LINE
  5
304
102
{ACAD_REACTORS
330
6FC
102
}
330
1F
100
AcDbEntity
  8
LC-001-002-----0
 62
     7
370
    50
100
AcDbLine
 10
351.361991
 20
491.561853
 30
0.0
 11
351.361991
 21
480.555497
 31
0.0
  0
ARC
  5
305
102
{ACAD_REACTORS
330
6FC
102
}
330
1F
100
AcDbEntity
  8
LC-001-002-----0
 62
     7
370
    50
100
AcDbCircle
 10
353.361991
 20
468.55914
 30
0.0
 40
1.0
100
AcDbArc
 50
180.0
 51
270.0
  0
LINE
  5
306
102
{ACAD_REACTORS
330
6FC
102
}
330
1F
100
AcDbEntity
  8
LC-001-002-----0
 62
     7
370
    50
100
AcDbLine
 10
350.175816
 20
498.808506
 30
0.0
 11
349.165453
 21
497.058506
 31
0.0
  0
LINE
  5
307
102
{ACAD_REACTORS
330
6FC
102
}
330
1F
100
AcDbEntity
  8
LC-001-002-----0
 62
     7
370
    50
100
AcDbLine
 10
351.861991
 20
467.559141
 30
0.0
 11
366.860417
 21
467.559131
 31
0.0
  0
LINE
  5
308
102
{ACAD_REACTORS
330
6FC
102
}
330
1F
100
AcDbEntity
  8
LC-001-002-----0
 62
     7
370
    50
100
AcDbLine
 10
467.362625
 20
468.059141
 30
0.0
 11
467.362625
 21
470.179665
 31
0.0
  0
ARC
  5
309
102
{ACAD_REACTORS
330
6FC
102
}
330
1F
100
AcDbEntity
  8
LC-001-002-----0
 62
     7
370
    50
100
AcDbCircle
 10
348.612325
 20
493.5583
 30
0.0
 40
1.0
100
AcDbArc
 50
180.0
 51
270.0
  0
ARC
  5
30A
102
{ACAD_REACTORS
330
6FC
102
}
330
1F
100
AcDbEntity
  8
LC-001-002-----0
 62
     7
370
    50
100
AcDbCircle
 10
345.862204
 20
492.061853
 30
0.0
 40
0.5
100
AcDbArc
 50
180.0
 51
270.0
  0
LINE
  5
30B
102
{ACAD_REACTORS
330
6FC
102
}
330
1F
100
AcDbEntity
  8
LC-001-002-----0
 62
     7
370
    50
100
AcDbLine
 10
470.112292
 20
492.5583
 30
0.0
 11
466.362625
 21
492.5583
 31
0.0
  0
LINE
  5
30C
102
{ACAD_REACTORS
330
6FC
102
}
330
1F
100
AcDbEntity
  8
LC-001-002-----0
 62
     7
370
    50
100
AcDbLine
 10
467.362625
 20
480.555497
 30
0.0
 11
467.362625
 21
491.561853
 31
0.0
  0
LINE
  5
30D
102
{ACAD_REACTORS
330
6FC
102
}
330
1F
100
AcDbEntity
  8
LC-001-002-----0
 62
     7
370
    50
100
AcDbLine
 10
351.361991
 20
477.679665
 30
0.0
 11
351.361991
 21
473.055497
 31
0.0
  0
LINE
  5
30E
102
{ACAD_REACTORS
330
6FC
102
}
330
1F
100
AcDbEntity
  8
LC-001-002-----0
 62
     7
370
    50
100
AcDbLine
 10
349.165453
 20
497.058506
 30
0.0
 11
348.805281
 21
497.058506
 31
0.0
  0
LINE
  5
30F
102
{ACAD_REACTORS
330
6FC
102
}
330
1F
100
AcDbEntity
  8
LC-001-002-----0
 62
     7
370
    50
100
AcDbLine
 10
347.612325
 20
493.5583
 30
0.0
 11
347.612325
 21
495.557856
 31
0.0
  0
LINE
  5
310
102
{ACAD_REACTORS
330
6FC
102
}
330
1F
100
AcDbEntity
  8
LC-001-002-----0
 62
     7
370
    50
100
AcDbLine
 10
352.052204
 20
497.058506
 30
0.0
 11
351.041841
 21
498.808506
 31
0.0
  0
LINE
  5
311
102
{ACAD_REACTORS
330
6FC
102
}
330
1F
100
AcDbEntity
  8
LC-001-002-----0
 62
     7
370
    50
100
AcDbLine
 10
345.362204
 20
497.058506
 30
0.0
 11
345.362204
 21
492.061853
 31
0.0
  0
LINE
  5
312
102
{ACAD_REACTORS
330
6FC
102
}
330
1F
100
AcDbEntity
  8
LC-001-002-----0
 62
     7
370
    50
100
AcDbLine
 10
345.862204
 20
491.561853
 30
0.0
 11
351.361991
 21
491.561853
 31
0.0
  0
LINE
  5
313
102
{ACAD_REACTORS
330
6FC
102
}
330
1F
100
AcDbEntity
  8
LC-001-002-----0
 62
     7
370
    50
100
AcDbLine
 10
466.362625
 20
492.5583
 30
0.0
 11
466.362625
 21
468.55914
 31
0.0
  0
ARC
  5
314
102
{ACAD_REACTORS
330
6FC
102
}
330
1F
100
AcDbEntity
  8
LC-001-002-----0
 62
     7
370
    50
100
AcDbCircle
 10
465.362625
 20
468.55914
 30
0.0
 40
1.0
100
AcDbArc
 50
270.0
 51
0.0
  0
ARC
  5
315
102
{ACAD_REACTORS
330
6FC
102
}
330
1F
100
AcDbEntity
  8
LC-001-002-----0
 62
     7
370
    50
100
AcDbCircle
 10
351.861991
 20
468.059141
 30
0.0
 40
0.5
100
AcDbArc
 50
180.0
 51
269.999963
  0
ARC
  5
316
102
{ACAD_REACTORS
330
6FC
102
}
330
1F
100
AcDbEntity
  8
LC-001-002-----0
 62
     7
370
    50
100
AcDbCircle
 10
466.862625
 20
468.059141
 30
0.0
 40
0.499999999999992
100
AcDbArc
 50
270.000037
 51
0.0
  0
ARC
  5
317
102
{ACAD_REACTORS
330
6FC
102
}
330
1F
100
AcDbEntity
  8
LC-002-002-RND-0
 62
     7
370
    50
100
AcDbCircle
 10
350.861991
 20
480.555497
 30
0.0
 40
0.5
100
AcDbArc
 50
270.0
 51
360.0
  0
ARC
  5
318
102
{ACAD_REACTORS
330
6FC
102
}
330
1F
100
AcDbEntity
  8
LC-002-002-RND-0
 62
     7
370
    50
100
AcDbCircle
 10
350.861991
 20
473.055497
 30
0.0
 40
0.5
100
AcDbArc
 50
270.0
 51
360.0
  0
LINE
  5
319
102
{ACAD_REACTORS
330
6FC
102
}
330
1F
100
AcDbEntity
  8
LC-001-002-----0
 62
     7
370
    50
100
AcDbLine
 10
350.861991
 20
480.055497
 30
0.0
 11
347.814421
 21
480.055497
 31
0.0
  0
ARC
  5
31A
102
{ACAD_REACTORS
330
6FC
102
}
330
1F
100
AcDbEntity
  8
LC-001-002-----0
 62
     7
370
    50
100
AcDbCircle
 10
347.814421
 20
479.603384
 30
0.0
 40
0.4521128445238674
100
AcDbArc
 50
90.0
 51
260.0
  0
LINE
  5
31B
102
{ACAD_REACTORS
330
6FC
102
}
330
1F
100
AcDbEntity
  8
LC-001-002-----0
 62
     7
370
    50
100
AcDbLine
 10
350.861991
 20
472.555497
 30
0.0
 11
347.814421
 21
472.555497
 31
0.0
  0
ARC
  5
31C
102
{ACAD_REACTORS
330
6FC
102
}
330
1F
100
AcDbEntity
  8
LC-001-002-----0
 62
     7
370
    50
100
AcDbCircle
 10
347.814421
 20
472.103384
 30
0.0
 40
0.4521128445238674
100
AcDbArc
 50
90.0
 51
260.0
  0
LINE
  5
31D
102
{ACAD_REACTORS
330
6FC
102
}
330
1F
100
AcDbEntity
  8
LC-001-002-----0
 62
     7
370
    50
100
AcDbLine
 10
345.918529
 20
497.058506
 30
0.0
 11
345.362204
 21
497.058506
 31
0.0
  0
LINE
  5
31E
102
{ACAD_REACTORS
330
6FC
102
}
330
1F
100
AcDbEntity
  8
LC-001-002-----0
 62
     7
370
    50
100
AcDbLine
 10
466.362292
 20
495.555546
 30
0.0
 11
466.362292
 21
497.058506
 31
0.0
  0
ARC
  5
31F
102
{ACAD_REACTORS
330
6FC
102
}
330
1F
100
AcDbEntity
  8
LC-001-002-----0
 62
     7
370
    50
100
AcDbCircle
 10
470.112292
 20
493.5583
 30
0.0
 40
1.0
100
AcDbArc
 50
270.0
 51
360.0
  0
ARC
  5
320
102
{ACAD_REACTORS
330
6FC
102
}
330
1F
100
AcDbEntity
  8
LC-001-002-----0
 62
     7
370
    50
100
AcDbCircle
 10
472.862412
 20
492.061853
 30
0.0
 40
0.5
100
AcDbArc
 50
270.0
 51
0.0
  0
LINE
  5
321
102
{ACAD_REACTORS
330
6FC
102
}
330
1F
100
AcDbEntity
  8
LC-001-002-----0
 62
     7
370
    50
100
AcDbLine
 10
471.112292
 20
493.5583
 30
0.0
 11
471.112292
 21
495.557856
 31
0.0
  0
LINE
  5
322
102
{ACAD_REACTORS
330
6FC
102
}
330
1F
100
AcDbEntity
  8
LC-001-002-----0
 62
     7
370
    50
100
AcDbLine
 10
473.362412
 20
497.058506
 30
0.0
 11
473.362412
 21
492.061853
 31
0.0
  0
LINE
  5
323
102
{ACAD_REACTORS
330
6FC
102
}
330
1F
100
AcDbEntity
  8
LC-001-002-----0
 62
     7
370
    50
100
AcDbLine
 10
472.862412
 20
491.561853
 30
0.0
 11
467.362625
 21
491.561853
 31
0.0
  0
ARC
  5
324
102
{ACAD_REACTORS
330
6FC
102
}
330
1F
100
AcDbEntity
  8
LC-001-002-----0
 62
     7
370
    50
100
AcDbCircle
 10
467.862625
 20
480.555497
 30
0.0
 40
0.5
100
AcDbArc
 50
180.0
 51
270.0
  0
ARC
  5
325
102
{ACAD_REACTORS
330
6FC
102
}
330
1F
100
AcDbEntity
  8
LC-002-002-RND-0
 62
     7
370
    50
100
AcDbCircle
 10
468.362625
 20
477.679665
 30
0.0
 40
0.9999999999999996
100
AcDbArc
 50
100.0
 51
180.0
  0
ARC
  5
326
102
{ACAD_REACTORS
330
6FC
102
}
330
1F
100
AcDbEntity
  8
LC-002-002-RND-0
 62
     7
370
    50
100
AcDbCircle
 10
468.362625
 20
470.179665
 30
0.0
 40
1.000000000000009
100
AcDbArc
 50
100.0
 51
180.0
  0
LINE
  5
327
102
{ACAD_REACTORS
330
6FC
102
}
330
1F
100
AcDbEntity
  8
LC-001-002-----0
 62
     7
370
    50
100
AcDbLine
 10
468.188977
 20
478.664472
 30
0.0
 11
470.988704
 21
479.15814
 31
0.0
  0
LINE
  5
328
102
{ACAD_REACTORS
330
6FC
102
}
330
1F
100
AcDbEntity
  8
LC-001-002-----0
 62
     7
370
    50
100
AcDbLine
 10
468.188977
 20
471.164472
 30
0.0
 11
470.988704
 21
471.65814
 31
0.0
  0
ARC
  5
329
102
{ACAD_REACTORS
330
6FC
102
}
330
1F
100
AcDbEntity
  8
LC-001-002-----0
 62
     7
370
    50
100
AcDbCircle
 10
467.862625
 20
480.555497
 30
0.0
 40
0.5
100
AcDbArc
 50
180.0
 51
270.0
  0
LINE
  5
32A
102
{ACAD_REACTORS
330
6FC
102
}
330
1F
100
AcDbEntity
  8
LC-001-002-----0
 62
     7
370
    50
100
AcDbLine
 10
467.362625
 20
477.679665
 30
0.0
 11
467.362625
 21
473.055497
 31
0.0
  0
ARC
  5
32B
102
{ACAD_REACTORS
330
6FC
102
}
330
1F
100
AcDbEntity
  8
LC-002-002-RND-0
 62
     7
370
    50
100
AcDbCircle
 10
467.862625
 20
480.555497
 30
0.0
 40
0.5
100
AcDbArc
 50
180.0
 51
270.0
  0
ARC
  5
32C
102
{ACAD_REACTORS
330
6FC
102
}
330
1F
100
AcDbEntity
  8
LC-002-002-RND-0
 62
     7
370
    50
100
AcDbCircle
 10
467.862625
 20
473.055497
 30
0.0
 40
0.5
100
AcDbArc
 50
180.0
 51
270.0
  0
LINE
  5
32D
102
{ACAD_REACTORS
330
6FC
102
}
330
1F
100
AcDbEntity
  8
LC-001-002-----0
 62
     7
370
    50
100
AcDbLine
 10
467.862625
 20
480.055497
 30
0.0
 11
470.910195
 21
480.055497
 31
0.0
  0
ARC
  5
32E
102
{ACAD_REACTORS
330
6FC
102
}
330
1F
100
AcDbEntity
  8
LC-001-002-----0
 62
     7
370
    50
100
AcDbCircle
 10
470.910195
 20
479.603384
 30
0.0
 40
0.4521128445238309
100
AcDbArc
 50
280.0
 51
90.0
  0
LINE
  5
32F
102
{ACAD_REACTORS
330
6FC
102
}
330
1F
100
AcDbEntity
  8
LC-001-002-----0
 62
     7
370
    50
100
AcDbLine
 10
467.862625
 20
472.555497
 30
0.0
 11
470.910195
 21
472.555497
 31
0.0
  0
ARC
  5
330
102
{ACAD_REACTORS
330
6FC
102
}
330
1F
100
AcDbEntity
  8
LC-001-002-----0
 62
     7
370
    50
100
AcDbCircle
 10
470.910195
 20
472.103384
 30
0.0
 40
0.4521128445238211
100
AcDbArc
 50
280.0
 51
90.0
  0
INSERT
  5
34C
102
{ACAD_REACTORS
330
6FC
102
}
330
1F
100
AcDbEntity
  8
LC-003-005-----0
 62
     7
370
    25
100
AcDbBlockReference
  2
*X1919
 10
0.0
 20
0.0
 30
0.0
  0
LINE
  5
34D
102
{ACAD_REACTORS
330
6FC
102
}
330
1F
100
AcDbEntity
  8
LC-001-002-----0
 62
     7
370
    50
100
AcDbLine
 10
352.361991
 20
492.5583
 30
0.0
 11
348.612325
 21
492.5583
 31
0.0
  0
ARC
  5
34E
102
{ACAD_REACTORS
330
6FC
102
}
330
1F
100
AcDbEntity
  8
LC-001-002-----0
 62
     7
370
    50
100
AcDbCircle
 10
347.361905
 20
498.558506
 30
0.0
 40
0.4999999999999918
100
AcDbArc
 50
30.0
 51
150.0
  0
LINE
  5
34F
102
{ACAD_REACTORS
330
6FC
102
}
330
1F
100
AcDbEntity
  8
LC-001-002-----0
 62
     7
370
    50
100
AcDbLine
 10
346.928892
 20
498.808506
 30
0.0
 11
345.918529
 21
497.058506
 31
0.0
  0
LINE
  5
350
102
{ACAD_REACTORS
330
6FC
102
}
330
1F
100
AcDbEntity
  8
LC-001-002-----0
 62
     7
370
    50
100
AcDbLine
 10
348.805281
 20
497.058506
 30
0.0
 11
347.794918
 21
498.808506
 31
0.0
  0
ARC
  5
351
102
{ACAD_REACTORS
330
6FC
102
}
330
1F
100
AcDbEntity
  8
LC-001-002-----0
 62
     7
370
    50
100
AcDbCircle
 10
350.608829
 20
498.558506
 30
0.0
 40
0.4999999999999918
100
AcDbArc
 50
30.0
 51
150.0
  0
LINE
  5
352
102
{ACAD_REACTORS
330
6FC
102
}
330
1F
100
AcDbEntity
  8
LC-001-002-----0
 62
     7
370
    50
100
AcDbLine
 10
468.5488
 20
498.808506
 30
0.0
 11
469.559163
 21
497.058506
 31
0.0
  0
LINE
  5
353
102
{ACAD_REACTORS
330
6FC
102
}
330
1F
100
AcDbEntity
  8
LC-001-002-----0
 62
     7
370
    50
100
AcDbLine
 10
469.559163
 20
497.058506
 30
0.0
 11
469.919336
 21
497.058506
 31
0.0
  0
LINE
  5
354
102
{ACAD_REACTORS
330
6FC
102
}
330
1F
100
AcDbEntity
  8
LC-001-002-----0
 62
     7
370
    50
100
AcDbLine
 10
466.672412
 20
497.058506
 30
0.0
 11
467.682775
 21
498.808506
 31
0.0
  0
LINE
  5
355
102
{ACAD_REACTORS
330
6FC
102
}
330
1F
100
AcDbEntity
  8
LC-001-002-----0
 62
     7
370
    50
100
AcDbLine
 10
472.806087
 20
497.058506
 30
0.0
 11
473.362412
 21
497.058506
 31
0.0
  0
ARC
  5
356
102
{ACAD_REACTORS
330
6FC
102
}
330
1F
100
AcDbEntity
  8
LC-001-002-----0
 62
     7
370
    50
100
AcDbCircle
 10
471.362711
 20
498.558506
 30
0.0
 40
0.4999999999999426
100
AcDbArc
 50
30.0
 51
150.0
  0
LINE
  5
357
102
{ACAD_REACTORS
330
6FC
102
}
330
1F
100
AcDbEntity
  8
LC-001-002-----0
 62
     7
370
    50
100
AcDbLine
 10
471.795724
 20
498.808506
 30
0.0
 11
472.806087
 21
497.058506
 31
0.0
  0
LINE
  5
358
102
{ACAD_REACTORS
330
6FC
102
}
330
1F
100
AcDbEntity
  8
LC-001-002-----0
 62
     7
370
    50
100
AcDbLine
 10
469.919336
 20
497.058506
 30
0.0
 11
470.929699
 21
498.808506
 31
0.0
  0
ARC
  5
359
102
{ACAD_REACTORS
330
6FC
102
}
330
1F
100
AcDbEntity
  8
LC-001-002-----0
 62
     7
370
    50
100
AcDbCircle
 10
468.115788
 20
498.558506
 30
0.0
 40
0.4999999999999994
100
AcDbArc
 50
30.0
 51
150.0
  0
LINE
  5
35A
102
{ACAD_REACTORS
330
6FC
102
}
330
1F
100
AcDbEntity
  8
LC-001-002-----0
 62
     7
370
    50
100
AcDbLine
 10
464.359158
 20
499.058506
 30
0.0
 11
471.357711
 21
499.058506
 31
0.0
  0
LINE
  5
35B
102
{ACAD_REACTORS
330
6FC
102
}
330
1F
100
AcDbEntity
  8
LC-001-002-----0
 62
     7
370
    50
100
AcDbLine
 10
354.359158
 20
497.058506
 30
0.0
 11
352.052204
 21
497.058506
 31
0.0
  0
LINE
  5
35C
102
{ACAD_REACTORS
330
6FC
102
}
330
1F
100
AcDbEntity
  8
LC-001-002-----0
 62
     7
370
    50
100
AcDbLine
 10
465.612308
 20
495.557856
 30
0.0
 11
471.112292
 21
495.557856
 31
0.0
  0
LINE
  5
35D
102
{ACAD_REACTORS
330
6FA
102
}
330
1F
100
AcDbEntity
  8
LC-001-002-----0
 62
     7
370
    50
100
AcDbLine
 10
353.112308
 20
495.557856
 30
0.0
 11
347.612325
 21
495.557856
 31
0.0
  0
INSERT
  5
366
330
1F
100
AcDbEntity
  8
LC-003-005-----0
 62
     7
370
    25
100
AcDbBlockReference
  2
*X2020
 10
0.0
 20
0.0
 30
0.0
  0
CIRCLE
  5
367
330
1F
100
AcDbEntity
  8
LC-001-002-----0
 62
     7
370
    50
100
AcDbCircle
 10
542.5316
 20
488.661459
 30
0.0
 40
2.499999999999773
  0
INSERT
  5
370
330
1F
100
AcDbEntity
  8
LC-003-005-----0
 62
     7
370
    25
100
AcDbBlockReference
  2
*X2121
 10
0.0
 20
0.0
 30
0.0
  0
DIMENSION
  5
374
330
1F
100
AcDbEntity
  8
LC-004-003-----0
 62
     7
370
    25
100
AcDbDimension
  2
*D22
 10
258.431751
 20
494.236923
 30
0.0
 11
227.631751
 21
374.989667
 31
0.0
 70
   160
 71
     5
 42
49.999815
 53
90.0
  3
LC-DIM-L-0140-02-02
100
AcDbAlignedDimension
 13
379.860269
 23
444.237108
 33
0.0
 14
366.859158
 24
494.236923
 34
0.0
 50
90.0
100
AcDbRotatedDimension
  0
LINE
  5
383
330
1F
100
AcDbEntity
  8
LC-001-002-----0
 62
     7
370
    50
100
AcDbLine
 10
587.689375
 20
494.810278
 30
0.0
 11
617.089375
 21
465.410278
 31
0.0
  0
LINE
  5
384
330
1F
100
AcDbEntity
  8
LC-001-002-----0
 62
     7
370
    50
100
AcDbLine
 10
586.860948
 20
492.810278
 30
0.0
 11
616.260948
 21
463.410278
 31
0.0
  0
LINE
  5
385
330
1F
100
AcDbEntity
  8
LC-001-002-----0
 62
     7
370
    50
100
AcDbLine
 10
662.089375
 20
465.410278
 30
0.0
 11
665.089375
 21
464.60643
 31
0.0
  0
LINE
  5
386
330
1F
100
AcDbEntity
  8
LC-001-002-----0
 62
     7
370
    50
100
AcDbLine
 10
665.089375
 20
416.214125
 30
0.0
 11
665.089375
 21
417.410278
 31
0.0
  0
LINE
  5
387
330
1F
100
AcDbEntity
  8
LC-001-002-----0
 62
     7
370
    50
100
AcDbLine
 10
662.089375
 20
415.410278
 30
0.0
 11
665.089375
 21
416.214125
 31
0.0
  0
LINE
  5
38A
330
1F
100
AcDbEntity
  8
LC-005-006-MLN-0
 62
     7
370
    25
100
AcDbLine
 10
675.089375
 20
440.410278
 30
0.0
 11
591.560948
 21
440.410278
 31
0.0
  0
ARC
  5
38B
330
1F
100
AcDbEntity
  8
LC-002-002-RND-0
 62
     7
370
    50
100
AcDbCircle
 10
549.889375
 20
413.860278
 30
0.0
 40
3.0
100
AcDbArc
 50
270.0
 51
360.0
  0
LINE
  5
38C
330
1F
100
AcDbEntity
  8
LC-001-002-----0
 62
     7
370
    50
100
AcDbLine
 10
549.889375
 20
499.360278
 30
0.0
 11
542.966726
 21
499.360278
 31
0.0
  0
LINE
  5
38D
102
{ACAD_REACTORS
330
6F9
102
}
330
1F
100
AcDbEntity
  8
LC-001-002-----0
 62
     7
370
    50
100
AcDbLine
 10
534.889375
 20
495.110278
 30
0.0
 11
534.889375
 21
493.110278
 31
0.0
  0
LINE
  5
38E
330
1F
100
AcDbEntity
  8
LC-001-002-----0
 62
     7
370
    50
100
AcDbLine
 10
662.089375
 20
465.410278
 30
0.0
 11
617.089375
 21
465.410278
 31
0.0
  0
ARC
  5
38F
102
{ACAD_REACTORS
330
6F9
102
}
330
1F
100
AcDbEntity
  8
LC-002-002-RND-0
 62
     7
370
    50
100
AcDbCircle
 10
542.966726
 20
413.860278
 30
0.0
 40
3.000000000000049
100
AcDbArc
 50
210.0
 51
270.0
  0
LINE
  5
390
102
{ACAD_REACTORS
330
6F9
102
}
330
1F
100
AcDbEntity
  8
LC-001-002-----0
 62
     7
370
    50
100
AcDbLine
 10
586.860948
 20
492.810278
 30
0.0
 11
550.889375
 21
492.810278
 31
0.0
  0
LINE
  5
391
102
{ACAD_REACTORS
330
6F9
102
}
330
1F
100
AcDbEntity
  8
LC-001-002-----0
 62
     7
370
    50
100
AcDbLine
 10
584.689375
 20
417.410278
 30
0.0
 11
550.889375
 21
417.410278
 31
0.0
  0
LINE
  5
392
330
1F
100
AcDbEntity
  8
LC-001-002-----0
 62
     7
370
    50
100
AcDbLine
 10
552.889375
 20
496.360278
 30
0.0
 11
552.889375
 21
494.810278
 31
0.0
  0
LINE
  5
393
102
{ACAD_REACTORS
330
6F9
102
}
330
1F
100
AcDbEntity
  8
LC-001-002-----0
 62
     7
370
    50
100
AcDbLine
 10
587.689375
 20
494.810278
 30
0.0
 11
552.889375
 21
494.810278
 31
0.0
  0
LINE
  5
394
102
{ACAD_REACTORS
330
6F9
102
}
330
1F
100
AcDbEntity
  8
LC-001-002-----0
 62
     7
370
    50
100
AcDbLine
 10
662.089375
 20
415.410278
 30
0.0
 11
552.889375
 21
415.410278
 31
0.0
  0
ARC
  5
395
102
{ACAD_REACTORS
330
6F9
102
}
330
1F
100
AcDbEntity
  8
LC-002-002-RND-0
 62
     7
370
    50
100
AcDbCircle
 10
542.966726
 20
496.360278
 30
0.0
 40
3.0
100
AcDbArc
 50
90.0
 51
150.0
  0
LINE
  5
396
102
{ACAD_REACTORS
330
6F9
102
}
330
1F
100
AcDbEntity
  8
LC-001-002-----0
 62
     7
370
    50
100
AcDbLine
 10
538.780936
 20
495.110278
 30
0.0
 11
534.889375
 21
495.110278
 31
0.0
  0
LINE
  5
397
102
{ACAD_REACTORS
330
6F9
102
}
330
1F
100
AcDbEntity
  8
LC-001-002-----0
 62
     7
370
    50
100
AcDbLine
 10
549.889375
 20
497.360278
 30
0.0
 11
542.389375
 21
497.360278
 31
0.0
  0
LINE
  5
398
102
{ACAD_REACTORS
330
6F9
102
}
330
1F
100
AcDbEntity
  8
LC-001-002-----0
 62
     7
370
    50
100
AcDbLine
 10
549.889375
 20
412.860278
 30
0.0
 11
542.389375
 21
412.860278
 31
0.0
  0
LINE
  5
399
102
{ACAD_REACTORS
330
6F9
102
}
330
1F
100
AcDbEntity
  8
LC-001-002-----0
 62
     7
370
    50
100
AcDbLine
 10
539.935637
 20
493.110278
 30
0.0
 11
534.889375
 21
493.110278
 31
0.0
  0
LINE
  5
39A
330
1F
100
AcDbEntity
  8
LC-001-002-----0
 62
     7
370
    50
100
AcDbLine
 10
665.089375
 20
463.410278
 30
0.0
 11
616.260948
 21
463.410278
 31
0.0
  0
LINE
  5
39B
102
{ACAD_REACTORS
330
6F9
102
}
330
1F
100
AcDbEntity
  8
LC-001-002-----0
 62
     7
370
    50
100
AcDbLine
 10
539.935637
 20
493.110278
 30
0.0
 11
542.389375
 21
497.360278
 31
0.0
  0
LINE
  5
39C
102
{ACAD_REACTORS
330
6F9
102
}
330
1F
100
AcDbEntity
  8
LC-001-002-----0
 62
     7
370
    50
100
AcDbLine
 10
539.935637
 20
417.110278
 30
0.0
 11
542.389375
 21
412.860278
 31
0.0
  0
LINE
  5
39D
102
{ACAD_REACTORS
330
6F9
102
}
330
1F
100
AcDbEntity
  8
LC-001-002-----0
 62
     7
370
    50
100
AcDbLine
 10
538.780936
 20
495.110278
 30
0.0
 11
540.368649
 21
497.860278
 31
0.0
  0
LINE
  5
39E
102
{ACAD_REACTORS
330
6F9
102
}
330
1F
100
AcDbEntity
  8
LC-001-002-----0
 62
     7
370
    50
100
AcDbLine
 10
538.780936
 20
415.110278
 30
0.0
 11
540.368649
 21
412.360278
 31
0.0
  0
ARC
  5
39F
330
1F
100
AcDbEntity
  8
LC-002-002-RND-0
 62
     7
370
    50
100
AcDbCircle
 10
549.889375
 20
496.360278
 30
0.0
 40
3.0
100
AcDbArc
 50
0.0
 51
90.0
  0
ARC
  5
3A0
102
{ACAD_REACTORS
330
6F9
102
}
330
1F
100
AcDbEntity
  8
LC-002-002-RND-0
 62
     7
370
    50
100
AcDbCircle
 10
549.889375
 20
496.360278
 30
0.0
 40
1.0
100
AcDbArc
 50
0.0
 51
90.0
  0
ARC
  5
3A1
102
{ACAD_REACTORS
330
6F9
102
}
330
1F
100
AcDbEntity
  8
LC-002-002-RND-0
 62
     7
370
    50
100
AcDbCircle
 10
549.889375
 20
413.860278
 30
0.0
 40
1.0
100
AcDbArc
 50
270.0
 51
0.0
  0
LINE
  5
3A2
330
1F
100
AcDbEntity
  8
LC-001-002-----0
 62
     7
370
    50
100
AcDbLine
 10
586.860948
 20
417.410278
 30
0.0
 11
616.260948
 21
463.410278
 31
0.0
  0
LINE
  5
3A3
102
{ACAD_REACTORS
330
6F9
102
}
330
1F
100
AcDbEntity
  8
LC-001-002-----0
 62
     7
370
    50
100
AcDbLine
 10
550.889375
 20
496.360278
 30
0.0
 11
550.889375
 21
492.810278
 31
0.0
  0
LINE
  5
3A4
330
1F
100
AcDbEntity
  8
LC-001-002-----0
 62
     7
370
    50
100
AcDbLine
 10
584.689375
 20
417.410278
 30
0.0
 11
665.089375
 21
417.410278
 31
0.0
  0
LINE
  5
3A5
330
1F
100
AcDbEntity
  8
LC-001-002-----0
 62
     7
370
    50
100
AcDbLine
 10
549.889375
 20
410.860278
 30
0.0
 11
542.966726
 21
410.860278
 31
0.0
  0
LINE
  5
3A6
330
1F
100
AcDbEntity
  8
LC-001-002-----0
 62
     7
370
    50
100
AcDbLine
 10
552.889375
 20
413.860278
 30
0.0
 11
552.889375
 21
415.410278
 31
0.0
  0
LINE
  5
3A7
102
{ACAD_REACTORS
330
6F9
102
}
330
1F
100
AcDbEntity
  8
LC-001-002-----0
 62
     7
370
    50
100
AcDbLine
 10
550.889375
 20
417.410278
 30
0.0
 11
550.889375
 21
413.860278
 31
0.0
  0
LINE
  5
3A8
330
1F
100
AcDbEntity
  8
LC-001-002-----0
 62
     7
370
    50
100
AcDbLine
 10
538.780936
 20
415.110278
 30
0.0
 11
534.889375
 21
415.110278
 31
0.0
  0
LINE
  5
3A9
330
1F
100
AcDbEntity
  8
LC-001-002-----0
 62
     7
370
    50
100
AcDbLine
 10
539.935637
 20
417.110278
 30
0.0
 11
534.889375
 21
417.110278
 31
0.0
  0
ARC
  5
3AA
330
1F
100
AcDbEntity
  8
LC-002-002-RND-0
 62
     7
370
    50
100
AcDbCircle
 10
550.389375
 20
415.664401
 30
0.0
 40
0.5
100
AcDbArc
 50
0.0
 51
100.0
  0
ARC
  5
3AB
330
1F
100
AcDbEntity
  8
LC-002-002-RND-0
 62
     7
370
    50
100
AcDbCircle
 10
548.22396
 20
416.617804
 30
0.0
 40
0.2999999999999491
100
AcDbArc
 50
165.0
 51
210.0
  0
ARC
  5
3AC
330
1F
100
AcDbEntity
  8
LC-002-002-RND-0
 62
     7
370
    50
100
AcDbCircle
 10
548.544152
 20
416.063216
 30
0.0
 40
0.2999999999999936
100
AcDbArc
 50
210.0
 51
280.0
  0
LINE
  5
3AD
330
1F
100
AcDbEntity
  8
LC-001-002-----0
 62
     7
370
    50
100
AcDbLine
 10
547.293521
 20
412.860278
 30
0.0
 11
547.58523
 21
412.860278
 31
0.0
  0
LINE
  5
3AE
330
1F
100
AcDbEntity
  8
LC-001-002-----0
 62
     7
370
    50
100
AcDbLine
 10
548.284344
 20
415.913216
 30
0.0
 11
547.964153
 21
416.467804
 31
0.0
  0
ARC
  5
3AF
330
1F
100
AcDbEntity
  8
LC-001-002-----0
 62
     7
370
    50
100
AcDbCircle
 10
546.889375
 20
412.360278
 30
0.0
 40
0.100000000000073
100
AcDbArc
 50
210.0
 51
330.0
  0
LINE
  5
3B0
330
1F
100
AcDbEntity
  8
LC-001-002-----0
 62
     7
370
    50
100
AcDbLine
 10
547.915231
 20
418.647856
 30
0.0
 11
544.340358
 21
416.006552
 31
0.0
  0
LINE
  5
3B1
330
1F
100
AcDbEntity
  8
LC-001-002-----0
 62
     7
370
    50
100
AcDbLine
 10
548.598244
 20
418.123762
 30
0.0
 11
547.934183
 21
416.69545
 31
0.0
  0
ARC
  5
3B2
330
1F
100
AcDbEntity
  8
LC-001-002-----0
 62
     7
370
    50
100
AcDbCircle
 10
548.148194
 20
418.244352
 30
0.0
 40
0.4659258262890988
100
AcDbArc
 50
345.0
 51
120.0
  0
LINE
  5
3B3
330
1F
100
AcDbEntity
  8
LC-001-002-----0
 62
     7
370
    50
100
AcDbLine
 10
546.802773
 20
412.310278
 30
0.0
 11
546.48523
 21
412.860278
 31
0.0
  0
LINE
  5
3B4
330
1F
100
AcDbEntity
  8
LC-001-002-----0
 62
     7
370
    50
100
AcDbLine
 10
544.131508
 20
413.518257
 30
0.0
 11
543.592016
 21
413.950499
 31
0.0
  0
ARC
  5
3B5
330
1F
100
AcDbEntity
  8
LC-001-002-----0
 62
     7
370
    50
100
AcDbCircle
 10
545.191341
 20
414.532606
 30
0.0
 40
1.701966081581861
100
AcDbArc
 50
120.0
 51
200.0
  0
LINE
  5
3B6
330
1F
100
AcDbEntity
  8
LC-001-002-----0
 62
     7
370
    50
100
AcDbLine
 10
546.975978
 20
412.310278
 30
0.0
 11
547.293521
 21
412.860278
 31
0.0
  0
ARC
  5
3B7
330
1F
100
AcDbEntity
  8
LC-001-002-----0
 62
     7
370
    50
100
AcDbCircle
 10
547.989375
 20
412.360278
 30
0.0
 40
0.100000000000073
100
AcDbArc
 50
210.0
 51
330.0
  0
LINE
  5
3B8
330
1F
100
AcDbEntity
  8
LC-001-002-----0
 62
     7
370
    50
100
AcDbLine
 10
550.302551
 20
416.156805
 30
0.0
 11
548.596246
 21
415.767774
 31
0.0
  0
LINE
  5
3B9
330
1F
100
AcDbEntity
  8
LC-001-002-----0
 62
     7
370
    50
100
AcDbLine
 10
547.902773
 20
412.310278
 30
0.0
 11
547.58523
 21
412.860278
 31
0.0
  0
LINE
  5
3BA
330
1F
100
AcDbEntity
  8
LC-001-002-----0
 62
     7
370
    50
100
AcDbLine
 10
550.889375
 20
413.810278
 30
0.0
 11
550.68243
 21
413.686629
 31
0.0
  0
LINE
  5
3BB
330
1F
100
AcDbEntity
  8
LC-001-002-----0
 62
     7
370
    50
100
AcDbLine
 10
545.071201
 20
412.860278
 30
0.0
 11
545.442965
 21
412.860278
 31
0.0
  0
ARC
  5
3BC
330
1F
100
AcDbEntity
  8
LC-002-002-RND-0
 62
     7
370
    50
100
AcDbCircle
 10
545.071201
 20
413.860278
 30
0.0
 40
0.9999999999999706
100
AcDbArc
 50
200.0
 51
270.0
  0
ARC
  5
3BD
330
1F
100
AcDbEntity
  8
LC-002-002-RND-0
 62
     7
370
    50
100
AcDbCircle
 10
549.697622
 20
413.860278
 30
0.0
 40
1.0
100
AcDbArc
 50
270.0
 51
350.0
  0
LINE
  5
3BE
330
1F
100
AcDbEntity
  8
LC-001-002-----0
 62
     7
370
    50
100
AcDbLine
 10
550.889375
 20
413.810278
 30
0.0
 11
550.889375
 21
415.664401
 31
0.0
  0
LINE
  5
3BF
330
1F
100
AcDbEntity
  8
LC-001-002-----0
 62
     7
370
    50
100
AcDbLine
 10
548.075978
 20
412.310278
 30
0.0
 11
548.393521
 21
412.860278
 31
0.0
  0
ARC
  5
3C0
330
1F
100
AcDbEntity
  8
LC-001-002-----0
 62
     7
370
    50
100
AcDbCircle
 10
549.089375
 20
412.360278
 30
0.0
 40
0.0999999999999745
100
AcDbArc
 50
210.0
 51
330.0
  0
LINE
  5
3C1
330
1F
100
AcDbEntity
  8
LC-001-002-----0
 62
     7
370
    50
100
AcDbLine
 10
549.002773
 20
412.310278
 30
0.0
 11
548.68523
 21
412.860278
 31
0.0
  0
LINE
  5
3C2
330
1F
100
AcDbEntity
  8
LC-001-002-----0
 62
     7
370
    50
100
AcDbLine
 10
549.175978
 20
412.310278
 30
0.0
 11
549.493521
 21
412.860278
 31
0.0
  0
LINE
  5
3C3
330
1F
100
AcDbEntity
  8
LC-001-002-----0
 62
     7
370
    50
100
AcDbLine
 10
548.393521
 20
412.860278
 30
0.0
 11
548.68523
 21
412.860278
 31
0.0
  0
LINE
  5
3C4
330
1F
100
AcDbEntity
  8
LC-001-002-----0
 62
     7
370
    50
100
AcDbLine
 10
549.493521
 20
412.860278
 30
0.0
 11
549.697622
 21
412.860278
 31
0.0
  0
ARC
  5
3C5
330
1F
100
AcDbEntity
  8
LC-001-002-----0
 62
     7
370
    50
100
AcDbCircle
 10
545.789375
 20
412.460278
 30
0.0
 40
0.0999999999999745
100
AcDbArc
 50
210.0
 51
330.0
  0
LINE
  5
3C6
330
1F
100
AcDbEntity
  8
LC-001-002-----0
 62
     7
370
    50
100
AcDbLine
 10
545.702773
 20
412.410278
 30
0.0
 11
545.442965
 21
412.860278
 31
0.0
  0
LINE
  5
3C7
330
1F
100
AcDbEntity
  8
LC-001-002-----0
 62
     7
370
    50
100
AcDbLine
 10
545.875978
 20
412.410278
 30
0.0
 11
546.135786
 21
412.860278
 31
0.0
  0
LINE
  5
3C8
330
1F
100
AcDbEntity
  8
LC-001-002-----0
 62
     7
370
    50
100
AcDbLine
 10
546.135786
 20
412.860278
 30
0.0
 11
546.48523
 21
412.860278
 31
0.0
  0
LINE
  5
3C9
330
1F
100
AcDbEntity
  8
LC-001-002-----0
 62
     7
370
    50
100
AcDbLine
 10
550.889375
 20
496.410278
 30
0.0
 11
550.889375
 21
494.556155
 31
0.0
  0
INSERT
  5
3CF
330
1F
100
AcDbEntity
  8
LC-003-005-----0
 62
     7
370
    25
100
AcDbBlockReference
  2
*X2223
 10
0.0
 20
0.0
 30
0.0
  0
LINE
  5
3D0
330
1F
100
AcDbEntity
  8
LC-001-002-----0
 62
     7
370
    50
100
AcDbLine
 10
665.089375
 20
417.410278
 30
0.0
 11
665.089375
 21
463.410278
 31
0.0
  0
INSERT
  5
404
330
1F
100
AcDbEntity
  8
LC-003-005-----0
 62
     7
370
    25
100
AcDbBlockReference
  2
*X2324
 10
0.0
 20
0.0
 30
0.0
  0
LINE
  5
405
330
1F
100
AcDbEntity
  8
LC-001-002-----0
 62
     7
370
    50
100
AcDbLine
 10
665.089375
 20
463.410278
 30
0.0
 11
665.089375
 21
464.60643
 31
0.0
  0
INSERT
  5
444
330
1F
100
AcDbEntity
  8
LC-003-005-----0
 62
     7
370
    25
100
AcDbBlockReference
  2
*X2425
 10
0.0
 20
0.0
 30
0.0
  0
ARC
  5
445
330
1F
100
AcDbEntity
  8
LC-002-002-RND-0
 62
     7
370
    50
100
AcDbCircle
 10
550.389375
 20
494.556155
 30
0.0
 40
0.5000000000000064
100
AcDbArc
 50
260.0
 51
360.0
  0
ARC
  5
446
330
1F
100
AcDbEntity
  8
LC-002-002-RND-0
 62
     7
370
    50
100
AcDbCircle
 10
548.22396
 20
493.602752
 30
0.0
 40
0.2999999999998951
100
AcDbArc
 50
150.0
 51
195.0
  0
ARC
  5
447
330
1F
100
AcDbEntity
  8
LC-002-002-RND-0
 62
     7
370
    50
100
AcDbCircle
 10
548.544152
 20
494.15734
 30
0.0
 40
0.3000000000000329
100
AcDbArc
 50
80.0
 51
150.0
  0
LINE
  5
448
330
1F
100
AcDbEntity
  8
LC-001-002-----0
 62
     7
370
    50
100
AcDbLine
 10
547.293521
 20
497.360278
 30
0.0
 11
547.58523
 21
497.360278
 31
0.0
  0
LINE
  5
449
330
1F
100
AcDbEntity
  8
LC-001-002-----0
 62
     7
370
    50
100
AcDbLine
 10
548.284344
 20
494.30734
 30
0.0
 11
547.964153
 21
493.752752
 31
0.0
  0
ARC
  5
44A
330
1F
100
AcDbEntity
  8
LC-001-002-----0
 62
     7
370
    50
100
AcDbCircle
 10
546.889375
 20
497.860278
 30
0.0
 40
0.1000000000001014
100
AcDbArc
 50
30.0
 51
150.0
  0
LINE
  5
44B
330
1F
100
AcDbEntity
  8
LC-001-002-----0
 62
     7
370
    50
100
AcDbLine
 10
547.915231
 20
491.5727
 30
0.0
 11
544.340358
 21
494.214004
 31
0.0
  0
LINE
  5
44C
330
1F
100
AcDbEntity
  8
LC-001-002-----0
 62
     7
370
    50
100
AcDbLine
 10
548.598244
 20
492.096794
 30
0.0
 11
547.934183
 21
493.525106
 31
0.0
  0
ARC
  5
44D
330
1F
100
AcDbEntity
  8
LC-001-002-----0
 62
     7
370
    50
100
AcDbCircle
 10
548.148194
 20
491.976203
 30
0.0
 40
0.4659258262890968
100
AcDbArc
 50
240.0
 51
15.0
  0
LINE
  5
44E
330
1F
100
AcDbEntity
  8
LC-001-002-----0
 62
     7
370
    50
100
AcDbLine
 10
546.802773
 20
497.910278
 30
0.0
 11
546.48523
 21
497.360278
 31
0.0
  0
LINE
  5
44F
330
1F
100
AcDbEntity
  8
LC-001-002-----0
 62
     7
370
    50
100
AcDbLine
 10
544.131508
 20
496.702298
 30
0.0
 11
543.592016
 21
496.270057
 31
0.0
  0
ARC
  5
450
330
1F
100
AcDbEntity
  8
LC-001-002-----0
 62
     7
370
    50
100
AcDbCircle
 10
545.191341
 20
495.68795
 30
0.0
 40
1.701966081581819
100
AcDbArc
 50
160.0
 51
240.0
  0
LINE
  5
451
330
1F
100
AcDbEntity
  8
LC-001-002-----0
 62
     7
370
    50
100
AcDbLine
 10
546.975978
 20
497.910278
 30
0.0
 11
547.293521
 21
497.360278
 31
0.0
  0
ARC
  5
452
330
1F
100
AcDbEntity
  8
LC-001-002-----0
 62
     7
370
    50
100
AcDbCircle
 10
547.989375
 20
497.860278
 30
0.0
 40
0.1000000000001014
100
AcDbArc
 50
30.0
 51
150.0
  0
LINE
  5
453
330
1F
100
AcDbEntity
  8
LC-001-002-----0
 62
     7
370
    50
100
AcDbLine
 10
550.302551
 20
494.063751
 30
0.0
 11
548.596246
 21
494.452782
 31
0.0
  0
LINE
  5
454
330
1F
100
AcDbEntity
  8
LC-001-002-----0
 62
     7
370
    50
100
AcDbLine
 10
547.902773
 20
497.910278
 30
0.0
 11
547.58523
 21
497.360278
 31
0.0
  0
LINE
  5
455
330
1F
100
AcDbEntity
  8
LC-001-002-----0
 62
     7
370
    50
100
AcDbLine
 10
550.889375
 20
496.410278
 30
0.0
 11
550.68243
 21
496.533926
 31
0.0
  0
LINE
  5
456
330
1F
100
AcDbEntity
  8
LC-001-002-----0
 62
     7
370
    50
100
AcDbLine
 10
545.071201
 20
497.360278
 30
0.0
 11
545.442965
 21
497.360278
 31
0.0
  0
ARC
  5
457
330
1F
100
AcDbEntity
  8
LC-002-002-RND-0
 62
     7
370
    50
100
AcDbCircle
 10
545.071201
 20
496.360278
 30
0.0
 40
1.0
100
AcDbArc
 50
90.0
 51
160.0
  0
ARC
  5
458
330
1F
100
AcDbEntity
  8
LC-002-002-RND-0
 62
     7
370
    50
100
AcDbCircle
 10
549.697622
 20
496.360278
 30
0.0
 40
0.9999999999999734
100
AcDbArc
 50
10.0
 51
90.0
  0
LINE
  5
459
330
1F
100
AcDbEntity
  8
LC-001-002-----0
 62
     7
370
    50
100
AcDbLine
 10
550.889375
 20
496.410278
 30
0.0
 11
550.889375
 21
494.556155
 31
0.0
  0
LINE
  5
45A
330
1F
100
AcDbEntity
  8
LC-001-002-----0
 62
     7
370
    50
100
AcDbLine
 10
548.075978
 20
497.910278
 30
0.0
 11
548.393521
 21
497.360278
 31
0.0
  0
ARC
  5
45B
330
1F
100
AcDbEntity
  8
LC-001-002-----0
 62
     7
370
    50
100
AcDbCircle
 10
549.089375
 20
497.860278
 30
0.0
 40
0.0999999999999461
100
AcDbArc
 50
30.0
 51
150.0
  0
LINE
  5
45C
330
1F
100
AcDbEntity
  8
LC-001-002-----0
 62
     7
370
    50
100
AcDbLine
 10
549.002773
 20
497.910278
 30
0.0
 11
548.68523
 21
497.360278
 31
0.0
  0
LINE
  5
45D
330
1F
100
AcDbEntity
  8
LC-001-002-----0
 62
     7
370
    50
100
AcDbLine
 10
549.175978
 20
497.910278
 30
0.0
 11
549.493521
 21
497.360278
 31
0.0
  0
LINE
  5
45E
330
1F
100
AcDbEntity
  8
LC-001-002-----0
 62
     7
370
    50
100
AcDbLine
 10
548.393521
 20
497.360278
 30
0.0
 11
548.68523
 21
497.360278
 31
0.0
  0
LINE
  5
45F
330
1F
100
AcDbEntity
  8
LC-001-002-----0
 62
     7
370
    50
100
AcDbLine
 10
549.493521
 20
497.360278
 30
0.0
 11
549.697622
 21
497.360278
 31
0.0
  0
ARC
  5
460
330
1F
100
AcDbEntity
  8
LC-001-002-----0
 62
     7
370
    50
100
AcDbCircle
 10
545.789375
 20
497.760278
 30
0.0
 40
0.0999999999999745
100
AcDbArc
 50
30.0
 51
150.0
  0
LINE
  5
461
330
1F
100
AcDbEntity
  8
LC-001-002-----0
 62
     7
370
    50
100
AcDbLine
 10
545.702773
 20
497.810278
 30
0.0
 11
545.442965
 21
497.360278
 31
0.0
  0
LINE
  5
462
330
1F
100
AcDbEntity
  8
LC-001-002-----0
 62
     7
370
    50
100
AcDbLine
 10
545.875978
 20
497.810278
 30
0.0
 11
546.135786
 21
497.360278
 31
0.0
  0
LINE
  5
463
330
1F
100
AcDbEntity
  8
LC-001-002-----0
 62
     7
370
    50
100
AcDbLine
 10
546.135786
 20
497.360278
 30
0.0
 11
546.48523
 21
497.360278
 31
0.0
  0
INSERT
  5
469
330
1F
100
AcDbEntity
  8
LC-003-005-----0
 62
     7
370
    25
100
AcDbBlockReference
  2
*X2526
 10
0.0
 20
0.0
 30
0.0
  0
DIMENSION
  5
46A
330
1F
100
AcDbEntity
  8
LC-004-003-----0
 62
     7
370
    25
100
AcDbDimension
  2
*D27
 10
705.384789
 20
415.410278
 30
0.0
 11
674.584789
 21
426.849762
 31
0.0
 70
   160
  1
DN50
 71
     5
 42
50.0
 53
90.0
  3
LC-DIM-L-0140-02-02
100
AcDbAlignedDimension
 13
662.089375
 23
465.410278
 33
0.0
 14
662.089375
 24
415.410278
 34
0.0
 50
90.0
100
AcDbRotatedDimension
  0
INSERT
  5
47D
330
1F
100
AcDbEntity
  8
LC-006-002-3SD-0
 62
     7
370
    50
100
AcDbBlockReference
  2
ELM1
 10
0.0
 20
0.0
 30
0.0
  0
INSERT
  5
481
330
1F
100
AcDbEntity
  8
LC-006-002-3SD-0
 62
     7
370
    50
100
AcDbBlockReference
  2
ELM2
 10
0.0
 20
0.0
 30
0.0
  0
DIMENSION
  5
482
330
1F
100
AcDbEntity
  8
LC-004-003-----0
 62
     7
370
    25
100
AcDbDimension
  2
*D30
 10
205.273832
 20
414.262325
 30
0.0
 11
174.473832
 21
447.118897
 31
0.0
 70
   160
 71
     5
 42
85.0
 53
90.0
  3
LC-DIM-L-0140-02-02
100
AcDbAlignedDimension
 13
319.862308
 23
499.262325
 33
0.0
 14
290.362308
 24
414.262325
 34
0.0
 50
90.0
100
AcDbRotatedDimension
  0
ARC
  5
48F
102
{ACAD_REACTORS
330
6FD
102
}
330
1F
100
AcDbEntity
  8
LC-002-002-RND-0
 62
     7
370
    50
100
AcDbCircle
 10
452.362308
 20
535.904838
 30
0.0
 40
2.5
100
AcDbArc
 50
0.0
 51
90.0
  0
ARC
  5
490
102
{ACAD_REACTORS
330
6FD
102
}
330
1F
100
AcDbEntity
  8
LC-002-002-RND-0
 62
     7
370
    50
100
AcDbCircle
 10
452.362308
 20
535.904838
 30
0.0
 40
1.0
100
AcDbArc
 50
0.0
 51
90.0
  0
ARC
  5
491
102
{ACAD_REACTORS
330
6FD
102
}
330
1F
100
AcDbEntity
  8
LC-002-002-RND-0
 62
     7
370
    50
100
AcDbCircle
 10
439.862308
 20
535.904838
 30
0.0
 40
1.0
100
AcDbArc
 50
0.0
 51
90.0
  0
ARC
  5
492
102
{ACAD_REACTORS
330
6FD
102
}
330
1F
100
AcDbEntity
  8
LC-002-002-RND-0
 62
     7
370
    50
100
AcDbCircle
 10
438.862308
 20
535.904838
 30
0.0
 40
1.0
100
AcDbArc
 50
90.0
 51
180.0
  0
ARC
  5
493
102
{ACAD_REACTORS
330
6FD
102
}
330
1F
100
AcDbEntity
  8
LC-002-002-RND-0
 62
     7
370
    50
100
AcDbCircle
 10
427.862308
 20
535.904838
 30
0.0
 40
1.0
100
AcDbArc
 50
0.0
 51
90.0
  0
ARC
  5
494
102
{ACAD_REACTORS
330
6FD
102
}
330
1F
100
AcDbEntity
  8
LC-002-002-RND-0
 62
     7
370
    50
100
AcDbCircle
 10
426.862308
 20
535.904838
 30
0.0
 40
1.0
100
AcDbArc
 50
90.0
 51
180.0
  0
ARC
  5
495
102
{ACAD_REACTORS
330
6FD
102
}
330
1F
100
AcDbEntity
  8
LC-002-002-RND-0
 62
     7
370
    50
100
AcDbCircle
 10
415.862308
 20
535.904838
 30
0.0
 40
1.0
100
AcDbArc
 50
0.0
 51
90.0
  0
INSERT
  5
49C
102
{ACAD_REACTORS
330
6FD
102
}
330
1F
100
AcDbEntity
  8
LC-003-005-----0
 62
     7
370
    25
100
AcDbBlockReference
  2
*X2631
 10
0.0
 20
0.0
 30
0.0
  0
INSERT
  5
4A4
102
{ACAD_REACTORS
330
6FD
102
}
330
1F
100
AcDbEntity
  8
LC-003-005-----0
 62
     7
370
    25
100
AcDbBlockReference
  2
*X2732
 10
0.0
 20
0.0
 30
0.0
  0
INSERT
  5
4AD
102
{ACAD_REACTORS
330
6FD
102
}
330
1F
100
AcDbEntity
  8
LC-003-005-----0
 62
     7
370
    25
100
AcDbBlockReference
  2
*X2833
 10
0.0
 20
0.0
 30
0.0
  0
LINE
  5
4AE
102
{ACAD_REACTORS
330
6FD
102
}
330
1F
100
AcDbEntity
  8
LC-001-002-----0
 62
     7
370
    50
100
AcDbLine
 10
416.862308
 20
534.404838
 30
0.0
 11
418.362308
 21
534.404838
 31
0.0
  0
LINE
  5
4AF
102
{ACAD_REACTORS
330
6FD
102
}
330
1F
100
AcDbEntity
  8
LC-001-002-----0
 62
     7
370
    50
100
AcDbLine
 10
418.362308
 20
534.404838
 30
0.0
 11
424.362308
 21
534.404838
 31
0.0
  0
ARC
  5
4B0
102
{ACAD_REACTORS
330
6FD
102
}
330
1F
100
AcDbEntity
  8
LC-001-002-----0
 62
     7
370
    50
100
AcDbCircle
 10
415.862308
 20
535.904838
 30
0.0
 40
2.499999999997272
100
AcDbArc
 50
360.0
 51
90.0
  0
LINE
  5
4B1
102
{ACAD_REACTORS
330
6FD
102
}
330
1F
100
AcDbEntity
  8
LC-001-002-----0
 62
     7
370
    50
100
AcDbLine
 10
424.362308
 20
534.404838
 30
0.0
 11
425.862308
 21
534.404838
 31
0.0
  0
LINE
  5
4B2
102
{ACAD_REACTORS
330
6FD
102
}
330
1F
100
AcDbEntity
  8
LC-001-002-----0
 62
     7
370
    50
100
AcDbLine
 10
428.862308
 20
534.404838
 30
0.0
 11
430.362308
 21
534.404838
 31
0.0
  0
LINE
  5
4B3
102
{ACAD_REACTORS
330
6FD
102
}
330
1F
100
AcDbEntity
  8
LC-001-002-----0
 62
     7
370
    50
100
AcDbLine
 10
430.362308
 20
534.404838
 30
0.0
 11
436.362308
 21
534.404838
 31
0.0
  0
LINE
  5
4B4
102
{ACAD_REACTORS
330
6FD
102
}
330
1F
100
AcDbEntity
  8
LC-001-002-----0
 62
     7
370
    50
100
AcDbLine
 10
436.362308
 20
534.404838
 30
0.0
 11
437.862308
 21
534.404838
 31
0.0
  0
LINE
  5
4B5
102
{ACAD_REACTORS
330
6FD
102
}
330
1F
100
AcDbEntity
  8
LC-001-002-----0
 62
     7
370
    50
100
AcDbLine
 10
440.862308
 20
534.404838
 30
0.0
 11
442.362308
 21
534.404838
 31
0.0
  0
LINE
  5
4B6
102
{ACAD_REACTORS
330
6FD
102
}
330
1F
100
AcDbEntity
  8
LC-001-002-----0
 62
     7
370
    50
100
AcDbLine
 10
442.362308
 20
534.404838
 30
0.0
 11
448.362308
 21
534.404838
 31
0.0
  0
LINE
  5
4B7
102
{ACAD_REACTORS
330
6FD
102
}
330
1F
100
AcDbEntity
  8
LC-001-002-----0
 62
     7
370
    50
100
AcDbLine
 10
448.362308
 20
534.404838
 30
0.0
 11
449.862308
 21
534.404838
 31
0.0
  0
ARC
  5
4B8
102
{ACAD_REACTORS
330
6FD
102
}
330
1F
100
AcDbEntity
  8
LC-002-002-RND-0
 62
     7
370
    50
100
AcDbCircle
 10
450.862308
 20
535.904838
 30
0.0
 40
1.0
100
AcDbArc
 50
90.0
 51
180.0
  0
ARC
  5
4B9
102
{ACAD_REACTORS
330
6FD
102
}
330
1F
100
AcDbEntity
  8
LC-002-002-RND-0
 62
     7
370
    50
100
AcDbCircle
 10
450.862308
 20
535.904838
 30
0.0
 40
2.5
100
AcDbArc
 50
90.0
 51
180.0
  0
ARC
  5
4BA
102
{ACAD_REACTORS
330
6FD
102
}
330
1F
100
AcDbEntity
  8
LC-002-002-RND-0
 62
     7
370
    50
100
AcDbCircle
 10
439.862308
 20
535.904838
 30
0.0
 40
2.5
100
AcDbArc
 50
360.0
 51
90.0
  0
ARC
  5
4BB
102
{ACAD_REACTORS
330
6FD
102
}
330
1F
100
AcDbEntity
  8
LC-002-002-RND-0
 62
     7
370
    50
100
AcDbCircle
 10
438.862308
 20
535.904838
 30
0.0
 40
2.5
100
AcDbArc
 50
90.0
 51
180.0
  0
ARC
  5
4BC
102
{ACAD_REACTORS
330
6FD
102
}
330
1F
100
AcDbEntity
  8
LC-002-002-RND-0
 62
     7
370
    50
100
AcDbCircle
 10
427.862308
 20
535.904838
 30
0.0
 40
2.5
100
AcDbArc
 50
360.0
 51
90.0
  0
ARC
  5
4BD
102
{ACAD_REACTORS
330
6FD
102
}
330
1F
100
AcDbEntity
  8
LC-002-002-RND-0
 62
     7
370
    50
100
AcDbCircle
 10
426.862308
 20
535.904838
 30
0.0
 40
2.5
100
AcDbArc
 50
90.0
 51
180.0
  0
LINE
  5
4BE
102
{ACAD_REACTORS
330
6FD
102
}
330
1F
100
AcDbEntity
  8
LC-001-002-----0
 62
     7
370
    50
100
AcDbLine
 10
454.862308
 20
535.904838
 30
0.0
 11
454.862308
 21
533.404838
 31
0.0
  0
LINE
  5
4BF
102
{ACAD_REACTORS
330
6FD
102
}
330
1F
100
AcDbEntity
  8
LC-001-002-----0
 62
     7
370
    50
100
AcDbLine
 10
454.862308
 20
533.404838
 30
0.0
 11
453.362308
 21
533.404838
 31
0.0
  0
LINE
  5
4C0
102
{ACAD_REACTORS
330
6FD
102
}
330
1F
100
AcDbEntity
  8
LC-001-002-----0
 62
     7
370
    50
100
AcDbLine
 10
453.362308
 20
533.404838
 30
0.0
 11
409.362308
 21
533.404838
 31
0.0
  0
LINE
  5
4C1
102
{ACAD_REACTORS
330
6FD
102
}
330
1F
100
AcDbEntity
  8
LC-001-002-----0
 62
     7
370
    50
100
AcDbLine
 10
409.362308
 20
538.404838
 30
0.0
 11
452.362308
 21
538.404838
 31
0.0
  0
LINE
  5
4C2
102
{ACAD_REACTORS
330
6FD
102
}
330
1F
100
AcDbEntity
  8
LC-001-002-----0
 62
     7
370
    50
100
AcDbLine
 10
453.362308
 20
533.404838
 30
0.0
 11
453.362308
 21
535.904838
 31
0.0
  0
LINE
  5
4C3
102
{ACAD_REACTORS
330
6FD
102
}
330
1F
100
AcDbEntity
  8
LC-001-002-----0
 62
     7
370
    50
100
AcDbLine
 10
452.362308
 20
536.904838
 30
0.0
 11
450.862308
 21
536.904838
 31
0.0
  0
LINE
  5
4C4
102
{ACAD_REACTORS
330
6FD
102
}
330
1F
100
AcDbEntity
  8
LC-001-002-----0
 62
     7
370
    50
100
AcDbLine
 10
449.862308
 20
535.904838
 30
0.0
 11
449.862308
 21
534.404838
 31
0.0
  0
LINE
  5
4C5
102
{ACAD_REACTORS
330
6FD
102
}
330
1F
100
AcDbEntity
  8
LC-001-002-----0
 62
     7
370
    50
100
AcDbLine
 10
448.362308
 20
535.904838
 30
0.0
 11
448.362308
 21
534.404838
 31
0.0
  0
LINE
  5
4C6
102
{ACAD_REACTORS
330
6FD
102
}
330
1F
100
AcDbEntity
  8
LC-001-002-----0
 62
     7
370
    50
100
AcDbLine
 10
442.362308
 20
535.904838
 30
0.0
 11
442.362308
 21
534.404838
 31
0.0
  0
LINE
  5
4C7
102
{ACAD_REACTORS
330
6FD
102
}
330
1F
100
AcDbEntity
  8
LC-001-002-----0
 62
     7
370
    50
100
AcDbLine
 10
436.362308
 20
535.904838
 30
0.0
 11
436.362308
 21
534.404838
 31
0.0
  0
LINE
  5
4C8
102
{ACAD_REACTORS
330
6FD
102
}
330
1F
100
AcDbEntity
  8
LC-001-002-----0
 62
     7
370
    50
100
AcDbLine
 10
430.362308
 20
535.904838
 30
0.0
 11
430.362308
 21
534.404838
 31
0.0
  0
LINE
  5
4C9
102
{ACAD_REACTORS
330
6FD
102
}
330
1F
100
AcDbEntity
  8
LC-001-002-----0
 62
     7
370
    50
100
AcDbLine
 10
424.362308
 20
535.904838
 30
0.0
 11
424.362308
 21
534.404838
 31
0.0
  0
LINE
  5
4CA
102
{ACAD_REACTORS
330
6FD
102
}
330
1F
100
AcDbEntity
  8
LC-001-002-----0
 62
     7
370
    50
100
AcDbLine
 10
418.362308
 20
535.904838
 30
0.0
 11
418.362308
 21
534.404838
 31
0.0
  0
LINE
  5
4CB
102
{ACAD_REACTORS
330
6FD
102
}
330
1F
100
AcDbEntity
  8
LC-001-002-----0
 62
     7
370
    50
100
AcDbLine
 10
440.862308
 20
535.904838
 30
0.0
 11
440.862308
 21
534.404838
 31
0.0
  0
LINE
  5
4CC
102
{ACAD_REACTORS
330
6FD
102
}
330
1F
100
AcDbEntity
  8
LC-001-002-----0
 62
     7
370
    50
100
AcDbLine
 10
437.862308
 20
535.904838
 30
0.0
 11
437.862308
 21
534.404838
 31
0.0
  0
LINE
  5
4CD
102
{ACAD_REACTORS
330
6FD
102
}
330
1F
100
AcDbEntity
  8
LC-001-002-----0
 62
     7
370
    50
100
AcDbLine
 10
428.862308
 20
535.904838
 30
0.0
 11
428.862308
 21
534.404838
 31
0.0
  0
LINE
  5
4CE
102
{ACAD_REACTORS
330
6FD
102
}
330
1F
100
AcDbEntity
  8
LC-001-002-----0
 62
     7
370
    50
100
AcDbLine
 10
425.862308
 20
535.904838
 30
0.0
 11
425.862308
 21
534.404838
 31
0.0
  0
LINE
  5
4CF
102
{ACAD_REACTORS
330
6FD
102
}
330
1F
100
AcDbEntity
  8
LC-001-002-----0
 62
     7
370
    50
100
AcDbLine
 10
416.862308
 20
535.904838
 30
0.0
 11
416.862308
 21
534.404838
 31
0.0
  0
LINE
  5
4D0
102
{ACAD_REACTORS
330
6FD
102
}
330
1F
100
AcDbEntity
  8
LC-001-002-----0
 62
     7
370
    50
100
AcDbLine
 10
439.862308
 20
536.904838
 30
0.0
 11
438.862308
 21
536.904838
 31
0.0
  0
LINE
  5
4D1
102
{ACAD_REACTORS
330
6FD
102
}
330
1F
100
AcDbEntity
  8
LC-001-002-----0
 62
     7
370
    50
100
AcDbLine
 10
427.862308
 20
536.904838
 30
0.0
 11
426.862308
 21
536.904838
 31
0.0
  0
LINE
  5
4D2
102
{ACAD_REACTORS
330
6FD
102
}
330
1F
100
AcDbEntity
  8
LC-001-002-----0
 62
     7
370
    50
100
AcDbLine
 10
415.862308
 20
536.904838
 30
0.0
 11
409.362308
 21
536.904838
 31
0.0
  0
ARC
  5
4D3
102
{ACAD_REACTORS
330
6FD
102
}
330
1F
100
AcDbEntity
  8
LC-002-002-RND-0
 62
     7
370
    50
100
AcDbCircle
 10
366.362308
 20
535.904838
 30
0.0
 40
2.5
100
AcDbArc
 50
90.0
 51
180.0
  0
INSERT
  5
4DB
102
{ACAD_REACTORS
330
6FD
102
}
330
1F
100
AcDbEntity
  8
LC-003-005-----0
 62
     7
370
    25
100
AcDbBlockReference
  2
*X2934
 10
0.0
 20
0.0
 30
0.0
  0
ARC
  5
4DC
102
{ACAD_REACTORS
330
6FD
102
}
330
1F
100
AcDbEntity
  8
LC-002-002-RND-0
 62
     7
370
    50
100
AcDbCircle
 10
366.362308
 20
535.904838
 30
0.0
 40
1.0
100
AcDbArc
 50
90.0
 51
180.0
  0
ARC
  5
4DD
102
{ACAD_REACTORS
330
6FD
102
}
330
1F
100
AcDbEntity
  8
LC-002-002-RND-0
 62
     7
370
    50
100
AcDbCircle
 10
378.862308
 20
535.904838
 30
0.0
 40
1.0
100
AcDbArc
 50
90.0
 51
180.0
  0
ARC
  5
4DE
102
{ACAD_REACTORS
330
6FD
102
}
330
1F
100
AcDbEntity
  8
LC-002-002-RND-0
 62
     7
370
    50
100
AcDbCircle
 10
379.862308
 20
535.904838
 30
0.0
 40
1.0
100
AcDbArc
 50
360.0
 51
90.0
  0
ARC
  5
4DF
102
{ACAD_REACTORS
330
6FD
102
}
330
1F
100
AcDbEntity
  8
LC-002-002-RND-0
 62
     7
370
    50
100
AcDbCircle
 10
390.862308
 20
535.904838
 30
0.0
 40
1.0
100
AcDbArc
 50
90.0
 51
180.0
  0
ARC
  5
4E0
102
{ACAD_REACTORS
330
6FD
102
}
330
1F
100
AcDbEntity
  8
LC-002-002-RND-0
 62
     7
370
    50
100
AcDbCircle
 10
391.862308
 20
535.904838
 30
0.0
 40
1.0
100
AcDbArc
 50
360.0
 51
90.0
  0
ARC
  5
4E1
102
{ACAD_REACTORS
330
6FD
102
}
330
1F
100
AcDbEntity
  8
LC-002-002-RND-0
 62
     7
370
    50
100
AcDbCircle
 10
402.862308
 20
535.904838
 30
0.0
 40
1.0
100
AcDbArc
 50
90.0
 51
180.0
  0
INSERT
  5
4E9
102
{ACAD_REACTORS
330
6FD
102
}
330
1F
100
AcDbEntity
  8
LC-003-005-----0
 62
     7
370
    25
100
AcDbBlockReference
  2
*X3035
 10
0.0
 20
0.0
 30
0.0
  0
INSERT
  5
4F0
102
{ACAD_REACTORS
330
6FD
102
}
330
1F
100
AcDbEntity
  8
LC-003-005-----0
 62
     7
370
    25
100
AcDbBlockReference
  2
*X3136
 10
0.0
 20
0.0
 30
0.0
  0
INSERT
  5
4F9
102
{ACAD_REACTORS
330
6FD
102
}
330
1F
100
AcDbEntity
  8
LC-003-005-----0
 62
     7
370
    25
100
AcDbBlockReference
  2
*X3237
 10
0.0
 20
0.0
 30
0.0
  0
LINE
  5
4FA
102
{ACAD_REACTORS
330
6FD
102
}
330
1F
100
AcDbEntity
  8
LC-001-002-----0
 62
     7
370
    50
100
AcDbLine
 10
401.862308
 20
534.404838
 30
0.0
 11
400.362308
 21
534.404838
 31
0.0
  0
LINE
  5
4FB
102
{ACAD_REACTORS
330
6FD
102
}
330
1F
100
AcDbEntity
  8
LC-001-002-----0
 62
     7
370
    50
100
AcDbLine
 10
400.362308
 20
534.404838
 30
0.0
 11
394.362308
 21
534.404838
 31
0.0
  0
ARC
  5
4FC
102
{ACAD_REACTORS
330
6FD
102
}
330
1F
100
AcDbEntity
  8
LC-001-002-----0
 62
     7
370
    50
100
AcDbCircle
 10
402.862308
 20
535.904838
 30
0.0
 40
2.499999999996362
100
AcDbArc
 50
90.0
 51
180.0
  0
LINE
  5
4FD
102
{ACAD_REACTORS
330
6FD
102
}
330
1F
100
AcDbEntity
  8
LC-001-002-----0
 62
     7
370
    50
100
AcDbLine
 10
394.362308
 20
534.404838
 30
0.0
 11
392.862308
 21
534.404838
 31
0.0
  0
LINE
  5
4FE
102
{ACAD_REACTORS
330
6FD
102
}
330
1F
100
AcDbEntity
  8
LC-001-002-----0
 62
     7
370
    50
100
AcDbLine
 10
389.862308
 20
534.404838
 30
0.0
 11
388.362308
 21
534.404838
 31
0.0
  0
LINE
  5
4FF
102
{ACAD_REACTORS
330
6FD
102
}
330
1F
100
AcDbEntity
  8
LC-001-002-----0
 62
     7
370
    50
100
AcDbLine
 10
388.362308
 20
534.404838
 30
0.0
 11
382.362308
 21
534.404838
 31
0.0
  0
LINE
  5
500
102
{ACAD_REACTORS
330
6FD
102
}
330
1F
100
AcDbEntity
  8
LC-001-002-----0
 62
     7
370
    50
100
AcDbLine
 10
382.362308
 20
534.404838
 30
0.0
 11
380.862308
 21
534.404838
 31
0.0
  0
LINE
  5
501
102
{ACAD_REACTORS
330
6FD
102
}
330
1F
100
AcDbEntity
  8
LC-001-002-----0
 62
     7
370
    50
100
AcDbLine
 10
377.862308
 20
534.404838
 30
0.0
 11
376.362308
 21
534.404838
 31
0.0
  0
LINE
  5
502
102
{ACAD_REACTORS
330
6FD
102
}
330
1F
100
AcDbEntity
  8
LC-001-002-----0
 62
     7
370
    50
100
AcDbLine
 10
376.362308
 20
534.404838
 30
0.0
 11
370.362308
 21
534.404838
 31
0.0
  0
LINE
  5
503
102
{ACAD_REACTORS
330
6FD
102
}
330
1F
100
AcDbEntity
  8
LC-001-002-----0
 62
     7
370
    50
100
AcDbLine
 10
370.362308
 20
534.404838
 30
0.0
 11
368.862308
 21
534.404838
 31
0.0
  0
ARC
  5
504
102
{ACAD_REACTORS
330
6FD
102
}
330
1F
100
AcDbEntity
  8
LC-002-002-RND-0
 62
     7
370
    50
100
AcDbCircle
 10
367.862308
 20
535.904838
 30
0.0
 40
1.0
100
AcDbArc
 50
360.0
 51
90.0
  0
ARC
  5
505
102
{ACAD_REACTORS
330
6FD
102
}
330
1F
100
AcDbEntity
  8
LC-002-002-RND-0
 62
     7
370
    50
100
AcDbCircle
 10
367.862308
 20
535.904838
 30
0.0
 40
2.5
100
AcDbArc
 50
0.0
 51
90.0
  0
ARC
  5
506
102
{ACAD_REACTORS
330
6FD
102
}
330
1F
100
AcDbEntity
  8
LC-002-002-RND-0
 62
     7
370
    50
100
AcDbCircle
 10
378.862308
 20
535.904838
 30
0.0
 40
2.5
100
AcDbArc
 50
90.0
 51
180.0
  0
ARC
  5
507
102
{ACAD_REACTORS
330
6FD
102
}
330
1F
100
AcDbEntity
  8
LC-002-002-RND-0
 62
     7
370
    50
100
AcDbCircle
 10
379.862308
 20
535.904838
 30
0.0
 40
2.5
100
AcDbArc
 50
0.0
 51
90.0
  0
ARC
  5
508
102
{ACAD_REACTORS
330
6FD
102
}
330
1F
100
AcDbEntity
  8
LC-002-002-RND-0
 62
     7
370
    50
100
AcDbCircle
 10
390.862308
 20
535.904838
 30
0.0
 40
2.5
100
AcDbArc
 50
90.0
 51
180.0
  0
ARC
  5
509
102
{ACAD_REACTORS
330
6FD
102
}
330
1F
100
AcDbEntity
  8
LC-002-002-RND-0
 62
     7
370
    50
100
AcDbCircle
 10
391.862308
 20
535.904838
 30
0.0
 40
2.5
100
AcDbArc
 50
0.0
 51
90.0
  0
LINE
  5
50A
102
{ACAD_REACTORS
330
6FD
102
}
330
1F
100
AcDbEntity
  8
LC-001-002-----0
 62
     7
370
    50
100
AcDbLine
 10
363.862308
 20
535.904838
 30
0.0
 11
363.862308
 21
533.404838
 31
0.0
  0
LINE
  5
50B
102
{ACAD_REACTORS
330
6FD
102
}
330
1F
100
AcDbEntity
  8
LC-001-002-----0
 62
     7
370
    50
100
AcDbLine
 10
363.862308
 20
533.404838
 30
0.0
 11
365.362308
 21
533.404838
 31
0.0
  0
LINE
  5
50C
102
{ACAD_REACTORS
330
6FD
102
}
330
1F
100
AcDbEntity
  8
LC-001-002-----0
 62
     7
370
    50
100
AcDbLine
 10
365.362308
 20
533.404838
 30
0.0
 11
409.362308
 21
533.404838
 31
0.0
  0
LINE
  5
50D
102
{ACAD_REACTORS
330
6FD
102
}
330
1F
100
AcDbEntity
  8
LC-001-002-----0
 62
     7
370
    50
100
AcDbLine
 10
409.362308
 20
538.404838
 30
0.0
 11
366.362308
 21
538.404838
 31
0.0
  0
LINE
  5
50E
102
{ACAD_REACTORS
330
6FD
102
}
330
1F
100
AcDbEntity
  8
LC-001-002-----0
 62
     7
370
    50
100
AcDbLine
 10
365.362308
 20
533.404838
 30
0.0
 11
365.362308
 21
535.904838
 31
0.0
  0
LINE
  5
50F
102
{ACAD_REACTORS
330
6FD
102
}
330
1F
100
AcDbEntity
  8
LC-001-002-----0
 62
     7
370
    50
100
AcDbLine
 10
366.362308
 20
536.904838
 30
0.0
 11
367.862308
 21
536.904838
 31
0.0
  0
LINE
  5
510
102
{ACAD_REACTORS
330
6FD
102
}
330
1F
100
AcDbEntity
  8
LC-001-002-----0
 62
     7
370
    50
100
AcDbLine
 10
368.862308
 20
535.904838
 30
0.0
 11
368.862308
 21
534.404838
 31
0.0
  0
LINE
  5
511
102
{ACAD_REACTORS
330
6FD
102
}
330
1F
100
AcDbEntity
  8
LC-001-002-----0
 62
     7
370
    50
100
AcDbLine
 10
370.362308
 20
535.904838
 30
0.0
 11
370.362308
 21
534.404838
 31
0.0
  0
LINE
  5
512
102
{ACAD_REACTORS
330
6FD
102
}
330
1F
100
AcDbEntity
  8
LC-001-002-----0
 62
     7
370
    50
100
AcDbLine
 10
376.362308
 20
535.904838
 30
0.0
 11
376.362308
 21
534.404838
 31
0.0
  0
LINE
  5
513
102
{ACAD_REACTORS
330
6FD
102
}
330
1F
100
AcDbEntity
  8
LC-001-002-----0
 62
     7
370
    50
100
AcDbLine
 10
382.362308
 20
535.904838
 30
0.0
 11
382.362308
 21
534.404838
 31
0.0
  0
LINE
  5
514
102
{ACAD_REACTORS
330
6FD
102
}
330
1F
100
AcDbEntity
  8
LC-001-002-----0
 62
     7
370
    50
100
AcDbLine
 10
388.362308
 20
535.904838
 30
0.0
 11
388.362308
 21
534.404838
 31
0.0
  0
LINE
  5
515
102
{ACAD_REACTORS
330
6FD
102
}
330
1F
100
AcDbEntity
  8
LC-001-002-----0
 62
     7
370
    50
100
AcDbLine
 10
394.362308
 20
535.904838
 30
0.0
 11
394.362308
 21
534.404838
 31
0.0
  0
LINE
  5
516
102
{ACAD_REACTORS
330
6FD
102
}
330
1F
100
AcDbEntity
  8
LC-001-002-----0
 62
     7
370
    50
100
AcDbLine
 10
400.362308
 20
535.904838
 30
0.0
 11
400.362308
 21
534.404838
 31
0.0
  0
LINE
  5
517
102
{ACAD_REACTORS
330
6FD
102
}
330
1F
100
AcDbEntity
  8
LC-001-002-----0
 62
     7
370
    50
100
AcDbLine
 10
377.862308
 20
535.904838
 30
0.0
 11
377.862308
 21
534.404838
 31
0.0
  0
LINE
  5
518
102
{ACAD_REACTORS
330
6FD
102
}
330
1F
100
AcDbEntity
  8
LC-001-002-----0
 62
     7
370
    50
100
AcDbLine
 10
380.862308
 20
535.904838
 30
0.0
 11
380.862308
 21
534.404838
 31
0.0
  0
LINE
  5
519
102
{ACAD_REACTORS
330
6FD
102
}
330
1F
100
AcDbEntity
  8
LC-001-002-----0
 62
     7
370
    50
100
AcDbLine
 10
389.862308
 20
535.904838
 30
0.0
 11
389.862308
 21
534.404838
 31
0.0
  0
LINE
  5
51A
102
{ACAD_REACTORS
330
6FD
102
}
330
1F
100
AcDbEntity
  8
LC-001-002-----0
 62
     7
370
    50
100
AcDbLine
 10
392.862308
 20
535.904838
 30
0.0
 11
392.862308
 21
534.404838
 31
0.0
  0
LINE
  5
51B
102
{ACAD_REACTORS
330
6FD
102
}
330
1F
100
AcDbEntity
  8
LC-001-002-----0
 62
     7
370
    50
100
AcDbLine
 10
401.862308
 20
535.904838
 30
0.0
 11
401.862308
 21
534.404838
 31
0.0
  0
LINE
  5
51C
102
{ACAD_REACTORS
330
6FD
102
}
330
1F
100
AcDbEntity
  8
LC-001-002-----0
 62
     7
370
    50
100
AcDbLine
 10
378.862308
 20
536.904838
 30
0.0
 11
379.862308
 21
536.904838
 31
0.0
  0
LINE
  5
51D
102
{ACAD_REACTORS
330
6FD
102
}
330
1F
100
AcDbEntity
  8
LC-001-002-----0
 62
     7
370
    50
100
AcDbLine
 10
390.862308
 20
536.904838
 30
0.0
 11
391.862308
 21
536.904838
 31
0.0
  0
LINE
  5
51E
102
{ACAD_REACTORS
330
6FD
102
}
330
1F
100
AcDbEntity
  8
LC-001-002-----0
 62
     7
370
    50
100
AcDbLine
 10
402.862308
 20
536.904838
 30
0.0
 11
409.362308
 21
536.904838
 31
0.0
  0
INSERT
  5
526
102
{ACAD_REACTORS
330
6FD
102
}
330
1F
100
AcDbEntity
  8
LC-003-005-----0
 62
     7
370
    25
100
AcDbBlockReference
  2
*X3338
 10
0.0
 20
0.0
 30
0.0
  0
LINE
  5
527
102
{ACAD_REACTORS
330
6F5
102
}
330
1F
100
AcDbEntity
  8
LC-001-002-----0
 62
     7
370
    50
100
AcDbLine
 10
441.013726
 20
531.904838
 30
0.0
 11
441.013726
 21
525.404838
 31
0.0
  0
LINE
  5
528
102
{ACAD_REACTORS
330
6F5
102
}
330
1F
100
AcDbEntity
  8
LC-001-002-----0
 62
     7
370
    50
100
AcDbLine
 10
377.71089
 20
531.904838
 30
0.0
 11
377.71089
 21
525.404838
 31
0.0
  0
LINE
  5
529
102
{ACAD_REACTORS
330
6F5
102
}
330
1F
100
AcDbEntity
  8
LC-001-002-----0
 62
     7
370
    50
100
AcDbLine
 10
455.862308
 20
538.904838
 30
0.0
 11
362.862308
 21
538.904838
 31
0.0
  0
LINE
  5
52A
102
{ACAD_REACTORS
330
6F5
102
}
330
1F
100
AcDbEntity
  8
LC-001-002-----0
 62
     7
370
    50
100
AcDbLine
 10
362.862307
 20
525.404838
 30
0.0
 11
362.862307
 21
531.904838
 31
0.0
  0
LINE
  5
52B
102
{ACAD_REACTORS
330
6F5
102
}
330
1F
100
AcDbEntity
  8
LC-001-002-----0
 62
     7
370
    50
100
AcDbLine
 10
361.362308
 20
538.904838
 30
0.0
 11
361.362308
 21
527.204838
 31
0.0
  0
LINE
  5
52C
102
{ACAD_REACTORS
330
6F5
102
}
330
1F
100
AcDbEntity
  8
LC-001-002-----0
 62
     7
370
    50
100
AcDbLine
 10
457.362308
 20
527.204838
 30
0.0
 11
457.362308
 21
538.904838
 31
0.0
  0
LINE
  5
52D
102
{ACAD_REACTORS
330
6F5
102
}
330
1F
100
AcDbEntity
  8
LC-001-002-----0
 62
     7
370
    50
100
AcDbLine
 10
455.86231
 20
538.904838
 30
0.0
 11
455.86231
 21
525.404838
 31
0.0
  0
LINE
  5
52E
102
{ACAD_REACTORS
330
6F5
102
}
330
1F
100
AcDbEntity
  8
LC-001-002-----0
 62
     7
370
    50
100
AcDbLine
 10
362.862307
 20
525.404838
 30
0.0
 11
362.862307
 21
538.904838
 31
0.0
  0
LINE
  5
52F
102
{ACAD_REACTORS
330
6F5
102
}
330
1F
100
AcDbEntity
  8
LC-001-002-----0
 62
     7
370
    50
100
AcDbLine
 10
362.862307
 20
525.404838
 30
0.0
 11
362.862307
 21
531.904838
 31
0.0
  0
LINE
  5
530
102
{ACAD_REACTORS
330
6F5
102
}
330
1F
100
AcDbEntity
  8
LC-001-002-----0
 62
     7
370
    50
100
AcDbLine
 10
455.862308
 20
538.904838
 30
0.0
 11
455.862308
 21
533.404838
 31
0.0
  0
LINE
  5
531
102
{ACAD_REACTORS
330
6F5
102
}
330
1F
100
AcDbEntity
  8
LC-001-002-----0
 62
     7
370
    50
100
AcDbLine
 10
455.86231
 20
531.904838
 30
0.0
 11
455.86231
 21
525.404838
 31
0.0
  0
LINE
  5
532
102
{ACAD_REACTORS
330
6F5
102
}
330
1F
100
AcDbEntity
  8
LC-001-002-----0
 62
     7
370
    50
100
AcDbLine
 10
457.362308
 20
527.204838
 30
0.0
 11
457.362308
 21
538.904838
 31
0.0
  0
LINE
  5
533
102
{ACAD_REACTORS
330
6F5
102
}
330
1F
100
AcDbEntity
  8
LC-001-002-----0
 62
     7
370
    50
100
AcDbLine
 10
455.862308
 20
538.904838
 30
0.0
 11
455.862308
 21
533.404838
 31
0.0
  0
LINE
  5
534
102
{ACAD_REACTORS
330
6F5
102
}
330
1F
100
AcDbEntity
  8
LC-001-002-----0
 62
     7
370
    50
100
AcDbLine
 10
457.362308
 20
538.904838
 30
0.0
 11
455.862308
 21
538.904838
 31
0.0
  0
LINE
  5
535
102
{ACAD_REACTORS
330
6F5
102
}
330
1F
100
AcDbEntity
  8
LC-001-002-----0
 62
     7
370
    50
100
AcDbLine
 10
457.362308
 20
527.204838
 30
0.0
 11
457.362308
 21
538.904838
 31
0.0
  0
LINE
  5
536
102
{ACAD_REACTORS
330
6F5
102
}
330
1F
100
AcDbEntity
  8
LC-001-002-----0
 62
     7
370
    50
100
AcDbLine
 10
467.112308
 20
527.204838
 30
0.0
 11
457.362308
 21
527.204838
 31
0.0
  0
LINE
  5
537
102
{ACAD_REACTORS
330
6F5
102
}
330
1F
100
AcDbEntity
  8
LC-001-002-----0
 62
     7
370
    50
100
AcDbLine
 10
467.112308
 20
525.404838
 30
0.0
 11
467.112308
 21
527.204838
 31
0.0
  0
LINE
  5
538
102
{ACAD_REACTORS
330
6F5
102
}
330
1F
100
AcDbEntity
  8
LC-001-002-----0
 62
     7
370
    50
100
AcDbLine
 10
455.86231
 20
531.904838
 30
0.0
 11
455.86231
 21
525.404838
 31
0.0
  0
LINE
  5
539
102
{ACAD_REACTORS
330
6F5
102
}
330
1F
100
AcDbEntity
  8
LC-001-002-----0
 62
     7
370
    50
100
AcDbLine
 10
362.862307
 20
525.404838
 30
0.0
 11
362.862307
 21
531.904838
 31
0.0
  0
LINE
  5
53A
102
{ACAD_REACTORS
330
6F5
102
}
330
1F
100
AcDbEntity
  8
LC-001-002-----0
 62
     7
370
    50
100
AcDbLine
 10
351.612308
 20
527.204838
 30
0.0
 11
351.612308
 21
525.404838
 31
0.0
  0
LINE
  5
53B
102
{ACAD_REACTORS
330
6F5
102
}
330
1F
100
AcDbEntity
  8
LC-001-002-----0
 62
     7
370
    50
100
AcDbLine
 10
361.362308
 20
527.204838
 30
0.0
 11
351.612308
 21
527.204838
 31
0.0
  0
LINE
  5
53C
102
{ACAD_REACTORS
330
6F5
102
}
330
1F
100
AcDbEntity
  8
LC-001-002-----0
 62
     7
370
    50
100
AcDbLine
 10
362.862308
 20
538.904838
 30
0.0
 11
361.362308
 21
538.904838
 31
0.0
  0
INSERT
  5
543
102
{ACAD_REACTORS
330
6F5
102
}
330
1F
100
AcDbEntity
  8
LC-003-005-----0
 62
     7
370
    25
100
AcDbBlockReference
  2
*X3439
 10
0.0
 20
0.0
 30
0.0
  0
INSERT
  5
54A
102
{ACAD_REACTORS
330
6F5
102
}
330
1F
100
AcDbEntity
  8
LC-003-005-----0
 62
     7
370
    25
100
AcDbBlockReference
  2
*X3540
 10
0.0
 20
0.0
 30
0.0
  0
LINE
  5
54B
102
{ACAD_REACTORS
330
6F5
102
}
330
1F
100
AcDbEntity
  8
LC-001-002-----0
 62
     7
370
    50
100
AcDbLine
 10
455.862308
 20
533.404838
 30
0.0
 11
362.862308
 21
533.404838
 31
0.0
  0
LINE
  5
54C
102
{ACAD_REACTORS
330
6F5
102
}
330
1F
100
AcDbEntity
  8
LC-001-002-----0
 62
     7
370
    50
100
AcDbLine
 10
362.862308
 20
531.904838
 30
0.0
 11
455.86231
 21
531.904838
 31
0.0
  0
LINE
  5
54D
102
{ACAD_REACTORS
330
6F5
102
}
330
1F
100
AcDbEntity
  8
LC-001-002-----0
 62
     7
370
    50
100
AcDbLine
 10
351.612308
 20
525.404838
 30
0.0
 11
467.112308
 21
525.404838
 31
0.0
  0
DIMENSION
  5
54E
330
1F
100
AcDbEntity
  8
LC-004-003-----0
 62
     7
370
    25
100
AcDbDimension
  2
*D41
 10
457.362308
 20
554.611013
 30
0.0
 11
419.243559
 21
585.411013
 31
0.0
 70
   160
  1
95
 71
     5
 42
96.0
  3
LC-DIM-L-0140-02-02
100
AcDbAlignedDimension
 13
361.362308
 23
538.904838
 33
0.0
 14
457.362308
 24
538.904838
 34
0.0
100
AcDbRotatedDimension
  0
LINE
  5
55B
330
1F
100
AcDbEntity
  8
LC-001-002-----0
 62
     7
370
    50
100
AcDbLine
 10
363.362323
 20
197.748536
 30
0.0
 11
363.362323
 21
105.748536
 31
0.0
  0
LINE
  5
55C
330
1F
100
AcDbEntity
  8
LC-001-002-----0
 62
     7
370
    50
100
AcDbLine
 10
455.362323
 20
197.748536
 30
0.0
 11
363.362323
 21
197.748536
 31
0.0
  0
LINE
  5
55D
330
1F
100
AcDbEntity
  8
LC-001-002-----0
 62
     7
370
    50
100
AcDbLine
 10
363.362323
 20
105.748536
 30
0.0
 11
455.362323
 21
105.748536
 31
0.0
  0
LINE
  5
55E
330
1F
100
AcDbEntity
  8
LC-001-002-----0
 62
     7
370
    50
100
AcDbLine
 10
455.362323
 20
105.748536
 30
0.0
 11
455.362323
 21
197.748536
 31
0.0
  0
ARC
  5
55F
330
1F
100
AcDbEntity
  8
LC-001-002-----0
 62
     7
370
    50
100
AcDbCircle
 10
409.362308
 20
151.748551
 30
0.0
 40
57.49999999999999
100
AcDbArc
 50
235.698874
 51
304.301126
  0
LINE
  5
560
330
1F
100
AcDbEntity
  8
LC-001-002-----0
 62
     7
370
    50
100
AcDbLine
 10
361.862323
 20
104.248536
 30
0.0
 11
456.862323
 21
104.248536
 31
0.0
  0
LINE
  5
561
330
1F
100
AcDbEntity
  8
LC-001-002-----0
 62
     7
370
    50
100
AcDbLine
 10
361.862323
 20
199.248536
 30
0.0
 11
361.862323
 21
104.248536
 31
0.0
  0
LINE
  5
562
330
1F
100
AcDbEntity
  8
LC-001-002-----0
 62
     7
370
    50
100
AcDbLine
 10
456.862323
 20
104.248536
 30
0.0
 11
456.862323
 21
199.248536
 31
0.0
  0
LINE
  5
563
330
1F
100
AcDbEntity
  8
LC-001-002-----0
 62
     7
370
    50
100
AcDbLine
 10
456.862323
 20
199.248536
 30
0.0
 11
361.862323
 21
199.248536
 31
0.0
  0
ARC
  5
564
330
1F
100
AcDbEntity
  8
LC-001-002-----0
 62
     7
370
    50
100
AcDbCircle
 10
409.362308
 20
151.748551
 30
0.0
 40
57.49999999999995
100
AcDbArc
 50
325.698874
 51
34.301126
  0
ARC
  5
565
330
1F
100
AcDbEntity
  8
LC-001-002-----0
 62
     7
370
    50
100
AcDbCircle
 10
409.362308
 20
151.748551
 30
0.0
 40
57.49999999999999
100
AcDbArc
 50
55.698821
 51
124.301179
  0
ARC
  5
566
330
1F
100
AcDbEntity
  8
LC-001-002-----0
 62
     7
370
    50
100
AcDbCircle
 10
409.362308
 20
151.748551
 30
0.0
 40
57.49999999999999
100
AcDbArc
 50
145.698821
 51
214.301179
  0
ARC
  5
567
330
1F
100
AcDbEntity
  8
LC-002-002-RND-0
 62
     7
370
    50
100
AcDbCircle
 10
452.362308
 20
108.748551
 30
0.0
 40
2.499999999999972
100
AcDbArc
 50
270.0
 51
0.0
  0
ARC
  5
568
330
1F
100
AcDbEntity
  8
LC-002-002-RND-0
 62
     7
370
    50
100
AcDbCircle
 10
452.362308
 20
194.748551
 30
0.0
 40
2.5
100
AcDbArc
 50
0.0
 51
90.0
  0
ARC
  5
569
330
1F
100
AcDbEntity
  8
LC-002-002-RND-0
 62
     7
370
    50
100
AcDbCircle
 10
366.362308
 20
194.748551
 30
0.0
 40
2.5
100
AcDbArc
 50
90.0
 51
180.0
  0
ARC
  5
56A
330
1F
100
AcDbEntity
  8
LC-002-002-RND-0
 62
     7
370
    50
100
AcDbCircle
 10
366.362308
 20
108.748551
 30
0.0
 40
2.5
100
AcDbArc
 50
180.0
 51
270.0
  0
ARC
  5
56B
330
1F
100
AcDbEntity
  8
LC-001-002-----0
 62
     7
370
    50
100
AcDbCircle
 10
397.362308
 20
148.248551
 30
0.0
 40
3.0
100
AcDbArc
 50
180.0
 51
0.0
  0
ARC
  5
56C
330
1F
100
AcDbEntity
  8
LC-001-002-----0
 62
     7
370
    50
100
AcDbCircle
 10
421.362308
 20
155.248551
 30
0.0
 40
3.0
100
AcDbArc
 50
0.0
 51
180.0
  0
LINE
  5
56D
330
1F
100
AcDbEntity
  8
LC-001-002-----0
 62
     7
370
    50
100
AcDbLine
 10
394.362308
 20
155.248551
 30
0.0
 11
394.362308
 21
148.248551
 31
0.0
  0
LINE
  5
56E
330
1F
100
AcDbEntity
  8
LC-001-002-----0
 62
     7
370
    50
100
AcDbLine
 10
424.362308
 20
148.248551
 30
0.0
 11
424.362308
 21
155.248551
 31
0.0
  0
LINE
  5
56F
330
1F
100
AcDbEntity
  8
LC-001-002-----0
 62
     7
370
    50
100
AcDbLine
 10
400.362308
 20
155.248551
 30
0.0
 11
400.362308
 21
148.248551
 31
0.0
  0
ARC
  5
570
330
1F
100
AcDbEntity
  8
LC-001-002-----0
 62
     7
370
    50
100
AcDbCircle
 10
435.362308
 20
187.748551
 30
0.0
 40
3.0
100
AcDbArc
 50
270.0
 51
90.0
  0
ARC
  5
571
330
1F
100
AcDbEntity
  8
LC-001-002-----0
 62
     7
370
    50
100
AcDbCircle
 10
383.362308
 20
187.748551
 30
0.0
 40
3.0
100
AcDbArc
 50
90.0
 51
270.0
  0
LINE
  5
572
330
1F
100
AcDbEntity
  8
LC-001-002-----0
 62
     7
370
    50
100
AcDbLine
 10
435.362308
 20
184.748551
 30
0.0
 11
383.362308
 21
184.748551
 31
0.0
  0
LINE
  5
573
330
1F
100
AcDbEntity
  8
LC-001-002-----0
 62
     7
370
    50
100
AcDbLine
 10
435.362308
 20
190.748551
 30
0.0
 11
383.362308
 21
190.748551
 31
0.0
  0
LINE
  5
574
330
1F
100
AcDbEntity
  8
LC-001-002-----0
 62
     7
370
    50
100
AcDbLine
 10
418.362308
 20
148.248551
 30
0.0
 11
418.362308
 21
155.248551
 31
0.0
  0
ARC
  5
575
330
1F
100
AcDbEntity
  8
LC-001-002-----0
 62
     7
370
    50
100
AcDbCircle
 10
394.362308
 20
175.748551
 30
0.0
 40
3.0
100
AcDbArc
 50
90.0
 51
270.0
  0
ARC
  5
576
330
1F
100
AcDbEntity
  8
LC-001-002-----0
 62
     7
370
    50
100
AcDbCircle
 10
424.362308
 20
175.748551
 30
0.0
 40
3.0
100
AcDbArc
 50
270.0
 51
90.0
  0
LINE
  5
577
330
1F
100
AcDbEntity
  8
LC-001-002-----0
 62
     7
370
    50
100
AcDbLine
 10
394.362308
 20
178.748551
 30
0.0
 11
424.362308
 21
178.748551
 31
0.0
  0
LINE
  5
578
330
1F
100
AcDbEntity
  8
LC-001-002-----0
 62
     7
370
    50
100
AcDbLine
 10
394.362308
 20
172.748551
 30
0.0
 11
424.362308
 21
172.748551
 31
0.0
  0
ARC
  5
579
330
1F
100
AcDbEntity
  8
LC-001-002-----0
 62
     7
370
    50
100
AcDbCircle
 10
397.362308
 20
155.248551
 30
0.0
 40
3.0
100
AcDbArc
 50
0.0
 51
180.0
  0
ARC
  5
57A
330
1F
100
AcDbEntity
  8
LC-001-002-----0
 62
     7
370
    50
100
AcDbCircle
 10
421.362308
 20
148.248551
 30
0.0
 40
3.0
100
AcDbArc
 50
180.0
 51
0.0
  0
LINE
  5
57B
330
1F
100
AcDbEntity
  8
LC-001-002-----0
 62
     7
370
    50
100
AcDbLine
 10
388.362308
 20
136.748551
 30
0.0
 11
388.362308
 21
166.748551
 31
0.0
  0
LINE
  5
57C
330
1F
100
AcDbEntity
  8
LC-001-002-----0
 62
     7
370
    50
100
AcDbLine
 10
424.362308
 20
130.748551
 30
0.0
 11
394.362308
 21
130.748551
 31
0.0
  0
LINE
  5
57D
330
1F
100
AcDbEntity
  8
LC-001-002-----0
 62
     7
370
    50
100
AcDbLine
 10
430.362308
 20
166.748551
 30
0.0
 11
430.362308
 21
136.748551
 31
0.0
  0
ARC
  5
57E
330
1F
100
AcDbEntity
  8
LC-001-002-----0
 62
     7
370
    50
100
AcDbCircle
 10
385.362308
 20
166.748551
 30
0.0
 40
3.0
100
AcDbArc
 50
0.0
 51
180.0
  0
ARC
  5
57F
330
1F
100
AcDbEntity
  8
LC-001-002-----0
 62
     7
370
    50
100
AcDbCircle
 10
394.362308
 20
127.748551
 30
0.0
 40
2.999999999999986
100
AcDbArc
 50
90.0
 51
270.0
  0
ARC
  5
580
330
1F
100
AcDbEntity
  8
LC-001-002-----0
 62
     7
370
    50
100
AcDbCircle
 10
433.362308
 20
136.748551
 30
0.0
 40
3.0
100
AcDbArc
 50
180.0
 51
0.0
  0
LINE
  5
581
330
1F
100
AcDbEntity
  8
LC-001-002-----0
 62
     7
370
    50
100
AcDbLine
 10
382.362308
 20
136.748551
 30
0.0
 11
382.362308
 21
166.748551
 31
0.0
  0
LINE
  5
582
330
1F
100
AcDbEntity
  8
LC-001-002-----0
 62
     7
370
    50
100
AcDbLine
 10
424.362308
 20
124.748551
 30
0.0
 11
394.362308
 21
124.748551
 31
0.0
  0
LINE
  5
583
330
1F
100
AcDbEntity
  8
LC-001-002-----0
 62
     7
370
    50
100
AcDbLine
 10
436.362308
 20
166.748551
 30
0.0
 11
436.362308
 21
136.748551
 31
0.0
  0
ARC
  5
584
330
1F
100
AcDbEntity
  8
LC-001-002-----0
 62
     7
370
    50
100
AcDbCircle
 10
385.362308
 20
136.748551
 30
0.0
 40
3.0
100
AcDbArc
 50
180.0
 51
0.0
  0
ARC
  5
585
330
1F
100
AcDbEntity
  8
LC-001-002-----0
 62
     7
370
    50
100
AcDbCircle
 10
424.362308
 20
127.748551
 30
0.0
 40
3.0
100
AcDbArc
 50
270.0
 51
90.0
  0
ARC
  5
586
330
1F
100
AcDbEntity
  8
LC-001-002-----0
 62
     7
370
    50
100
AcDbCircle
 10
433.362308
 20
166.748551
 30
0.0
 40
3.0
100
AcDbArc
 50
0.0
 51
180.0
  0
LINE
  5
587
330
1F
100
AcDbEntity
  8
LC-001-002-----0
 62
     7
370
    50
100
AcDbLine
 10
376.362308
 20
177.748551
 30
0.0
 11
376.362308
 21
125.748551
 31
0.0
  0
LINE
  5
588
330
1F
100
AcDbEntity
  8
LC-001-002-----0
 62
     7
370
    50
100
AcDbLine
 10
383.362308
 20
118.748551
 30
0.0
 11
435.362308
 21
118.748551
 31
0.0
  0
LINE
  5
589
330
1F
100
AcDbEntity
  8
LC-001-002-----0
 62
     7
370
    50
100
AcDbLine
 10
442.362308
 20
125.748551
 30
0.0
 11
442.362308
 21
177.748551
 31
0.0
  0
ARC
  5
58A
330
1F
100
AcDbEntity
  8
LC-001-002-----0
 62
     7
370
    50
100
AcDbCircle
 10
373.362308
 20
125.748551
 30
0.0
 40
3.0
100
AcDbArc
 50
180.0
 51
0.0
  0
ARC
  5
58B
330
1F
100
AcDbEntity
  8
LC-001-002-----0
 62
     7
370
    50
100
AcDbCircle
 10
435.362308
 20
115.748551
 30
0.0
 40
3.0
100
AcDbArc
 50
270.0
 51
90.0
  0
ARC
  5
58C
330
1F
100
AcDbEntity
  8
LC-001-002-----0
 62
     7
370
    50
100
AcDbCircle
 10
445.362308
 20
177.748551
 30
0.0
 40
3.0
100
AcDbArc
 50
0.0
 51
180.0
  0
LINE
  5
58D
330
1F
100
AcDbEntity
  8
LC-001-002-----0
 62
     7
370
    50
100
AcDbLine
 10
370.362308
 20
177.748551
 30
0.0
 11
370.362308
 21
125.748551
 31
0.0
  0
LINE
  5
58E
330
1F
100
AcDbEntity
  8
LC-001-002-----0
 62
     7
370
    50
100
AcDbLine
 10
383.362308
 20
112.748551
 30
0.0
 11
435.362308
 21
112.748551
 31
0.0
  0
LINE
  5
58F
330
1F
100
AcDbEntity
  8
LC-001-002-----0
 62
     7
370
    50
100
AcDbLine
 10
448.362308
 20
125.748551
 30
0.0
 11
448.362308
 21
177.748551
 31
0.0
  0
ARC
  5
590
330
1F
100
AcDbEntity
  8
LC-001-002-----0
 62
     7
370
    50
100
AcDbCircle
 10
373.362308
 20
177.748551
 30
0.0
 40
3.0
100
AcDbArc
 50
0.0
 51
180.0
  0
ARC
  5
591
330
1F
100
AcDbEntity
  8
LC-001-002-----0
 62
     7
370
    50
100
AcDbCircle
 10
383.362308
 20
115.748551
 30
0.0
 40
3.0
100
AcDbArc
 50
90.0
 51
270.0
  0
ARC
  5
592
330
1F
100
AcDbEntity
  8
LC-001-002-----0
 62
     7
370
    50
100
AcDbCircle
 10
445.362308
 20
125.748551
 30
0.0
 40
3.0
100
AcDbArc
 50
180.0
 51
0.0
  0
LINE
  5
593
330
1F
100
AcDbEntity
  8
LC-001-002-----0
 62
     7
370
    50
100
AcDbLine
 10
366.362308
 20
197.248551
 30
0.0
 11
452.362308
 21
197.248551
 31
0.0
  0
LINE
  5
594
330
1F
100
AcDbEntity
  8
LC-001-002-----0
 62
     7
370
    50
100
AcDbLine
 10
454.862308
 20
194.748551
 30
0.0
 11
454.862308
 21
108.748551
 31
0.0
  0
LINE
  5
595
330
1F
100
AcDbEntity
  8
LC-001-002-----0
 62
     7
370
    50
100
AcDbLine
 10
452.362308
 20
106.248551
 30
0.0
 11
366.362308
 21
106.248551
 31
0.0
  0
LINE
  5
596
330
1F
100
AcDbEntity
  8
LC-001-002-----0
 62
     7
370
    50
100
AcDbLine
 10
363.862308
 20
108.748551
 30
0.0
 11
363.862308
 21
194.748551
 31
0.0
  0
DIMENSION
  5
597
330
1F
100
AcDbEntity
  8
LC-004-003-----0
 62
     7
370
    25
100
AcDbDimension
  2
*D42
 10
456.862323
 20
45.84
 30
0.0
 11
410.627547
 21
76.64
 31
0.0
 70
   160
  1
95
 71
     5
 42
95.0
  3
LC-DIM-L-0140-02-02
100
AcDbAlignedDimension
 13
361.862323
 23
104.248536
 33
0.0
 14
456.862323
 24
104.248536
 34
0.0
100
AcDbRotatedDimension
  0
LINE
  5
5A4
330
1F
100
AcDbEntity
  8
LC-001-002-----0
 62
     7
370
    25
100
AcDbLine
 10
368.854953
 20
55.849535
 30
0.0
 11
368.854953
 21
70.849535
 31
0.0
  0
LINE
  5
5A5
330
1F
100
AcDbEntity
  8
LC-001-002-----0
 62
     7
370
    25
100
AcDbLine
 10
368.854953
 20
70.849535
 30
0.0
 11
383.854953
 21
70.849535
 31
0.0
  0
LINE
  5
5A6
330
1F
100
AcDbEntity
  8
LC-001-002-----0
 62
     7
370
    25
100
AcDbLine
 10
383.854953
 20
70.849535
 30
0.0
 11
383.854953
 21
55.849535
 31
0.0
  0
LINE
  5
5A7
330
1F
100
AcDbEntity
  8
LC-001-002-----0
 62
     7
370
    25
100
AcDbLine
 10
383.854953
 20
55.849535
 30
0.0
 11
368.854953
 21
55.849535
 31
0.0
  0
LINE
  5
5A8
102
{ACAD_REACTORS
330
6FB
102
}
330
1F
100
AcDbEntity
  8
LC-005-006-MLN-0
 62
     7
370
    25
100
AcDbLine
 10
304.362308
 20
447.186301
 30
0.0
 11
304.362308
 21
367.127612
 31
0.0
  0
LINE
  5
5A9
102
{ACAD_REACTORS
330
6FB
102
}
330
1F
100
AcDbEntity
  8
LC-001-002-----0
 62
     7
370
    50
100
AcDbLine
 10
314.362308
 20
436.186301
 30
0.0
 11
314.362308
 21
378.186301
 31
0.0
  0
LINE
  5
5AA
102
{ACAD_REACTORS
330
6FB
102
}
330
1F
100
AcDbEntity
  8
LC-001-002-----0
 62
     7
370
    25
100
AcDbLine
 10
295.950308
 20
377.186301
 30
0.0
 11
295.950308
 21
437.186301
 31
0.0
  0
LINE
  5
5AB
102
{ACAD_REACTORS
330
6FB
102
}
330
1F
100
AcDbEntity
  8
LC-001-002-----0
 62
     7
370
    25
100
AcDbLine
 10
312.774308
 20
377.186301
 30
0.0
 11
312.774308
 21
437.186301
 31
0.0
  0
INSERT
  5
5C5
102
{ACAD_REACTORS
330
6FB
102
}
330
1F
100
AcDbEntity
  8
LC-003-005-----0
 62
     7
370
    25
100
AcDbBlockReference
  2
*X3643
 10
0.0
 20
0.0
 30
0.0
  0
LINE
  5
5C6
102
{ACAD_REACTORS
330
6FB
102
}
330
1F
100
AcDbEntity
  8
LC-001-002-----0
 62
     7
370
    50
100
AcDbLine
 10
313.362308
 20
437.186301
 30
0.0
 11
314.362308
 21
436.186301
 31
0.0
  0
LINE
  5
5C7
102
{ACAD_REACTORS
330
6FB
102
}
330
1F
100
AcDbEntity
  8
LC-001-002-----0
 62
     7
370
    50
100
AcDbLine
 10
295.362308
 20
377.186301
 30
0.0
 11
297.812308
 21
377.186301
 31
0.0
  0
LINE
  5
5C8
102
{ACAD_REACTORS
330
6FB
102
}
330
1F
100
AcDbEntity
  8
LC-001-002-----0
 62
     7
370
    50
100
AcDbLine
 10
314.362308
 20
378.186301
 30
0.0
 11
313.362308
 21
377.186301
 31
0.0
  0
LINE
  5
5C9
102
{ACAD_REACTORS
330
6FB
102
}
330
1F
100
AcDbEntity
  8
LC-001-002-----0
 62
     7
370
    50
100
AcDbLine
 10
294.362308
 20
378.186301
 30
0.0
 11
295.362308
 21
377.186301
 31
0.0
  0
LINE
  5
5CA
102
{ACAD_REACTORS
330
6FB
102
}
330
1F
100
AcDbEntity
  8
LC-001-002-----0
 62
     7
370
    50
100
AcDbLine
 10
294.362308
 20
436.186301
 30
0.0
 11
295.362308
 21
437.186301
 31
0.0
  0
LINE
  5
5CB
102
{ACAD_REACTORS
330
6FB
102
}
330
1F
100
AcDbEntity
  8
LC-001-002-----0
 62
     7
370
    50
100
AcDbLine
 10
298.212308
 20
377.686301
 30
0.0
 11
298.212308
 21
436.686301
 31
0.0
  0
LINE
  5
5CC
102
{ACAD_REACTORS
330
6FB
102
}
330
1F
100
AcDbEntity
  8
LC-001-002-----0
 62
     7
370
    50
100
AcDbLine
 10
297.812308
 20
437.186301
 30
0.0
 11
295.362308
 21
437.186301
 31
0.0
  0
LINE
  5
5CD
102
{ACAD_REACTORS
330
6FB
102
}
330
1F
100
AcDbEntity
  8
LC-001-002-----0
 62
     7
370
    50
100
AcDbLine
 10
297.812308
 20
437.186301
 30
0.0
 11
310.912308
 21
437.186301
 31
0.0
  0
LINE
  5
5CE
102
{ACAD_REACTORS
330
6FB
102
}
330
1F
100
AcDbEntity
  8
LC-001-002-----0
 62
     7
370
    50
100
AcDbLine
 10
313.362308
 20
437.186301
 30
0.0
 11
310.912308
 21
437.186301
 31
0.0
  0
LINE
  5
5CF
102
{ACAD_REACTORS
330
6FB
102
}
330
1F
100
AcDbEntity
  8
LC-001-002-----0
 62
     7
370
    50
100
AcDbLine
 10
310.512308
 20
436.686301
 30
0.0
 11
310.512308
 21
377.686301
 31
0.0
  0
INSERT
  5
5E9
102
{ACAD_REACTORS
330
6FB
102
}
330
1F
100
AcDbEntity
  8
LC-003-005-----0
 62
     7
370
    25
100
AcDbBlockReference
  2
*X3744
 10
0.0
 20
0.0
 30
0.0
  0
LINE
  5
5EA
102
{ACAD_REACTORS
330
6FB
102
}
330
1F
100
AcDbEntity
  8
LC-001-002-----0
 62
     7
370
    50
100
AcDbLine
 10
313.362308
 20
377.186301
 30
0.0
 11
310.912308
 21
377.186301
 31
0.0
  0
LINE
  5
5EB
102
{ACAD_REACTORS
330
6FB
102
}
330
1F
100
AcDbEntity
  8
LC-001-002-----0
 62
     7
370
    50
100
AcDbLine
 10
297.712308
 20
377.186301
 30
0.0
 11
298.212308
 21
377.686301
 31
0.0
  0
LINE
  5
5EC
102
{ACAD_REACTORS
330
6FB
102
}
330
1F
100
AcDbEntity
  8
LC-001-002-----0
 62
     7
370
    50
100
AcDbLine
 10
311.012308
 20
377.186301
 30
0.0
 11
310.512308
 21
377.686301
 31
0.0
  0
LINE
  5
5ED
102
{ACAD_REACTORS
330
6FB
102
}
330
1F
100
AcDbEntity
  8
LC-001-002-----0
 62
     7
370
    50
100
AcDbLine
 10
298.212308
 20
377.686301
 30
0.0
 11
310.512308
 21
377.686301
 31
0.0
  0
LINE
  5
5EE
102
{ACAD_REACTORS
330
6FB
102
}
330
1F
100
AcDbEntity
  8
LC-001-002-----0
 62
     7
370
    50
100
AcDbLine
 10
310.912308
 20
377.186301
 30
0.0
 11
297.812308
 21
377.186301
 31
0.0
  0
LINE
  5
5EF
102
{ACAD_REACTORS
330
6FB
102
}
330
1F
100
AcDbEntity
  8
LC-001-002-----0
 62
     7
370
    50
100
AcDbLine
 10
294.362308
 20
378.186301
 30
0.0
 11
294.362308
 21
436.186301
 31
0.0
  0
LINE
  5
5F0
102
{ACAD_REACTORS
330
6FB
102
}
330
1F
100
AcDbEntity
  8
LC-001-002-----0
 62
     7
370
    50
100
AcDbLine
 10
298.212308
 20
436.686301
 30
0.0
 11
297.712308
 21
437.186301
 31
0.0
  0
LINE
  5
5F1
102
{ACAD_REACTORS
330
6FB
102
}
330
1F
100
AcDbEntity
  8
LC-001-002-----0
 62
     7
370
    50
100
AcDbLine
 10
311.012308
 20
437.186301
 30
0.0
 11
310.512308
 21
436.686301
 31
0.0
  0
LINE
  5
5F2
102
{ACAD_REACTORS
330
6FB
102
}
330
1F
100
AcDbEntity
  8
LC-001-002-----0
 62
     7
370
    50
100
AcDbLine
 10
298.212308
 20
436.686301
 30
0.0
 11
310.512308
 21
436.686301
 31
0.0
  0
LINE
  5
5F3
330
1F
100
AcDbEntity
  8
LC-001-002-----0
 62
     7
370
    50
100
AcDbLine
 10
293.862308
 20
432.186301
 30
0.0
 11
293.862308
 21
414.262325
 31
0.0
  0
LINE
  5
5F4
330
1F
100
AcDbEntity
  8
LC-001-002-----0
 62
     7
370
    50
100
AcDbLine
 10
314.862308
 20
432.186301
 30
0.0
 11
314.862308
 21
414.262325
 31
0.0
  0
LINE
  5
5F5
330
1F
100
AcDbEntity
  8
LC-001-002-----0
 62
     7
370
    50
100
AcDbLine
 10
291.362308
 20
414.262325
 30
0.0
 11
294.362308
 21
414.262325
 31
0.0
  0
LINE
  5
5F6
330
1F
100
AcDbEntity
  8
LC-001-002-----0
 62
     7
370
    50
100
AcDbLine
 10
314.362308
 20
414.262325
 30
0.0
 11
317.362308
 21
414.262325
 31
0.0
  0
LINE
  5
5F7
330
1F
100
AcDbEntity
  8
LC-001-002-----0
 62
     7
370
    50
100
AcDbLine
 10
319.862308
 20
434.686301
 30
0.0
 11
317.362308
 21
434.686301
 31
0.0
  0
LINE
  5
5F8
330
1F
100
AcDbEntity
  8
LC-001-002-----0
 62
     7
370
    50
100
AcDbLine
 10
290.362308
 20
455.110278
 30
0.0
 11
319.862308
 21
455.110278
 31
0.0
  0
LINE
  5
5F9
330
1F
100
AcDbEntity
  8
LC-001-002-----0
 62
     7
370
    50
100
AcDbLine
 10
293.862308
 20
437.186301
 30
0.0
 11
293.862308
 21
455.110278
 31
0.0
  0
LINE
  5
5FA
330
1F
100
AcDbEntity
  8
LC-001-002-----0
 62
     7
370
    50
100
AcDbLine
 10
314.862308
 20
437.186301
 30
0.0
 11
314.862308
 21
455.110278
 31
0.0
  0
LINE
  5
5FB
330
1F
100
AcDbEntity
  8
LC-001-002-----0
 62
     7
370
    50
100
AcDbLine
 10
479.362308
 20
416.262325
 30
0.0
 11
479.362308
 21
416.529643
 31
0.0
  0
ARC
  5
5FC
330
1F
100
AcDbEntity
  8
LC-002-002-RND-0
 62
     7
370
    50
100
AcDbCircle
 10
325.362308
 20
419.94984
 30
0.0
 40
2.0
100
AcDbArc
 50
180.0
 51
270.0
  0
ARC
  5
5FD
330
1F
100
AcDbEntity
  8
LC-002-002-RND-0
 62
     7
370
    50
100
AcDbCircle
 10
521.360948
 20
417.560999
 30
0.0
 40
0.999999999999921
100
AcDbArc
 50
273.130759
 51
0.0
  0
ARC
  5
5FE
330
1F
100
AcDbEntity
  8
LC-002-002-RND-0
 62
     7
370
    50
100
AcDbCircle
 10
337.862308
 20
416.44984
 30
0.0
 40
1.5
100
AcDbArc
 50
0.0
 51
90.0
  0
LINE
  5
5FF
330
1F
100
AcDbEntity
  8
LC-001-002-----0
 62
     7
370
    50
100
AcDbLine
 10
480.780386
 20
418.027404
 30
0.0
 11
518.769085
 21
420.105253
 31
0.0
  0
LINE
  5
600
330
1F
100
AcDbEntity
  8
LC-001-002-----0
 62
     7
370
    50
100
AcDbLine
 10
480.379567
 20
417.94984
 30
0.0
 11
454.852626
 21
417.94984
 31
0.0
  0
LINE
  5
601
330
1F
100
AcDbEntity
  8
LC-001-002-----0
 62
     7
370
    50
100
AcDbLine
 10
479.362308
 20
414.262325
 30
0.0
 11
521.415563
 21
416.562491
 31
0.0
  0
ARC
  5
602
330
1F
100
AcDbEntity
  8
LC-002-002-RND-0
 62
     7
370
    50
100
AcDbCircle
 10
480.862308
 20
416.529643
 30
0.0
 40
1.499999999999938
100
AcDbArc
 50
93.130759
 51
180.0
  0
LINE
  5
603
330
1F
100
AcDbEntity
  8
LC-001-002-----0
 62
     7
370
    50
100
AcDbLine
 10
291.362308
 20
450.110278
 30
0.0
 11
291.362308
 21
414.262325
 31
0.0
  0
LINE
  5
604
330
1F
100
AcDbEntity
  8
LC-001-002-----0
 62
     7
370
    50
100
AcDbLine
 10
317.362308
 20
434.686301
 30
0.0
 11
317.362308
 21
414.262325
 31
0.0
  0
LINE
  5
605
330
1F
100
AcDbEntity
  8
LC-001-002-----0
 62
     7
370
    50
100
AcDbLine
 10
290.362308
 20
450.110278
 30
0.0
 11
291.362308
 21
450.110278
 31
0.0
  0
ARC
  5
606
330
1F
100
AcDbEntity
  8
LC-002-002-RND-0
 62
     7
370
    50
100
AcDbCircle
 10
322.862308
 20
417.262325
 30
0.0
 40
3.0
100
AcDbArc
 50
180.0
 51
270.0
  0
LINE
  5
607
330
1F
100
AcDbEntity
  8
LC-005-006-MLN-0
 62
     7
370
    25
100
AcDbLine
 10
409.362308
 20
404.262325
 30
0.0
 11
409.362308
 21
541.904838
 31
0.0
  0
LINE
  5
608
330
1F
100
AcDbEntity
  8
LC-001-002-----0
 62
     7
370
    50
100
AcDbLine
 10
322.862308
 20
414.262325
 30
0.0
 11
479.362308
 21
414.262325
 31
0.0
  0
LINE
  5
609
330
1F
100
AcDbEntity
  8
LC-001-002-----0
 62
     7
370
    50
100
AcDbLine
 10
323.362308
 20
419.94984
 30
0.0
 11
323.362308
 21
499.262325
 31
0.0
  0
LINE
  5
60A
330
1F
100
AcDbEntity
  8
LC-001-002-----0
 62
     7
370
    50
100
AcDbLine
 10
319.862308
 20
499.262325
 30
0.0
 11
323.362308
 21
499.262325
 31
0.0
  0
LINE
  5
60B
330
1F
100
AcDbEntity
  8
LC-001-002-----0
 62
     7
370
    50
100
AcDbLine
 10
339.362308
 20
416.262325
 30
0.0
 11
479.362308
 21
416.262325
 31
0.0
  0
ARC
  5
60C
330
1F
100
AcDbEntity
  8
LC-002-002-RND-0
 62
     7
370
    50
100
AcDbCircle
 10
584.860948
 20
490.610278
 30
0.0
 40
2.0
100
AcDbArc
 50
0.0
 51
90.0
  0
LINE
  5
60D
330
1F
100
AcDbEntity
  8
LC-001-002-----0
 62
     7
370
    50
100
AcDbLine
 10
290.362308
 20
450.110278
 30
0.0
 11
290.362308
 21
455.110278
 31
0.0
  0
LINE
  5
60E
330
1F
100
AcDbEntity
  8
LC-001-002-----0
 62
     7
370
    50
100
AcDbLine
 10
293.862308
 20
437.186301
 30
0.0
 11
295.362308
 21
437.186301
 31
0.0
  0
LINE
  5
60F
330
1F
100
AcDbEntity
  8
LC-001-002-----0
 62
     7
370
    50
100
AcDbLine
 10
313.362308
 20
437.186301
 30
0.0
 11
314.862308
 21
437.186301
 31
0.0
  0
LINE
  5
610
330
1F
100
AcDbEntity
  8
LC-005-006-MLN-0
 62
     7
370
    25
100
AcDbLine
 10
304.362308
 20
465.110278
 30
0.0
 11
304.362308
 21
404.262325
 31
0.0
  0
ARC
  5
611
330
1F
100
AcDbEntity
  8
LC-002-002-RND-0
 62
     7
370
    50
100
AcDbCircle
 10
584.860948
 20
419.610278
 30
0.0
 40
2.0
100
AcDbArc
 50
270.0
 51
0.0
  0
LINE
  5
612
330
1F
100
AcDbEntity
  8
LC-001-002-----0
 62
     7
370
    50
100
AcDbLine
 10
522.360948
 20
417.560999
 30
0.0
 11
522.360948
 21
417.610278
 31
0.0
  0
LINE
  5
613
330
1F
100
AcDbEntity
  8
LC-004-003-----0
 62
     7
370
    25
100
AcDbLine
 10
314.362308
 20
437.186301
 30
0.0
 11
314.362308
 21
432.186301
 31
0.0
  0
LINE
  5
614
330
1F
100
AcDbEntity
  8
LC-004-003-----0
 62
     7
370
    25
100
AcDbLine
 10
294.362308
 20
437.186301
 30
0.0
 11
294.362308
 21
432.186301
 31
0.0
  0
LINE
  5
615
330
1F
100
AcDbEntity
  8
LC-001-002-----0
 62
     7
370
    50
100
AcDbLine
 10
584.860948
 20
492.610278
 30
0.0
 11
522.360948
 21
492.610278
 31
0.0
  0
LINE
  5
616
330
1F
100
AcDbEntity
  8
LC-001-002-----0
 62
     7
370
    50
100
AcDbLine
 10
518.860948
 20
490.110278
 30
0.0
 11
586.860948
 21
490.110278
 31
0.0
  0
LINE
  5
617
330
1F
100
AcDbEntity
  8
LC-001-002-----0
 62
     7
370
    50
100
AcDbLine
 10
586.860948
 20
419.610278
 30
0.0
 11
586.860948
 21
490.610278
 31
0.0
  0
LINE
  5
618
330
1F
100
AcDbEntity
  8
LC-001-002-----0
 62
     7
370
    50
100
AcDbLine
 10
518.860948
 20
420.110278
 30
0.0
 11
586.860948
 21
420.110278
 31
0.0
  0
LINE
  5
619
330
1F
100
AcDbEntity
  8
LC-001-002-----0
 62
     7
370
    50
100
AcDbLine
 10
522.360948
 20
417.610278
 30
0.0
 11
584.860948
 21
417.610278
 31
0.0
  0
LINE
  5
61A
330
1F
100
AcDbEntity
  8
LC-001-002-----0
 62
     7
370
    50
100
AcDbLine
 10
518.860948
 20
486.054215
 30
0.0
 11
518.860948
 21
499.262325
 31
0.0
  0
INSERT
  5
63B
330
1F
100
AcDbEntity
  8
LC-003-005-----0
 62
     7
370
    25
100
AcDbBlockReference
  2
*X3845
 10
0.0
 20
0.0
 30
0.0
  0
LINE
  5
63C
330
1F
100
AcDbEntity
  8
LC-001-002-----0
 62
     7
370
    50
100
AcDbLine
 10
522.360948
 20
492.610278
 30
0.0
 11
522.360948
 21
499.262325
 31
0.0
  0
LINE
  5
63D
330
1F
100
AcDbEntity
  8
LC-001-002-----0
 62
     7
370
    50
100
AcDbLine
 10
293.862308
 20
432.186301
 30
0.0
 11
294.362308
 21
432.186301
 31
0.0
  0
LINE
  5
63E
330
1F
100
AcDbEntity
  8
LC-001-002-----0
 62
     7
370
    50
100
AcDbLine
 10
314.362308
 20
432.186301
 30
0.0
 11
314.862308
 21
432.186301
 31
0.0
  0
LINE
  5
63F
330
1F
100
AcDbEntity
  8
LC-001-002-----0
 62
     7
370
    50
100
AcDbLine
 10
319.862308
 20
417.262325
 30
0.0
 11
319.862308
 21
434.686301
 31
0.0
  0
LINE
  5
640
330
1F
100
AcDbEntity
  8
LC-001-002-----0
 62
     7
370
    50
100
AcDbLine
 10
339.362308
 20
416.262325
 30
0.0
 11
339.362308
 21
416.44984
 31
0.0
  0
LINE
  5
641
330
1F
100
AcDbEntity
  8
LC-001-002-----0
 62
     7
370
    50
100
AcDbLine
 10
319.862308
 20
455.110278
 30
0.0
 11
319.862308
 21
499.262325
 31
0.0
  0
INSERT
  5
6CA
330
1F
100
AcDbEntity
  8
LC-003-005-----0
 62
     7
370
    25
100
AcDbBlockReference
  2
*X3946
 10
0.0
 20
0.0
 30
0.0
  0
LINE
  5
6CB
330
1F
100
AcDbEntity
  8
LC-001-002-----0
 62
     7
370
    50
100
AcDbLine
 10
464.359158
 20
499.262325
 30
0.0
 11
522.360948
 21
499.262325
 31
0.0
  0
INSERT
  5
6DF
330
1F
100
AcDbEntity
  8
LC-003-005-----0
 62
     7
370
    25
100
AcDbBlockReference
  2
*X4047
 10
0.0
 20
0.0
 30
0.0
  0
INSERT
  5
6E3
330
1F
100
AcDbEntity
  8
LC-003-005-----0
 62
     7
370
    25
100
AcDbBlockReference
  2
*X4148
 10
0.0
 20
0.0
 30
0.0
  0
INSERT
  5
6E7
330
1F
100
AcDbEntity
  8
LC-003-005-----0
 62
     7
370
    25
100
AcDbBlockReference
  2
*X4249
 10
0.0
 20
0.0
 30
0.0
  0
LINE
  5
6E8
330
1F
100
AcDbEntity
  8
LC-001-002-----0
 62
     7
370
    50
100
AcDbLine
 10
363.87199
 20
417.94984
 30
0.0
 11
325.362308
 21
417.94984
 31
0.0
  0
LINE
  5
6E9
330
1F
100
AcDbEntity
  8
LC-005-006-MLN-0
 62
     7
370
    25
100
AcDbLine
 10
489.362308
 20
429.262325
 30
0.0
 11
489.362308
 21
367.127612
 31
0.0
  0
LINE
  5
6EA
330
1F
100
AcDbEntity
  8
LC-001-002-----0
 62
     7
370
    50
100
AcDbLine
 10
499.362308
 20
415.356255
 30
0.0
 11
499.362308
 21
378.186301
 31
0.0
  0
LINE
  5
6EB
330
1F
100
AcDbEntity
  8
LC-001-002-----0
 62
     7
370
    25
100
AcDbLine
 10
480.950308
 20
377.186301
 30
0.0
 11
480.950308
 21
414.349183
 31
0.0
  0
LINE
  5
6EC
330
1F
100
AcDbEntity
  8
LC-001-002-----0
 62
     7
370
    25
100
AcDbLine
 10
497.774308
 20
377.186301
 30
0.0
 11
497.774308
 21
415.269397
 31
0.0
  0
LINE
  5
6ED
330
1F
100
AcDbEntity
  8
LC-001-002-----0
 62
     7
370
    50
100
AcDbLine
 10
480.362308
 20
377.186301
 30
0.0
 11
482.812308
 21
377.186301
 31
0.0
  0
LINE
  5
6EE
330
1F
100
AcDbEntity
  8
LC-001-002-----0
 62
     7
370
    50
100
AcDbLine
 10
499.362308
 20
378.186301
 30
0.0
 11
498.362308
 21
377.186301
 31
0.0
  0
LINE
  5
6EF
330
1F
100
AcDbEntity
  8
LC-001-002-----0
 62
     7
370
    50
100
AcDbLine
 10
479.362308
 20
378.186301
 30
0.0
 11
480.362308
 21
377.186301
 31
0.0
  0
LINE
  5
6F0
330
1F
100
AcDbEntity
  8
LC-001-002-----0
 62
     7
370
    50
100
AcDbLine
 10
498.362308
 20
377.186301
 30
0.0
 11
495.912308
 21
377.186301
 31
0.0
  0
LINE
  5
6F1
330
1F
100
AcDbEntity
  8
LC-001-002-----0
 62
     7
370
    50
100
AcDbLine
 10
495.912308
 20
377.186301
 30
0.0
 11
482.812308
 21
377.186301
 31
0.0
  0
LINE
  5
6F2
330
1F
100
AcDbEntity
  8
LC-001-002-----0
 62
     7
370
    50
100
AcDbLine
 10
479.362308
 20
378.186301
 30
0.0
 11
479.362308
 21
414.262325
 31
0.0
  0
ENDSEC
  0
SECTION
  2
OBJECTS
  0
DICTIONARY
  5
C
330
0
100
AcDbDictionary
281
     1
  3
ACAD_GROUP
350
D
  3
ACAD_LAYOUT
350
1A
  3
ACAD_MLINESTYLE
350
17
  3
ACAD_PLOTSETTINGS
350
19
  3
ACAD_PLOTSTYLENAME
350
E
  0
DICTIONARY
  5
D
102
{ACAD_REACTORS
330
C
102
}
330
C
100
AcDbDictionary
281
     1
  3
LCGROUP1008
350
6FA
  3
LCGROUP1041
350
6FC
  3
LCGROUP1827
350
6F9
  3
LCGROUP2147
350
6FD
  3
LCGROUP2245
350
6F5
  3
LCGROUP2681
350
6FB
  3
LCGROUP707
350
6F8
  3
LCGROUP840
350
6F3
  3
LCGROUP870
350
6F4
  3
LCGROUP901
350
6F6
  3
LCGROUP942
350
6F7
  0
DICTIONARY
  5
1A
102
{ACAD_REACTORS
330
C
102
}
330
C
100
AcDbDictionary
281
     1
  3
Layout1
350
1E
  3
Layout2
350
26
  3
Model
350
22
  0
DICTIONARY
  5
17
102
{ACAD_REACTORS
330
C
102
}
330
C
100
AcDbDictionary
281
     1
  3
Standard
350
18
  0
DICTIONARY
  5
19
102
{ACAD_REACTORS
330
C
102
}
330
C
100
AcDbDictionary
281
     1
  0
ACDBDICTIONARYWDFLT
  5
E
102
{ACAD_REACTORS
330
C
102
}
330
C
100
AcDbDictionary
281
     1
  3
Normal
350
F
100
AcDbDictionaryWithDefault
340
F
  0
GROUP
  5
6FA
102
{ACAD_REACTORS
330
D
102
}
330
D
100
AcDbGroup
300
K÷rper-236
 70
     1
 71
     1
340
2C6
340
2C7
340
2C8
340
2C9
340
2CA
340
2CB
340
2CC
340
2CD
340
2CE
340
2CF
340
2D0
340
2D1
340
2D2
340
2D3
340
2D4
340
2D5
340
2D6
340
2D7
340
2D8
340
2D9
340
2DA
340
2DB
340
2DC
340
2DD
340
2DE
340
2DF
340
2EB
340
2F7
340
35D
  0
GROUP
  5
6FC
102
{ACAD_REACTORS
330
D
102
}
330
D
100
AcDbGroup
300
GRP1041
 70
     1
 71
     1
340
2F8
340
2F9
340
2FA
340
2FB
340
2FC
340
2FD
340
2FE
340
2FF
340
300
340
301
340
302
340
303
340
304
340
305
340
306
340
307
340
308
340
309
340
30A
340
30B
340
30C
340
30D
340
30E
340
30F
340
310
340
311
340
312
340
313
340
314
340
315
340
316
340
317
340
318
340
319
340
31A
340
31B
340
31C
340
31D
340
31E
340
31F
340
320
340
321
340
322
340
323
340
324
340
325
340
326
340
327
340
328
340
329
340
32A
340
32B
340
32C
340
32D
340
32E
340
32F
340
330
340
34C
340
34D
340
34E
340
34F
340
350
340
351
340
352
340
353
340
354
340
355
340
356
340
357
340
358
340
359
340
35A
340
35B
340
35C
  0
GROUP
  5
6F9
102
{ACAD_REACTORS
330
D
102
}
330
D
100
AcDbGroup
300
AdapterSA
 70
     1
 71
     1
340
38D
340
38F
340
390
340
391
340
393
340
394
340
395
340
396
340
397
340
398
340
399
340
39B
340
39C
340
39D
340
39E
340
3A0
340
3A1
340
3A3
340
3A7
  0
GROUP
  5
6FD
102
{ACAD_REACTORS
330
D
102
}
330
D
100
AcDbGroup
300
rost
 70
     1
 71
     1
340
48F
340
490
340
491
340
492
340
493
340
494
340
495
340
49C
340
4A4
340
4AD
340
4AE
340
4AF
340
4B0
340
4B1
340
4B2
340
4B3
340
4B4
340
4B5
340
4B6
340
4B7
340
4B8
340
4B9
340
4BA
340
4BB
340
4BC
340
4BD
340
4BE
340
4BF
340
4C0
340
4C1
340
4C2
340
4C3
340
4C4
340
4C5
340
4C6
340
4C7
340
4C8
340
4C9
340
4CA
340
4CB
340
4CC
340
4CD
340
4CE
340
4CF
340
4D0
340
4D1
340
4D2
340
4D3
340
4DB
340
4DC
340
4DD
340
4DE
340
4DF
340
4E0
340
4E1
340
4E9
340
4F0
340
4F9
340
4FA
340
4FB
340
4FC
340
4FD
340
4FE
340
4FF
340
500
340
501
340
502
340
503
340
504
340
505
340
506
340
507
340
508
340
509
340
50A
340
50B
340
50C
340
50D
340
50E
340
50F
340
510
340
511
340
512
340
513
340
514
340
515
340
516
340
517
340
518
340
519
340
51A
340
51B
340
51C
340
51D
340
51E
340
526
  0
GROUP
  5
6F5
102
{ACAD_REACTORS
330
D
102
}
330
D
100
AcDbGroup
300
K÷rper-10
 70
     1
 71
     1
340
527
340
528
340
529
340
52A
340
52B
340
52C
340
52D
340
52E
340
52F
340
530
340
531
340
532
340
533
340
534
340
535
340
536
340
537
340
538
340
539
340
53A
340
53B
340
53C
340
543
340
54A
340
54B
340
54C
340
54D
  0
GROUP
  5
6FB
102
{ACAD_REACTORS
330
D
102
}
330
D
100
AcDbGroup
300
GRP2681
 70
     1
 71
     1
340
5A8
340
5A9
340
5AA
340
5AB
340
5C5
340
5C6
340
5C7
340
5C8
340
5C9
340
5CA
340
5CB
340
5CC
340
5CD
340
5CE
340
5CF
340
5E9
340
5EA
340
5EB
340
5EC
340
5ED
340
5EE
340
5EF
340
5F0
340
5F1
340
5F2
  0
GROUP
  5
6F8
102
{ACAD_REACTORS
330
D
102
}
330
D
100
AcDbGroup
300
K÷rper-14
 70
     1
 71
     1
340
3C
340
3D
340
3E
340
3F
340
40
340
42
340
43
340
44
340
45
340
46
340
47
340
48
340
49
340
4A
340
4B
340
4C
340
4D
340
4E
340
4F
340
50
340
51
340
52
340
53
340
54
340
55
340
56
340
57
340
58
340
59
340
5A
340
5B
340
5C
340
5D
340
5E
340
5F
340
60
340
61
340
62
340
63
340
64
340
65
340
66
340
67
340
68
340
69
340
6A
340
85
340
ED
  0
GROUP
  5
6F3
102
{ACAD_REACTORS
330
D
102
}
330
D
100
AcDbGroup
300
K÷rper-15
 70
     1
 71
     1
340
EE
340
EF
340
F0
340
F1
340
F2
340
F3
340
F4
340
F5
340
F6
340
F7
340
F8
340
F9
340
FA
340
FB
340
FC
340
FD
340
FE
340
FF
340
100
340
101
340
102
340
103
340
104
340
105
340
11F
340
120
340
121
340
263
  0
GROUP
  5
6F4
102
{ACAD_REACTORS
330
D
102
}
330
D
100
AcDbGroup
300
GRP870
 70
     1
 71
     1
340
133
340
134
340
135
340
136
340
137
340
138
340
139
340
13A
340
13B
340
13C
340
13D
340
13E
340
13F
340
140
340
141
340
142
340
143
340
144
340
145
340
146
340
147
340
148
340
149
340
14A
340
14B
340
14C
340
1A7
  0
GROUP
  5
6F6
102
{ACAD_REACTORS
330
D
102
}
330
D
100
AcDbGroup
300
GRP901
 70
     1
 71
     1
340
1A8
340
1A9
340
1AA
340
1AB
340
1AC
340
1AD
340
1AE
340
1AF
340
1B0
340
1B1
340
1B2
340
1B3
340
1B4
340
1B5
340
1B6
340
1B7
340
1B8
340
1B9
340
1BA
340
1BB
340
1BC
340
1BD
340
1BE
340
1BF
340
1C0
340
1C1
340
1C2
340
1C3
340
1C4
340
1C5
340
1C6
340
1EE
340
212
340
213
340
262
  0
GROUP
  5
6F7
102
{ACAD_REACTORS
330
D
102
}
330
D
100
AcDbGroup
300
GRP942
 70
     1
 71
     1
340
214
340
215
340
216
340
217
340
218
340
219
340
21A
340
21B
340
21C
340
21D
340
21E
340
21F
340
220
340
221
340
222
340
223
340
224
340
225
340
226
340
227
340
228
340
229
340
22A
340
22B
340
22C
340
22D
340
22E
340
22F
340
230
340
231
340
232
340
233
340
234
340
235
340
236
340
237
340
238
340
261
340
282
340
283
340
2C4
340
2C5
  0
LAYOUT
  5
1E
102
{ACAD_REACTORS
330
1A
102
}
330
1A
100
AcDbPlotSettings
  1

  2

  4

  6

 40
0.0
 41
0.0
 42
0.0
 43
0.0
 44
0.0
 45
0.0
 46
0.0
 47
0.0
 48
0.0
 49
0.0
140
0.0
141
0.0
142
1.0
143
1.0
 70
   688
 72
     0
 73
     0
 74
     5
  7

 75
    16
147
1.0
148
0.0
149
0.0
100
AcDbLayout
  1
Layout1
 70
     1
 71
     1
 10
-174.0
 20
-123.0
 11
1014.0
 21
717.0
 12
0.0
 22
0.0
 32
0.0
 14
-174.0
 24
-123.0
 34
0.0
 15
1014.0
 25
717.0
 35
0.0
146
0.0
 13
0.0
 23
0.0
 33
0.0
 16
1.0
 26
0.0
 36
0.0
 17
0.0
 27
1.0
 37
0.0
 76
     0
330
1B
  0
LAYOUT
  5
26
102
{ACAD_REACTORS
330
1A
102
}
330
1A
100
AcDbPlotSettings
  1

  2

  4

  6

 40
0.0
 41
0.0
 42
0.0
 43
0.0
 44
0.0
 45
0.0
 46
0.0
 47
0.0
 48
0.0
 49
0.0
140
0.0
141
0.0
142
1.0
143
1.0
 70
   688
 72
     0
 73
     0
 74
     5
  7

 75
    16
147
1.0
148
0.0
149
0.0
100
AcDbLayout
  1
Layout2
 70
     1
 71
     2
 10
0.0
 20
0.0
 11
0.0
 21
0.0
 12
0.0
 22
0.0
 32
0.0
 14
0.0
 24
0.0
 34
0.0
 15
0.0
 25
0.0
 35
0.0
146
0.0
 13
0.0
 23
0.0
 33
0.0
 16
1.0
 26
0.0
 36
0.0
 17
0.0
 27
1.0
 37
0.0
 76
     0
330
23
  0
LAYOUT
  5
22
102
{ACAD_REACTORS
330
1A
102
}
330
1A
100
AcDbPlotSettings
  1

  2

  4

  6

 40
0.0
 41
0.0
 42
0.0
 43
0.0
 44
0.0
 45
0.0
 46
0.0
 47
0.0
 48
0.0
 49
0.0
140
0.0
141
0.0
142
1.0
143
1.0
 70
  1776
 72
     0
 73
     0
 74
     0
  7

 75
     0
147
1.0
148
0.0
149
0.0
100
AcDbLayout
  1
Model
 70
     1
 71
     0
 10
-174.0
 20
-123.0
 11
1014.0
 21
717.0
 12
0.0
 22
0.0
 32
0.0
 14
-174.0
 24
-123.0
 34
0.0
 15
1014.0
 25
717.0
 35
0.0
146
0.0
 13
0.0
 23
0.0
 33
0.0
 16
1.0
 26
0.0
 36
0.0
 17
0.0
 27
1.0
 37
0.0
 76
     0
330
1F
  0
MLINESTYLE
  5
18
102
{ACAD_REACTORS
330
17
102
}
330
17
100
AcDbMlineStyle
  2
Standard
 70
     0
  3

 62
   256
 51
90.0
 52
90.0
 71
     2
 49
0.5
 62
   256
  6
BYLAYER
 49
-0.5
 62
   256
  6
BYLAYER
  0
ACDBPLACEHOLDER
  5
F
102
{ACAD_REACTORS
330
E
102
}
330
E
  0
ENDSEC
  0
EOF
