  0
SECTION
  2
HEADER
  9
$ACADVER
  1
AC1015
  9
$ACADMAINTVER
 70
     6
  9
$DWGCODEPAGE
  3
ANSI_1252
  9
$INSBASE
 10
0.0
 20
0.0
 30
0.0
  9
$EXTMIN
 10
-215.497763
 20
-155.268181
 30
0.0
  9
$EXTMAX
 10
624.502237
 20
438.731819
 30
0.0
  9
$LIMMIN
 10
-215.497763
 20
-155.268181
  9
$LIMMAX
 10
624.502237
 20
438.731819
  9
$ORTHOMODE
 70
     0
  9
$REGENMODE
 70
     1
  9
$FILLMODE
 70
     1
  9
$QTEXTMODE
 70
     0
  9
$MIRRTEXT
 70
     1
  9
$LTSCALE
 40
2.0
  9
$ATTMODE
 70
     1
  9
$TEXTSIZE
 40
2.5
  9
$TRACEWID
 40
1.0
  9
$TEXTSTYLE
  7
Standard
  9
$CLAYER
  8
0
  9
$CELTYPE
  6
ByLayer
  9
$CECOLOR
 62
     7
  9
$CELTSCALE
 40
1.0
  9
$DISPSILH
 70
     0
  9
$DIMSCALE
 40
2.0
  9
$DIMASZ
 40
3.5
  9
$DIMEXO
 40
0.625
  9
$DIMDLI
 40
3.75
  9
$DIMRND
 40
0.0
  9
$DIMDLE
 40
0.0
  9
$DIMEXE
 40
1.25
  9
$DIMTP
 40
0.0
  9
$DIMTM
 40
0.0
  9
$DIMTXT
 40
3.5
  9
$DIMCEN
 40
2.5
  9
$DIMTSZ
 40
0.0
  9
$DIMTOL
 70
     0
  9
$DIMLIM
 70
     0
  9
$DIMTIH
 70
     0
  9
$DIMTOH
 70
     0
  9
$DIMSE1
 70
     0
  9
$DIMSE2
 70
     0
  9
$DIMTAD
 70
     1
  9
$DIMZIN
 70
     8
  9
$DIMBLK
  1

  9
$DIMASO
 70
     1
  9
$DIMSHO
 70
     1
  9
$DIMPOST
  1

  9
$DIMAPOST
  1

  9
$DIMALT
 70
     0
  9
$DIMALTD
 70
     3
  9
$DIMALTF
 40
0.03937
  9
$DIMLFAC
 40
1.0
  9
$DIMTOFL
 70
     1
  9
$DIMTVP
 40
0.0
  9
$DIMTIX
 70
     0
  9
$DIMSOXD
 70
     0
  9
$DIMSAH
 70
     0
  9
$DIMBLK1
  1

  9
$DIMBLK2
  1

  9
$DIMSTYLE
  2
ISO-25
  9
$DIMCLRD
 70
     0
  9
$DIMCLRE
 70
     0
  9
$DIMCLRT
 70
     0
  9
$DIMTFAC
 40
1.0
  9
$DIMGAP
 40
0.625
  9
$DIMJUST
 70
     0
  9
$DIMSD1
 70
     0
  9
$DIMSD2
 70
     0
  9
$DIMTOLJ
 70
     0
  9
$DIMTZIN
 70
     8
  9
$DIMALTZ
 70
     0
  9
$DIMALTTZ
 70
     0
  9
$DIMUPT
 70
     0
  9
$DIMDEC
 70
     2
  9
$DIMTDEC
 70
     2
  9
$DIMALTU
 70
     2
  9
$DIMALTTD
 70
     3
  9
$DIMTXSTY
  7
Standard
  9
$DIMAUNIT
 70
     0
  9
$DIMADEC
 70
     0
  9
$DIMALTRND
 40
0.0
  9
$DIMAZIN
 70
     0
  9
$DIMDSEP
 70
    44
  9
$DIMATFIT
 70
     3
  9
$DIMFRAC
 70
     0
  9
$DIMLDRBLK
  1

  9
$DIMLUNIT
 70
     2
  9
$DIMLWD
 70
    -2
  9
$DIMLWE
 70
    -2
  9
$DIMTMOVE
 70
     0
  9
$LUNITS
 70
     2
  9
$LUPREC
 70
     4
  9
$SKETCHINC
 40
1.0
  9
$FILLETRAD
 40
10.0
  9
$AUNITS
 70
     0
  9
$AUPREC
 70
     0
  9
$MENU
  1
.
  9
$ELEVATION
 40
0.0
  9
$PELEVATION
 40
0.0
  9
$THICKNESS
 40
0.0
  9
$LIMCHECK
 70
     0
  9
$CHAMFERA
 40
10.0
  9
$CHAMFERB
 40
10.0
  9
$CHAMFERC
 40
20.0
  9
$CHAMFERD
 40
0.0
  9
$SKPOLY
 70
     0
  9
$TDCREATE
 40
2455898.435082373
  9
$TDUCREATE
 40
2455898.393415706
  9
$TDUPDATE
 40
2455898.435082384
  9
$TDUUPDATE
 40
2455898.393415717
  9
$TDINDWG
 40
0.0000000116
  9
$TDUSRTIMER
 40
0.0000000116
  9
$USRTIMER
 70
     1
  9
$ANGBASE
 50
0.0
  9
$ANGDIR
 70
     0
  9
$PDMODE
 70
     0
  9
$PDSIZE
 40
0.0
  9
$PLINEWID
 40
0.0
  9
$SPLFRAME
 70
     0
  9
$SPLINETYPE
 70
     6
  9
$SPLINESEGS
 70
     8
  9
$HANDSEED
  5
52E
  9
$SURFTAB1
 70
     6
  9
$SURFTAB2
 70
     6
  9
$SURFTYPE
 70
     6
  9
$SURFU
 70
     6
  9
$SURFV
 70
     6
  9
$UCSBASE
  2

  9
$UCSNAME
  2

  9
$UCSORG
 10
0.0
 20
0.0
 30
0.0
  9
$UCSXDIR
 10
1.0
 20
0.0
 30
0.0
  9
$UCSYDIR
 10
0.0
 20
1.0
 30
0.0
  9
$UCSORTHOREF
  2

  9
$UCSORTHOVIEW
 70
     0
  9
$UCSORGTOP
 10
0.0
 20
0.0
 30
0.0
  9
$UCSORGBOTTOM
 10
0.0
 20
0.0
 30
0.0
  9
$UCSORGLEFT
 10
0.0
 20
0.0
 30
0.0
  9
$UCSORGRIGHT
 10
0.0
 20
0.0
 30
0.0
  9
$UCSORGFRONT
 10
0.0
 20
0.0
 30
0.0
  9
$UCSORGBACK
 10
0.0
 20
0.0
 30
0.0
  9
$PUCSBASE
  2

  9
$PUCSNAME
  2

  9
$PUCSORG
 10
0.0
 20
0.0
 30
0.0
  9
$PUCSXDIR
 10
1.0
 20
0.0
 30
0.0
  9
$PUCSYDIR
 10
0.0
 20
1.0
 30
0.0
  9
$PUCSORTHOREF
  2

  9
$PUCSORTHOVIEW
 70
     0
  9
$PUCSORGTOP
 10
0.0
 20
0.0
 30
0.0
  9
$PUCSORGBOTTOM
 10
0.0
 20
0.0
 30
0.0
  9
$PUCSORGLEFT
 10
0.0
 20
0.0
 30
0.0
  9
$PUCSORGRIGHT
 10
0.0
 20
0.0
 30
0.0
  9
$PUCSORGFRONT
 10
0.0
 20
0.0
 30
0.0
  9
$PUCSORGBACK
 10
0.0
 20
0.0
 30
0.0
  9
$USERI1
 70
     0
  9
$USERI2
 70
     0
  9
$USERI3
 70
     0
  9
$USERI4
 70
     0
  9
$USERI5
 70
     0
  9
$USERR1
 40
0.0
  9
$USERR2
 40
0.0
  9
$USERR3
 40
0.0
  9
$USERR4
 40
0.0
  9
$USERR5
 40
0.0
  9
$WORLDVIEW
 70
     1
  9
$SHADEDGE
 70
     3
  9
$SHADEDIF
 70
    70
  9
$TILEMODE
 70
     1
  9
$MAXACTVP
 70
    64
  9
$PINSBASE
 10
0.0
 20
0.0
 30
0.0
  9
$PLIMCHECK
 70
     0
  9
$PEXTMIN
 10
-215.497763
 20
-155.268181
 30
0.0
  9
$PEXTMAX
 10
624.502237
 20
438.731819
 30
0.0
  9
$PLIMMIN
 10
-215.497763
 20
-155.268181
  9
$PLIMMAX
 10
624.502237
 20
438.731819
  9
$UNITMODE
 70
     0
  9
$VISRETAIN
 70
     1
  9
$PLINEGEN
 70
     0
  9
$PSLTSCALE
 70
     1
  9
$TREEDEPTH
 70
  3020
  9
$CMLSTYLE
  2
Standard
  9
$CMLJUST
 70
     0
  9
$CMLSCALE
 40
20.0
  9
$PROXYGRAPHICS
 70
     1
  9
$MEASUREMENT
 70
     1
  9
$CELWEIGHT
370
    -1
  9
$ENDCAPS
280
     0
  9
$JOINSTYLE
280
     0
  9
$LWDISPLAY
290
     0
  9
$INSUNITS
 70
     4
  9
$HYPERLINKBASE
  1

  9
$STYLESHEET
  1

  9
$XEDIT
290
     1
  9
$CEPSNTYPE
380
     0
  9
$PSTYLEMODE
290
     1
  9
$FINGERPRINTGUID
  2
{FAEB1C30-E019-11D5-929B-00C0DF256EC4}
  9
$VERSIONGUID
  2
{FAEB1C32-E019-11D5-929B-00C0DF256EC4}
  9
$EXTNAMES
290
     1
  9
$PSVPSCALE
 40
0.0
  9
$OLESTARTUP
290
     0
  0
ENDSEC
  0
SECTION
  2
CLASSES
  0
CLASS
  1
ACDBDICTIONARYWDFLT
  2
AcDbDictionaryWithDefault
  3
ObjectDBX Classes
 90
        0
280
     0
281
     0
  0
CLASS
  1
ACDBPLACEHOLDER
  2
AcDbPlaceHolder
  3
ObjectDBX Classes
 90
        0
280
     0
281
     0
  0
CLASS
  1
LAYOUT
  2
AcDbLayout
  3
ObjectDBX Classes
 90
        0
280
     0
281
     0
  0
ENDSEC
  0
SECTION
  2
TABLES
  0
TABLE
  2
VPORT
  5
8
330
0
100
AcDbSymbolTable
 70
     2
  0
VPORT
  5
29
330
8
100
AcDbSymbolTableRecord
100
AcDbViewportTableRecord
  2
*ACTIVE
 70
     0
 10
0.0
 20
0.0
 11
1.0
 21
1.0
 12
204.502237
 22
141.731819
 13
0.0
 23
0.0
 14
1.0
 24
1.0
 15
0.0
 25
0.0
 16
0.0
 26
0.0
 36
1.0
 17
0.0
 27
0.0
 37
0.0
 40
594.0
 41
1.414141
 42
50.0
 43
0.0
 44
0.0
 50
0.0
 51
0.0
 71
    16
 72
   100
 73
     1
 74
     0
 75
     0
 76
     0
 77
     0
 78
     0
281
     0
 65
     0
110
0.0
120
0.0
130
0.0
111
1.0
121
0.0
131
0.0
112
0.0
122
1.0
132
0.0
 79
     0
146
0.0
  0
ENDTAB
  0
TABLE
  2
LTYPE
  5
5
330
0
100
AcDbSymbolTable
 70
     3
  0
LTYPE
  5
14
330
5
100
AcDbSymbolTableRecord
100
AcDbLinetypeTableRecord
  2
ByBlock
 70
     0
  3

 72
    65
 73
     0
 40
0.0
  0
LTYPE
  5
15
330
5
100
AcDbSymbolTableRecord
100
AcDbLinetypeTableRecord
  2
ByLayer
 70
     0
  3

 72
    65
 73
     0
 40
0.0
  0
LTYPE
  5
16
330
5
100
AcDbSymbolTableRecord
100
AcDbLinetypeTableRecord
  2
Continuous
 70
     0
  3
Solid line
 72
    65
 73
     0
 40
0.0
  0
LTYPE
  5
2A
330
5
100
AcDbSymbolTableRecord
100
AcDbLinetypeTableRecord
  2
DASHED
 70
     0
  3
__ __ __ __ __
 72
    65
 73
     2
 40
6.25
 49
5.0
 74
     4
 75
     0
340
0
 46
1.0
 50
0.0
 44
0.0
 45
0.0
 49
-1.25
 74
     4
 75
     0
340
0
 46
1.0
 50
0.0
 44
0.0
 45
0.0
  0
LTYPE
  5
25E
330
5
100
AcDbSymbolTableRecord
100
AcDbLinetypeTableRecord
  2
DASHDOT
 70
     0
  3
__ . __ . __ . __ . __
 72
    65
 73
     4
 40
7.5
 49
5.0
 74
     4
 75
     0
340
0
 46
1.0
 50
0.0
 44
0.0
 45
0.0
 49
-1.25
 74
     4
 75
     0
340
0
 46
1.0
 50
0.0
 44
0.0
 45
0.0
 49
0.0
 74
     4
 75
     0
340
0
 46
1.0
 50
0.0
 44
0.0
 45
0.0
 49
-1.25
 74
     4
 75
     0
340
0
 46
1.0
 50
0.0
 44
0.0
 45
0.0
  0
ENDTAB
  0
TABLE
  2
LAYER
  5
2
330
0
100
AcDbSymbolTable
 70
     8
  0
LAYER
  5
10
330
2
100
AcDbSymbolTableRecord
100
AcDbLayerTableRecord
  2
0
 70
     0
 62
     7
  6
Continuous
370
    -3
390
F
  0
LAYER
  5
2B
330
2
100
AcDbSymbolTableRecord
100
AcDbLayerTableRecord
  2
LC-INFO-1-2-mm-A3-0
 70
     1
 62
     7
  6
ByBlock
370
    -3
390
F
  0
LAYER
  5
2C
330
2
100
AcDbSymbolTableRecord
100
AcDbLayerTableRecord
  2
LC-CUT-HIDDEN
 70
     0
 62
     7
  6
DASHED
370
    -3
390
F
  0
LAYER
  5
2D
330
2
100
AcDbSymbolTableRecord
100
AcDbLayerTableRecord
  2
LC-VIEWPORT
 70
     0
 62
     7
  6
ByBlock
370
    -3
390
F
  0
LAYER
  5
2E
330
2
100
AcDbSymbolTableRecord
100
AcDbLayerTableRecord
  2
LC-3D-HIDDEN
 70
     0
 62
     9
  6
DASHED
370
    -3
390
F
  0
LAYER
  5
30
330
2
100
AcDbSymbolTableRecord
100
AcDbLayerTableRecord
  2
LC-001-100-D00-0
 70
     0
 62
     1
  6
ByBlock
370
    -3
390
F
  0
LAYER
  5
4BE
330
2
100
AcDbSymbolTableRecord
100
AcDbLayerTableRecord
  2
Defpoints
 70
     0
 62
     7
  6
Continuous
290
     0
370
    -3
390
F
  0
LAYER
  5
51F
330
2
100
AcDbSymbolTableRecord
100
AcDbLayerTableRecord
  2
LC-002-003-----0
 70
     0
 62
     2
  6
ByBlock
370
    -3
390
F
  0
ENDTAB
  0
TABLE
  2
STYLE
  5
3
330
0
100
AcDbSymbolTable
 70
     3
  0
STYLE
  5
11
330
3
100
AcDbSymbolTableRecord
100
AcDbTextStyleTableRecord
  2
Standard
 70
     0
 40
0.0
 41
1.0
 50
0.0
 71
     0
 42
2.5
  3
txt
  4

  0
STYLE
  5
2F
330
3
100
AcDbSymbolTableRecord
100
AcDbTextStyleTableRecord
  2
LCTX15-400-0-0-Arial
 70
     0
 40
0.0
 41
0.8
 50
0.0
 71
     0
 42
3.5
  3

  4

1001
ACAD
1000
Arial
1071
 16777218
  0
STYLE
  5
4BB
330
3
100
AcDbSymbolTableRecord
100
AcDbTextStyleTableRecord
  2
LCTX15-400-0-0pDIN-Schrift
 70
     0
 40
2.5
 41
0.8
 50
15.0
 71
     0
 42
3.5
  3
STANDARD
  4

  0
ENDTAB
  0
TABLE
  2
VIEW
  5
6
330
0
100
AcDbSymbolTable
 70
     0
  0
ENDTAB
  0
TABLE
  2
UCS
  5
7
330
0
100
AcDbSymbolTable
 70
     0
  0
ENDTAB
  0
TABLE
  2
APPID
  5
9
330
0
100
AcDbSymbolTable
 70
     1
  0
APPID
  5
12
330
9
100
AcDbSymbolTableRecord
100
AcDbRegAppTableRecord
  2
ACAD
 70
     0
  0
ENDTAB
  0
TABLE
  2
DIMSTYLE
  5
A
330
0
100
AcDbSymbolTable
 70
     2
100
AcDbDimStyleTable
  0
DIMSTYLE
105
27
330
A
100
AcDbSymbolTableRecord
100
AcDbDimStyleTableRecord
  2
ISO-25
 70
     0
 41
2.5
 42
0.625
 43
3.75
 44
1.25
 73
     0
 74
     0
 77
     1
 78
     8
140
2.5
141
2.5
143
0.03937
147
0.625
171
     3
172
     1
271
     2
272
     2
274
     3
278
    44
283
     0
284
     8
340
11
  0
DIMSTYLE
105
4BC
102
{ACAD_REACTORS
330
4BD
330
4CB
330
4D8
330
4E6
330
4F3
330
501
330
50F
330
520
102
}
330
A
100
AcDbSymbolTableRecord
100
AcDbDimStyleTableRecord
  2
LC-DIM-L-0140-02-02
 70
     0
 40
2.0
 41
14.0
 42
0.0
 43
7.5
 44
1.8
 73
     0
 74
     0
 77
     1
 78
     8
 79
     2
140
14.0
141
0.0
146
0.71
147
1.5
176
     2
177
     2
178
     2
179
     2
271
     2
278
    44
289
     1
340
4BB
  0
ENDTAB
  0
TABLE
  2
BLOCK_RECORD
  5
1
330
0
100
AcDbSymbolTable
 70
    50
  0
BLOCK_RECORD
  5
1F
330
1
100
AcDbSymbolTableRecord
100
AcDbBlockTableRecord
  2
*Model_Space
340
22
  0
BLOCK_RECORD
  5
1B
330
1
100
AcDbSymbolTableRecord
100
AcDbBlockTableRecord
  2
*Paper_Space
340
1E
  0
BLOCK_RECORD
  5
23
330
1
100
AcDbSymbolTableRecord
100
AcDbBlockTableRecord
  2
*Paper_Space0
340
26
  0
BLOCK_RECORD
  5
37
330
1
100
AcDbSymbolTableRecord
100
AcDbBlockTableRecord
  2
KLON1
340
0
102
{BLKREFS
331
3C
102
}
  0
BLOCK_RECORD
  5
52
330
1
100
AcDbSymbolTableRecord
100
AcDbBlockTableRecord
  2
POLY1
340
0
102
{BLKREFS
331
5F
102
}
  0
BLOCK_RECORD
  5
60
330
1
100
AcDbSymbolTableRecord
100
AcDbBlockTableRecord
  2
POLY2
340
0
102
{BLKREFS
331
6B
102
}
  0
BLOCK_RECORD
  5
73
330
1
100
AcDbSymbolTableRecord
100
AcDbBlockTableRecord
  2
POLY3
340
0
102
{BLKREFS
331
80
102
}
  0
BLOCK_RECORD
  5
81
330
1
100
AcDbSymbolTableRecord
100
AcDbBlockTableRecord
  2
POLY4
340
0
102
{BLKREFS
331
8E
102
}
  0
BLOCK_RECORD
  5
98
330
1
100
AcDbSymbolTableRecord
100
AcDbBlockTableRecord
  2
POLY5
340
0
102
{BLKREFS
331
A5
102
}
  0
BLOCK_RECORD
  5
A7
330
1
100
AcDbSymbolTableRecord
100
AcDbBlockTableRecord
  2
POLY6
340
0
102
{BLKREFS
331
B4
102
}
  0
BLOCK_RECORD
  5
B6
330
1
100
AcDbSymbolTableRecord
100
AcDbBlockTableRecord
  2
POLY7
340
0
102
{BLKREFS
331
C3
102
}
  0
BLOCK_RECORD
  5
C5
330
1
100
AcDbSymbolTableRecord
100
AcDbBlockTableRecord
  2
POLY8
340
0
102
{BLKREFS
331
D2
102
}
  0
BLOCK_RECORD
  5
D6
330
1
100
AcDbSymbolTableRecord
100
AcDbBlockTableRecord
  2
POLY9
340
0
102
{BLKREFS
331
E3
102
}
  0
BLOCK_RECORD
  5
E5
330
1
100
AcDbSymbolTableRecord
100
AcDbBlockTableRecord
  2
POLY10
340
0
102
{BLKREFS
331
F2
102
}
  0
BLOCK_RECORD
  5
FA
330
1
100
AcDbSymbolTableRecord
100
AcDbBlockTableRecord
  2
POLY11
340
0
102
{BLKREFS
331
107
102
}
  0
BLOCK_RECORD
  5
109
330
1
100
AcDbSymbolTableRecord
100
AcDbBlockTableRecord
  2
POLY12
340
0
102
{BLKREFS
331
116
102
}
  0
BLOCK_RECORD
  5
193
330
1
100
AcDbSymbolTableRecord
100
AcDbBlockTableRecord
  2
KLON2
340
0
102
{BLKREFS
331
198
102
}
  0
BLOCK_RECORD
  5
199
330
1
100
AcDbSymbolTableRecord
100
AcDbBlockTableRecord
  2
KLON3
340
0
102
{BLKREFS
331
19E
102
}
  0
BLOCK_RECORD
  5
19F
330
1
100
AcDbSymbolTableRecord
100
AcDbBlockTableRecord
  2
KLON4
340
0
102
{BLKREFS
331
1A4
102
}
  0
BLOCK_RECORD
  5
1A5
330
1
100
AcDbSymbolTableRecord
100
AcDbBlockTableRecord
  2
KLON5
340
0
102
{BLKREFS
331
1AA
102
}
  0
BLOCK_RECORD
  5
1CB
330
1
100
AcDbSymbolTableRecord
100
AcDbBlockTableRecord
  2
POLY13
340
0
102
{BLKREFS
331
1DA
102
}
  0
BLOCK_RECORD
  5
1DD
330
1
100
AcDbSymbolTableRecord
100
AcDbBlockTableRecord
  2
POLY14
340
0
102
{BLKREFS
331
1EC
102
}
  0
BLOCK_RECORD
  5
1F0
330
1
100
AcDbSymbolTableRecord
100
AcDbBlockTableRecord
  2
POLY15
340
0
102
{BLKREFS
331
1FF
102
}
  0
BLOCK_RECORD
  5
202
330
1
100
AcDbSymbolTableRecord
100
AcDbBlockTableRecord
  2
POLY16
340
0
102
{BLKREFS
331
211
102
}
  0
BLOCK_RECORD
  5
213
330
1
100
AcDbSymbolTableRecord
100
AcDbBlockTableRecord
  2
POLY17
340
0
102
{BLKREFS
331
222
102
}
  0
BLOCK_RECORD
  5
225
330
1
100
AcDbSymbolTableRecord
100
AcDbBlockTableRecord
  2
POLY18
340
0
102
{BLKREFS
331
234
102
}
  0
BLOCK_RECORD
  5
26C
330
1
100
AcDbSymbolTableRecord
100
AcDbBlockTableRecord
  2
POLY19
340
0
102
{BLKREFS
331
277
102
}
  0
BLOCK_RECORD
  5
2D6
330
1
100
AcDbSymbolTableRecord
100
AcDbBlockTableRecord
  2
KLON6
340
0
102
{BLKREFS
331
2DB
102
}
  0
BLOCK_RECORD
  5
2E4
330
1
100
AcDbSymbolTableRecord
100
AcDbBlockTableRecord
  2
POLY20
340
0
102
{BLKREFS
331
2EF
102
}
  0
BLOCK_RECORD
  5
384
330
1
100
AcDbSymbolTableRecord
100
AcDbBlockTableRecord
  2
POLY21
340
0
102
{BLKREFS
331
397
102
}
  0
BLOCK_RECORD
  5
399
330
1
100
AcDbSymbolTableRecord
100
AcDbBlockTableRecord
  2
POLY22
340
0
102
{BLKREFS
331
3A6
102
}
  0
BLOCK_RECORD
  5
3F1
330
1
100
AcDbSymbolTableRecord
100
AcDbBlockTableRecord
  2
KLON7
340
0
102
{BLKREFS
331
3FA
102
}
  0
BLOCK_RECORD
  5
3FB
330
1
100
AcDbSymbolTableRecord
100
AcDbBlockTableRecord
  2
KLON8
340
0
102
{BLKREFS
331
41E
102
}
  0
BLOCK_RECORD
  5
41F
330
1
100
AcDbSymbolTableRecord
100
AcDbBlockTableRecord
  2
KLON9
340
0
102
{BLKREFS
331
42C
102
}
  0
BLOCK_RECORD
  5
42E
330
1
100
AcDbSymbolTableRecord
100
AcDbBlockTableRecord
  2
KLON10
340
0
102
{BLKREFS
331
43C
102
}
  0
BLOCK_RECORD
  5
43E
330
1
100
AcDbSymbolTableRecord
100
AcDbBlockTableRecord
  2
KLON11
340
0
102
{BLKREFS
331
447
102
}
  0
BLOCK_RECORD
  5
448
330
1
100
AcDbSymbolTableRecord
100
AcDbBlockTableRecord
  2
KLON12
340
0
102
{BLKREFS
331
451
102
}
  0
BLOCK_RECORD
  5
452
330
1
100
AcDbSymbolTableRecord
100
AcDbBlockTableRecord
  2
KLON13
340
0
102
{BLKREFS
331
45F
102
}
  0
BLOCK_RECORD
  5
460
330
1
100
AcDbSymbolTableRecord
100
AcDbBlockTableRecord
  2
KLON14
340
0
102
{BLKREFS
331
46B
102
}
  0
BLOCK_RECORD
  5
46C
330
1
100
AcDbSymbolTableRecord
100
AcDbBlockTableRecord
  2
KLON15
340
0
102
{BLKREFS
331
484
102
}
  0
BLOCK_RECORD
  5
487
330
1
100
AcDbSymbolTableRecord
100
AcDbBlockTableRecord
  2
KLON16
340
0
102
{BLKREFS
331
496
102
}
  0
BLOCK_RECORD
  5
497
330
1
100
AcDbSymbolTableRecord
100
AcDbBlockTableRecord
  2
KLON17
340
0
102
{BLKREFS
331
4A8
102
}
  0
BLOCK_RECORD
  5
4A9
330
1
100
AcDbSymbolTableRecord
100
AcDbBlockTableRecord
  2
KLON18
340
0
102
{BLKREFS
331
4B1
102
}
  0
BLOCK_RECORD
  5
4B2
330
1
100
AcDbSymbolTableRecord
100
AcDbBlockTableRecord
  2
KLON19
340
0
102
{BLKREFS
331
4BA
102
}
  0
BLOCK_RECORD
  5
4BF
330
1
100
AcDbSymbolTableRecord
100
AcDbBlockTableRecord
  2
*D42
340
0
  0
BLOCK_RECORD
  5
4CC
330
1
100
AcDbSymbolTableRecord
100
AcDbBlockTableRecord
  2
*D43
340
0
  0
BLOCK_RECORD
  5
4D9
330
1
100
AcDbSymbolTableRecord
100
AcDbBlockTableRecord
  2
*D44
340
0
  0
BLOCK_RECORD
  5
4E7
330
1
100
AcDbSymbolTableRecord
100
AcDbBlockTableRecord
  2
*D45
340
0
  0
BLOCK_RECORD
  5
4F4
330
1
100
AcDbSymbolTableRecord
100
AcDbBlockTableRecord
  2
*D46
340
0
  0
BLOCK_RECORD
  5
502
330
1
100
AcDbSymbolTableRecord
100
AcDbBlockTableRecord
  2
*D47
340
0
  0
BLOCK_RECORD
  5
510
330
1
100
AcDbSymbolTableRecord
100
AcDbBlockTableRecord
  2
*D48
340
0
  0
BLOCK_RECORD
  5
521
330
1
100
AcDbSymbolTableRecord
100
AcDbBlockTableRecord
  2
*D49
340
0
  0
ENDTAB
  0
ENDSEC
  0
SECTION
  2
BLOCKS
  0
BLOCK
  5
20
330
1F
100
AcDbEntity
  8
0
100
AcDbBlockBegin
  2
*Model_Space
 70
     0
 71
     0
 10
0.0
 20
0.0
 30
0.0
  3
*Model_Space
  1

  0
ENDBLK
  5
21
330
1F
100
AcDbEntity
  8
0
100
AcDbBlockEnd
  0
BLOCK
  5
1C
330
1B
100
AcDbEntity
 67
     1
  8
0
100
AcDbBlockBegin
  2
*Paper_Space
 70
     0
 71
     0
 10
0.0
 20
0.0
 30
0.0
  3
*Paper_Space
  1

  0
ENDBLK
  5
1D
330
1B
100
AcDbEntity
 67
     1
  8
0
100
AcDbBlockEnd
  0
BLOCK
  5
24
330
23
100
AcDbEntity
  8
0
100
AcDbBlockBegin
  2
*Paper_Space0
 70
     0
 71
     0
 10
0.0
 20
0.0
 30
0.0
  3
*Paper_Space0
  1

  0
ENDBLK
  5
25
330
23
100
AcDbEntity
  8
0
100
AcDbBlockEnd
  0
BLOCK
  5
38
330
37
100
AcDbEntity
  8
0
100
AcDbBlockBegin
  2
KLON1
 70
     0
 71
     0
 10
0.0
 20
0.0
 30
0.0
  3
KLON1
  1

  4
KLON1
  0
LINE
  5
3A
330
37
100
AcDbEntity
  8
LC-001-100-D00-0
 62
     7
370
    15
100
AcDbLine
 10
322.375429
 20
10.33282
 30
0.0
 11
320.447718
 21
11.40222
 31
0.0
  0
LINE
  5
3B
330
37
100
AcDbEntity
  8
LC-001-100-D00-0
 62
     7
370
    15
100
AcDbLine
 10
320.447718
 20
11.40222
 30
0.0
 11
320.181903
 21
11.536629
 31
0.0
  0
ENDBLK
  5
39
330
37
100
AcDbEntity
  8
0
100
AcDbBlockEnd
  0
BLOCK
  5
53
330
52
100
AcDbEntity
  8
0
100
AcDbBlockBegin
  2
POLY1
 70
     0
 71
     0
 10
0.0
 20
0.0
 30
0.0
  3
POLY1
  1

  4
POLY1
  0
LINE
  5
55
330
52
100
AcDbEntity
  8
LC-001-100-D00-0
 62
     7
370
    50
100
AcDbLine
 10
316.181903
 20
19.822941
 30
0.0
 11
316.181903
 21
19.822941
 31
0.0
  0
LINE
  5
56
330
52
100
AcDbEntity
  8
LC-001-100-D00-0
 62
     7
370
    50
100
AcDbLine
 10
316.181903
 20
19.822941
 30
0.0
 11
316.403908
 21
19.782648
 31
0.0
  0
LINE
  5
57
330
52
100
AcDbEntity
  8
LC-001-100-D00-0
 62
     7
370
    50
100
AcDbLine
 10
316.403908
 20
19.782648
 30
0.0
 11
316.403908
 21
19.782648
 31
0.0
  0
LINE
  5
58
330
52
100
AcDbEntity
  8
LC-001-100-D00-0
 62
     7
370
    50
100
AcDbLine
 10
316.403908
 20
19.782648
 30
0.0
 11
316.847918
 21
19.702063
 31
0.0
  0
LINE
  5
59
330
52
100
AcDbEntity
  8
LC-001-100-D00-0
 62
     7
370
    50
100
AcDbLine
 10
316.847918
 20
19.702063
 30
0.0
 11
316.847918
 21
19.702063
 31
0.0
  0
LINE
  5
5A
330
52
100
AcDbEntity
  8
LC-001-100-D00-0
 62
     7
370
    50
100
AcDbLine
 10
316.847918
 20
19.702063
 30
0.0
 11
317.287498
 21
19.402695
 31
0.0
  0
LINE
  5
5B
330
52
100
AcDbEntity
  8
LC-001-100-D00-0
 62
     7
370
    50
100
AcDbLine
 10
317.287498
 20
19.402695
 30
0.0
 11
317.287498
 21
19.402695
 31
0.0
  0
LINE
  5
5C
330
52
100
AcDbEntity
  8
LC-001-100-D00-0
 62
     7
370
    50
100
AcDbLine
 10
317.287498
 20
19.402695
 30
0.0
 11
317.484719
 21
19.189961
 31
0.0
  0
LINE
  5
5D
330
52
100
AcDbEntity
  8
LC-001-100-D00-0
 62
     7
370
    50
100
AcDbLine
 10
317.484719
 20
19.189961
 30
0.0
 11
317.484719
 21
19.189961
 31
0.0
  0
LINE
  5
5E
330
52
100
AcDbEntity
  8
LC-001-100-D00-0
 62
     7
370
    50
100
AcDbLine
 10
317.484719
 20
19.189961
 30
0.0
 11
317.529891
 21
19.141235
 31
0.0
  0
ENDBLK
  5
54
330
52
100
AcDbEntity
  8
0
100
AcDbBlockEnd
  0
BLOCK
  5
61
330
60
100
AcDbEntity
  8
0
100
AcDbBlockBegin
  2
POLY2
 70
     0
 71
     0
 10
0.0
 20
0.0
 30
0.0
  3
POLY2
  1

  4
POLY2
  0
LINE
  5
63
330
60
100
AcDbEntity
  8
LC-001-100-D00-0
 62
     7
370
    50
100
AcDbLine
 10
317.529891
 20
-54.475598
 30
0.0
 11
317.529891
 21
-54.475598
 31
0.0
  0
LINE
  5
64
330
60
100
AcDbEntity
  8
LC-001-100-D00-0
 62
     7
370
    50
100
AcDbLine
 10
317.529891
 20
-54.475598
 30
0.0
 11
317.366956
 21
-54.633365
 31
0.0
  0
LINE
  5
65
330
60
100
AcDbEntity
  8
LC-001-100-D00-0
 62
     7
370
    50
100
AcDbLine
 10
317.366956
 20
-54.633365
 30
0.0
 11
317.366956
 21
-54.633365
 31
0.0
  0
LINE
  5
66
330
60
100
AcDbEntity
  8
LC-001-100-D00-0
 62
     7
370
    50
100
AcDbLine
 10
317.366956
 20
-54.633365
 30
0.0
 11
317.142266
 21
-54.850925
 31
0.0
  0
LINE
  5
67
330
60
100
AcDbEntity
  8
LC-001-100-D00-0
 62
     7
370
    50
100
AcDbLine
 10
317.142266
 20
-54.850925
 30
0.0
 11
317.142266
 21
-54.850925
 31
0.0
  0
LINE
  5
68
330
60
100
AcDbEntity
  8
LC-001-100-D00-0
 62
     7
370
    50
100
AcDbLine
 10
317.142266
 20
-54.850925
 30
0.0
 11
316.859595
 21
-54.978144
 31
0.0
  0
LINE
  5
69
330
60
100
AcDbEntity
  8
LC-001-100-D00-0
 62
     7
370
    50
100
AcDbLine
 10
316.859595
 20
-54.978144
 30
0.0
 11
316.859595
 21
-54.978144
 31
0.0
  0
LINE
  5
6A
330
60
100
AcDbEntity
  8
LC-001-100-D00-0
 62
     7
370
    50
100
AcDbLine
 10
316.859595
 20
-54.978144
 30
0.0
 11
316.781905
 21
-55.013109
 31
0.0
  0
ENDBLK
  5
62
330
60
100
AcDbEntity
  8
0
100
AcDbBlockEnd
  0
BLOCK
  5
74
330
73
100
AcDbEntity
  8
0
100
AcDbBlockBegin
  2
POLY3
 70
     0
 71
     0
 10
0.0
 20
0.0
 30
0.0
  3
POLY3
  1

  4
POLY3
  0
LINE
  5
76
330
73
100
AcDbEntity
  8
LC-001-100-D00-0
 62
     7
370
    50
100
AcDbLine
 10
320.181903
 20
-50.675633
 30
0.0
 11
320.181903
 21
-50.675633
 31
0.0
  0
LINE
  5
77
330
73
100
AcDbEntity
  8
LC-001-100-D00-0
 62
     7
370
    50
100
AcDbLine
 10
320.181903
 20
-50.675633
 30
0.0
 11
320.159904
 21
-50.900351
 31
0.0
  0
LINE
  5
78
330
73
100
AcDbEntity
  8
LC-001-100-D00-0
 62
     7
370
    50
100
AcDbLine
 10
320.159904
 20
-50.900351
 30
0.0
 11
320.159904
 21
-50.900351
 31
0.0
  0
LINE
  5
79
330
73
100
AcDbEntity
  8
LC-001-100-D00-0
 62
     7
370
    50
100
AcDbLine
 10
320.159904
 20
-50.900351
 30
0.0
 11
320.115905
 21
-51.349788
 31
0.0
  0
LINE
  5
7A
330
73
100
AcDbEntity
  8
LC-001-100-D00-0
 62
     7
370
    50
100
AcDbLine
 10
320.115905
 20
-51.349788
 30
0.0
 11
320.115905
 21
-51.349788
 31
0.0
  0
LINE
  5
7B
330
73
100
AcDbEntity
  8
LC-001-100-D00-0
 62
     7
370
    50
100
AcDbLine
 10
320.115905
 20
-51.349788
 30
0.0
 11
319.870912
 21
-51.775412
 31
0.0
  0
LINE
  5
7C
330
73
100
AcDbEntity
  8
LC-001-100-D00-0
 62
     7
370
    50
100
AcDbLine
 10
319.870912
 20
-51.775412
 30
0.0
 11
319.870912
 21
-51.775412
 31
0.0
  0
LINE
  5
7D
330
73
100
AcDbEntity
  8
LC-001-100-D00-0
 62
     7
370
    50
100
AcDbLine
 10
319.870912
 20
-51.775412
 30
0.0
 11
319.709039
 21
-51.966943
 31
0.0
  0
LINE
  5
7E
330
73
100
AcDbEntity
  8
LC-001-100-D00-0
 62
     7
370
    50
100
AcDbLine
 10
319.709039
 20
-51.966943
 30
0.0
 11
319.709039
 21
-51.966943
 31
0.0
  0
LINE
  5
7F
330
73
100
AcDbEntity
  8
LC-001-100-D00-0
 62
     7
370
    50
100
AcDbLine
 10
319.709039
 20
-51.966943
 30
0.0
 11
319.691588
 21
-51.987591
 31
0.0
  0
ENDBLK
  5
75
330
73
100
AcDbEntity
  8
0
100
AcDbBlockEnd
  0
BLOCK
  5
82
330
81
100
AcDbEntity
  8
0
100
AcDbBlockBegin
  2
POLY4
 70
     0
 71
     0
 10
0.0
 20
0.0
 30
0.0
  3
POLY4
  1

  4
POLY4
  0
LINE
  5
84
330
81
100
AcDbEntity
  8
LC-001-100-D00-0
 62
     7
370
    50
100
AcDbLine
 10
319.691588
 20
16.653229
 30
0.0
 11
319.691588
 21
16.653229
 31
0.0
  0
LINE
  5
85
330
81
100
AcDbEntity
  8
LC-001-100-D00-0
 62
     7
370
    50
100
AcDbLine
 10
319.691588
 20
16.653229
 30
0.0
 11
319.822357
 21
16.469172
 31
0.0
  0
LINE
  5
86
330
81
100
AcDbEntity
  8
LC-001-100-D00-0
 62
     7
370
    50
100
AcDbLine
 10
319.822357
 20
16.469172
 30
0.0
 11
319.822357
 21
16.469172
 31
0.0
  0
LINE
  5
87
330
81
100
AcDbEntity
  8
LC-001-100-D00-0
 62
     7
370
    50
100
AcDbLine
 10
319.822357
 20
16.469172
 30
0.0
 11
320.083895
 21
16.101058
 31
0.0
  0
LINE
  5
88
330
81
100
AcDbEntity
  8
LC-001-100-D00-0
 62
     7
370
    50
100
AcDbLine
 10
320.083895
 20
16.101058
 30
0.0
 11
320.083895
 21
16.101058
 31
0.0
  0
LINE
  5
89
330
81
100
AcDbEntity
  8
LC-001-100-D00-0
 62
     7
370
    50
100
AcDbLine
 10
320.083895
 20
16.101058
 30
0.0
 11
320.178114
 21
15.619084
 31
0.0
  0
LINE
  5
8A
330
81
100
AcDbEntity
  8
LC-001-100-D00-0
 62
     7
370
    50
100
AcDbLine
 10
320.178114
 20
15.619084
 30
0.0
 11
320.178114
 21
15.619084
 31
0.0
  0
LINE
  5
8B
330
81
100
AcDbEntity
  8
LC-001-100-D00-0
 62
     7
370
    50
100
AcDbLine
 10
320.178114
 20
15.619084
 30
0.0
 11
320.181534
 21
15.368324
 31
0.0
  0
LINE
  5
8C
330
81
100
AcDbEntity
  8
LC-001-100-D00-0
 62
     7
370
    50
100
AcDbLine
 10
320.181534
 20
15.368324
 30
0.0
 11
320.181534
 21
15.368324
 31
0.0
  0
LINE
  5
8D
330
81
100
AcDbEntity
  8
LC-001-100-D00-0
 62
     7
370
    50
100
AcDbLine
 10
320.181534
 20
15.368324
 30
0.0
 11
320.181903
 21
15.341271
 31
0.0
  0
ENDBLK
  5
83
330
81
100
AcDbEntity
  8
0
100
AcDbBlockEnd
  0
BLOCK
  5
99
330
98
100
AcDbEntity
  8
0
100
AcDbBlockBegin
  2
POLY5
 70
     0
 71
     0
 10
0.0
 20
0.0
 30
0.0
  3
POLY5
  1

  4
POLY5
  0
LINE
  5
9B
330
98
100
AcDbEntity
  8
LC-001-100-D00-0
 62
     7
370
    50
100
AcDbLine
 10
308.567394
 20
-61.965532
 30
0.0
 11
308.567394
 21
-61.965532
 31
0.0
  0
LINE
  5
9C
330
98
100
AcDbEntity
  8
LC-001-100-D00-0
 62
     7
370
    50
100
AcDbLine
 10
308.567394
 20
-61.965532
 30
0.0
 11
308.585034
 21
-61.977056
 31
0.0
  0
LINE
  5
9D
330
98
100
AcDbEntity
  8
LC-001-100-D00-0
 62
     7
370
    50
100
AcDbLine
 10
308.585034
 20
-61.977056
 30
0.0
 11
308.585034
 21
-61.977056
 31
0.0
  0
LINE
  5
9E
330
98
100
AcDbEntity
  8
LC-001-100-D00-0
 62
     7
370
    50
100
AcDbLine
 10
308.585034
 20
-61.977056
 30
0.0
 11
308.649512
 21
-62.019179
 31
0.0
  0
LINE
  5
9F
330
98
100
AcDbEntity
  8
LC-001-100-D00-0
 62
     7
370
    50
100
AcDbLine
 10
308.649512
 20
-62.019179
 30
0.0
 11
308.649512
 21
-62.019179
 31
0.0
  0
LINE
  5
A0
330
98
100
AcDbEntity
  8
LC-001-100-D00-0
 62
     7
370
    50
100
AcDbLine
 10
308.649512
 20
-62.019179
 30
0.0
 11
308.719271
 21
-62.064759
 31
0.0
  0
LINE
  5
A1
330
98
100
AcDbEntity
  8
LC-001-100-D00-0
 62
     7
370
    50
100
AcDbLine
 10
308.719271
 20
-62.064759
 30
0.0
 11
308.719271
 21
-62.064759
 31
0.0
  0
LINE
  5
A2
330
98
100
AcDbEntity
  8
LC-001-100-D00-0
 62
     7
370
    50
100
AcDbLine
 10
308.719271
 20
-62.064759
 30
0.0
 11
308.771214
 21
-62.098695
 31
0.0
  0
LINE
  5
A3
330
98
100
AcDbEntity
  8
LC-001-100-D00-0
 62
     7
370
    50
100
AcDbLine
 10
308.771214
 20
-62.098695
 30
0.0
 11
308.771214
 21
-62.098695
 31
0.0
  0
LINE
  5
A4
330
98
100
AcDbEntity
  8
LC-001-100-D00-0
 62
     7
370
    50
100
AcDbLine
 10
308.771214
 20
-62.098695
 30
0.0
 11
308.779944
 21
-62.1044
 31
0.0
  0
ENDBLK
  5
9A
330
98
100
AcDbEntity
  8
0
100
AcDbBlockEnd
  0
BLOCK
  5
A8
330
A7
100
AcDbEntity
  8
0
100
AcDbBlockBegin
  2
POLY6
 70
     0
 71
     0
 10
0.0
 20
0.0
 30
0.0
  3
POLY6
  1

  4
POLY6
  0
LINE
  5
AA
330
A7
100
AcDbEntity
  8
LC-001-100-D00-0
 62
     7
370
    50
100
AcDbLine
 10
308.203635
 20
-62.225242
 30
0.0
 11
308.203635
 21
-62.225242
 31
0.0
  0
LINE
  5
AB
330
A7
100
AcDbEntity
  8
LC-001-100-D00-0
 62
     7
370
    50
100
AcDbLine
 10
308.203635
 20
-62.225242
 30
0.0
 11
308.20934
 21
-62.216512
 31
0.0
  0
LINE
  5
AC
330
A7
100
AcDbEntity
  8
LC-001-100-D00-0
 62
     7
370
    50
100
AcDbLine
 10
308.20934
 20
-62.216512
 30
0.0
 11
308.20934
 21
-62.216512
 31
0.0
  0
LINE
  5
AD
330
A7
100
AcDbEntity
  8
LC-001-100-D00-0
 62
     7
370
    50
100
AcDbLine
 10
308.20934
 20
-62.216512
 30
0.0
 11
308.24328
 21
-62.164569
 31
0.0
  0
LINE
  5
AE
330
A7
100
AcDbEntity
  8
LC-001-100-D00-0
 62
     7
370
    50
100
AcDbLine
 10
308.24328
 20
-62.164569
 30
0.0
 11
308.24328
 21
-62.164569
 31
0.0
  0
LINE
  5
AF
330
A7
100
AcDbEntity
  8
LC-001-100-D00-0
 62
     7
370
    50
100
AcDbLine
 10
308.24328
 20
-62.164569
 30
0.0
 11
308.288848
 21
-62.094804
 31
0.0
  0
LINE
  5
B0
330
A7
100
AcDbEntity
  8
LC-001-100-D00-0
 62
     7
370
    50
100
AcDbLine
 10
308.288848
 20
-62.094804
 30
0.0
 11
308.288848
 21
-62.094804
 31
0.0
  0
LINE
  5
B1
330
A7
100
AcDbEntity
  8
LC-001-100-D00-0
 62
     7
370
    50
100
AcDbLine
 10
308.288848
 20
-62.094804
 30
0.0
 11
308.33098
 21
-62.030326
 31
0.0
  0
LINE
  5
B2
330
A7
100
AcDbEntity
  8
LC-001-100-D00-0
 62
     7
370
    50
100
AcDbLine
 10
308.33098
 20
-62.030326
 30
0.0
 11
308.33098
 21
-62.030326
 31
0.0
  0
LINE
  5
B3
330
A7
100
AcDbEntity
  8
LC-001-100-D00-0
 62
     7
370
    50
100
AcDbLine
 10
308.33098
 20
-62.030326
 30
0.0
 11
308.342506
 21
-62.012687
 31
0.0
  0
ENDBLK
  5
A9
330
A7
100
AcDbEntity
  8
0
100
AcDbBlockEnd
  0
BLOCK
  5
B7
330
B6
100
AcDbEntity
  8
0
100
AcDbBlockBegin
  2
POLY7
 70
     0
 71
     0
 10
0.0
 20
0.0
 30
0.0
  3
POLY7
  1

  4
POLY7
  0
LINE
  5
B9
330
B6
100
AcDbEntity
  8
LC-001-100-D00-0
 62
     7
370
    50
100
AcDbLine
 10
307.220508
 20
-61.085579
 30
0.0
 11
307.220508
 21
-61.085579
 31
0.0
  0
LINE
  5
BA
330
B6
100
AcDbEntity
  8
LC-001-100-D00-0
 62
     7
370
    50
100
AcDbLine
 10
307.220508
 20
-61.085579
 30
0.0
 11
307.229239
 21
-61.091284
 31
0.0
  0
LINE
  5
BB
330
B6
100
AcDbEntity
  8
LC-001-100-D00-0
 62
     7
370
    50
100
AcDbLine
 10
307.229239
 20
-61.091284
 30
0.0
 11
307.229239
 21
-61.091284
 31
0.0
  0
LINE
  5
BC
330
B6
100
AcDbEntity
  8
LC-001-100-D00-0
 62
     7
370
    50
100
AcDbLine
 10
307.229239
 20
-61.091284
 30
0.0
 11
307.281181
 21
-61.12522
 31
0.0
  0
LINE
  5
BD
330
B6
100
AcDbEntity
  8
LC-001-100-D00-0
 62
     7
370
    50
100
AcDbLine
 10
307.281181
 20
-61.12522
 30
0.0
 11
307.281181
 21
-61.12522
 31
0.0
  0
LINE
  5
BE
330
B6
100
AcDbEntity
  8
LC-001-100-D00-0
 62
     7
370
    50
100
AcDbLine
 10
307.281181
 20
-61.12522
 30
0.0
 11
307.350949
 21
-61.1708
 31
0.0
  0
LINE
  5
BF
330
B6
100
AcDbEntity
  8
LC-001-100-D00-0
 62
     7
370
    50
100
AcDbLine
 10
307.350949
 20
-61.1708
 30
0.0
 11
307.350949
 21
-61.1708
 31
0.0
  0
LINE
  5
C0
330
B6
100
AcDbEntity
  8
LC-001-100-D00-0
 62
     7
370
    50
100
AcDbLine
 10
307.350949
 20
-61.1708
 30
0.0
 11
307.415426
 21
-61.212923
 31
0.0
  0
LINE
  5
C1
330
B6
100
AcDbEntity
  8
LC-001-100-D00-0
 62
     7
370
    50
100
AcDbLine
 10
307.415426
 20
-61.212923
 30
0.0
 11
307.415426
 21
-61.212923
 31
0.0
  0
LINE
  5
C2
330
B6
100
AcDbEntity
  8
LC-001-100-D00-0
 62
     7
370
    50
100
AcDbLine
 10
307.415426
 20
-61.212923
 30
0.0
 11
307.433066
 21
-61.224447
 31
0.0
  0
ENDBLK
  5
B8
330
B6
100
AcDbEntity
  8
0
100
AcDbBlockEnd
  0
BLOCK
  5
C6
330
C5
100
AcDbEntity
  8
0
100
AcDbBlockBegin
  2
POLY8
 70
     0
 71
     0
 10
0.0
 20
0.0
 30
0.0
  3
POLY8
  1

  4
POLY8
  0
LINE
  5
C8
330
C5
100
AcDbEntity
  8
LC-001-100-D00-0
 62
     7
370
    50
100
AcDbLine
 10
307.48022
 20
-61.449335
 30
0.0
 11
307.48022
 21
-61.449335
 31
0.0
  0
LINE
  5
C9
330
C5
100
AcDbEntity
  8
LC-001-100-D00-0
 62
     7
370
    50
100
AcDbLine
 10
307.48022
 20
-61.449335
 30
0.0
 11
307.468697
 21
-61.466974
 31
0.0
  0
LINE
  5
CA
330
C5
100
AcDbEntity
  8
LC-001-100-D00-0
 62
     7
370
    50
100
AcDbLine
 10
307.468697
 20
-61.466974
 30
0.0
 11
307.468697
 21
-61.466974
 31
0.0
  0
LINE
  5
CB
330
C5
100
AcDbEntity
  8
LC-001-100-D00-0
 62
     7
370
    50
100
AcDbLine
 10
307.468697
 20
-61.466974
 30
0.0
 11
307.426577
 21
-61.531449
 31
0.0
  0
LINE
  5
CC
330
C5
100
AcDbEntity
  8
LC-001-100-D00-0
 62
     7
370
    50
100
AcDbLine
 10
307.426577
 20
-61.531449
 30
0.0
 11
307.426577
 21
-61.531449
 31
0.0
  0
LINE
  5
CD
330
C5
100
AcDbEntity
  8
LC-001-100-D00-0
 62
     7
370
    50
100
AcDbLine
 10
307.426577
 20
-61.531449
 30
0.0
 11
307.380994
 21
-61.601221
 31
0.0
  0
LINE
  5
CE
330
C5
100
AcDbEntity
  8
LC-001-100-D00-0
 62
     7
370
    50
100
AcDbLine
 10
307.380994
 20
-61.601221
 30
0.0
 11
307.380994
 21
-61.601221
 31
0.0
  0
LINE
  5
CF
330
C5
100
AcDbEntity
  8
LC-001-100-D00-0
 62
     7
370
    50
100
AcDbLine
 10
307.380994
 20
-61.601221
 30
0.0
 11
307.347054
 21
-61.653159
 31
0.0
  0
LINE
  5
D0
330
C5
100
AcDbEntity
  8
LC-001-100-D00-0
 62
     7
370
    50
100
AcDbLine
 10
307.347054
 20
-61.653159
 30
0.0
 11
307.347054
 21
-61.653159
 31
0.0
  0
LINE
  5
D1
330
C5
100
AcDbEntity
  8
LC-001-100-D00-0
 62
     7
370
    50
100
AcDbLine
 10
307.347054
 20
-61.653159
 30
0.0
 11
307.341349
 21
-61.661889
 31
0.0
  0
ENDBLK
  5
C7
330
C5
100
AcDbEntity
  8
0
100
AcDbBlockEnd
  0
BLOCK
  5
D7
330
D6
100
AcDbEntity
  8
0
100
AcDbBlockBegin
  2
POLY9
 70
     0
 71
     0
 10
0.0
 20
0.0
 30
0.0
  3
POLY9
  1

  4
POLY9
  0
LINE
  5
D9
330
D6
100
AcDbEntity
  8
LC-001-100-D00-0
 62
     7
370
    50
100
AcDbLine
 10
309.343298
 20
-61.242116
 30
0.0
 11
309.343298
 21
-61.242116
 31
0.0
  0
LINE
  5
DA
330
D6
100
AcDbEntity
  8
LC-001-100-D00-0
 62
     7
370
    50
100
AcDbLine
 10
309.343298
 20
-61.242116
 30
0.0
 11
309.334567
 21
-61.236412
 31
0.0
  0
LINE
  5
DB
330
D6
100
AcDbEntity
  8
LC-001-100-D00-0
 62
     7
370
    50
100
AcDbLine
 10
309.334567
 20
-61.236412
 30
0.0
 11
309.334567
 21
-61.236412
 31
0.0
  0
LINE
  5
DC
330
D6
100
AcDbEntity
  8
LC-001-100-D00-0
 62
     7
370
    50
100
AcDbLine
 10
309.334567
 20
-61.236412
 30
0.0
 11
309.282624
 21
-61.202476
 31
0.0
  0
LINE
  5
DD
330
D6
100
AcDbEntity
  8
LC-001-100-D00-0
 62
     7
370
    50
100
AcDbLine
 10
309.282624
 20
-61.202476
 30
0.0
 11
309.282624
 21
-61.202476
 31
0.0
  0
LINE
  5
DE
330
D6
100
AcDbEntity
  8
LC-001-100-D00-0
 62
     7
370
    50
100
AcDbLine
 10
309.282624
 20
-61.202476
 30
0.0
 11
309.212866
 21
-61.156896
 31
0.0
  0
LINE
  5
DF
330
D6
100
AcDbEntity
  8
LC-001-100-D00-0
 62
     7
370
    50
100
AcDbLine
 10
309.212866
 20
-61.156896
 30
0.0
 11
309.212866
 21
-61.156896
 31
0.0
  0
LINE
  5
E0
330
D6
100
AcDbEntity
  8
LC-001-100-D00-0
 62
     7
370
    50
100
AcDbLine
 10
309.212866
 20
-61.156896
 30
0.0
 11
309.148387
 21
-61.114772
 31
0.0
  0
LINE
  5
E1
330
D6
100
AcDbEntity
  8
LC-001-100-D00-0
 62
     7
370
    50
100
AcDbLine
 10
309.148387
 20
-61.114772
 30
0.0
 11
309.148387
 21
-61.114772
 31
0.0
  0
LINE
  5
E2
330
D6
100
AcDbEntity
  8
LC-001-100-D00-0
 62
     7
370
    50
100
AcDbLine
 10
309.148387
 20
-61.114772
 30
0.0
 11
309.130748
 21
-61.103248
 31
0.0
  0
ENDBLK
  5
D8
330
D6
100
AcDbEntity
  8
0
100
AcDbBlockEnd
  0
BLOCK
  5
E6
330
E5
100
AcDbEntity
  8
0
100
AcDbBlockBegin
  2
POLY10
 70
     0
 71
     0
 10
0.0
 20
0.0
 30
0.0
  3
POLY10
  1

  4
POLY10
  0
LINE
  5
E8
330
E5
100
AcDbEntity
  8
LC-001-100-D00-0
 62
     7
370
    50
100
AcDbLine
 10
309.083593
 20
-60.87836
 30
0.0
 11
309.083593
 21
-60.87836
 31
0.0
  0
LINE
  5
E9
330
E5
100
AcDbEntity
  8
LC-001-100-D00-0
 62
     7
370
    50
100
AcDbLine
 10
309.083593
 20
-60.87836
 30
0.0
 11
309.095116
 21
-60.860721
 31
0.0
  0
LINE
  5
EA
330
E5
100
AcDbEntity
  8
LC-001-100-D00-0
 62
     7
370
    50
100
AcDbLine
 10
309.095116
 20
-60.860721
 30
0.0
 11
309.095116
 21
-60.860721
 31
0.0
  0
LINE
  5
EB
330
E5
100
AcDbEntity
  8
LC-001-100-D00-0
 62
     7
370
    50
100
AcDbLine
 10
309.095116
 20
-60.860721
 30
0.0
 11
309.137238
 21
-60.796243
 31
0.0
  0
LINE
  5
EC
330
E5
100
AcDbEntity
  8
LC-001-100-D00-0
 62
     7
370
    50
100
AcDbLine
 10
309.137238
 20
-60.796243
 30
0.0
 11
309.137238
 21
-60.796243
 31
0.0
  0
LINE
  5
ED
330
E5
100
AcDbEntity
  8
LC-001-100-D00-0
 62
     7
370
    50
100
AcDbLine
 10
309.137238
 20
-60.796243
 30
0.0
 11
309.182812
 21
-60.726478
 31
0.0
  0
LINE
  5
EE
330
E5
100
AcDbEntity
  8
LC-001-100-D00-0
 62
     7
370
    50
100
AcDbLine
 10
309.182812
 20
-60.726478
 30
0.0
 11
309.182812
 21
-60.726478
 31
0.0
  0
LINE
  5
EF
330
E5
100
AcDbEntity
  8
LC-001-100-D00-0
 62
     7
370
    50
100
AcDbLine
 10
309.182812
 20
-60.726478
 30
0.0
 11
309.216752
 21
-60.674535
 31
0.0
  0
LINE
  5
F0
330
E5
100
AcDbEntity
  8
LC-001-100-D00-0
 62
     7
370
    50
100
AcDbLine
 10
309.216752
 20
-60.674535
 30
0.0
 11
309.216752
 21
-60.674535
 31
0.0
  0
LINE
  5
F1
330
E5
100
AcDbEntity
  8
LC-001-100-D00-0
 62
     7
370
    50
100
AcDbLine
 10
309.216752
 20
-60.674535
 30
0.0
 11
309.222457
 21
-60.665804
 31
0.0
  0
ENDBLK
  5
E7
330
E5
100
AcDbEntity
  8
0
100
AcDbBlockEnd
  0
BLOCK
  5
FB
330
FA
100
AcDbEntity
  8
0
100
AcDbBlockBegin
  2
POLY11
 70
     0
 71
     0
 10
0.0
 20
0.0
 30
0.0
  3
POLY11
  1

  4
POLY11
  0
LINE
  5
FD
330
FA
100
AcDbEntity
  8
LC-001-100-D00-0
 62
     7
370
    50
100
AcDbLine
 10
308.360171
 20
-60.102453
 30
0.0
 11
308.360171
 21
-60.102453
 31
0.0
  0
LINE
  5
FE
330
FA
100
AcDbEntity
  8
LC-001-100-D00-0
 62
     7
370
    50
100
AcDbLine
 10
308.360171
 20
-60.102453
 30
0.0
 11
308.354469
 21
-60.111183
 31
0.0
  0
LINE
  5
FF
330
FA
100
AcDbEntity
  8
LC-001-100-D00-0
 62
     7
370
    50
100
AcDbLine
 10
308.354469
 20
-60.111183
 30
0.0
 11
308.354469
 21
-60.111183
 31
0.0
  0
LINE
  5
100
330
FA
100
AcDbEntity
  8
LC-001-100-D00-0
 62
     7
370
    50
100
AcDbLine
 10
308.354469
 20
-60.111183
 30
0.0
 11
308.320546
 21
-60.163124
 31
0.0
  0
LINE
  5
101
330
FA
100
AcDbEntity
  8
LC-001-100-D00-0
 62
     7
370
    50
100
AcDbLine
 10
308.320546
 20
-60.163124
 30
0.0
 11
308.320546
 21
-60.163124
 31
0.0
  0
LINE
  5
102
330
FA
100
AcDbEntity
  8
LC-001-100-D00-0
 62
     7
370
    50
100
AcDbLine
 10
308.320546
 20
-60.163124
 30
0.0
 11
308.27495
 21
-60.232892
 31
0.0
  0
LINE
  5
103
330
FA
100
AcDbEntity
  8
LC-001-100-D00-0
 62
     7
370
    50
100
AcDbLine
 10
308.27495
 20
-60.232892
 30
0.0
 11
308.27495
 21
-60.232892
 31
0.0
  0
LINE
  5
104
330
FA
100
AcDbEntity
  8
LC-001-100-D00-0
 62
     7
370
    50
100
AcDbLine
 10
308.27495
 20
-60.232892
 30
0.0
 11
308.23283
 21
-60.297369
 31
0.0
  0
LINE
  5
105
330
FA
100
AcDbEntity
  8
LC-001-100-D00-0
 62
     7
370
    50
100
AcDbLine
 10
308.23283
 20
-60.297369
 30
0.0
 11
308.23283
 21
-60.297369
 31
0.0
  0
LINE
  5
106
330
FA
100
AcDbEntity
  8
LC-001-100-D00-0
 62
     7
370
    50
100
AcDbLine
 10
308.23283
 20
-60.297369
 30
0.0
 11
308.221307
 21
-60.315009
 31
0.0
  0
ENDBLK
  5
FC
330
FA
100
AcDbEntity
  8
0
100
AcDbBlockEnd
  0
BLOCK
  5
10A
330
109
100
AcDbEntity
  8
0
100
AcDbBlockBegin
  2
POLY12
 70
     0
 71
     0
 10
0.0
 20
0.0
 30
0.0
  3
POLY12
  1

  4
POLY12
  0
LINE
  5
10C
330
109
100
AcDbEntity
  8
LC-001-100-D00-0
 62
     7
370
    50
100
AcDbLine
 10
307.996419
 20
-60.362163
 30
0.0
 11
307.996419
 21
-60.362163
 31
0.0
  0
LINE
  5
10D
330
109
100
AcDbEntity
  8
LC-001-100-D00-0
 62
     7
370
    50
100
AcDbLine
 10
307.996419
 20
-60.362163
 30
0.0
 11
307.97878
 21
-60.350639
 31
0.0
  0
LINE
  5
10E
330
109
100
AcDbEntity
  8
LC-001-100-D00-0
 62
     7
370
    50
100
AcDbLine
 10
307.97878
 20
-60.350639
 30
0.0
 11
307.97878
 21
-60.350639
 31
0.0
  0
LINE
  5
10F
330
109
100
AcDbEntity
  8
LC-001-100-D00-0
 62
     7
370
    50
100
AcDbLine
 10
307.97878
 20
-60.350639
 30
0.0
 11
307.914302
 21
-60.308513
 31
0.0
  0
LINE
  5
110
330
109
100
AcDbEntity
  8
LC-001-100-D00-0
 62
     7
370
    50
100
AcDbLine
 10
307.914302
 20
-60.308513
 30
0.0
 11
307.914302
 21
-60.308513
 31
0.0
  0
LINE
  5
111
330
109
100
AcDbEntity
  8
LC-001-100-D00-0
 62
     7
370
    50
100
AcDbLine
 10
307.914302
 20
-60.308513
 30
0.0
 11
307.844535
 21
-60.262935
 31
0.0
  0
LINE
  5
112
330
109
100
AcDbEntity
  8
LC-001-100-D00-0
 62
     7
370
    50
100
AcDbLine
 10
307.844535
 20
-60.262935
 30
0.0
 11
307.844535
 21
-60.262935
 31
0.0
  0
LINE
  5
113
330
109
100
AcDbEntity
  8
LC-001-100-D00-0
 62
     7
370
    50
100
AcDbLine
 10
307.844535
 20
-60.262935
 30
0.0
 11
307.792592
 21
-60.228999
 31
0.0
  0
LINE
  5
114
330
109
100
AcDbEntity
  8
LC-001-100-D00-0
 62
     7
370
    50
100
AcDbLine
 10
307.792592
 20
-60.228999
 30
0.0
 11
307.792592
 21
-60.228999
 31
0.0
  0
LINE
  5
115
330
109
100
AcDbEntity
  8
LC-001-100-D00-0
 62
     7
370
    50
100
AcDbLine
 10
307.792592
 20
-60.228999
 30
0.0
 11
307.783861
 21
-60.223295
 31
0.0
  0
ENDBLK
  5
10B
330
109
100
AcDbEntity
  8
0
100
AcDbBlockEnd
  0
BLOCK
  5
194
330
193
100
AcDbEntity
  8
0
100
AcDbBlockBegin
  2
KLON2
 70
     0
 71
     0
 10
0.0
 20
0.0
 30
0.0
  3
KLON2
  1

  4
KLON2
  0
LINE
  5
196
330
193
100
AcDbEntity
  8
LC-001-100-D00-0
 62
     7
370
    15
100
AcDbLine
 10
295.810972
 20
-25.405144
 30
0.0
 11
295.925353
 21
-23.472584
 31
0.0
  0
LINE
  5
197
330
193
100
AcDbEntity
  8
LC-001-100-D00-0
 62
     7
370
    15
100
AcDbLine
 10
295.925353
 20
-23.472584
 30
0.0
 11
295.957138
 21
-22.807676
 31
0.0
  0
ENDBLK
  5
195
330
193
100
AcDbEntity
  8
0
100
AcDbBlockEnd
  0
BLOCK
  5
19A
330
199
100
AcDbEntity
  8
0
100
AcDbBlockBegin
  2
KLON3
 70
     0
 71
     0
 10
0.0
 20
0.0
 30
0.0
  3
KLON3
  1

  4
KLON3
  0
LINE
  5
19C
330
199
100
AcDbEntity
  8
LC-001-100-D00-0
 62
     7
370
    15
100
AcDbLine
 10
295.957138
 20
-12.526687
 30
0.0
 11
295.925353
 21
-11.861778
 31
0.0
  0
LINE
  5
19D
330
199
100
AcDbEntity
  8
LC-001-100-D00-0
 62
     7
370
    15
100
AcDbLine
 10
295.925353
 20
-11.861778
 30
0.0
 11
295.810972
 21
-9.929217
 31
0.0
  0
ENDBLK
  5
19B
330
199
100
AcDbEntity
  8
0
100
AcDbBlockEnd
  0
BLOCK
  5
1A0
330
19F
100
AcDbEntity
  8
0
100
AcDbBlockBegin
  2
KLON4
 70
     0
 71
     0
 10
0.0
 20
0.0
 30
0.0
  3
KLON4
  1

  4
KLON4
  0
LINE
  5
1A2
330
19F
100
AcDbEntity
  8
LC-001-100-D00-0
 62
     7
370
    15
100
AcDbLine
 10
307.812405
 20
-9.117145
 30
0.0
 11
307.938781
 21
-11.252518
 31
0.0
  0
LINE
  5
1A3
330
19F
100
AcDbEntity
  8
LC-001-100-D00-0
 62
     7
370
    15
100
AcDbLine
 10
307.938781
 20
-11.252518
 30
0.0
 11
307.99697
 21
-12.526687
 31
0.0
  0
ENDBLK
  5
1A1
330
19F
100
AcDbEntity
  8
0
100
AcDbBlockEnd
  0
BLOCK
  5
1A6
330
1A5
100
AcDbEntity
  8
0
100
AcDbBlockBegin
  2
KLON5
 70
     0
 71
     0
 10
0.0
 20
0.0
 30
0.0
  3
KLON5
  1

  4
KLON5
  0
LINE
  5
1A8
330
1A5
100
AcDbEntity
  8
LC-001-100-D00-0
 62
     7
370
    15
100
AcDbLine
 10
307.99697
 20
-22.807676
 30
0.0
 11
307.938781
 21
-24.081844
 31
0.0
  0
LINE
  5
1A9
330
1A5
100
AcDbEntity
  8
LC-001-100-D00-0
 62
     7
370
    15
100
AcDbLine
 10
307.938781
 20
-24.081844
 30
0.0
 11
307.812405
 21
-26.217218
 31
0.0
  0
ENDBLK
  5
1A7
330
1A5
100
AcDbEntity
  8
0
100
AcDbBlockEnd
  0
BLOCK
  5
1CC
330
1CB
100
AcDbEntity
  8
0
100
AcDbBlockBegin
  2
POLY13
 70
     0
 71
     0
 10
0.0
 20
0.0
 30
0.0
  3
POLY13
  1

  4
POLY13
  0
LINE
  5
1CE
330
1CB
100
AcDbEntity
  8
LC-001-100-D00-0
 62
     7
370
    50
100
AcDbLine
 10
178.399906
 20
-133.828349
 30
0.0
 11
178.399906
 21
-133.828349
 31
0.0
  0
LINE
  5
1CF
330
1CB
100
AcDbEntity
  8
LC-001-100-D00-0
 62
     7
370
    50
100
AcDbLine
 10
178.399906
 20
-133.828349
 30
0.0
 11
178.915907
 21
-133.531203
 31
0.0
  0
LINE
  5
1D0
330
1CB
100
AcDbEntity
  8
LC-001-100-D00-0
 62
     7
370
    50
100
AcDbLine
 10
178.915907
 20
-133.531203
 30
0.0
 11
178.915907
 21
-133.531203
 31
0.0
  0
LINE
  5
1D1
330
1CB
100
AcDbEntity
  8
LC-001-100-D00-0
 62
     7
370
    50
100
AcDbLine
 10
178.915907
 20
-133.531203
 30
0.0
 11
179.948021
 21
-132.936848
 31
0.0
  0
LINE
  5
1D2
330
1CB
100
AcDbEntity
  8
LC-001-100-D00-0
 62
     7
370
    50
100
AcDbLine
 10
179.948021
 20
-132.936848
 30
0.0
 11
179.948021
 21
-132.936848
 31
0.0
  0
LINE
  5
1D3
330
1CB
100
AcDbEntity
  8
LC-001-100-D00-0
 62
     7
370
    50
100
AcDbLine
 10
179.948021
 20
-132.936848
 30
0.0
 11
181.751646
 21
-132.76628
 31
0.0
  0
LINE
  5
1D4
330
1CB
100
AcDbEntity
  8
LC-001-100-D00-0
 62
     7
370
    50
100
AcDbLine
 10
181.751646
 20
-132.76628
 30
0.0
 11
181.751646
 21
-132.76628
 31
0.0
  0
LINE
  5
1D5
330
1CB
100
AcDbEntity
  8
LC-001-100-D00-0
 62
     7
370
    50
100
AcDbLine
 10
181.751646
 20
-132.76628
 30
0.0
 11
183.326036
 21
-133.098765
 31
0.0
  0
LINE
  5
1D6
330
1CB
100
AcDbEntity
  8
LC-001-100-D00-0
 62
     7
370
    50
100
AcDbLine
 10
183.326036
 20
-133.098765
 30
0.0
 11
183.326036
 21
-133.098765
 31
0.0
  0
LINE
  5
1D7
330
1CB
100
AcDbEntity
  8
LC-001-100-D00-0
 62
     7
370
    50
100
AcDbLine
 10
183.326036
 20
-133.098765
 30
0.0
 11
184.167804
 21
-133.6184
 31
0.0
  0
LINE
  5
1D8
330
1CB
100
AcDbEntity
  8
LC-001-100-D00-0
 62
     7
370
    50
100
AcDbLine
 10
184.167804
 20
-133.6184
 30
0.0
 11
184.167804
 21
-133.6184
 31
0.0
  0
LINE
  5
1D9
330
1CB
100
AcDbEntity
  8
LC-001-100-D00-0
 62
     7
370
    50
100
AcDbLine
 10
184.167804
 20
-133.6184
 30
0.0
 11
184.507903
 21
-133.828349
 31
0.0
  0
ENDBLK
  5
1CD
330
1CB
100
AcDbEntity
  8
0
100
AcDbBlockEnd
  0
BLOCK
  5
1DE
330
1DD
100
AcDbEntity
  8
0
100
AcDbBlockBegin
  2
POLY14
 70
     0
 71
     0
 10
0.0
 20
0.0
 30
0.0
  3
POLY14
  1

  4
POLY14
  0
LINE
  5
1E0
330
1DD
100
AcDbEntity
  8
LC-001-100-D00-0
 62
     7
370
    50
100
AcDbLine
 10
84.548545
 20
-81.792801
 30
0.0
 11
84.548545
 21
-81.792801
 31
0.0
  0
LINE
  5
1E1
330
1DD
100
AcDbEntity
  8
LC-001-100-D00-0
 62
     7
370
    50
100
AcDbLine
 10
84.548545
 20
-81.792801
 30
0.0
 11
85.087918
 21
-82.045047
 31
0.0
  0
LINE
  5
1E2
330
1DD
100
AcDbEntity
  8
LC-001-100-D00-0
 62
     7
370
    50
100
AcDbLine
 10
85.087918
 20
-82.045047
 30
0.0
 11
85.087918
 21
-82.045047
 31
0.0
  0
LINE
  5
1E3
330
1DD
100
AcDbEntity
  8
LC-001-100-D00-0
 62
     7
370
    50
100
AcDbLine
 10
85.087918
 20
-82.045047
 30
0.0
 11
86.166783
 21
-82.549593
 31
0.0
  0
LINE
  5
1E4
330
1DD
100
AcDbEntity
  8
LC-001-100-D00-0
 62
     7
370
    50
100
AcDbLine
 10
86.166783
 20
-82.549593
 30
0.0
 11
86.166783
 21
-82.549593
 31
0.0
  0
LINE
  5
1E5
330
1DD
100
AcDbEntity
  8
LC-001-100-D00-0
 62
     7
370
    50
100
AcDbLine
 10
86.166783
 20
-82.549593
 30
0.0
 11
87.341014
 21
-83.929209
 31
0.0
  0
LINE
  5
1E6
330
1DD
100
AcDbEntity
  8
LC-001-100-D00-0
 62
     7
370
    50
100
AcDbLine
 10
87.341014
 20
-83.929209
 30
0.0
 11
87.341014
 21
-83.929209
 31
0.0
  0
LINE
  5
1E7
330
1DD
100
AcDbEntity
  8
LC-001-100-D00-0
 62
     7
370
    50
100
AcDbLine
 10
87.341014
 20
-83.929209
 30
0.0
 11
87.971709
 21
-85.409575
 31
0.0
  0
LINE
  5
1E8
330
1DD
100
AcDbEntity
  8
LC-001-100-D00-0
 62
     7
370
    50
100
AcDbLine
 10
87.971709
 20
-85.409575
 30
0.0
 11
87.971709
 21
-85.409575
 31
0.0
  0
LINE
  5
1E9
330
1DD
100
AcDbEntity
  8
LC-001-100-D00-0
 62
     7
370
    50
100
AcDbLine
 10
87.971709
 20
-85.409575
 30
0.0
 11
88.028854
 21
-86.397164
 31
0.0
  0
LINE
  5
1EA
330
1DD
100
AcDbEntity
  8
LC-001-100-D00-0
 62
     7
370
    50
100
AcDbLine
 10
88.028854
 20
-86.397164
 30
0.0
 11
88.028854
 21
-86.397164
 31
0.0
  0
LINE
  5
1EB
330
1DD
100
AcDbEntity
  8
LC-001-100-D00-0
 62
     7
370
    50
100
AcDbLine
 10
88.028854
 20
-86.397164
 30
0.0
 11
88.051942
 21
-86.796179
 31
0.0
  0
ENDBLK
  5
1DF
330
1DD
100
AcDbEntity
  8
0
100
AcDbBlockEnd
  0
BLOCK
  5
1F1
330
1F0
100
AcDbEntity
  8
0
100
AcDbBlockBegin
  2
POLY15
 70
     0
 71
     0
 10
0.0
 20
0.0
 30
0.0
  3
POLY15
  1

  4
POLY15
  0
LINE
  5
1F3
330
1F0
100
AcDbEntity
  8
LC-001-100-D00-0
 62
     7
370
    50
100
AcDbLine
 10
274.85586
 20
-86.796179
 30
0.0
 11
274.85586
 21
-86.796179
 31
0.0
  0
LINE
  5
1F4
330
1F0
100
AcDbEntity
  8
LC-001-100-D00-0
 62
     7
370
    50
100
AcDbLine
 10
274.85586
 20
-86.796179
 30
0.0
 11
274.908417
 21
-86.20306
 31
0.0
  0
LINE
  5
1F5
330
1F0
100
AcDbEntity
  8
LC-001-100-D00-0
 62
     7
370
    50
100
AcDbLine
 10
274.908417
 20
-86.20306
 30
0.0
 11
274.908417
 21
-86.20306
 31
0.0
  0
LINE
  5
1F6
330
1F0
100
AcDbEntity
  8
LC-001-100-D00-0
 62
     7
370
    50
100
AcDbLine
 10
274.908417
 20
-86.20306
 30
0.0
 11
275.013543
 21
-85.016692
 31
0.0
  0
LINE
  5
1F7
330
1F0
100
AcDbEntity
  8
LC-001-100-D00-0
 62
     7
370
    50
100
AcDbLine
 10
275.013543
 20
-85.016692
 30
0.0
 11
275.013543
 21
-85.016692
 31
0.0
  0
LINE
  5
1F8
330
1F0
100
AcDbEntity
  8
LC-001-100-D00-0
 62
     7
370
    50
100
AcDbLine
 10
275.013543
 20
-85.016692
 30
0.0
 11
275.908351
 21
-83.441421
 31
0.0
  0
LINE
  5
1F9
330
1F0
100
AcDbEntity
  8
LC-001-100-D00-0
 62
     7
370
    50
100
AcDbLine
 10
275.908351
 20
-83.441421
 30
0.0
 11
275.908351
 21
-83.441421
 31
0.0
  0
LINE
  5
1FA
330
1F0
100
AcDbEntity
  8
LC-001-100-D00-0
 62
     7
370
    50
100
AcDbLine
 10
275.908351
 20
-83.441421
 30
0.0
 11
277.08373
 21
-82.342452
 31
0.0
  0
LINE
  5
1FB
330
1F0
100
AcDbEntity
  8
LC-001-100-D00-0
 62
     7
370
    50
100
AcDbLine
 10
277.08373
 20
-82.342452
 30
0.0
 11
277.08373
 21
-82.342452
 31
0.0
  0
LINE
  5
1FC
330
1F0
100
AcDbEntity
  8
LC-001-100-D00-0
 62
     7
370
    50
100
AcDbLine
 10
277.08373
 20
-82.342452
 30
0.0
 11
277.992211
 21
-81.950971
 31
0.0
  0
LINE
  5
1FD
330
1F0
100
AcDbEntity
  8
LC-001-100-D00-0
 62
     7
370
    50
100
AcDbLine
 10
277.992211
 20
-81.950971
 30
0.0
 11
277.992211
 21
-81.950971
 31
0.0
  0
LINE
  5
1FE
330
1F0
100
AcDbEntity
  8
LC-001-100-D00-0
 62
     7
370
    50
100
AcDbLine
 10
277.992211
 20
-81.950971
 30
0.0
 11
278.359265
 21
-81.792801
 31
0.0
  0
ENDBLK
  5
1F2
330
1F0
100
AcDbEntity
  8
0
100
AcDbBlockEnd
  0
BLOCK
  5
203
330
202
100
AcDbEntity
  8
0
100
AcDbBlockBegin
  2
POLY16
 70
     0
 71
     0
 10
0.0
 20
0.0
 30
0.0
  3
POLY16
  1

  4
POLY16
  0
LINE
  5
205
330
202
100
AcDbEntity
  8
LC-001-100-D00-0
 62
     7
370
    50
100
AcDbLine
 10
278.359265
 20
46.458439
 30
0.0
 11
278.359265
 21
46.458439
 31
0.0
  0
LINE
  5
206
330
202
100
AcDbEntity
  8
LC-001-100-D00-0
 62
     7
370
    50
100
AcDbLine
 10
278.359265
 20
46.458439
 30
0.0
 11
277.81989
 21
46.710684
 31
0.0
  0
LINE
  5
207
330
202
100
AcDbEntity
  8
LC-001-100-D00-0
 62
     7
370
    50
100
AcDbLine
 10
277.81989
 20
46.710684
 30
0.0
 11
277.81989
 21
46.710684
 31
0.0
  0
LINE
  5
208
330
202
100
AcDbEntity
  8
LC-001-100-D00-0
 62
     7
370
    50
100
AcDbLine
 10
277.81989
 20
46.710684
 30
0.0
 11
276.741024
 21
47.215229
 31
0.0
  0
LINE
  5
209
330
202
100
AcDbEntity
  8
LC-001-100-D00-0
 62
     7
370
    50
100
AcDbLine
 10
276.741024
 20
47.215229
 30
0.0
 11
276.741024
 21
47.215229
 31
0.0
  0
LINE
  5
20A
330
202
100
AcDbEntity
  8
LC-001-100-D00-0
 62
     7
370
    50
100
AcDbLine
 10
276.741024
 20
47.215229
 30
0.0
 11
275.566794
 21
48.594847
 31
0.0
  0
LINE
  5
20B
330
202
100
AcDbEntity
  8
LC-001-100-D00-0
 62
     7
370
    50
100
AcDbLine
 10
275.566794
 20
48.594847
 30
0.0
 11
275.566794
 21
48.594847
 31
0.0
  0
LINE
  5
20C
330
202
100
AcDbEntity
  8
LC-001-100-D00-0
 62
     7
370
    50
100
AcDbLine
 10
275.566794
 20
48.594847
 30
0.0
 11
274.936109
 21
50.075214
 31
0.0
  0
LINE
  5
20D
330
202
100
AcDbEntity
  8
LC-001-100-D00-0
 62
     7
370
    50
100
AcDbLine
 10
274.936109
 20
50.075214
 30
0.0
 11
274.936109
 21
50.075214
 31
0.0
  0
LINE
  5
20E
330
202
100
AcDbEntity
  8
LC-001-100-D00-0
 62
     7
370
    50
100
AcDbLine
 10
274.936109
 20
50.075214
 30
0.0
 11
274.878953
 21
51.062801
 31
0.0
  0
LINE
  5
20F
330
202
100
AcDbEntity
  8
LC-001-100-D00-0
 62
     7
370
    50
100
AcDbLine
 10
274.878953
 20
51.062801
 30
0.0
 11
274.878953
 21
51.062801
 31
0.0
  0
LINE
  5
210
330
202
100
AcDbEntity
  8
LC-001-100-D00-0
 62
     7
370
    50
100
AcDbLine
 10
274.878953
 20
51.062801
 30
0.0
 11
274.85586
 21
51.461816
 31
0.0
  0
ENDBLK
  5
204
330
202
100
AcDbEntity
  8
0
100
AcDbBlockEnd
  0
BLOCK
  5
214
330
213
100
AcDbEntity
  8
0
100
AcDbBlockBegin
  2
POLY17
 70
     0
 71
     0
 10
0.0
 20
0.0
 30
0.0
  3
POLY17
  1

  4
POLY17
  0
LINE
  5
216
330
213
100
AcDbEntity
  8
LC-001-100-D00-0
 62
     7
370
    50
100
AcDbLine
 10
88.051942
 20
51.461816
 30
0.0
 11
88.051942
 21
51.461816
 31
0.0
  0
LINE
  5
217
330
213
100
AcDbEntity
  8
LC-001-100-D00-0
 62
     7
370
    50
100
AcDbLine
 10
88.051942
 20
51.461816
 30
0.0
 11
87.999389
 21
50.868697
 31
0.0
  0
LINE
  5
218
330
213
100
AcDbEntity
  8
LC-001-100-D00-0
 62
     7
370
    50
100
AcDbLine
 10
87.999389
 20
50.868697
 30
0.0
 11
87.999389
 21
50.868697
 31
0.0
  0
LINE
  5
219
330
213
100
AcDbEntity
  8
LC-001-100-D00-0
 62
     7
370
    50
100
AcDbLine
 10
87.999389
 20
50.868697
 30
0.0
 11
87.894273
 21
49.682331
 31
0.0
  0
LINE
  5
21A
330
213
100
AcDbEntity
  8
LC-001-100-D00-0
 62
     7
370
    50
100
AcDbLine
 10
87.894273
 20
49.682331
 30
0.0
 11
87.894273
 21
49.682331
 31
0.0
  0
LINE
  5
21B
330
213
100
AcDbEntity
  8
LC-001-100-D00-0
 62
     7
370
    50
100
AcDbLine
 10
87.894273
 20
49.682331
 30
0.0
 11
86.999465
 21
48.107061
 31
0.0
  0
LINE
  5
21C
330
213
100
AcDbEntity
  8
LC-001-100-D00-0
 62
     7
370
    50
100
AcDbLine
 10
86.999465
 20
48.107061
 30
0.0
 11
86.999465
 21
48.107061
 31
0.0
  0
LINE
  5
21D
330
213
100
AcDbEntity
  8
LC-001-100-D00-0
 62
     7
370
    50
100
AcDbLine
 10
86.999465
 20
48.107061
 30
0.0
 11
85.824085
 21
47.008091
 31
0.0
  0
LINE
  5
21E
330
213
100
AcDbEntity
  8
LC-001-100-D00-0
 62
     7
370
    50
100
AcDbLine
 10
85.824085
 20
47.008091
 30
0.0
 11
85.824085
 21
47.008091
 31
0.0
  0
LINE
  5
21F
330
213
100
AcDbEntity
  8
LC-001-100-D00-0
 62
     7
370
    50
100
AcDbLine
 10
85.824085
 20
47.008091
 30
0.0
 11
84.915601
 21
46.61661
 31
0.0
  0
LINE
  5
220
330
213
100
AcDbEntity
  8
LC-001-100-D00-0
 62
     7
370
    50
100
AcDbLine
 10
84.915601
 20
46.61661
 30
0.0
 11
84.915601
 21
46.61661
 31
0.0
  0
LINE
  5
221
330
213
100
AcDbEntity
  8
LC-001-100-D00-0
 62
     7
370
    50
100
AcDbLine
 10
84.915601
 20
46.61661
 30
0.0
 11
84.548545
 21
46.458439
 31
0.0
  0
ENDBLK
  5
215
330
213
100
AcDbEntity
  8
0
100
AcDbBlockEnd
  0
BLOCK
  5
226
330
225
100
AcDbEntity
  8
0
100
AcDbBlockBegin
  2
POLY18
 70
     0
 71
     0
 10
0.0
 20
0.0
 30
0.0
  3
POLY18
  1

  4
POLY18
  0
LINE
  5
228
330
225
100
AcDbEntity
  8
LC-001-100-D00-0
 62
     7
370
    50
100
AcDbLine
 10
184.507903
 20
98.493986
 30
0.0
 11
184.507903
 21
98.493986
 31
0.0
  0
LINE
  5
229
330
225
100
AcDbEntity
  8
LC-001-100-D00-0
 62
     7
370
    50
100
AcDbLine
 10
184.507903
 20
98.493986
 30
0.0
 11
183.991903
 21
98.196841
 31
0.0
  0
LINE
  5
22A
330
225
100
AcDbEntity
  8
LC-001-100-D00-0
 62
     7
370
    50
100
AcDbLine
 10
183.991903
 20
98.196841
 30
0.0
 11
183.991903
 21
98.196841
 31
0.0
  0
LINE
  5
22B
330
225
100
AcDbEntity
  8
LC-001-100-D00-0
 62
     7
370
    50
100
AcDbLine
 10
183.991903
 20
98.196841
 30
0.0
 11
182.959789
 21
97.602486
 31
0.0
  0
LINE
  5
22C
330
225
100
AcDbEntity
  8
LC-001-100-D00-0
 62
     7
370
    50
100
AcDbLine
 10
182.959789
 20
97.602486
 30
0.0
 11
182.959789
 21
97.602486
 31
0.0
  0
LINE
  5
22D
330
225
100
AcDbEntity
  8
LC-001-100-D00-0
 62
     7
370
    50
100
AcDbLine
 10
182.959789
 20
97.602486
 30
0.0
 11
181.156163
 21
97.431917
 31
0.0
  0
LINE
  5
22E
330
225
100
AcDbEntity
  8
LC-001-100-D00-0
 62
     7
370
    50
100
AcDbLine
 10
181.156163
 20
97.431917
 30
0.0
 11
181.156163
 21
97.431917
 31
0.0
  0
LINE
  5
22F
330
225
100
AcDbEntity
  8
LC-001-100-D00-0
 62
     7
370
    50
100
AcDbLine
 10
181.156163
 20
97.431917
 30
0.0
 11
179.581773
 21
97.764403
 31
0.0
  0
LINE
  5
230
330
225
100
AcDbEntity
  8
LC-001-100-D00-0
 62
     7
370
    50
100
AcDbLine
 10
179.581773
 20
97.764403
 30
0.0
 11
179.581773
 21
97.764403
 31
0.0
  0
LINE
  5
231
330
225
100
AcDbEntity
  8
LC-001-100-D00-0
 62
     7
370
    50
100
AcDbLine
 10
179.581773
 20
97.764403
 30
0.0
 11
178.740006
 21
98.284038
 31
0.0
  0
LINE
  5
232
330
225
100
AcDbEntity
  8
LC-001-100-D00-0
 62
     7
370
    50
100
AcDbLine
 10
178.740006
 20
98.284038
 30
0.0
 11
178.740006
 21
98.284038
 31
0.0
  0
LINE
  5
233
330
225
100
AcDbEntity
  8
LC-001-100-D00-0
 62
     7
370
    50
100
AcDbLine
 10
178.740006
 20
98.284038
 30
0.0
 11
178.399906
 21
98.493986
 31
0.0
  0
ENDBLK
  5
227
330
225
100
AcDbEntity
  8
0
100
AcDbBlockEnd
  0
BLOCK
  5
26D
330
26C
100
AcDbEntity
  8
0
100
AcDbBlockBegin
  2
POLY19
 70
     0
 71
     0
 10
0.0
 20
0.0
 30
0.0
  3
POLY19
  1

  4
POLY19
  0
LINE
  5
26F
330
26C
100
AcDbEntity
  8
LC-001-100-D00-0
 62
     7
370
    50
100
AcDbLine
 10
90.392974
 20
254.909047
 30
0.0
 11
90.392974
 21
254.909047
 31
0.0
  0
LINE
  5
270
330
26C
100
AcDbEntity
  8
LC-001-100-D00-0
 62
     7
370
    50
100
AcDbLine
 10
90.392974
 20
254.909047
 30
0.0
 11
90.53439
 21
255.856749
 31
0.0
  0
LINE
  5
271
330
26C
100
AcDbEntity
  8
LC-001-100-D00-0
 62
     7
370
    50
100
AcDbLine
 10
90.53439
 20
255.856749
 30
0.0
 11
90.53439
 21
255.856749
 31
0.0
  0
LINE
  5
272
330
26C
100
AcDbEntity
  8
LC-001-100-D00-0
 62
     7
370
    50
100
AcDbLine
 10
90.53439
 20
255.856749
 30
0.0
 11
91.250681
 21
260.656992
 31
0.0
  0
LINE
  5
273
330
26C
100
AcDbEntity
  8
LC-001-100-D00-0
 62
     7
370
    50
100
AcDbLine
 10
91.250681
 20
260.656992
 30
0.0
 11
91.250681
 21
260.656992
 31
0.0
  0
LINE
  5
274
330
26C
100
AcDbEntity
  8
LC-001-100-D00-0
 62
     7
370
    50
100
AcDbLine
 10
91.250681
 20
260.656992
 30
0.0
 11
91.965918
 21
265.457467
 31
0.0
  0
LINE
  5
275
330
26C
100
AcDbEntity
  8
LC-001-100-D00-0
 62
     7
370
    50
100
AcDbLine
 10
91.965918
 20
265.457467
 30
0.0
 11
91.965918
 21
265.457467
 31
0.0
  0
LINE
  5
276
330
26C
100
AcDbEntity
  8
LC-001-100-D00-0
 62
     7
370
    50
100
AcDbLine
 10
91.965918
 20
265.457467
 30
0.0
 11
92.539948
 21
269.310196
 31
0.0
  0
ENDBLK
  5
26E
330
26C
100
AcDbEntity
  8
0
100
AcDbBlockEnd
  0
BLOCK
  5
2D7
330
2D6
100
AcDbEntity
  8
0
100
AcDbBlockBegin
  2
KLON6
 70
     0
 71
     0
 10
0.0
 20
0.0
 30
0.0
  3
KLON6
  1

  4
KLON6
  0
LINE
  5
2D9
330
2D6
100
AcDbEntity
  8
LC-001-100-D00-0
 62
     7
370
    15
100
AcDbLine
 10
143.672828
 20
257.865261
 30
0.0
 11
147.827376
 21
250.26134
 31
0.0
  0
LINE
  5
2DA
330
2D6
100
AcDbEntity
  8
LC-001-100-D00-0
 62
     7
370
    15
100
AcDbLine
 10
147.827376
 20
250.26134
 30
0.0
 11
148.590554
 21
248.865261
 31
0.0
  0
ENDBLK
  5
2D8
330
2D6
100
AcDbEntity
  8
0
100
AcDbBlockEnd
  0
BLOCK
  5
2E5
330
2E4
100
AcDbEntity
  8
0
100
AcDbBlockBegin
  2
POLY20
 70
     0
 71
     0
 10
0.0
 20
0.0
 30
0.0
  3
POLY20
  1

  4
POLY20
  0
LINE
  5
2E7
330
2E4
100
AcDbEntity
  8
LC-001-100-D00-0
 62
     7
370
    50
100
AcDbLine
 10
214.317258
 20
248.865261
 30
0.0
 11
214.317258
 21
248.865261
 31
0.0
  0
LINE
  5
2E8
330
2E4
100
AcDbEntity
  8
LC-001-100-D00-0
 62
     7
370
    50
100
AcDbLine
 10
214.317258
 20
248.865261
 30
0.0
 11
214.571656
 21
249.330612
 31
0.0
  0
LINE
  5
2E9
330
2E4
100
AcDbEntity
  8
LC-001-100-D00-0
 62
     7
370
    50
100
AcDbLine
 10
214.571656
 20
249.330612
 30
0.0
 11
214.571656
 21
249.330612
 31
0.0
  0
LINE
  5
2EA
330
2E4
100
AcDbEntity
  8
LC-001-100-D00-0
 62
     7
370
    50
100
AcDbLine
 10
214.571656
 20
249.330612
 30
0.0
 11
216.211511
 21
252.330276
 31
0.0
  0
LINE
  5
2EB
330
2E4
100
AcDbEntity
  8
LC-001-100-D00-0
 62
     7
370
    50
100
AcDbLine
 10
216.211511
 20
252.330276
 30
0.0
 11
216.211511
 21
252.330276
 31
0.0
  0
LINE
  5
2EC
330
2E4
100
AcDbEntity
  8
LC-001-100-D00-0
 62
     7
370
    50
100
AcDbLine
 10
216.211511
 20
252.330276
 30
0.0
 11
217.850369
 21
255.330486
 31
0.0
  0
LINE
  5
2ED
330
2E4
100
AcDbEntity
  8
LC-001-100-D00-0
 62
     7
370
    50
100
AcDbLine
 10
217.850369
 20
255.330486
 30
0.0
 11
217.850369
 21
255.330486
 31
0.0
  0
LINE
  5
2EE
330
2E4
100
AcDbEntity
  8
LC-001-100-D00-0
 62
     7
370
    50
100
AcDbLine
 10
217.850369
 20
255.330486
 30
0.0
 11
219.234985
 21
257.865261
 31
0.0
  0
ENDBLK
  5
2E6
330
2E4
100
AcDbEntity
  8
0
100
AcDbBlockEnd
  0
BLOCK
  5
385
330
384
100
AcDbEntity
  8
0
100
AcDbBlockBegin
  2
POLY21
 70
     0
 71
     0
 10
0.0
 20
0.0
 30
0.0
  3
POLY21
  1

  4
POLY21
  0
LINE
  5
387
330
384
100
AcDbEntity
  8
LC-001-100-D00-0
 62
     7
370
    50
100
AcDbLine
 10
84.21002
 20
254.882487
 30
0.0
 11
84.21002
 21
254.882487
 31
0.0
  0
LINE
  5
388
330
384
100
AcDbEntity
  8
LC-001-100-D00-0
 62
     7
370
    50
100
AcDbLine
 10
84.21002
 20
254.882487
 30
0.0
 11
84.21476
 21
254.777658
 31
0.0
  0
LINE
  5
389
330
384
100
AcDbEntity
  8
LC-001-100-D00-0
 62
     7
370
    50
100
AcDbLine
 10
84.21476
 20
254.777658
 30
0.0
 11
84.21476
 21
254.777658
 31
0.0
  0
LINE
  5
38A
330
384
100
AcDbEntity
  8
LC-001-100-D00-0
 62
     7
370
    50
100
AcDbLine
 10
84.21476
 20
254.777658
 30
0.0
 11
84.224229
 21
254.568245
 31
0.0
  0
LINE
  5
38B
330
384
100
AcDbEntity
  8
LC-001-100-D00-0
 62
     7
370
    50
100
AcDbLine
 10
84.224229
 20
254.568245
 30
0.0
 11
84.224229
 21
254.568245
 31
0.0
  0
LINE
  5
38C
330
384
100
AcDbEntity
  8
LC-001-100-D00-0
 62
     7
370
    50
100
AcDbLine
 10
84.224229
 20
254.568245
 30
0.0
 11
84.255616
 21
254.313037
 31
0.0
  0
LINE
  5
38D
330
384
100
AcDbEntity
  8
LC-001-100-D00-0
 62
     7
370
    50
100
AcDbLine
 10
84.255616
 20
254.313037
 30
0.0
 11
84.255616
 21
254.313037
 31
0.0
  0
LINE
  5
38E
330
384
100
AcDbEntity
  8
LC-001-100-D00-0
 62
     7
370
    50
100
AcDbLine
 10
84.255616
 20
254.313037
 30
0.0
 11
84.293646
 21
254.12495
 31
0.0
  0
LINE
  5
38F
330
384
100
AcDbEntity
  8
LC-001-100-D00-0
 62
     7
370
    50
100
AcDbLine
 10
84.293646
 20
254.12495
 30
0.0
 11
84.293646
 21
254.12495
 31
0.0
  0
LINE
  5
390
330
384
100
AcDbEntity
  8
LC-001-100-D00-0
 62
     7
370
    50
100
AcDbLine
 10
84.293646
 20
254.12495
 30
0.0
 11
84.324617
 21
254.051412
 31
0.0
  0
LINE
  5
391
330
384
100
AcDbEntity
  8
LC-001-100-D00-0
 62
     7
370
    50
100
AcDbLine
 10
84.324617
 20
254.051412
 30
0.0
 11
84.324617
 21
254.051412
 31
0.0
  0
LINE
  5
392
330
384
100
AcDbEntity
  8
LC-001-100-D00-0
 62
     7
370
    50
100
AcDbLine
 10
84.324617
 20
254.051412
 30
0.0
 11
84.341021
 21
254.041347
 31
0.0
  0
LINE
  5
393
330
384
100
AcDbEntity
  8
LC-001-100-D00-0
 62
     7
370
    50
100
AcDbLine
 10
84.341021
 20
254.041347
 30
0.0
 11
84.341021
 21
254.041347
 31
0.0
  0
LINE
  5
394
330
384
100
AcDbEntity
  8
LC-001-100-D00-0
 62
     7
370
    50
100
AcDbLine
 10
84.341021
 20
254.041347
 30
0.0
 11
84.345328
 21
254.041265
 31
0.0
  0
LINE
  5
395
330
384
100
AcDbEntity
  8
LC-001-100-D00-0
 62
     7
370
    50
100
AcDbLine
 10
84.345328
 20
254.041265
 30
0.0
 11
84.345328
 21
254.041265
 31
0.0
  0
LINE
  5
396
330
384
100
AcDbEntity
  8
LC-001-100-D00-0
 62
     7
370
    50
100
AcDbLine
 10
84.345328
 20
254.041265
 30
0.0
 11
84.345531
 21
254.041261
 31
0.0
  0
ENDBLK
  5
386
330
384
100
AcDbEntity
  8
0
100
AcDbBlockEnd
  0
BLOCK
  5
39A
330
399
100
AcDbEntity
  8
0
100
AcDbBlockBegin
  2
POLY22
 70
     0
 71
     0
 10
0.0
 20
0.0
 30
0.0
  3
POLY22
  1

  4
POLY22
  0
LINE
  5
39C
330
399
100
AcDbEntity
  8
LC-001-100-D00-0
 62
     7
370
    50
100
AcDbLine
 10
89.386177
 20
254.041261
 30
0.0
 11
89.386177
 21
254.041261
 31
0.0
  0
LINE
  5
39D
330
399
100
AcDbEntity
  8
LC-001-100-D00-0
 62
     7
370
    50
100
AcDbLine
 10
89.386177
 20
254.041261
 30
0.0
 11
89.115498
 21
254.041261
 31
0.0
  0
LINE
  5
39E
330
399
100
AcDbEntity
  8
LC-001-100-D00-0
 62
     7
370
    50
100
AcDbLine
 10
89.115498
 20
254.041261
 30
0.0
 11
89.115498
 21
254.041261
 31
0.0
  0
LINE
  5
39F
330
399
100
AcDbEntity
  8
LC-001-100-D00-0
 62
     7
370
    50
100
AcDbLine
 10
89.115498
 20
254.041261
 30
0.0
 11
88.610669
 21
254.041261
 31
0.0
  0
LINE
  5
3A0
330
399
100
AcDbEntity
  8
LC-001-100-D00-0
 62
     7
370
    50
100
AcDbLine
 10
88.610669
 20
254.041261
 30
0.0
 11
88.610669
 21
254.041261
 31
0.0
  0
LINE
  5
3A1
330
399
100
AcDbEntity
  8
LC-001-100-D00-0
 62
     7
370
    50
100
AcDbLine
 10
88.610669
 20
254.041261
 30
0.0
 11
87.65625
 21
254.041261
 31
0.0
  0
LINE
  5
3A2
330
399
100
AcDbEntity
  8
LC-001-100-D00-0
 62
     7
370
    50
100
AcDbLine
 10
87.65625
 20
254.041261
 30
0.0
 11
87.65625
 21
254.041261
 31
0.0
  0
LINE
  5
3A3
330
399
100
AcDbEntity
  8
LC-001-100-D00-0
 62
     7
370
    50
100
AcDbLine
 10
87.65625
 20
254.041261
 30
0.0
 11
87.123074
 21
254.041261
 31
0.0
  0
LINE
  5
3A4
330
399
100
AcDbEntity
  8
LC-001-100-D00-0
 62
     7
370
    50
100
AcDbLine
 10
87.123074
 20
254.041261
 30
0.0
 11
87.123074
 21
254.041261
 31
0.0
  0
LINE
  5
3A5
330
399
100
AcDbEntity
  8
LC-001-100-D00-0
 62
     7
370
    50
100
AcDbLine
 10
87.123074
 20
254.041261
 30
0.0
 11
87.050569
 21
254.041261
 31
0.0
  0
ENDBLK
  5
39B
330
399
100
AcDbEntity
  8
0
100
AcDbBlockEnd
  0
BLOCK
  5
3F2
330
3F1
100
AcDbEntity
  8
0
100
AcDbBlockBegin
  2
KLON7
 70
     0
 71
     0
 10
0.0
 20
0.0
 30
0.0
  3
KLON7
  1

  4
KLON7
  0
LINE
  5
3F4
330
3F1
100
AcDbEntity
  8
LC-001-100-D00-0
 62
     7
370
    25
100
AcDbLine
 10
314.68272
 20
255.165261
 30
0.0
 11
318.375239
 21
258.85778
 31
0.0
  0
LINE
  5
3F5
330
3F1
100
AcDbEntity
  8
LC-001-100-D00-0
 62
     7
370
    25
100
AcDbLine
 10
305.702464
 20
255.165261
 30
0.0
 11
311.571697
 21
261.034495
 31
0.0
  0
LINE
  5
3F6
330
3F1
100
AcDbEntity
  8
LC-001-100-D00-0
 62
     7
370
    25
100
AcDbLine
 10
296.722207
 20
255.165261
 30
0.0
 11
303.228503
 21
261.671557
 31
0.0
  0
LINE
  5
3F7
330
3F1
100
AcDbEntity
  8
LC-001-100-D00-0
 62
     7
370
    25
100
AcDbLine
 10
287.741951
 20
255.165261
 30
0.0
 11
293.863278
 21
261.286588
 31
0.0
  0
LINE
  5
3F8
330
3F1
100
AcDbEntity
  8
LC-001-100-D00-0
 62
     7
370
    25
100
AcDbLine
 10
278.761695
 20
255.165261
 30
0.0
 11
281.761695
 21
258.165261
 31
0.0
  0
LINE
  5
3F9
330
3F1
100
AcDbEntity
  8
LC-001-100-D00-0
 62
     7
370
    25
100
AcDbLine
 10
275.681905
 20
261.065727
 30
0.0
 11
279.181905
 21
264.565727
 31
0.0
  0
ENDBLK
  5
3F3
330
3F1
100
AcDbEntity
  8
0
100
AcDbBlockEnd
  0
BLOCK
  5
3FC
330
3FB
100
AcDbEntity
  8
0
100
AcDbBlockBegin
  2
KLON8
 70
     0
 71
     0
 10
0.0
 20
0.0
 30
0.0
  3
KLON8
  1

  4
KLON8
  0
LINE
  5
3FE
330
3FB
100
AcDbEntity
  8
LC-001-100-D00-0
 62
     7
370
    25
100
AcDbLine
 10
319.373654
 20
205.974658
 30
0.0
 11
321.088712
 21
207.689716
 31
0.0
  0
LINE
  5
3FF
330
3FB
100
AcDbEntity
  8
LC-001-100-D00-0
 62
     7
370
    25
100
AcDbLine
 10
307.018902
 20
202.600163
 30
0.0
 11
313.584
 21
209.165261
 31
0.0
  0
LINE
  5
400
330
3FB
100
AcDbEntity
  8
LC-001-100-D00-0
 62
     7
370
    25
100
AcDbLine
 10
298.792834
 20
203.354351
 30
0.0
 11
304.603744
 21
209.165261
 31
0.0
  0
LINE
  5
401
330
3FB
100
AcDbEntity
  8
LC-001-100-D00-0
 62
     7
370
    25
100
AcDbLine
 10
292.214024
 20
205.755797
 30
0.0
 11
295.623488
 21
209.165261
 31
0.0
  0
LINE
  5
402
330
3FB
100
AcDbEntity
  8
LC-001-100-D00-0
 62
     7
370
    25
100
AcDbLine
 10
283.643232
 20
206.165261
 30
0.0
 11
286.643232
 21
209.165261
 31
0.0
  0
LINE
  5
403
330
3FB
100
AcDbEntity
  8
LC-001-100-D00-0
 62
     7
370
    25
100
AcDbLine
 10
270.662976
 20
202.165261
 30
0.0
 11
274.162976
 21
205.665261
 31
0.0
  0
LINE
  5
404
330
3FB
100
AcDbEntity
  8
LC-001-100-D00-0
 62
     7
370
    25
100
AcDbLine
 10
275.681905
 20
207.18419
 30
0.0
 11
277.662976
 21
209.165261
 31
0.0
  0
LINE
  5
405
330
3FB
100
AcDbEntity
  8
LC-001-100-D00-0
 62
     7
370
    25
100
AcDbLine
 10
261.68272
 20
202.165261
 30
0.0
 11
265.18272
 21
205.665261
 31
0.0
  0
LINE
  5
406
330
3FB
100
AcDbEntity
  8
LC-001-100-D00-0
 62
     7
370
    25
100
AcDbLine
 10
252.702464
 20
202.165261
 30
0.0
 11
256.202464
 21
205.665261
 31
0.0
  0
LINE
  5
407
330
3FB
100
AcDbEntity
  8
LC-001-100-D00-0
 62
     7
370
    25
100
AcDbLine
 10
243.722207
 20
202.165261
 30
0.0
 11
247.222207
 21
205.665261
 31
0.0
  0
LINE
  5
408
330
3FB
100
AcDbEntity
  8
LC-001-100-D00-0
 62
     7
370
    25
100
AcDbLine
 10
227.96736
 20
195.39067
 30
0.0
 11
230.656496
 21
198.079806
 31
0.0
  0
LINE
  5
409
330
3FB
100
AcDbEntity
  8
LC-001-100-D00-0
 62
     7
370
    25
100
AcDbLine
 10
234.741951
 20
202.165261
 30
0.0
 11
238.241951
 21
205.665261
 31
0.0
  0
LINE
  5
40A
330
3FB
100
AcDbEntity
  8
LC-001-100-D00-0
 62
     7
370
    25
100
AcDbLine
 10
217.961695
 20
194.365261
 30
0.0
 11
221.461695
 21
197.865261
 31
0.0
  0
LINE
  5
40B
330
3FB
100
AcDbEntity
  8
LC-001-100-D00-0
 62
     7
370
    25
100
AcDbLine
 10
208.981439
 20
194.365261
 30
0.0
 11
212.481439
 21
197.865261
 31
0.0
  0
LINE
  5
40C
330
3FB
100
AcDbEntity
  8
LC-001-100-D00-0
 62
     7
370
    25
100
AcDbLine
 10
200.001183
 20
194.365261
 30
0.0
 11
203.501183
 21
197.865261
 31
0.0
  0
LINE
  5
40D
330
3FB
100
AcDbEntity
  8
LC-001-100-D00-0
 62
     7
370
    25
100
AcDbLine
 10
191.020927
 20
194.365261
 30
0.0
 11
194.520927
 21
197.865261
 31
0.0
  0
LINE
  5
40E
330
3FB
100
AcDbEntity
  8
LC-001-100-D00-0
 62
     7
370
    25
100
AcDbLine
 10
182.040671
 20
194.365261
 30
0.0
 11
185.540671
 21
197.865261
 31
0.0
  0
LINE
  5
40F
330
3FB
100
AcDbEntity
  8
LC-001-100-D00-0
 62
     7
370
    25
100
AcDbLine
 10
173.060415
 20
194.365261
 30
0.0
 11
176.560415
 21
197.865261
 31
0.0
  0
LINE
  5
410
330
3FB
100
AcDbEntity
  8
LC-001-100-D00-0
 62
     7
370
    25
100
AcDbLine
 10
164.080158
 20
194.365261
 30
0.0
 11
167.580158
 21
197.865261
 31
0.0
  0
LINE
  5
411
330
3FB
100
AcDbEntity
  8
LC-001-100-D00-0
 62
     7
370
    25
100
AcDbLine
 10
155.099902
 20
194.365261
 30
0.0
 11
158.599902
 21
197.865261
 31
0.0
  0
LINE
  5
412
330
3FB
100
AcDbEntity
  8
LC-001-100-D00-0
 62
     7
370
    25
100
AcDbLine
 10
146.119646
 20
194.365261
 30
0.0
 11
149.619646
 21
197.865261
 31
0.0
  0
LINE
  5
413
330
3FB
100
AcDbEntity
  8
LC-001-100-D00-0
 62
     7
370
    25
100
AcDbLine
 10
138.251656
 20
195.477527
 30
0.0
 11
140.863062
 21
198.088933
 31
0.0
  0
LINE
  5
414
330
3FB
100
AcDbEntity
  8
LC-001-100-D00-0
 62
     7
370
    25
100
AcDbLine
 10
134.73861
 20
200.944737
 30
0.0
 11
138.082332
 21
204.288459
 31
0.0
  0
LINE
  5
415
330
3FB
100
AcDbEntity
  8
LC-001-100-D00-0
 62
     7
370
    25
100
AcDbLine
 10
127.702301
 20
202.888684
 30
0.0
 11
130.693923
 21
205.880306
 31
0.0
  0
LINE
  5
416
330
3FB
100
AcDbEntity
  8
LC-001-100-D00-0
 62
     7
370
    25
100
AcDbLine
 10
121.7963
 20
205.962939
 30
0.0
 11
124.434402
 21
208.601041
 31
0.0
  0
LINE
  5
417
330
3FB
100
AcDbEntity
  8
LC-001-100-D00-0
 62
     7
370
    25
100
AcDbLine
 10
117.615658
 20
210.762553
 30
0.0
 11
120.321194
 21
213.468089
 31
0.0
  0
LINE
  5
418
330
3FB
100
AcDbEntity
  8
LC-001-100-D00-0
 62
     7
370
    25
100
AcDbLine
 10
115.322701
 20
217.449852
 30
0.0
 11
118.681905
 21
220.809056
 31
0.0
  0
LINE
  5
419
330
3FB
100
AcDbEntity
  8
LC-001-100-D00-0
 62
     7
370
    25
100
AcDbLine
 10
115.181905
 20
226.289313
 30
0.0
 11
118.681905
 21
229.789313
 31
0.0
  0
LINE
  5
41A
330
3FB
100
AcDbEntity
  8
LC-001-100-D00-0
 62
     7
370
    25
100
AcDbLine
 10
115.181905
 20
235.269569
 30
0.0
 11
118.681905
 21
238.769569
 31
0.0
  0
LINE
  5
41B
330
3FB
100
AcDbEntity
  8
LC-001-100-D00-0
 62
     7
370
    25
100
AcDbLine
 10
115.181905
 20
244.249825
 30
0.0
 11
118.681905
 21
247.749825
 31
0.0
  0
LINE
  5
41C
330
3FB
100
AcDbEntity
  8
LC-001-100-D00-0
 62
     7
370
    25
100
AcDbLine
 10
115.181905
 20
253.230081
 30
0.0
 11
118.681905
 21
256.730081
 31
0.0
  0
LINE
  5
41D
330
3FB
100
AcDbEntity
  8
LC-001-100-D00-0
 62
     7
370
    25
100
AcDbLine
 10
115.181905
 20
262.210337
 30
0.0
 11
118.681905
 21
265.710337
 31
0.0
  0
ENDBLK
  5
3FD
330
3FB
100
AcDbEntity
  8
0
100
AcDbBlockEnd
  0
BLOCK
  5
420
330
41F
100
AcDbEntity
  8
0
100
AcDbBlockBegin
  2
KLON9
 70
     0
 71
     0
 10
0.0
 20
0.0
 30
0.0
  3
KLON9
  1

  4
KLON9
  0
LINE
  5
422
330
41F
100
AcDbEntity
  8
LC-001-100-D00-0
 62
     7
370
    25
100
AcDbLine
 10
135.480597
 20
255.568261
 30
0.0
 11
138.087105
 21
258.174769
 31
0.0
  0
LINE
  5
423
330
41F
100
AcDbEntity
  8
LC-001-100-D00-0
 62
     7
370
    25
100
AcDbLine
 10
134.644341
 20
263.712261
 30
0.0
 11
137.189341
 21
266.257261
 31
0.0
  0
LINE
  5
424
330
41F
100
AcDbEntity
  8
LC-001-100-D00-0
 62
     7
370
    25
100
AcDbLine
 10
125.664085
 20
263.712261
 30
0.0
 11
128.209085
 21
266.257261
 31
0.0
  0
LINE
  5
425
330
41F
100
AcDbEntity
  8
LC-001-100-D00-0
 62
     7
370
    25
100
AcDbLine
 10
119.610405
 20
266.638837
 30
0.0
 11
122.155405
 21
269.183837
 31
0.0
  0
LINE
  5
426
330
41F
100
AcDbEntity
  8
LC-001-100-D00-0
 62
     7
370
    25
100
AcDbLine
 10
112.229905
 20
268.238593
 30
0.0
 11
115.847573
 21
271.856261
 31
0.0
  0
LINE
  5
427
330
41F
100
AcDbEntity
  8
LC-001-100-D00-0
 62
     7
370
    25
100
AcDbLine
 10
104.322317
 20
269.311261
 30
0.0
 11
106.867317
 21
271.856261
 31
0.0
  0
LINE
  5
428
330
41F
100
AcDbEntity
  8
LC-001-100-D00-0
 62
     7
370
    25
100
AcDbLine
 10
95.34206
 20
269.311261
 30
0.0
 11
97.88706
 21
271.856261
 31
0.0
  0
LINE
  5
429
330
41F
100
AcDbEntity
  8
LC-001-100-D00-0
 62
     7
370
    25
100
AcDbLine
 10
86.361804
 20
269.311261
 30
0.0
 11
88.906804
 21
271.856261
 31
0.0
  0
LINE
  5
42A
330
41F
100
AcDbEntity
  8
LC-001-100-D00-0
 62
     7
370
    25
100
AcDbLine
 10
77.381548
 20
269.311261
 30
0.0
 11
79.926548
 21
271.856261
 31
0.0
  0
LINE
  5
42B
330
41F
100
AcDbEntity
  8
LC-001-100-D00-0
 62
     7
370
    25
100
AcDbLine
 10
68.401292
 20
269.311261
 30
0.0
 11
70.946292
 21
271.856261
 31
0.0
  0
ENDBLK
  5
421
330
41F
100
AcDbEntity
  8
0
100
AcDbBlockEnd
  0
BLOCK
  5
42F
330
42E
100
AcDbEntity
  8
0
100
AcDbBlockBegin
  2
KLON10
 70
     0
 71
     0
 10
0.0
 20
0.0
 30
0.0
  3
KLON10
  1

  4
KLON10
  0
LINE
  5
431
330
42E
100
AcDbEntity
  8
LC-001-100-D00-0
 62
     7
370
    25
100
AcDbLine
 10
292.907695
 20
269.311261
 30
0.0
 11
295.227962
 21
271.631528
 31
0.0
  0
LINE
  5
432
330
42E
100
AcDbEntity
  8
LC-001-100-D00-0
 62
     7
370
    25
100
AcDbLine
 10
283.927439
 20
269.311261
 30
0.0
 11
286.472439
 21
271.856261
 31
0.0
  0
LINE
  5
433
330
42E
100
AcDbEntity
  8
LC-001-100-D00-0
 62
     7
370
    25
100
AcDbLine
 10
274.947183
 20
269.311261
 30
0.0
 11
277.492183
 21
271.856261
 31
0.0
  0
LINE
  5
434
330
42E
100
AcDbEntity
  8
LC-001-100-D00-0
 62
     7
370
    25
100
AcDbLine
 10
265.966927
 20
269.311261
 30
0.0
 11
268.511927
 21
271.856261
 31
0.0
  0
LINE
  5
435
330
42E
100
AcDbEntity
  8
LC-001-100-D00-0
 62
     7
370
    25
100
AcDbLine
 10
256.986671
 20
269.311261
 30
0.0
 11
259.531671
 21
271.856261
 31
0.0
  0
LINE
  5
436
330
42E
100
AcDbEntity
  8
LC-001-100-D00-0
 62
     7
370
    25
100
AcDbLine
 10
242.407415
 20
263.712261
 30
0.0
 11
243.297405
 21
264.602251
 31
0.0
  0
LINE
  5
437
330
42E
100
AcDbEntity
  8
LC-001-100-D00-0
 62
     7
370
    25
100
AcDbLine
 10
248.006415
 20
269.311261
 30
0.0
 11
250.551415
 21
271.856261
 31
0.0
  0
LINE
  5
438
330
42E
100
AcDbEntity
  8
LC-001-100-D00-0
 62
     7
370
    25
100
AcDbLine
 10
225.283158
 20
255.568261
 30
0.0
 11
227.772905
 21
258.058007
 31
0.0
  0
LINE
  5
439
330
42E
100
AcDbEntity
  8
LC-001-100-D00-0
 62
     7
370
    25
100
AcDbLine
 10
233.427158
 20
263.712261
 30
0.0
 11
235.972158
 21
266.257261
 31
0.0
  0
LINE
  5
43A
330
42E
100
AcDbEntity
  8
LC-001-100-D00-0
 62
     7
370
    25
100
AcDbLine
 10
240.752405
 20
271.037507
 30
0.0
 11
241.571158
 21
271.856261
 31
0.0
  0
LINE
  5
43B
330
42E
100
AcDbEntity
  8
LC-001-100-D00-0
 62
     7
370
    25
100
AcDbLine
 10
224.820705
 20
264.086064
 30
0.0
 11
226.991902
 21
266.257261
 31
0.0
  0
ENDBLK
  5
430
330
42E
100
AcDbEntity
  8
0
100
AcDbBlockEnd
  0
BLOCK
  5
43F
330
43E
100
AcDbEntity
  8
0
100
AcDbBlockBegin
  2
KLON11
 70
     0
 71
     0
 10
0.0
 20
0.0
 30
0.0
  3
KLON11
  1

  4
KLON11
  0
LINE
  5
441
330
43E
100
AcDbEntity
  8
LC-001-100-D00-0
 62
     7
370
    25
100
AcDbLine
 10
115.847573
 20
271.856261
 30
0.0
 11
116.356573
 21
272.365261
 31
0.0
  0
LINE
  5
442
330
43E
100
AcDbEntity
  8
LC-001-100-D00-0
 62
     7
370
    25
100
AcDbLine
 10
106.867317
 20
271.856261
 30
0.0
 11
107.376317
 21
272.365261
 31
0.0
  0
LINE
  5
443
330
43E
100
AcDbEntity
  8
LC-001-100-D00-0
 62
     7
370
    25
100
AcDbLine
 10
97.88706
 20
271.856261
 30
0.0
 11
98.39606
 21
272.365261
 31
0.0
  0
LINE
  5
444
330
43E
100
AcDbEntity
  8
LC-001-100-D00-0
 62
     7
370
    25
100
AcDbLine
 10
88.906804
 20
271.856261
 30
0.0
 11
89.415804
 21
272.365261
 31
0.0
  0
LINE
  5
445
330
43E
100
AcDbEntity
  8
LC-001-100-D00-0
 62
     7
370
    25
100
AcDbLine
 10
79.926548
 20
271.856261
 30
0.0
 11
80.435548
 21
272.365261
 31
0.0
  0
LINE
  5
446
330
43E
100
AcDbEntity
  8
LC-001-100-D00-0
 62
     7
370
    25
100
AcDbLine
 10
70.946292
 20
271.856261
 30
0.0
 11
71.455292
 21
272.365261
 31
0.0
  0
ENDBLK
  5
440
330
43E
100
AcDbEntity
  8
0
100
AcDbBlockEnd
  0
BLOCK
  5
449
330
448
100
AcDbEntity
  8
0
100
AcDbBlockBegin
  2
KLON12
 70
     0
 71
     0
 10
0.0
 20
0.0
 30
0.0
  3
KLON12
  1

  4
KLON12
  0
LINE
  5
44B
330
448
100
AcDbEntity
  8
LC-001-100-D00-0
 62
     7
370
    25
100
AcDbLine
 10
286.472439
 20
271.856261
 30
0.0
 11
286.981439
 21
272.365261
 31
0.0
  0
LINE
  5
44C
330
448
100
AcDbEntity
  8
LC-001-100-D00-0
 62
     7
370
    25
100
AcDbLine
 10
277.492183
 20
271.856261
 30
0.0
 11
278.001183
 21
272.365261
 31
0.0
  0
LINE
  5
44D
330
448
100
AcDbEntity
  8
LC-001-100-D00-0
 62
     7
370
    25
100
AcDbLine
 10
268.511927
 20
271.856261
 30
0.0
 11
269.020927
 21
272.365261
 31
0.0
  0
LINE
  5
44E
330
448
100
AcDbEntity
  8
LC-001-100-D00-0
 62
     7
370
    25
100
AcDbLine
 10
259.531671
 20
271.856261
 30
0.0
 11
260.040671
 21
272.365261
 31
0.0
  0
LINE
  5
44F
330
448
100
AcDbEntity
  8
LC-001-100-D00-0
 62
     7
370
    25
100
AcDbLine
 10
250.551415
 20
271.856261
 30
0.0
 11
251.060415
 21
272.365261
 31
0.0
  0
LINE
  5
450
330
448
100
AcDbEntity
  8
LC-001-100-D00-0
 62
     7
370
    25
100
AcDbLine
 10
241.571158
 20
271.856261
 30
0.0
 11
242.080158
 21
272.365261
 31
0.0
  0
ENDBLK
  5
44A
330
448
100
AcDbEntity
  8
0
100
AcDbBlockEnd
  0
BLOCK
  5
453
330
452
100
AcDbEntity
  8
0
100
AcDbBlockBegin
  2
KLON13
 70
     0
 71
     0
 10
0.0
 20
0.0
 30
0.0
  3
KLON13
  1

  4
KLON13
  0
LINE
  5
455
330
452
100
AcDbEntity
  8
LC-001-100-D00-0
 62
     7
370
    25
100
AcDbLine
 10
160.619064
 20
208.864679
 30
0.0
 11
163.454295
 21
211.69991
 31
0.0
  0
LINE
  5
456
330
452
100
AcDbEntity
  8
LC-001-100-D00-0
 62
     7
370
    25
100
AcDbLine
 10
160.454295
 20
217.680166
 30
0.0
 11
163.454295
 21
220.680166
 31
0.0
  0
LINE
  5
457
330
452
100
AcDbEntity
  8
LC-001-100-D00-0
 62
     7
370
    25
100
AcDbLine
 10
160.454295
 20
226.660422
 30
0.0
 11
163.454295
 21
229.660422
 31
0.0
  0
LINE
  5
458
330
452
100
AcDbEntity
  8
LC-001-100-D00-0
 62
     7
370
    25
100
AcDbLine
 10
160.454295
 20
235.640678
 30
0.0
 11
163.454295
 21
238.640678
 31
0.0
  0
LINE
  5
459
330
452
100
AcDbEntity
  8
LC-001-100-D00-0
 62
     7
370
    25
100
AcDbLine
 10
160.454295
 20
244.620934
 30
0.0
 11
163.433497
 21
247.600136
 31
0.0
  0
LINE
  5
45A
330
452
100
AcDbEntity
  8
LC-001-100-D00-0
 62
     7
370
    25
100
AcDbLine
 10
159.649237
 20
252.796132
 30
0.0
 11
161.132601
 21
254.279497
 31
0.0
  0
LINE
  5
45B
330
452
100
AcDbEntity
  8
LC-001-100-D00-0
 62
     7
370
    25
100
AcDbLine
 10
155.41867
 20
257.545821
 30
0.0
 11
156.332852
 21
258.460004
 31
0.0
  0
LINE
  5
45C
330
452
100
AcDbEntity
  8
LC-001-100-D00-0
 62
     7
370
    25
100
AcDbLine
 10
147.220322
 20
258.32773
 30
0.0
 11
148.757659
 21
259.865067
 31
0.0
  0
LINE
  5
45D
330
452
100
AcDbEntity
  8
LC-001-100-D00-0
 62
     7
370
    25
100
AcDbLine
 10
139.277597
 20
259.365261
 30
0.0
 11
140.277597
 21
260.365261
 31
0.0
  0
LINE
  5
45E
330
452
100
AcDbEntity
  8
LC-001-100-D00-0
 62
     7
370
    25
100
AcDbLine
 10
141.303905
 20
261.391569
 30
0.0
 11
143.352135
 21
263.439799
 31
0.0
  0
ENDBLK
  5
454
330
452
100
AcDbEntity
  8
0
100
AcDbBlockEnd
  0
BLOCK
  5
461
330
460
100
AcDbEntity
  8
0
100
AcDbBlockBegin
  2
KLON14
 70
     0
 71
     0
 10
0.0
 20
0.0
 30
0.0
  3
KLON14
  1

  4
KLON14
  0
LINE
  5
463
330
460
100
AcDbEntity
  8
LC-001-100-D00-0
 62
     7
370
    25
100
AcDbLine
 10
199.453515
 20
211.778105
 30
0.0
 11
202.453515
 21
214.778105
 31
0.0
  0
LINE
  5
464
330
460
100
AcDbEntity
  8
LC-001-100-D00-0
 62
     7
370
    25
100
AcDbLine
 10
199.453515
 20
220.758361
 30
0.0
 11
202.453515
 21
223.758361
 31
0.0
  0
LINE
  5
465
330
460
100
AcDbEntity
  8
LC-001-100-D00-0
 62
     7
370
    25
100
AcDbLine
 10
199.453515
 20
229.738617
 30
0.0
 11
202.453515
 21
232.738617
 31
0.0
  0
LINE
  5
466
330
460
100
AcDbEntity
  8
LC-001-100-D00-0
 62
     7
370
    25
100
AcDbLine
 10
199.453515
 20
238.718874
 30
0.0
 11
202.453515
 21
241.718874
 31
0.0
  0
LINE
  5
467
330
460
100
AcDbEntity
  8
LC-001-100-D00-0
 62
     7
370
    25
100
AcDbLine
 10
218.824889
 20
258.090248
 30
0.0
 11
219.209015
 21
258.474374
 31
0.0
  0
LINE
  5
468
330
460
100
AcDbEntity
  8
LC-001-100-D00-0
 62
     7
370
    25
100
AcDbLine
 10
220.099902
 20
259.365261
 30
0.0
 11
221.603905
 21
260.869264
 31
0.0
  0
LINE
  5
469
330
460
100
AcDbEntity
  8
LC-001-100-D00-0
 62
     7
370
    25
100
AcDbLine
 10
199.482173
 20
247.727788
 30
0.0
 11
202.664946
 21
250.910561
 31
0.0
  0
LINE
  5
46A
330
460
100
AcDbEntity
  8
LC-001-100-D00-0
 62
     7
370
    25
100
AcDbLine
 10
210.408051
 20
258.653666
 30
0.0
 11
211.590794
 21
259.836409
 31
0.0
  0
ENDBLK
  5
462
330
460
100
AcDbEntity
  8
0
100
AcDbBlockEnd
  0
BLOCK
  5
46D
330
46C
100
AcDbEntity
  8
0
100
AcDbBlockBegin
  2
KLON15
 70
     0
 71
     0
 10
0.0
 20
0.0
 30
0.0
  3
KLON15
  1

  4
KLON15
  0
LINE
  5
46F
330
46C
100
AcDbEntity
  8
LC-001-100-D00-0
 62
     7
370
    25
100
AcDbLine
 10
203.501183
 20
197.865261
 30
0.0
 11
205.001183
 21
199.365261
 31
0.0
  0
LINE
  5
470
330
46C
100
AcDbEntity
  8
LC-001-100-D00-0
 62
     7
370
    25
100
AcDbLine
 10
212.953905
 20
207.317983
 30
0.0
 11
214.453905
 21
208.817983
 31
0.0
  0
LINE
  5
471
330
46C
100
AcDbEntity
  8
LC-001-100-D00-0
 62
     7
370
    25
100
AcDbLine
 10
194.520927
 20
197.865261
 30
0.0
 11
196.020927
 21
199.365261
 31
0.0
  0
LINE
  5
472
330
46C
100
AcDbEntity
  8
LC-001-100-D00-0
 62
     7
370
    25
100
AcDbLine
 10
212.953905
 20
216.298239
 30
0.0
 11
214.453905
 21
217.798239
 31
0.0
  0
LINE
  5
473
330
46C
100
AcDbEntity
  8
LC-001-100-D00-0
 62
     7
370
    25
100
AcDbLine
 10
185.540671
 20
197.865261
 30
0.0
 11
187.040671
 21
199.365261
 31
0.0
  0
LINE
  5
474
330
46C
100
AcDbEntity
  8
LC-001-100-D00-0
 62
     7
370
    25
100
AcDbLine
 10
212.953905
 20
225.278495
 30
0.0
 11
214.453905
 21
226.778495
 31
0.0
  0
LINE
  5
475
330
46C
100
AcDbEntity
  8
LC-001-100-D00-0
 62
     7
370
    25
100
AcDbLine
 10
176.560415
 20
197.865261
 30
0.0
 11
178.060415
 21
199.365261
 31
0.0
  0
LINE
  5
476
330
46C
100
AcDbEntity
  8
LC-001-100-D00-0
 62
     7
370
    25
100
AcDbLine
 10
212.953905
 20
234.258751
 30
0.0
 11
214.453905
 21
235.758751
 31
0.0
  0
LINE
  5
477
330
46C
100
AcDbEntity
  8
LC-001-100-D00-0
 62
     7
370
    25
100
AcDbLine
 10
167.580158
 20
197.865261
 30
0.0
 11
169.080158
 21
199.365261
 31
0.0
  0
LINE
  5
478
330
46C
100
AcDbEntity
  8
LC-001-100-D00-0
 62
     7
370
    25
100
AcDbLine
 10
212.953905
 20
243.239007
 30
0.0
 11
214.453905
 21
244.739007
 31
0.0
  0
LINE
  5
479
330
46C
100
AcDbEntity
  8
LC-001-100-D00-0
 62
     7
370
    25
100
AcDbLine
 10
158.599902
 20
197.865261
 30
0.0
 11
160.099902
 21
199.365261
 31
0.0
  0
LINE
  5
47A
330
46C
100
AcDbEntity
  8
LC-001-100-D00-0
 62
     7
370
    25
100
AcDbLine
 10
219.353905
 20
258.619264
 30
0.0
 11
220.099902
 21
259.365261
 31
0.0
  0
LINE
  5
47B
330
46C
100
AcDbEntity
  8
LC-001-100-D00-0
 62
     7
370
    25
100
AcDbLine
 10
151.265603
 20
199.511218
 30
0.0
 11
152.334364
 21
200.579979
 31
0.0
  0
LINE
  5
47C
330
46C
100
AcDbEntity
  8
LC-001-100-D00-0
 62
     7
370
    25
100
AcDbLine
 10
148.453905
 20
205.679776
 30
0.0
 11
149.953905
 21
207.179776
 31
0.0
  0
LINE
  5
47D
330
46C
100
AcDbEntity
  8
LC-001-100-D00-0
 62
     7
370
    25
100
AcDbLine
 10
148.453905
 20
214.660032
 30
0.0
 11
149.953905
 21
216.160032
 31
0.0
  0
LINE
  5
47E
330
46C
100
AcDbEntity
  8
LC-001-100-D00-0
 62
     7
370
    25
100
AcDbLine
 10
148.453905
 20
223.640288
 30
0.0
 11
149.953905
 21
225.140288
 31
0.0
  0
LINE
  5
47F
330
46C
100
AcDbEntity
  8
LC-001-100-D00-0
 62
     7
370
    25
100
AcDbLine
 10
148.453905
 20
232.620544
 30
0.0
 11
149.953905
 21
234.120544
 31
0.0
  0
LINE
  5
480
330
46C
100
AcDbEntity
  8
LC-001-100-D00-0
 62
     7
370
    25
100
AcDbLine
 10
148.453905
 20
241.6008
 30
0.0
 11
149.953905
 21
243.1008
 31
0.0
  0
LINE
  5
481
330
46C
100
AcDbEntity
  8
LC-001-100-D00-0
 62
     7
370
    25
100
AcDbLine
 10
146.813085
 20
248.940236
 30
0.0
 11
147.849056
 21
249.976208
 31
0.0
  0
LINE
  5
482
330
46C
100
AcDbEntity
  8
LC-001-100-D00-0
 62
     7
370
    25
100
AcDbLine
 10
143.647383
 20
254.754791
 30
0.0
 11
144.683354
 21
255.790762
 31
0.0
  0
LINE
  5
483
330
46C
100
AcDbEntity
  8
LC-001-100-D00-0
 62
     7
370
    25
100
AcDbLine
 10
138.953905
 20
259.041569
 30
0.0
 11
139.277597
 21
259.365261
 31
0.0
  0
ENDBLK
  5
46E
330
46C
100
AcDbEntity
  8
0
100
AcDbBlockEnd
  0
BLOCK
  5
488
330
487
100
AcDbEntity
  8
0
100
AcDbBlockBegin
  2
KLON16
 70
     0
 71
     0
 10
0.0
 20
0.0
 30
0.0
  3
KLON16
  1

  4
KLON16
  0
LINE
  5
48A
330
487
100
AcDbEntity
  8
LC-001-100-D00-0
 62
     7
370
    25
100
AcDbLine
 10
394.886561
 20
200.665261
 30
0.0
 11
397.94016
 21
203.718859
 31
0.0
  0
LINE
  5
48B
330
487
100
AcDbEntity
  8
LC-001-100-D00-0
 62
     7
370
    25
100
AcDbLine
 10
385.906305
 20
200.665261
 30
0.0
 11
389.037595
 21
203.796551
 31
0.0
  0
LINE
  5
48C
330
487
100
AcDbEntity
  8
LC-001-100-D00-0
 62
     7
370
    25
100
AcDbLine
 10
376.926049
 20
200.665261
 30
0.0
 11
380.13503
 21
203.874242
 31
0.0
  0
LINE
  5
48D
330
487
100
AcDbEntity
  8
LC-001-100-D00-0
 62
     7
370
    25
100
AcDbLine
 10
367.945793
 20
200.665261
 30
0.0
 11
371.232466
 21
203.951934
 31
0.0
  0
LINE
  5
48E
330
487
100
AcDbEntity
  8
LC-001-100-D00-0
 62
     7
370
    25
100
AcDbLine
 10
361.881905
 20
203.581629
 30
0.0
 11
364.881905
 21
206.581629
 31
0.0
  0
LINE
  5
48F
330
487
100
AcDbEntity
  8
LC-001-100-D00-0
 62
     7
370
    25
100
AcDbLine
 10
353.485281
 20
204.165261
 30
0.0
 11
356.557923
 21
207.237903
 31
0.0
  0
LINE
  5
490
330
487
100
AcDbEntity
  8
LC-001-100-D00-0
 62
     7
370
    25
100
AcDbLine
 10
344.505025
 20
204.165261
 30
0.0
 11
347.655359
 21
207.315595
 31
0.0
  0
LINE
  5
491
330
487
100
AcDbEntity
  8
LC-001-100-D00-0
 62
     7
370
    25
100
AcDbLine
 10
335.524769
 20
204.165261
 30
0.0
 11
338.752794
 21
207.393286
 31
0.0
  0
LINE
  5
492
330
487
100
AcDbEntity
  8
LC-001-100-D00-0
 62
     7
370
    25
100
AcDbLine
 10
326.544512
 20
204.165261
 30
0.0
 11
329.945754
 21
207.566502
 31
0.0
  0
LINE
  5
493
330
487
100
AcDbEntity
  8
LC-001-100-D00-0
 62
     7
370
    25
100
AcDbLine
 10
314.024741
 20
200.625746
 30
0.0
 11
319.138961
 21
205.739966
 31
0.0
  0
LINE
  5
494
330
487
100
AcDbEntity
  8
LC-001-100-D00-0
 62
     7
370
    25
100
AcDbLine
 10
303.934
 20
199.515261
 30
0.0
 11
306.913883
 21
202.495144
 31
0.0
  0
LINE
  5
495
330
487
100
AcDbEntity
  8
LC-001-100-D00-0
 62
     7
370
    25
100
AcDbLine
 10
295.605064
 20
200.16658
 30
0.0
 11
298.709742
 21
203.271259
 31
0.0
  0
ENDBLK
  5
489
330
487
100
AcDbEntity
  8
0
100
AcDbBlockEnd
  0
BLOCK
  5
498
330
497
100
AcDbEntity
  8
0
100
AcDbBlockBegin
  2
KLON17
 70
     0
 71
     0
 10
0.0
 20
0.0
 30
0.0
  3
KLON17
  1

  4
KLON17
  0
LINE
  5
49A
330
497
100
AcDbEntity
  8
LC-001-100-D00-0
 62
     7
370
    25
100
AcDbLine
 10
400.977937
 20
260.638173
 30
0.0
 11
403.225001
 21
262.885238
 31
0.0
  0
LINE
  5
49B
330
497
100
AcDbEntity
  8
LC-001-100-D00-0
 62
     7
370
    25
100
AcDbLine
 10
391.918621
 20
260.559113
 30
0.0
 11
395.024769
 21
263.665261
 31
0.0
  0
LINE
  5
49C
330
497
100
AcDbEntity
  8
LC-001-100-D00-0
 62
     7
370
    25
100
AcDbLine
 10
382.859306
 20
260.480054
 30
0.0
 11
386.044512
 21
263.665261
 31
0.0
  0
LINE
  5
49D
330
497
100
AcDbEntity
  8
LC-001-100-D00-0
 62
     7
370
    25
100
AcDbLine
 10
373.79999
 20
260.400995
 30
0.0
 11
377.064256
 21
263.665261
 31
0.0
  0
LINE
  5
49E
330
497
100
AcDbEntity
  8
LC-001-100-D00-0
 62
     7
370
    25
100
AcDbLine
 10
361.554966
 20
257.136227
 30
0.0
 11
368.084
 21
263.665261
 31
0.0
  0
LINE
  5
49F
330
497
100
AcDbEntity
  8
LC-001-100-D00-0
 62
     7
370
    25
100
AcDbLine
 10
352.495651
 20
257.057168
 30
0.0
 11
355.603744
 21
260.165261
 31
0.0
  0
LINE
  5
4A0
330
497
100
AcDbEntity
  8
LC-001-100-D00-0
 62
     7
370
    25
100
AcDbLine
 10
361.881905
 20
266.443422
 30
0.0
 11
363.603744
 21
268.165261
 31
0.0
  0
LINE
  5
4A1
330
497
100
AcDbEntity
  8
LC-001-100-D00-0
 62
     7
370
    25
100
AcDbLine
 10
343.436335
 20
256.978108
 30
0.0
 11
346.623488
 21
260.165261
 31
0.0
  0
LINE
  5
4A2
330
497
100
AcDbEntity
  8
LC-001-100-D00-0
 62
     7
370
    25
100
AcDbLine
 10
334.37702
 20
256.899049
 30
0.0
 11
337.643232
 21
260.165261
 31
0.0
  0
LINE
  5
4A3
330
497
100
AcDbEntity
  8
LC-001-100-D00-0
 62
     7
370
    25
100
AcDbLine
 10
323.978999
 20
255.481284
 30
0.0
 11
328.662976
 21
260.165261
 31
0.0
  0
LINE
  5
4A4
330
497
100
AcDbEntity
  8
LC-001-100-D00-0
 62
     7
370
    25
100
AcDbLine
 10
318.450187
 20
258.932728
 30
0.0
 11
320.648543
 21
261.131084
 31
0.0
  0
LINE
  5
4A5
330
497
100
AcDbEntity
  8
LC-001-100-D00-0
 62
     7
370
    25
100
AcDbLine
 10
311.754049
 20
261.216847
 30
0.0
 11
314.195714
 21
263.658511
 31
0.0
  0
LINE
  5
4A6
330
497
100
AcDbEntity
  8
LC-001-100-D00-0
 62
     7
370
    25
100
AcDbLine
 10
303.337264
 20
261.780318
 30
0.0
 11
306.362866
 21
264.80592
 31
0.0
  0
LINE
  5
4A7
330
497
100
AcDbEntity
  8
LC-001-100-D00-0
 62
     7
370
    25
100
AcDbLine
 10
295.081905
 20
262.505215
 30
0.0
 11
297.391951
 21
264.815261
 31
0.0
  0
ENDBLK
  5
499
330
497
100
AcDbEntity
  8
0
100
AcDbBlockEnd
  0
BLOCK
  5
4AA
330
4A9
100
AcDbEntity
  8
0
100
AcDbBlockBegin
  2
KLON18
 70
     0
 71
     0
 10
0.0
 20
0.0
 30
0.0
  3
KLON18
  1

  4
KLON18
  0
LINE
  5
4AC
330
4A9
100
AcDbEntity
  8
LC-001-100-D00-0
 62
     7
370
    25
100
AcDbLine
 10
308.064256
 20
194.665261
 30
0.0
 11
311.064257
 21
197.665261
 31
0.0
  0
LINE
  5
4AD
330
4A9
100
AcDbEntity
  8
LC-001-100-D00-0
 62
     7
370
    25
100
AcDbLine
 10
299.084
 20
194.665261
 30
0.0
 11
302.084001
 21
197.665261
 31
0.0
  0
LINE
  5
4AE
330
4A9
100
AcDbEntity
  8
LC-001-100-D00-0
 62
     7
370
    25
100
AcDbLine
 10
291.396886
 20
195.958402
 30
0.0
 11
293.518206
 21
198.079723
 31
0.0
  0
LINE
  5
4AF
330
4A9
100
AcDbEntity
  8
LC-001-100-D00-0
 62
     7
370
    25
100
AcDbLine
 10
286.906757
 20
200.44853
 30
0.0
 11
289.028078
 21
202.569851
 31
0.0
  0
LINE
  5
4B0
330
4A9
100
AcDbEntity
  8
LC-001-100-D00-0
 62
     7
370
    25
100
AcDbLine
 10
282.043232
 20
204.565261
 30
0.0
 11
283.643232
 21
206.165261
 31
0.0
  0
ENDBLK
  5
4AB
330
4A9
100
AcDbEntity
  8
0
100
AcDbBlockEnd
  0
BLOCK
  5
4B3
330
4B2
100
AcDbEntity
  8
0
100
AcDbBlockBegin
  2
KLON19
 70
     0
 71
     0
 10
0.0
 20
0.0
 30
0.0
  3
KLON19
  1

  4
KLON19
  0
LINE
  5
4B5
330
4B2
100
AcDbEntity
  8
LC-001-100-D00-0
 62
     7
370
    25
100
AcDbLine
 10
316.325972
 20
265.78877
 30
0.0
 11
318.452503
 21
267.9153
 31
0.0
  0
LINE
  5
4B6
330
4B2
100
AcDbEntity
  8
LC-001-100-D00-0
 62
     7
370
    25
100
AcDbLine
 10
308.222207
 20
266.66526
 30
0.0
 11
311.222207
 21
269.665261
 31
0.0
  0
LINE
  5
4B7
330
4B2
100
AcDbEntity
  8
LC-001-100-D00-0
 62
     7
370
    25
100
AcDbLine
 10
299.241951
 20
266.66526
 30
0.0
 11
302.241951
 21
269.665261
 31
0.0
  0
LINE
  5
4B8
330
4B2
100
AcDbEntity
  8
LC-001-100-D00-0
 62
     7
370
    25
100
AcDbLine
 10
281.761695
 20
258.165261
 30
0.0
 11
284.981905
 21
261.385471
 31
0.0
  0
LINE
  5
4B9
330
4B2
100
AcDbEntity
  8
LC-001-100-D00-0
 62
     7
370
    25
100
AcDbLine
 10
285.011695
 20
261.415261
 30
0.0
 11
293.261695
 21
269.665261
 31
0.0
  0
ENDBLK
  5
4B4
330
4B2
100
AcDbEntity
  8
0
100
AcDbBlockEnd
  0
BLOCK
  5
4C9
330
4BF
100
AcDbEntity
  8
0
100
AcDbBlockBegin
  2
*D42
 70
     1
 71
     0
 10
0.0
 20
0.0
 30
0.0
  3
*D42
  1

  0
LINE
  5
4C0
330
4BF
100
AcDbEntity
  8
LC-001-100-D00-0
 62
     2
370
    -2
100
AcDbLine
 10
48.604905
 20
269.311261
 30
0.0
 11
48.604905
 21
319.965261
 31
0.0
  0
LINE
  5
4C1
330
4BF
100
AcDbEntity
  8
LC-001-100-D00-0
 62
     2
370
    -2
100
AcDbLine
 10
314.302905
 20
272.365261
 30
0.0
 11
314.302905
 21
319.965261
 31
0.0
  0
LINE
  5
4C2
330
4BF
100
AcDbEntity
  8
LC-001-100-D00-0
 62
     2
370
    -2
100
AcDbLine
 10
76.604905
 20
316.365261
 30
0.0
 11
286.302905
 21
316.365261
 31
0.0
  0
SOLID
  5
4C3
330
4BF
100
AcDbEntity
  8
LC-001-100-D00-0
 62
     2
100
AcDbTrace
 10
76.604905
 20
321.031928
 30
0.0
 11
76.604905
 21
311.698594
 31
0.0
 12
48.604905
 22
316.365261
 32
0.0
 13
48.604905
 23
316.365261
 33
0.0
  0
SOLID
  5
4C4
330
4BF
100
AcDbEntity
  8
LC-001-100-D00-0
 62
     2
100
AcDbTrace
 10
286.302905
 20
311.698594
 30
0.0
 11
286.302905
 21
321.031928
 31
0.0
 12
314.302905
 22
316.365261
 32
0.0
 13
314.302905
 23
316.365261
 33
0.0
  0
MTEXT
  5
4C5
330
4BF
100
AcDbEntity
  8
LC-001-100-D00-0
 62
     2
100
AcDbMText
 10
182.042305
 20
347.165261
 30
0.0
 40
28.0
 41
0.0
 71
     5
 72
     1
  1
\A1;%%c260
  7
LCTX15-400-0-0pDIN-Schrift
 73
     1
 44
1.0
  0
POINT
  5
4C6
330
4BF
100
AcDbEntity
  8
Defpoints
 62
     0
100
AcDbPoint
 10
48.604905
 20
269.311261
 30
0.0
  0
POINT
  5
4C7
330
4BF
100
AcDbEntity
  8
Defpoints
 62
     0
100
AcDbPoint
 10
314.302905
 20
272.365261
 30
0.0
  0
POINT
  5
4C8
330
4BF
100
AcDbEntity
  8
Defpoints
 62
     0
100
AcDbPoint
 10
314.302905
 20
316.365261
 30
0.0
  0
ENDBLK
  5
4CA
330
4BF
100
AcDbEntity
  8
0
100
AcDbBlockEnd
  0
BLOCK
  5
4D6
330
4CC
100
AcDbEntity
  8
0
100
AcDbBlockBegin
  2
*D43
 70
     1
 71
     0
 10
0.0
 20
0.0
 30
0.0
  3
*D43
  1

  0
LINE
  5
4CD
330
4CC
100
AcDbEntity
  8
LC-001-100-D00-0
 62
     2
370
    -2
100
AcDbLine
 10
48.604905
 20
272.365261
 30
0.0
 11
0.559042
 21
272.365261
 31
0.0
  0
LINE
  5
4CE
330
4CC
100
AcDbEntity
  8
LC-001-100-D00-0
 62
     2
370
    -2
100
AcDbLine
 10
142.181905
 20
194.365261
 30
0.0
 11
0.559042
 21
194.365261
 31
0.0
  0
LINE
  5
4CF
330
4CC
100
AcDbEntity
  8
LC-001-100-D00-0
 62
     2
370
    -2
100
AcDbLine
 10
4.159042
 20
244.365261
 30
0.0
 11
4.159042
 21
222.365261
 31
0.0
  0
SOLID
  5
4D0
330
4CC
100
AcDbEntity
  8
LC-001-100-D00-0
 62
     2
100
AcDbTrace
 10
8.825709
 20
244.365261
 30
0.0
 11
-0.507625
 21
244.365261
 31
0.0
 12
4.159042
 22
272.365261
 32
0.0
 13
4.159042
 23
272.365261
 33
0.0
  0
SOLID
  5
4D1
330
4CC
100
AcDbEntity
  8
LC-001-100-D00-0
 62
     2
100
AcDbTrace
 10
-0.507625
 20
222.365261
 30
0.0
 11
8.825709
 21
222.365261
 31
0.0
 12
4.159042
 22
194.365261
 32
0.0
 13
4.159042
 23
194.365261
 33
0.0
  0
MTEXT
  5
4D2
330
4CC
100
AcDbEntity
  8
LC-001-100-D00-0
 62
     2
100
AcDbMText
 10
-26.640958
 20
226.079819
 30
0.0
 40
28.0
 41
0.0
 71
     5
 72
     1
  1
\A1;78
  7
LCTX15-400-0-0pDIN-Schrift
 11
6.123031769111886E-17
 21
1.0
 31
0.0
 73
     1
 44
1.0
  0
POINT
  5
4D3
330
4CC
100
AcDbEntity
  8
Defpoints
 62
     0
100
AcDbPoint
 10
48.604905
 20
272.365261
 30
0.0
  0
POINT
  5
4D4
330
4CC
100
AcDbEntity
  8
Defpoints
 62
     0
100
AcDbPoint
 10
142.181905
 20
194.365261
 30
0.0
  0
POINT
  5
4D5
330
4CC
100
AcDbEntity
  8
Defpoints
 62
     0
100
AcDbPoint
 10
4.159042
 20
194.365261
 30
0.0
  0
ENDBLK
  5
4D7
330
4CC
100
AcDbEntity
  8
0
100
AcDbBlockEnd
  0
BLOCK
  5
4E4
330
4D9
100
AcDbEntity
  8
0
100
AcDbBlockBegin
  2
*D44
 70
     1
 71
     0
 10
0.0
 20
0.0
 30
0.0
  3
*D44
  1

  0
LINE
  5
4DA
330
4D9
100
AcDbEntity
  8
LC-001-100-D00-0
 62
     2
370
    -2
100
AcDbLine
 10
160.454295
 20
208.864679
 30
0.0
 11
101.617114
 21
208.864679
 31
0.0
  0
LINE
  5
4DB
330
4D9
100
AcDbEntity
  8
LC-001-100-D00-0
 62
     2
370
    -2
100
AcDbLine
 10
148.453905
 20
248.865261
 30
0.0
 11
101.617114
 21
248.865261
 31
0.0
  0
LINE
  5
4DC
330
4D9
100
AcDbEntity
  8
LC-001-100-D00-0
 62
     2
370
    -2
100
AcDbLine
 10
105.217114
 20
276.865261
 30
0.0
 11
105.217114
 21
304.865261
 31
0.0
  0
LINE
  5
4DD
330
4D9
100
AcDbEntity
  8
LC-001-100-D00-0
 62
     2
370
    -2
100
AcDbLine
 10
105.217114
 20
180.864679
 30
0.0
 11
105.217114
 21
146.669491
 31
0.0
  0
SOLID
  5
4DE
330
4D9
100
AcDbEntity
  8
LC-001-100-D00-0
 62
     2
100
AcDbTrace
 10
109.883781
 20
180.864679
 30
0.0
 11
100.550447
 21
180.864679
 31
0.0
 12
105.217114
 22
208.864679
 32
0.0
 13
105.217114
 23
208.864679
 33
0.0
  0
SOLID
  5
4DF
330
4D9
100
AcDbEntity
  8
LC-001-100-D00-0
 62
     2
100
AcDbTrace
 10
100.550447
 20
276.865261
 30
0.0
 11
109.883781
 21
276.865261
 31
0.0
 12
105.217114
 22
248.865261
 32
0.0
 13
105.217114
 23
248.865261
 33
0.0
  0
MTEXT
  5
4E0
330
4D9
100
AcDbEntity
  8
LC-001-100-D00-0
 62
     2
100
AcDbMText
 10
74.417114
 20
169.055819
 30
0.0
 40
28.0
 41
0.0
 71
     5
 72
     1
  1
\A1;40
  7
LCTX15-400-0-0pDIN-Schrift
 11
6.123031769111886E-17
 21
1.0
 31
0.0
 73
     1
 44
1.0
  0
POINT
  5
4E1
330
4D9
100
AcDbEntity
  8
Defpoints
 62
     0
100
AcDbPoint
 10
160.454295
 20
208.864679
 30
0.0
  0
POINT
  5
4E2
330
4D9
100
AcDbEntity
  8
Defpoints
 62
     0
100
AcDbPoint
 10
148.453905
 20
248.865261
 30
0.0
  0
POINT
  5
4E3
330
4D9
100
AcDbEntity
  8
Defpoints
 62
     0
100
AcDbPoint
 10
105.217114
 20
248.865261
 30
0.0
  0
ENDBLK
  5
4E5
330
4D9
100
AcDbEntity
  8
0
100
AcDbBlockEnd
  0
BLOCK
  5
4F1
330
4E7
100
AcDbEntity
  8
0
100
AcDbBlockBegin
  2
*D45
 70
     1
 71
     0
 10
0.0
 20
0.0
 30
0.0
  3
*D45
  1

  0
LINE
  5
4E8
330
4E7
100
AcDbEntity
  8
LC-001-100-D00-0
 62
     2
370
    -2
100
AcDbLine
 10
181.453905
 20
204.864679
 30
0.0
 11
181.453905
 21
140.507819
 31
0.0
  0
LINE
  5
4E9
330
4E7
100
AcDbEntity
  8
LC-001-100-D00-0
 62
     2
370
    -2
100
AcDbLine
 10
404.081905
 20
201.757172
 30
0.0
 11
404.081905
 21
140.507819
 31
0.0
  0
LINE
  5
4EA
330
4E7
100
AcDbEntity
  8
LC-001-100-D00-0
 62
     2
370
    -2
100
AcDbLine
 10
209.453905
 20
144.107819
 30
0.0
 11
376.081905
 21
144.107819
 31
0.0
  0
SOLID
  5
4EB
330
4E7
100
AcDbEntity
  8
LC-001-100-D00-0
 62
     2
100
AcDbTrace
 10
209.453905
 20
148.774486
 30
0.0
 11
209.453905
 21
139.441152
 31
0.0
 12
181.453905
 22
144.107819
 32
0.0
 13
181.453905
 23
144.107819
 33
0.0
  0
SOLID
  5
4EC
330
4E7
100
AcDbEntity
  8
LC-001-100-D00-0
 62
     2
100
AcDbTrace
 10
376.081905
 20
139.441152
 30
0.0
 11
376.081905
 21
148.774486
 31
0.0
 12
404.081905
 22
144.107819
 32
0.0
 13
404.081905
 23
144.107819
 33
0.0
  0
MTEXT
  5
4ED
330
4E7
100
AcDbEntity
  8
LC-001-100-D00-0
 62
     2
100
AcDbMText
 10
294.036143
 20
174.907819
 30
0.0
 40
28.0
 41
0.0
 71
     5
 72
     1
  1
\A1;220
  7
LCTX15-400-0-0pDIN-Schrift
 73
     1
 44
1.0
  0
POINT
  5
4EE
330
4E7
100
AcDbEntity
  8
Defpoints
 62
     0
100
AcDbPoint
 10
181.453905
 20
204.864679
 30
0.0
  0
POINT
  5
4EF
330
4E7
100
AcDbEntity
  8
Defpoints
 62
     0
100
AcDbPoint
 10
404.081905
 20
201.757172
 30
0.0
  0
POINT
  5
4F0
330
4E7
100
AcDbEntity
  8
Defpoints
 62
     0
100
AcDbPoint
 10
404.081905
 20
144.107819
 30
0.0
  0
ENDBLK
  5
4F2
330
4E7
100
AcDbEntity
  8
0
100
AcDbBlockEnd
  0
BLOCK
  5
4FF
330
4F4
100
AcDbEntity
  8
0
100
AcDbBlockBegin
  2
*D46
 70
     1
 71
     0
 10
0.0
 20
0.0
 30
0.0
  3
*D46
  1

  0
LINE
  5
4F5
330
4F4
100
AcDbEntity
  8
LC-001-100-D00-0
 62
     2
370
    -2
100
AcDbLine
 10
314.302905
 20
272.365261
 30
0.0
 11
427.681905
 21
272.365261
 31
0.0
  0
LINE
  5
4F6
330
4F4
100
AcDbEntity
  8
LC-001-100-D00-0
 62
     2
370
    -2
100
AcDbLine
 10
368.881905
 20
232.165261
 30
0.0
 11
427.681905
 21
232.165261
 31
0.0
  0
LINE
  5
4F7
330
4F4
100
AcDbEntity
  8
LC-001-100-D00-0
 62
     2
370
    -2
100
AcDbLine
 10
424.081905
 20
204.165261
 30
0.0
 11
424.081905
 21
176.165261
 31
0.0
  0
LINE
  5
4F8
330
4F4
100
AcDbEntity
  8
LC-001-100-D00-0
 62
     2
370
    -2
100
AcDbLine
 10
424.081905
 20
300.365261
 30
0.0
 11
424.081905
 21
318.953013
 31
0.0
  0
SOLID
  5
4F9
330
4F4
100
AcDbEntity
  8
LC-001-100-D00-0
 62
     2
100
AcDbTrace
 10
419.415238
 20
300.365261
 30
0.0
 11
428.748572
 21
300.365261
 31
0.0
 12
424.081905
 22
272.365261
 32
0.0
 13
424.081905
 23
272.365261
 33
0.0
  0
SOLID
  5
4FA
330
4F4
100
AcDbEntity
  8
LC-001-100-D00-0
 62
     2
100
AcDbTrace
 10
428.748572
 20
204.165261
 30
0.0
 11
419.415238
 21
204.165261
 31
0.0
 12
424.081905
 22
232.165261
 32
0.0
 13
424.081905
 23
232.165261
 33
0.0
  0
MTEXT
  5
4FB
330
4F4
100
AcDbEntity
  8
LC-001-100-D00-0
 62
     2
100
AcDbMText
 10
393.281905
 20
296.566685
 30
0.0
 40
28.0
 41
0.0
 71
     5
 72
     1
  1
\A1;40
  7
LCTX15-400-0-0pDIN-Schrift
 11
6.123031769111886E-17
 21
1.0
 31
0.0
 73
     1
 44
1.0
  0
POINT
  5
4FC
330
4F4
100
AcDbEntity
  8
Defpoints
 62
     0
100
AcDbPoint
 10
314.302905
 20
272.365261
 30
0.0
  0
POINT
  5
4FD
330
4F4
100
AcDbEntity
  8
Defpoints
 62
     0
100
AcDbPoint
 10
368.881905
 20
232.165261
 30
0.0
  0
POINT
  5
4FE
330
4F4
100
AcDbEntity
  8
Defpoints
 62
     0
100
AcDbPoint
 10
424.081905
 20
232.165261
 30
0.0
  0
ENDBLK
  5
500
330
4F4
100
AcDbEntity
  8
0
100
AcDbBlockEnd
  0
BLOCK
  5
50D
330
502
100
AcDbEntity
  8
0
100
AcDbBlockBegin
  2
*D47
 70
     1
 71
     0
 10
0.0
 20
0.0
 30
0.0
  3
*D47
  1

  0
LINE
  5
503
330
502
100
AcDbEntity
  8
LC-001-100-D00-0
 62
     2
370
    -2
100
AcDbLine
 10
401.081905
 20
263.665261
 30
0.0
 11
522.800619
 21
263.665261
 31
0.0
  0
LINE
  5
504
330
502
100
AcDbEntity
  8
LC-001-100-D00-0
 62
     2
370
    -2
100
AcDbLine
 10
401.081905
 20
200.665261
 30
0.0
 11
522.800619
 21
200.665261
 31
0.0
  0
LINE
  5
505
330
502
100
AcDbEntity
  8
LC-001-100-D00-0
 62
     2
370
    -2
100
AcDbLine
 10
519.200619
 20
235.665261
 30
0.0
 11
519.200619
 21
228.665261
 31
0.0
  0
LINE
  5
506
330
502
100
AcDbEntity
  8
LC-001-100-D00-0
 62
     2
370
    -2
100
AcDbLine
 10
519.200619
 20
200.665261
 30
0.0
 11
519.200619
 21
158.187095
 31
0.0
  0
SOLID
  5
507
330
502
100
AcDbEntity
  8
LC-001-100-D00-0
 62
     2
100
AcDbTrace
 10
523.867286
 20
235.665261
 30
0.0
 11
514.533952
 21
235.665261
 31
0.0
 12
519.200619
 22
263.665261
 32
0.0
 13
519.200619
 23
263.665261
 33
0.0
  0
SOLID
  5
508
330
502
100
AcDbEntity
  8
LC-001-100-D00-0
 62
     2
100
AcDbTrace
 10
514.533952
 20
228.665261
 30
0.0
 11
523.867286
 21
228.665261
 31
0.0
 12
519.200619
 22
200.665261
 32
0.0
 13
519.200619
 23
200.665261
 33
0.0
  0
MTEXT
  5
509
330
502
100
AcDbEntity
  8
LC-001-100-D00-0
 62
     2
100
AcDbMText
 10
488.400619
 20
180.935819
 30
0.0
 40
28.0
 41
0.0
 71
     5
 72
     1
  1
\A1;%%c63
  7
LCTX15-400-0-0pDIN-Schrift
 11
6.123031769111886E-17
 21
1.0
 31
0.0
 73
     1
 44
1.0
  0
POINT
  5
50A
330
502
100
AcDbEntity
  8
Defpoints
 62
     0
100
AcDbPoint
 10
401.081905
 20
263.665261
 30
0.0
  0
POINT
  5
50B
330
502
100
AcDbEntity
  8
Defpoints
 62
     0
100
AcDbPoint
 10
401.081905
 20
200.665261
 30
0.0
  0
POINT
  5
50C
330
502
100
AcDbEntity
  8
Defpoints
 62
     0
100
AcDbPoint
 10
519.200619
 20
200.665261
 30
0.0
  0
ENDBLK
  5
50E
330
502
100
AcDbEntity
  8
0
100
AcDbBlockEnd
  0
BLOCK
  5
51B
330
510
100
AcDbEntity
  8
0
100
AcDbBlockBegin
  2
*D48
 70
     1
 71
     0
 10
0.0
 20
0.0
 30
0.0
  3
*D48
  1

  0
LINE
  5
511
330
510
100
AcDbEntity
  8
LC-001-100-D00-0
 62
     2
370
    -2
100
AcDbLine
 10
361.381905
 20
260.165261
 30
0.0
 11
469.61216
 21
260.165261
 31
0.0
  0
LINE
  5
512
330
510
100
AcDbEntity
  8
LC-001-100-D00-0
 62
     2
370
    -2
100
AcDbLine
 10
361.381905
 20
204.165261
 30
0.0
 11
469.61216
 21
204.165261
 31
0.0
  0
LINE
  5
513
330
510
100
AcDbEntity
  8
LC-001-100-D00-0
 62
     2
370
    -2
100
AcDbLine
 10
466.01216
 20
288.165261
 30
0.0
 11
466.01216
 21
316.165261
 31
0.0
  0
LINE
  5
514
330
510
100
AcDbEntity
  8
LC-001-100-D00-0
 62
     2
370
    -2
100
AcDbLine
 10
466.01216
 20
176.165261
 30
0.0
 11
466.01216
 21
128.13496
 31
0.0
  0
SOLID
  5
515
330
510
100
AcDbEntity
  8
LC-001-100-D00-0
 62
     2
100
AcDbTrace
 10
461.345494
 20
288.165261
 30
0.0
 11
470.678827
 21
288.165261
 31
0.0
 12
466.01216
 22
260.165261
 32
0.0
 13
466.01216
 23
260.165261
 33
0.0
  0
SOLID
  5
516
330
510
100
AcDbEntity
  8
LC-001-100-D00-0
 62
     2
100
AcDbTrace
 10
470.678827
 20
176.165261
 30
0.0
 11
461.345494
 21
176.165261
 31
0.0
 12
466.01216
 22
204.165261
 32
0.0
 13
466.01216
 23
204.165261
 33
0.0
  0
MTEXT
  5
517
330
510
100
AcDbEntity
  8
LC-001-100-D00-0
 62
     2
100
AcDbMText
 10
435.21216
 20
151.235819
 30
0.0
 40
28.0
 41
0.0
 71
     5
 72
     1
  1
\A1;%%c56
  7
LCTX15-400-0-0pDIN-Schrift
 11
6.123031769111886E-17
 21
1.0
 31
0.0
 73
     1
 44
1.0
  0
POINT
  5
518
330
510
100
AcDbEntity
  8
Defpoints
 62
     0
100
AcDbPoint
 10
361.381905
 20
260.165261
 30
0.0
  0
POINT
  5
519
330
510
100
AcDbEntity
  8
Defpoints
 62
     0
100
AcDbPoint
 10
361.381905
 20
204.165261
 30
0.0
  0
POINT
  5
51A
330
510
100
AcDbEntity
  8
Defpoints
 62
     0
100
AcDbPoint
 10
466.01216
 20
204.165261
 30
0.0
  0
ENDBLK
  5
51C
330
510
100
AcDbEntity
  8
0
100
AcDbBlockEnd
  0
BLOCK
  5
52C
330
521
100
AcDbEntity
  8
0
100
AcDbBlockBegin
  2
*D49
 70
     1
 71
     0
 10
0.0
 20
0.0
 30
0.0
  3
*D49
  1

  0
LINE
  5
522
330
521
100
AcDbEntity
  8
LC-002-003-----0
 62
     2
370
    -2
100
AcDbLine
 10
48.604903
 20
272.365261
 30
0.0
 11
64.493398
 21
272.365261
 31
0.0
  0
LINE
  5
523
330
521
100
AcDbEntity
  8
LC-002-003-----0
 62
     2
370
    -2
100
AcDbLine
 10
78.57835
 20
254.041261
 30
0.0
 11
57.293398
 21
254.041261
 31
0.0
  0
LINE
  5
524
330
521
100
AcDbEntity
  8
LC-002-003-----0
 62
     2
370
    -2
100
AcDbLine
 10
60.893398
 20
300.365261
 30
0.0
 11
60.893398
 21
328.365261
 31
0.0
  0
LINE
  5
525
330
521
100
AcDbEntity
  8
LC-002-003-----0
 62
     2
370
    -2
100
AcDbLine
 10
60.893398
 20
226.041261
 30
0.0
 11
60.893398
 21
204.749095
 31
0.0
  0
SOLID
  5
526
330
521
100
AcDbEntity
  8
LC-002-003-----0
 62
     2
100
AcDbTrace
 10
56.226731
 20
300.365261
 30
0.0
 11
65.560065
 21
300.365261
 31
0.0
 12
60.893398
 22
272.365261
 32
0.0
 13
60.893398
 23
272.365261
 33
0.0
  0
SOLID
  5
527
330
521
100
AcDbEntity
  8
LC-002-003-----0
 62
     2
100
AcDbTrace
 10
65.560065
 20
226.041261
 30
0.0
 11
56.226731
 21
226.041261
 31
0.0
 12
60.893398
 22
254.041261
 32
0.0
 13
60.893398
 23
254.041261
 33
0.0
  0
MTEXT
  5
528
330
521
100
AcDbEntity
  8
LC-002-003-----0
 62
     2
100
AcDbMText
 10
30.093398
 20
224.297819
 30
0.0
 40
28.0
 41
0.0
 71
     5
 72
     1
  1
\A1;18
  7
LCTX15-400-0-0pDIN-Schrift
 11
6.123031769111886E-17
 21
1.0
 31
0.0
 73
     1
 44
1.0
  0
POINT
  5
529
330
521
100
AcDbEntity
  8
Defpoints
 62
     0
100
AcDbPoint
 10
48.604903
 20
272.365261
 30
0.0
  0
POINT
  5
52A
330
521
100
AcDbEntity
  8
Defpoints
 62
     0
100
AcDbPoint
 10
78.57835
 20
254.041261
 30
0.0
  0
POINT
  5
52B
330
521
100
AcDbEntity
  8
Defpoints
 62
     0
100
AcDbPoint
 10
60.893398
 20
254.041261
 30
0.0
  0
ENDBLK
  5
52D
330
521
100
AcDbEntity
  8
0
100
AcDbBlockEnd
  0
ENDSEC
  0
SECTION
  2
ENTITIES
  0
ARC
  5
31
330
1F
100
AcDbEntity
  8
LC-001-100-D00-0
 62
     7
370
    50
100
AcDbCircle
 10
364.381905
 20
-21.667181
 30
0.0
 40
0.5
100
AcDbArc
 50
270.0
 51
0.0
  0
ARC
  5
32
330
1F
100
AcDbEntity
  8
LC-001-100-D00-0
 62
     7
370
    50
100
AcDbCircle
 10
364.381905
 20
-13.667181
 30
0.0
 40
0.5
100
AcDbArc
 50
0.0
 51
90.0
  0
ARC
  5
33
330
1F
100
AcDbEntity
  8
LC-001-100-D00-0
 62
     7
370
    50
100
AcDbCircle
 10
362.381905
 20
-13.667181
 30
0.0
 40
0.5000000000001137
100
AcDbArc
 50
90.0
 51
180.0
  0
ARC
  5
34
330
1F
100
AcDbEntity
  8
LC-001-100-D00-0
 62
     7
370
    50
100
AcDbCircle
 10
362.381905
 20
-21.667181
 30
0.0
 40
0.5000000000001137
100
AcDbArc
 50
180.0
 51
270.0
  0
LINE
  5
35
330
1F
100
AcDbEntity
  8
LC-001-100-D00-0
 62
     7
370
    50
100
AcDbLine
 10
362.381902
 20
-22.167181
 30
0.0
 11
364.381906
 21
-22.167181
 31
0.0
  0
LINE
  5
36
330
1F
100
AcDbEntity
  8
LC-001-100-D00-0
 62
     7
370
    50
100
AcDbLine
 10
364.381906
 20
-13.16718
 30
0.0
 11
362.381902
 21
-13.16718
 31
0.0
  0
INSERT
  5
3C
330
1F
100
AcDbEntity
  8
LC-001-100-D00-0
 62
     7
370
    50
100
AcDbBlockReference
  2
KLON1
 10
0.0
 20
0.0
 30
0.0
  0
ARC
  5
3D
330
1F
100
AcDbEntity
  8
LC-001-100-D00-0
 62
     7
370
    50
100
AcDbCircle
 10
305.581905
 20
-17.667181
 30
0.0
 40
32.65000000000001
100
AcDbArc
 50
296.562061
 51
300.954014
  0
LINE
  5
3E
330
1F
100
AcDbEntity
  8
LC-001-100-D00-0
 62
     7
370
    50
100
AcDbLine
 10
401.081902
 20
-49.167181
 30
0.0
 11
404.081908
 21
-48.07527
 31
0.0
  0
LINE
  5
3F
330
1F
100
AcDbEntity
  8
LC-001-100-D00-0
 62
     7
370
    50
100
AcDbLine
 10
404.081908
 20
12.740907
 30
0.0
 11
401.081902
 21
13.832819
 31
0.0
  0
LINE
  5
40
330
1F
100
AcDbEntity
  8
LC-001-100-D00-0
 62
     7
370
    50
100
AcDbLine
 10
362.381902
 20
-49.167181
 30
0.0
 11
401.081902
 21
-49.167181
 31
0.0
  0
LINE
  5
41
330
1F
100
AcDbEntity
  8
LC-001-100-D00-0
 62
     7
370
    50
100
AcDbLine
 10
401.081902
 20
13.832819
 30
0.0
 11
362.381902
 21
13.832819
 31
0.0
  0
ARC
  5
42
330
1F
100
AcDbEntity
  8
LC-001-100-D00-0
 62
     7
370
    50
100
AcDbCircle
 10
362.381905
 20
13.332819
 30
0.0
 40
0.5000000000001137
100
AcDbArc
 50
90.0
 51
180.0
  0
ARC
  5
43
330
1F
100
AcDbEntity
  8
LC-001-100-D00-0
 62
     7
370
    50
100
AcDbCircle
 10
362.381905
 20
-48.667181
 30
0.0
 40
0.5000000000001137
100
AcDbArc
 50
180.0
 51
270.0
  0
ARC
  5
44
330
1F
100
AcDbEntity
  8
LC-001-100-D00-0
 62
     7
370
    50
100
AcDbCircle
 10
361.381905
 20
10.832819
 30
0.0
 40
0.5
100
AcDbArc
 50
270.0
 51
0.0
  0
ARC
  5
45
330
1F
100
AcDbEntity
  8
LC-001-100-D00-0
 62
     7
370
    50
100
AcDbCircle
 10
361.381905
 20
-46.167181
 30
0.0
 40
0.5
100
AcDbArc
 50
0.0
 51
90.0
  0
LINE
  5
46
330
1F
100
AcDbEntity
  8
LC-001-100-D00-0
 62
     7
370
    50
100
AcDbLine
 10
322.375429
 20
-45.667181
 30
0.0
 11
361.3819
 21
-45.667181
 31
0.0
  0
LINE
  5
47
330
1F
100
AcDbEntity
  8
LC-001-100-D00-0
 62
     7
370
    50
100
AcDbLine
 10
361.3819
 20
10.33282
 30
0.0
 11
322.375429
 21
10.33282
 31
0.0
  0
ARC
  5
48
330
1F
100
AcDbEntity
  8
LC-001-100-D00-0
 62
     7
370
    50
100
AcDbCircle
 10
183.181905
 20
-17.667181
 30
0.0
 40
43.00000000000003
100
AcDbArc
 50
270.0
 51
281.132634
  0
ARC
  5
49
330
1F
100
AcDbEntity
  8
LC-001-100-D00-0
 62
     7
370
    50
100
AcDbCircle
 10
183.181905
 20
-17.667181
 30
0.0
 40
43.00000000000001
100
AcDbArc
 50
78.867366
 51
107.924446
  0
ARC
  5
4A
330
1F
100
AcDbEntity
  8
LC-001-100-D00-0
 62
     7
370
    50
100
AcDbCircle
 10
183.181905
 20
-17.667181
 30
0.0
 40
43.00000000000001
100
AcDbArc
 50
252.075554
 51
270.0
  0
LINE
  5
4B
330
1F
100
AcDbEntity
  8
LC-001-100-D00-0
 62
     7
370
    50
100
AcDbLine
 10
292.690028
 20
19.829482
 30
0.0
 11
292.690028
 21
10.008317
 31
0.0
  0
LINE
  5
4C
330
1F
100
AcDbEntity
  8
LC-001-100-D00-0
 62
     7
370
    50
100
AcDbLine
 10
292.690028
 20
-45.34268
 30
0.0
 11
292.690028
 21
-55.003491
 31
0.0
  0
LINE
  5
4D
330
1F
100
AcDbEntity
  8
LC-001-100-D00-0
 62
     7
370
    50
100
AcDbLine
 10
292.690028
 20
19.829482
 30
0.0
 11
295.181905
 21
19.829482
 31
0.0
  0
LINE
  5
4E
330
1F
100
AcDbEntity
  8
LC-001-100-D00-0
 62
     7
370
    50
100
AcDbLine
 10
316.02021
 20
19.819484
 30
0.0
 11
308.904317
 21
19.819484
 31
0.0
  0
LINE
  5
4F
330
1F
100
AcDbEntity
  8
LC-001-100-D00-0
 62
     7
370
    50
100
AcDbLine
 10
302.426313
 20
19.819484
 30
0.0
 11
295.181905
 21
19.819484
 31
0.0
  0
LINE
  5
50
330
1F
100
AcDbEntity
  8
LC-001-100-D00-0
 62
     7
370
    50
100
AcDbLine
 10
292.690028
 20
-55.003491
 30
0.0
 11
302.472797
 21
-55.003491
 31
0.0
  0
LINE
  5
51
330
1F
100
AcDbEntity
  8
LC-001-100-D00-0
 62
     7
370
    50
100
AcDbLine
 10
308.948439
 20
-55.003491
 30
0.0
 11
316.02021
 21
-55.003491
 31
0.0
  0
INSERT
  5
5F
330
1F
100
AcDbEntity
  8
LC-001-100-D00-0
 62
     7
370
    50
100
AcDbBlockReference
  2
POLY1
 10
0.0
 20
0.0
 30
0.0
  0
INSERT
  5
6B
330
1F
100
AcDbEntity
  8
LC-001-100-D00-0
 62
     7
370
    50
100
AcDbBlockReference
  2
POLY2
 10
0.0
 20
0.0
 30
0.0
  0
LINE
  5
6C
330
1F
100
AcDbEntity
  8
LC-001-100-D00-0
 62
     7
370
    50
100
AcDbLine
 10
316.781905
 20
-54.852102
 30
0.0
 11
316.02021
 21
-55.003491
 31
0.0
  0
LINE
  5
6D
330
1F
100
AcDbEntity
  8
LC-001-100-D00-0
 62
     7
370
    50
100
AcDbLine
 10
316.02021
 20
19.819484
 30
0.0
 11
316.181903
 21
19.812808
 31
0.0
  0
LINE
  5
6E
330
1F
100
AcDbEntity
  8
LC-001-100-D00-0
 62
     7
370
    50
100
AcDbLine
 10
290.365417
 20
17.504633
 30
0.0
 11
292.690028
 21
19.829482
 31
0.0
  0
LINE
  5
6F
330
1F
100
AcDbEntity
  8
LC-001-100-D00-0
 62
     7
370
    50
100
AcDbLine
 10
292.690028
 20
-55.163848
 30
0.0
 11
290.369396
 21
-52.842973
 31
0.0
  0
LINE
  5
70
330
1F
100
AcDbEntity
  8
LC-001-100-D00-0
 62
     7
370
    50
100
AcDbLine
 10
319.691588
 20
-51.987591
 30
0.0
 11
317.529891
 21
-54.475598
 31
0.0
  0
LINE
  5
71
330
1F
100
AcDbEntity
  8
LC-001-100-D00-0
 62
     7
370
    50
100
AcDbLine
 10
317.529891
 20
19.141235
 30
0.0
 11
319.691588
 21
16.653229
 31
0.0
  0
LINE
  5
72
330
1F
100
AcDbEntity
  8
LC-001-100-D00-0
 62
     7
370
    50
100
AcDbLine
 10
320.181903
 20
15.341271
 30
0.0
 11
320.181903
 21
-50.675633
 31
0.0
  0
INSERT
  5
80
330
1F
100
AcDbEntity
  8
LC-001-100-D00-0
 62
     7
370
    50
100
AcDbBlockReference
  2
POLY3
 10
0.0
 20
0.0
 30
0.0
  0
INSERT
  5
8E
330
1F
100
AcDbEntity
  8
LC-001-100-D00-0
 62
     7
370
    50
100
AcDbBlockReference
  2
POLY4
 10
0.0
 20
0.0
 30
0.0
  0
ARC
  5
8F
330
1F
100
AcDbEntity
  8
LC-001-100-D00-0
 62
     7
370
    50
100
AcDbCircle
 10
308.281905
 20
-61.163847
 30
0.0
 40
4.999999999999999
100
AcDbArc
 50
235.785906
 51
86.354472
  0
LINE
  5
90
330
1F
100
AcDbEntity
  8
LC-001-100-D00-0
 62
     7
370
    50
100
AcDbLine
 10
316.781905
 20
-67.663848
 30
0.0
 11
316.781905
 21
-54.852102
 31
0.0
  0
LINE
  5
91
330
1F
100
AcDbEntity
  8
LC-001-100-D00-0
 62
     7
370
    50
100
AcDbLine
 10
292.690028
 20
-55.003491
 30
0.0
 11
292.690028
 21
-55.163848
 31
0.0
  0
LINE
  5
92
330
1F
100
AcDbEntity
  8
LC-001-100-D00-0
 62
     7
370
    50
100
AcDbLine
 10
304.535952
 20
-67.663848
 30
0.0
 11
316.781905
 21
-67.663848
 31
0.0
  0
LINE
  5
93
330
1F
100
AcDbEntity
  8
LC-001-100-D00-0
 62
     7
370
    50
100
AcDbLine
 10
292.690028
 20
-55.163848
 30
0.0
 11
298.66716
 21
-65.516544
 31
0.0
  0
LINE
  5
94
330
1F
100
AcDbEntity
  8
LC-001-100-D00-0
 62
     7
370
    50
100
AcDbLine
 10
295.181905
 20
20.032816
 30
0.0
 11
302.359995
 21
20.032816
 31
0.0
  0
LINE
  5
95
330
1F
100
AcDbEntity
  8
LC-001-100-D00-0
 62
     7
370
    50
100
AcDbLine
 10
308.841375
 20
20.032816
 30
0.0
 11
316.181903
 21
20.032816
 31
0.0
  0
LINE
  5
96
330
1F
100
AcDbEntity
  8
LC-001-100-D00-0
 62
     7
370
    50
100
AcDbLine
 10
316.181903
 20
20.032816
 30
0.0
 11
316.181903
 21
19.812808
 31
0.0
  0
LINE
  5
97
330
1F
100
AcDbEntity
  8
LC-001-100-D00-0
 62
     7
370
    50
100
AcDbLine
 10
295.181905
 20
19.819484
 30
0.0
 11
295.181905
 21
20.032816
 31
0.0
  0
INSERT
  5
A5
330
1F
100
AcDbEntity
  8
LC-001-100-D00-0
 62
     7
370
    50
100
AcDbBlockReference
  2
POLY5
 10
0.0
 20
0.0
 30
0.0
  0
ARC
  5
A6
330
1F
100
AcDbEntity
  8
LC-001-100-D00-0
 62
     7
370
    50
100
AcDbCircle
 10
308.281905
 20
-61.163847
 30
0.0
 40
1.06427677642771
100
AcDbArc
 50
265.782592
 51
297.902169
  0
INSERT
  5
B4
330
1F
100
AcDbEntity
  8
LC-001-100-D00-0
 62
     7
370
    50
100
AcDbBlockReference
  2
POLY6
 10
0.0
 20
0.0
 30
0.0
  0
ARC
  5
B5
330
1F
100
AcDbEntity
  8
LC-001-100-D00-0
 62
     7
370
    50
100
AcDbCircle
 10
308.281905
 20
-61.163847
 30
0.0
 40
0.8510000000000025
100
AcDbArc
 50
274.083484
 51
289.601277
  0
INSERT
  5
C3
330
1F
100
AcDbEntity
  8
LC-001-100-D00-0
 62
     7
370
    50
100
AcDbBlockReference
  2
POLY7
 10
0.0
 20
0.0
 30
0.0
  0
ARC
  5
C4
330
1F
100
AcDbEntity
  8
LC-001-100-D00-0
 62
     7
370
    50
100
AcDbCircle
 10
308.281905
 20
-61.163847
 30
0.0
 40
0.8509999999999458
100
AcDbArc
 50
184.083484
 51
199.601277
  0
INSERT
  5
D2
330
1F
100
AcDbEntity
  8
LC-001-100-D00-0
 62
     7
370
    50
100
AcDbBlockReference
  2
POLY8
 10
0.0
 20
0.0
 30
0.0
  0
ARC
  5
D3
330
1F
100
AcDbEntity
  8
LC-001-100-D00-0
 62
     7
370
    50
100
AcDbCircle
 10
308.281905
 20
-61.163847
 30
0.0
 40
1.064276776427653
100
AcDbArc
 50
175.782592
 51
207.902169
  0
LINE
  5
D4
330
1F
100
AcDbEntity
  8
LC-001-100-D00-0
 62
     7
370
    50
100
AcDbLine
 10
308.359054
 20
-60.104168
 30
0.0
 11
309.221339
 21
-60.66752
 31
0.0
  0
LINE
  5
D5
330
1F
100
AcDbEntity
  8
LC-001-100-D00-0
 62
     7
370
    50
100
AcDbLine
 10
309.190777
 20
-58.831107
 30
0.0
 11
310.053062
 21
-59.39446
 31
0.0
  0
INSERT
  5
E3
330
1F
100
AcDbEntity
  8
LC-001-100-D00-0
 62
     7
370
    50
100
AcDbBlockReference
  2
POLY9
 10
0.0
 20
0.0
 30
0.0
  0
ARC
  5
E4
330
1F
100
AcDbEntity
  8
LC-001-100-D00-0
 62
     7
370
    50
100
AcDbCircle
 10
308.281905
 20
-61.163847
 30
0.0
 40
0.8510000000000025
100
AcDbArc
 50
4.083484
 51
19.601277
  0
INSERT
  5
F2
330
1F
100
AcDbEntity
  8
LC-001-100-D00-0
 62
     7
370
    50
100
AcDbBlockReference
  2
POLY10
 10
0.0
 20
0.0
 30
0.0
  0
ARC
  5
F3
330
1F
100
AcDbEntity
  8
LC-001-100-D00-0
 62
     7
370
    50
100
AcDbCircle
 10
308.281905
 20
-61.163847
 30
0.0
 40
1.06427677642771
100
AcDbArc
 50
355.782592
 51
27.902169
  0
LINE
  5
F4
330
1F
100
AcDbEntity
  8
LC-001-100-D00-0
 62
     7
370
    50
100
AcDbLine
 10
309.341584
 20
-61.240995
 30
0.0
 11
308.778231
 21
-62.103278
 31
0.0
  0
LINE
  5
F5
330
1F
100
AcDbEntity
  8
LC-001-100-D00-0
 62
     7
370
    50
100
AcDbLine
 10
310.614643
 20
-62.072718
 30
0.0
 11
310.051297
 21
-62.935003
 31
0.0
  0
LINE
  5
F6
330
1F
100
AcDbEntity
  8
LC-001-100-D00-0
 62
     7
370
    50
100
AcDbLine
 10
308.20476
 20
-62.223527
 30
0.0
 11
307.342474
 21
-61.660174
 31
0.0
  0
LINE
  5
F7
330
1F
100
AcDbEntity
  8
LC-001-100-D00-0
 62
     7
370
    50
100
AcDbLine
 10
307.373036
 20
-63.496587
 30
0.0
 11
306.510751
 21
-62.933236
 31
0.0
  0
LINE
  5
F8
330
1F
100
AcDbEntity
  8
LC-001-100-D00-0
 62
     7
370
    50
100
AcDbLine
 10
307.222229
 20
-61.086701
 30
0.0
 11
307.785575
 21
-60.224416
 31
0.0
  0
ARC
  5
F9
330
1F
100
AcDbEntity
  8
LC-001-100-D00-0
 62
     7
370
    50
100
AcDbCircle
 10
308.281905
 20
-61.163847
 30
0.0
 40
1.06427677642771
100
AcDbArc
 50
85.782592
 51
117.902169
  0
INSERT
  5
107
330
1F
100
AcDbEntity
  8
LC-001-100-D00-0
 62
     7
370
    50
100
AcDbBlockReference
  2
POLY11
 10
0.0
 20
0.0
 30
0.0
  0
ARC
  5
108
330
1F
100
AcDbEntity
  8
LC-001-100-D00-0
 62
     7
370
    50
100
AcDbCircle
 10
308.281905
 20
-61.163847
 30
0.0
 40
0.8510000000000025
100
AcDbArc
 50
94.083484
 51
109.601277
  0
INSERT
  5
116
330
1F
100
AcDbEntity
  8
LC-001-100-D00-0
 62
     7
370
    50
100
AcDbBlockReference
  2
POLY12
 10
0.0
 20
0.0
 30
0.0
  0
LINE
  5
117
330
1F
100
AcDbEntity
  8
LC-001-100-D00-0
 62
     7
370
    50
100
AcDbLine
 10
308.203635
 20
-62.225242
 30
0.0
 11
307.373036
 21
-63.496587
 31
0.0
  0
LINE
  5
118
330
1F
100
AcDbEntity
  8
LC-001-100-D00-0
 62
     7
370
    50
100
AcDbLine
 10
310.053062
 20
-59.39446
 30
0.0
 11
309.222457
 21
-60.665804
 31
0.0
  0
LINE
  5
119
330
1F
100
AcDbEntity
  8
LC-001-100-D00-0
 62
     7
370
    50
100
AcDbLine
 10
308.360171
 20
-60.102453
 30
0.0
 11
309.190777
 21
-58.831107
 31
0.0
  0
LINE
  5
11A
330
1F
100
AcDbEntity
  8
LC-001-100-D00-0
 62
     7
370
    50
100
AcDbLine
 10
307.220508
 20
-61.085579
 30
0.0
 11
307.046694
 21
-60.972019
 31
0.0
  0
LINE
  5
11B
330
1F
100
AcDbEntity
  8
LC-001-100-D00-0
 62
     7
370
    50
100
AcDbLine
 10
306.510751
 20
-62.933236
 30
0.0
 11
307.341349
 21
-61.661889
 31
0.0
  0
LINE
  5
11C
330
1F
100
AcDbEntity
  8
LC-001-100-D00-0
 62
     7
370
    50
100
AcDbLine
 10
310.051297
 20
-62.935003
 30
0.0
 11
308.779944
 21
-62.1044
 31
0.0
  0
LINE
  5
11D
330
1F
100
AcDbEntity
  8
LC-001-100-D00-0
 62
     7
370
    50
100
AcDbLine
 10
309.343298
 20
-61.242116
 30
0.0
 11
310.614643
 21
-62.072718
 31
0.0
  0
LINE
  5
11E
330
1F
100
AcDbEntity
  8
LC-001-100-D00-0
 62
     7
370
    50
100
AcDbLine
 10
307.389249
 20
-59.965482
 30
0.0
 11
307.783861
 21
-60.223295
 31
0.0
  0
ARC
  5
11F
330
1F
100
AcDbEntity
  8
LC-001-100-D00-0
 62
     7
370
    50
100
AcDbCircle
 10
308.281905
 20
-61.163847
 30
0.0
 40
4.65000000000002
100
AcDbArc
 50
234.765736
 51
87.374643
  0
ARC
  5
120
330
1F
100
AcDbEntity
  8
LC-001-100-D00-0
 62
     7
370
    50
100
AcDbCircle
 10
308.281905
 20
-61.163847
 30
0.0
 40
0.8509999999999778
100
AcDbArc
 50
199.601277
 51
274.083484
  0
ARC
  5
121
330
1F
100
AcDbEntity
  8
LC-001-100-D00-0
 62
     7
370
    50
100
AcDbCircle
 10
308.281905
 20
-61.163847
 30
0.0
 40
0.8510000000000045
100
AcDbArc
 50
109.601277
 51
184.083484
  0
ARC
  5
122
330
1F
100
AcDbEntity
  8
LC-001-100-D00-0
 62
     7
370
    50
100
AcDbCircle
 10
308.281905
 20
-61.163847
 30
0.0
 40
0.8509999999999778
100
AcDbArc
 50
19.601277
 51
94.083484
  0
ARC
  5
123
330
1F
100
AcDbEntity
  8
LC-001-100-D00-0
 62
     7
370
    50
100
AcDbCircle
 10
308.281905
 20
-61.163847
 30
0.0
 40
0.8510000000000313
100
AcDbArc
 50
289.601277
 51
4.083484
  0
LINE
  5
124
330
1F
100
AcDbEntity
  8
LC-001-100-D00-0
 62
     7
370
    50
100
AcDbLine
 10
364.8819
 20
-13.667181
 30
0.0
 11
364.8819
 21
-21.66718
 31
0.0
  0
LINE
  5
125
330
1F
100
AcDbEntity
  8
LC-001-100-D00-0
 62
     7
370
    50
100
AcDbLine
 10
361.881909
 20
-21.66718
 30
0.0
 11
361.881909
 21
-13.667181
 31
0.0
  0
LINE
  5
126
330
1F
100
AcDbEntity
  8
LC-001-100-D00-0
 62
     7
370
    50
100
AcDbLine
 10
322.375429
 20
-45.667181
 30
0.0
 11
322.375429
 21
10.33282
 31
0.0
  0
LINE
  5
127
330
1F
100
AcDbEntity
  8
LC-001-100-D00-0
 62
     7
370
    50
100
AcDbLine
 10
401.081902
 20
-49.167181
 30
0.0
 11
401.081902
 21
13.832819
 31
0.0
  0
LINE
  5
128
330
1F
100
AcDbEntity
  8
LC-001-100-D00-0
 62
     7
370
    50
100
AcDbLine
 10
404.081908
 20
12.740907
 30
0.0
 11
404.081908
 21
-48.07527
 31
0.0
  0
LINE
  5
129
330
1F
100
AcDbEntity
  8
LC-001-100-D00-0
 62
     7
370
    50
100
AcDbLine
 10
361.881909
 20
-13.738123
 30
0.0
 11
361.881909
 21
13.332818
 31
0.0
  0
LINE
  5
12A
330
1F
100
AcDbEntity
  8
LC-001-100-D00-0
 62
     7
370
    50
100
AcDbLine
 10
361.881909
 20
-48.667181
 30
0.0
 11
361.881909
 21
-21.596239
 31
0.0
  0
CIRCLE
  5
12B
330
1F
100
AcDbEntity
  8
LC-001-100-D00-0
 62
     7
370
    50
100
AcDbCircle
 10
181.453905
 20
-17.667181
 30
0.0
 40
42.5
  0
CIRCLE
  5
12C
330
1F
100
AcDbEntity
  8
LC-001-100-D00-0
 62
     7
370
    50
100
AcDbCircle
 10
181.453905
 20
-17.667181
 30
0.0
 40
38.00006076
  0
CIRCLE
  5
12D
330
1F
100
AcDbEntity
  8
LC-001-100-D00-0
 62
     7
370
    50
100
AcDbCircle
 10
181.453905
 20
-17.667181
 30
0.0
 40
17.9996100280253
  0
CIRCLE
  5
12E
330
1F
100
AcDbEntity
  8
LC-001-100-D00-0
 62
     7
370
    50
100
AcDbCircle
 10
181.453905
 20
-17.667181
 30
0.0
 40
59.29849999999999
  0
CIRCLE
  5
12F
330
1F
100
AcDbEntity
  8
LC-001-100-D00-0
 62
     7
370
    50
100
AcDbCircle
 10
181.453905
 20
-17.667181
 30
0.0
 40
111.2165000000001
  0
CIRCLE
  5
130
330
1F
100
AcDbEntity
  8
LC-001-100-D00-0
 62
     7
370
    50
100
AcDbCircle
 10
96.153493
 20
67.633231
 30
0.0
 40
5.089999999999975
  0
CIRCLE
  5
131
330
1F
100
AcDbEntity
  8
LC-001-100-D00-0
 62
     7
370
    50
100
AcDbCircle
 10
96.153493
 20
-102.967593
 30
0.0
 40
5.090000000000032
  0
CIRCLE
  5
132
330
1F
100
AcDbEntity
  8
LC-001-100-D00-0
 62
     7
370
    50
100
AcDbCircle
 10
266.754317
 20
-102.967593
 30
0.0
 40
5.090000000000032
  0
CIRCLE
  5
133
330
1F
100
AcDbEntity
  8
LC-001-100-D00-0
 62
     7
370
    50
100
AcDbCircle
 10
266.754317
 20
67.633231
 30
0.0
 40
5.090000000000146
  0
CIRCLE
  5
134
330
1F
100
AcDbEntity
  8
LC-001-100-D00-0
 62
     7
370
    50
100
AcDbCircle
 10
181.453905
 20
-138.300181
 30
0.0
 40
8.144000000000006
  0
CIRCLE
  5
135
330
1F
100
AcDbEntity
  8
LC-001-100-D00-0
 62
     7
370
    50
100
AcDbCircle
 10
82.637136
 20
-86.859427
 30
0.0
 40
8.144000000000062
  0
CIRCLE
  5
136
330
1F
100
AcDbEntity
  8
LC-001-100-D00-0
 62
     7
370
    50
100
AcDbCircle
 10
82.637136
 20
51.525065
 30
0.0
 40
8.144000000000006
  0
CIRCLE
  5
137
330
1F
100
AcDbEntity
  8
LC-001-100-D00-0
 62
     7
370
    50
100
AcDbCircle
 10
181.453905
 20
102.965819
 30
0.0
 40
8.144000000000006
  0
CIRCLE
  5
138
330
1F
100
AcDbEntity
  8
LC-001-100-D00-0
 62
     7
370
    50
100
AcDbCircle
 10
280.270674
 20
-86.859427
 30
0.0
 40
8.144000000000006
  0
CIRCLE
  5
139
330
1F
100
AcDbEntity
  8
LC-001-100-D00-0
 62
     7
370
    50
100
AcDbCircle
 10
280.270674
 20
51.525065
 30
0.0
 40
8.144000000000062
  0
ARC
  5
13A
330
1F
100
AcDbEntity
  8
LC-001-100-D00-0
 62
     7
370
    50
100
AcDbCircle
 10
181.453905
 20
-17.667181
 30
0.0
 40
127.7589999999999
100
AcDbArc
 50
252.128986
 51
259.871014
  0
ARC
  5
13B
330
1F
100
AcDbEntity
  8
LC-001-100-D00-0
 62
     7
370
    50
100
AcDbCircle
 10
160.23881
 20
-136.420035
 30
0.0
 40
7.126000000000037
100
AcDbArc
 50
259.871014
 51
79.871014
  0
ARC
  5
13C
330
1F
100
AcDbEntity
  8
LC-001-100-D00-0
 62
     7
370
    50
100
AcDbCircle
 10
181.453905
 20
-17.667181
 30
0.0
 40
113.507
100
AcDbArc
 50
252.128986
 51
259.871014
  0
ARC
  5
13D
330
1F
100
AcDbEntity
  8
LC-001-100-D00-0
 62
     7
370
    50
100
AcDbCircle
 10
144.434634
 20
-132.479612
 30
0.0
 40
7.126000000000013
100
AcDbArc
 50
72.128986
 51
252.128986
  0
ARC
  5
13E
330
1F
100
AcDbEntity
  8
LC-001-100-D00-0
 62
     7
370
    50
100
AcDbCircle
 10
181.453905
 20
-17.667181
 30
0.0
 40
127.759
100
AcDbArc
 50
234.128986
 51
241.871014
  0
ARC
  5
13F
330
1F
100
AcDbEntity
  8
LC-001-100-D00-0
 62
     7
370
    50
100
AcDbCircle
 10
124.580501
 20
-124.052032
 30
0.0
 40
7.125999999999992
100
AcDbArc
 50
241.871014
 51
61.871014
  0
ARC
  5
140
330
1F
100
AcDbEntity
  8
LC-001-100-D00-0
 62
     7
370
    50
100
AcDbCircle
 10
181.453905
 20
-17.667181
 30
0.0
 40
113.507
100
AcDbArc
 50
234.128986
 51
241.871014
  0
ARC
  5
141
330
1F
100
AcDbEntity
  8
LC-001-100-D00-0
 62
     7
370
    50
100
AcDbCircle
 10
110.767493
 20
-115.420707
 30
0.0
 40
7.12600000000004
100
AcDbArc
 50
54.128986
 51
234.128986
  0
ARC
  5
142
330
1F
100
AcDbEntity
  8
LC-001-100-D00-0
 62
     7
370
    50
100
AcDbCircle
 10
181.453905
 20
-17.667181
 30
0.0
 40
127.7590000000017
100
AcDbArc
 50
194.128986
 51
201.871014
  0
ARC
  5
143
330
1F
100
AcDbEntity
  8
LC-001-100-D00-0
 62
     7
370
    50
100
AcDbCircle
 10
69.503485
 20
-62.605186
 30
0.0
 40
7.126000000000016
100
AcDbArc
 50
201.871014
 51
21.871014
  0
ARC
  5
144
330
1F
100
AcDbEntity
  8
LC-001-100-D00-0
 62
     7
370
    50
100
AcDbCircle
 10
181.453905
 20
-17.667181
 30
0.0
 40
113.5070000000017
100
AcDbArc
 50
194.128986
 51
201.871014
  0
ARC
  5
145
330
1F
100
AcDbEntity
  8
LC-001-100-D00-0
 62
     7
370
    50
100
AcDbCircle
 10
64.470217
 20
-47.114377
 30
0.0
 40
7.125999999999995
100
AcDbArc
 50
14.128986
 51
194.128986
  0
ARC
  5
146
330
1F
100
AcDbEntity
  8
LC-001-100-D00-0
 62
     7
370
    50
100
AcDbCircle
 10
181.453905
 20
-17.667181
 30
0.0
 40
127.759
100
AcDbArc
 50
176.128986
 51
183.871014
  0
ARC
  5
147
330
1F
100
AcDbEntity
  8
LC-001-100-D00-0
 62
     7
370
    50
100
AcDbCircle
 10
61.096122
 20
-25.811181
 30
0.0
 40
7.125999999999992
100
AcDbArc
 50
183.871014
 51
3.871014
  0
ARC
  5
148
330
1F
100
AcDbEntity
  8
LC-001-100-D00-0
 62
     7
370
    50
100
AcDbCircle
 10
181.453905
 20
-17.667181
 30
0.0
 40
113.507
100
AcDbArc
 50
176.128986
 51
183.871014
  0
ARC
  5
149
330
1F
100
AcDbEntity
  8
LC-001-100-D00-0
 62
     7
370
    50
100
AcDbCircle
 10
61.096122
 20
-9.523181
 30
0.0
 40
7.126000000000023
100
AcDbArc
 50
356.128986
 51
176.128986
  0
ARC
  5
14A
330
1F
100
AcDbEntity
  8
LC-001-100-D00-0
 62
     7
370
    50
100
AcDbCircle
 10
181.453905
 20
-17.667181
 30
0.0
 40
127.7590000000001
100
AcDbArc
 50
158.128986
 51
165.871014
  0
ARC
  5
14B
330
1F
100
AcDbEntity
  8
LC-001-100-D00-0
 62
     7
370
    50
100
AcDbCircle
 10
64.470217
 20
11.780015
 30
0.0
 40
7.12600000000003
100
AcDbArc
 50
165.871014
 51
345.871014
  0
ARC
  5
14C
330
1F
100
AcDbEntity
  8
LC-001-100-D00-0
 62
     7
370
    50
100
AcDbCircle
 10
181.453905
 20
-17.667181
 30
0.0
 40
113.507
100
AcDbArc
 50
158.128986
 51
165.871014
  0
ARC
  5
14D
330
1F
100
AcDbEntity
  8
LC-001-100-D00-0
 62
     7
370
    50
100
AcDbCircle
 10
69.503485
 20
27.270824
 30
0.0
 40
7.126000000000043
100
AcDbArc
 50
338.128986
 51
158.128986
  0
ARC
  5
14E
330
1F
100
AcDbEntity
  8
LC-001-100-D00-0
 62
     7
370
    50
100
AcDbCircle
 10
181.453905
 20
-17.667181
 30
0.0
 40
127.7590000000001
100
AcDbArc
 50
118.128986
 51
125.871014
  0
ARC
  5
14F
330
1F
100
AcDbEntity
  8
LC-001-100-D00-0
 62
     7
370
    50
100
AcDbCircle
 10
110.767493
 20
80.086345
 30
0.0
 40
7.126000000000052
100
AcDbArc
 50
125.871014
 51
305.871014
  0
ARC
  5
150
330
1F
100
AcDbEntity
  8
LC-001-100-D00-0
 62
     7
370
    50
100
AcDbCircle
 10
181.453905
 20
-17.667181
 30
0.0
 40
113.507
100
AcDbArc
 50
118.128986
 51
125.871014
  0
ARC
  5
151
330
1F
100
AcDbEntity
  8
LC-001-100-D00-0
 62
     7
370
    50
100
AcDbCircle
 10
124.580501
 20
88.71767
 30
0.0
 40
7.126000000000068
100
AcDbArc
 50
298.128986
 51
118.128986
  0
ARC
  5
152
330
1F
100
AcDbEntity
  8
LC-001-100-D00-0
 62
     7
370
    50
100
AcDbCircle
 10
181.453905
 20
-17.667181
 30
0.0
 40
127.7590000000001
100
AcDbArc
 50
100.128986
 51
107.871014
  0
ARC
  5
153
330
1F
100
AcDbEntity
  8
LC-001-100-D00-0
 62
     7
370
    50
100
AcDbCircle
 10
144.434634
 20
97.14525
 30
0.0
 40
7.126000000000054
100
AcDbArc
 50
107.871014
 51
287.871014
  0
ARC
  5
154
330
1F
100
AcDbEntity
  8
LC-001-100-D00-0
 62
     7
370
    50
100
AcDbCircle
 10
181.453905
 20
-17.667181
 30
0.0
 40
113.5070000000001
100
AcDbArc
 50
100.128986
 51
107.871014
  0
ARC
  5
155
330
1F
100
AcDbEntity
  8
LC-001-100-D00-0
 62
     7
370
    50
100
AcDbCircle
 10
160.23881
 20
101.085674
 30
0.0
 40
7.126000000000093
100
AcDbArc
 50
280.128986
 51
100.128986
  0
ARC
  5
156
330
1F
100
AcDbEntity
  8
LC-001-100-D00-0
 62
     7
370
    50
100
AcDbCircle
 10
181.453905
 20
-17.667181
 30
0.0
 40
127.759
100
AcDbArc
 50
280.128986
 51
287.871014
  0
ARC
  5
157
330
1F
100
AcDbEntity
  8
LC-001-100-D00-0
 62
     7
370
    50
100
AcDbCircle
 10
218.473176
 20
-132.479612
 30
0.0
 40
7.126000000000026
100
AcDbArc
 50
287.871014
 51
107.871014
  0
ARC
  5
158
330
1F
100
AcDbEntity
  8
LC-001-100-D00-0
 62
     7
370
    50
100
AcDbCircle
 10
181.453905
 20
-17.667181
 30
0.0
 40
113.507
100
AcDbArc
 50
280.128986
 51
287.871014
  0
ARC
  5
159
330
1F
100
AcDbEntity
  8
LC-001-100-D00-0
 62
     7
370
    50
100
AcDbCircle
 10
202.669
 20
-136.420035
 30
0.0
 40
7.126000000000037
100
AcDbArc
 50
100.128986
 51
280.128986
  0
ARC
  5
15A
330
1F
100
AcDbEntity
  8
LC-001-100-D00-0
 62
     7
370
    50
100
AcDbCircle
 10
181.453905
 20
-17.667181
 30
0.0
 40
127.7589999999997
100
AcDbArc
 50
298.128986
 51
305.871014
  0
ARC
  5
15B
330
1F
100
AcDbEntity
  8
LC-001-100-D00-0
 62
     7
370
    50
100
AcDbCircle
 10
252.140317
 20
-115.420707
 30
0.0
 40
7.126000000000052
100
AcDbArc
 50
305.871014
 51
125.871014
  0
ARC
  5
15C
330
1F
100
AcDbEntity
  8
LC-001-100-D00-0
 62
     7
370
    50
100
AcDbCircle
 10
181.453905
 20
-17.667181
 30
0.0
 40
113.5069999999997
100
AcDbArc
 50
298.128986
 51
305.871014
  0
ARC
  5
15D
330
1F
100
AcDbEntity
  8
LC-001-100-D00-0
 62
     7
370
    50
100
AcDbCircle
 10
238.327309
 20
-124.052032
 30
0.0
 40
7.126000000000017
100
AcDbArc
 50
118.128986
 51
298.128986
  0
ARC
  5
15E
330
1F
100
AcDbEntity
  8
LC-001-100-D00-0
 62
     7
370
    50
100
AcDbCircle
 10
181.453905
 20
-17.667181
 30
0.0
 40
127.759
100
AcDbArc
 50
338.128986
 51
345.871014
  0
ARC
  5
15F
330
1F
100
AcDbEntity
  8
LC-001-100-D00-0
 62
     7
370
    50
100
AcDbCircle
 10
298.437593
 20
-47.114377
 30
0.0
 40
7.126000000000059
100
AcDbArc
 50
345.871014
 51
165.871014
  0
ARC
  5
160
330
1F
100
AcDbEntity
  8
LC-001-100-D00-0
 62
     7
370
    50
100
AcDbCircle
 10
181.453905
 20
-17.667181
 30
0.0
 40
113.507
100
AcDbArc
 50
338.128986
 51
345.871014
  0
ARC
  5
161
330
1F
100
AcDbEntity
  8
LC-001-100-D00-0
 62
     7
370
    50
100
AcDbCircle
 10
293.404324
 20
-62.605186
 30
0.0
 40
7.126000000000106
100
AcDbArc
 50
158.128986
 51
338.128986
  0
ARC
  5
162
330
1F
100
AcDbEntity
  8
LC-001-100-D00-0
 62
     7
370
    50
100
AcDbCircle
 10
181.453905
 20
-17.667181
 30
0.0
 40
127.759
100
AcDbArc
 50
356.128986
 51
3.871014
  0
ARC
  5
163
330
1F
100
AcDbEntity
  8
LC-001-100-D00-0
 62
     7
370
    50
100
AcDbCircle
 10
301.811688
 20
-9.523181
 30
0.0
 40
7.126000000000051
100
AcDbArc
 50
3.871014
 51
183.871014
  0
ARC
  5
164
330
1F
100
AcDbEntity
  8
LC-001-100-D00-0
 62
     7
370
    50
100
AcDbCircle
 10
181.453905
 20
-17.667181
 30
0.0
 40
113.507
100
AcDbArc
 50
356.128986
 51
3.871014
  0
ARC
  5
165
330
1F
100
AcDbEntity
  8
LC-001-100-D00-0
 62
     7
370
    50
100
AcDbCircle
 10
301.811688
 20
-25.811181
 30
0.0
 40
7.126000000000107
100
AcDbArc
 50
176.128986
 51
356.128986
  0
ARC
  5
166
330
1F
100
AcDbEntity
  8
LC-001-100-D00-0
 62
     7
370
    50
100
AcDbCircle
 10
181.453905
 20
-17.667181
 30
0.0
 40
127.759
100
AcDbArc
 50
14.128986
 51
21.871014
  0
ARC
  5
167
330
1F
100
AcDbEntity
  8
LC-001-100-D00-0
 62
     7
370
    50
100
AcDbCircle
 10
293.404324
 20
27.270824
 30
0.0
 40
7.126000000000043
100
AcDbArc
 50
21.871014
 51
201.871014
  0
ARC
  5
168
330
1F
100
AcDbEntity
  8
LC-001-100-D00-0
 62
     7
370
    50
100
AcDbCircle
 10
181.453905
 20
-17.667181
 30
0.0
 40
113.507
100
AcDbArc
 50
14.128986
 51
21.871014
  0
ARC
  5
169
330
1F
100
AcDbEntity
  8
LC-001-100-D00-0
 62
     7
370
    50
100
AcDbCircle
 10
298.437593
 20
11.780015
 30
0.0
 40
7.126000000000002
100
AcDbArc
 50
194.128986
 51
14.128986
  0
ARC
  5
16A
330
1F
100
AcDbEntity
  8
LC-001-100-D00-0
 62
     7
370
    50
100
AcDbCircle
 10
181.453905
 20
-17.667181
 30
0.0
 40
127.7589999999986
100
AcDbArc
 50
54.128986
 51
61.871014
  0
ARC
  5
16B
330
1F
100
AcDbEntity
  8
LC-001-100-D00-0
 62
     7
370
    50
100
AcDbCircle
 10
238.327309
 20
88.71767
 30
0.0
 40
7.126000000000017
100
AcDbArc
 50
61.871014
 51
241.871014
  0
ARC
  5
16C
330
1F
100
AcDbEntity
  8
LC-001-100-D00-0
 62
     7
370
    50
100
AcDbCircle
 10
181.453905
 20
-17.667181
 30
0.0
 40
113.5069999999986
100
AcDbArc
 50
54.128986
 51
61.871014
  0
ARC
  5
16D
330
1F
100
AcDbEntity
  8
LC-001-100-D00-0
 62
     7
370
    50
100
AcDbCircle
 10
252.140317
 20
80.086345
 30
0.0
 40
7.126000000000052
100
AcDbArc
 50
234.128986
 51
54.128986
  0
ARC
  5
16E
330
1F
100
AcDbEntity
  8
LC-001-100-D00-0
 62
     7
370
    50
100
AcDbCircle
 10
181.453905
 20
-17.667181
 30
0.0
 40
127.759
100
AcDbArc
 50
72.128986
 51
79.871014
  0
ARC
  5
16F
330
1F
100
AcDbEntity
  8
LC-001-100-D00-0
 62
     7
370
    50
100
AcDbCircle
 10
202.669
 20
101.085674
 30
0.0
 40
7.126000000000037
100
AcDbArc
 50
79.871014
 51
259.871014
  0
ARC
  5
170
330
1F
100
AcDbEntity
  8
LC-001-100-D00-0
 62
     7
370
    50
100
AcDbCircle
 10
181.453905
 20
-17.667181
 30
0.0
 40
113.507
100
AcDbArc
 50
72.128986
 51
79.871014
  0
ARC
  5
171
330
1F
100
AcDbEntity
  8
LC-001-100-D00-0
 62
     7
370
    50
100
AcDbCircle
 10
218.473176
 20
97.14525
 30
0.0
 40
7.126000000000054
100
AcDbArc
 50
252.128986
 51
72.128986
  0
CIRCLE
  5
172
330
1F
100
AcDbEntity
  8
LC-001-100-D00-0
 62
     7
370
    50
100
AcDbCircle
 10
181.453905
 20
-17.667181
 30
0.0
 40
132.8489999999966
  0
ARC
  5
173
330
1F
100
AcDbEntity
  8
LC-001-100-D00-0
 62
     7
370
    50
100
AcDbCircle
 10
181.453905
 20
-138.300181
 30
0.0
 40
7.605497400916352
100
AcDbArc
 50
113.675215
 51
66.324785
  0
ARC
  5
174
330
1F
100
AcDbEntity
  8
LC-001-100-D00-0
 62
     7
370
    50
100
AcDbCircle
 10
160.23881
 20
-136.420035
 30
0.0
 40
6.014434904551027
100
AcDbArc
 50
259.871014
 51
79.871014
  0
ARC
  5
175
330
1F
100
AcDbEntity
  8
LC-001-100-D00-0
 62
     7
370
    50
100
AcDbCircle
 10
181.453905
 20
-17.667181
 30
0.0
 40
126.647434904551
100
AcDbArc
 50
280.128986
 51
287.871014
  0
ARC
  5
176
330
1F
100
AcDbEntity
  8
LC-001-100-D00-0
 62
     7
370
    50
100
AcDbCircle
 10
202.669
 20
-136.420035
 30
0.0
 40
6.014434904551054
100
AcDbArc
 50
100.128986
 51
280.128986
  0
ARC
  5
177
330
1F
100
AcDbEntity
  8
LC-001-100-D00-0
 62
     7
370
    50
100
AcDbCircle
 10
181.453905
 20
-17.667181
 30
0.0
 40
126.6474349045509
100
AcDbArc
 50
252.128986
 51
259.871014
  0
ARC
  5
178
330
1F
100
AcDbEntity
  8
LC-001-100-D00-0
 62
     7
370
    50
100
AcDbCircle
 10
218.473176
 20
-132.479612
 30
0.0
 40
6.014434904551049
100
AcDbArc
 50
287.871014
 51
107.871014
  0
ARC
  5
179
330
1F
100
AcDbEntity
  8
LC-001-100-D00-0
 62
     7
370
    50
100
AcDbCircle
 10
144.434634
 20
-132.479612
 30
0.0
 40
6.014434904551049
100
AcDbArc
 50
72.128986
 51
252.128986
  0
ARC
  5
17A
330
1F
100
AcDbEntity
  8
LC-001-100-D00-0
 62
     7
370
    50
100
AcDbCircle
 10
238.327309
 20
-124.052032
 30
0.0
 40
6.014434904551069
100
AcDbArc
 50
118.128986
 51
298.128986
  0
ARC
  5
17B
330
1F
100
AcDbEntity
  8
LC-001-100-D00-0
 62
     7
370
    50
100
AcDbCircle
 10
181.453905
 20
-17.667181
 30
0.0
 40
114.618565095449
100
AcDbArc
 50
280.128986
 51
287.871014
  0
ARC
  5
17C
330
1F
100
AcDbEntity
  8
LC-001-100-D00-0
 62
     7
370
    50
100
AcDbCircle
 10
181.453905
 20
-17.667181
 30
0.0
 40
126.647434904551
100
AcDbArc
 50
234.128986
 51
241.871014
  0
ARC
  5
17D
330
1F
100
AcDbEntity
  8
LC-001-100-D00-0
 62
     7
370
    50
100
AcDbCircle
 10
181.453905
 20
-17.667181
 30
0.0
 40
126.6474349045508
100
AcDbArc
 50
298.128986
 51
305.871014
  0
ARC
  5
17E
330
1F
100
AcDbEntity
  8
LC-001-100-D00-0
 62
     7
370
    50
100
AcDbCircle
 10
124.580501
 20
-124.052032
 30
0.0
 40
6.014434904551044
100
AcDbArc
 50
241.871014
 51
61.871014
  0
ARC
  5
17F
330
1F
100
AcDbEntity
  8
LC-001-100-D00-0
 62
     7
370
    50
100
AcDbCircle
 10
181.453905
 20
-17.667181
 30
0.0
 40
114.6185650954489
100
AcDbArc
 50
252.128986
 51
259.871014
  0
ARC
  5
180
330
1F
100
AcDbEntity
  8
LC-001-100-D00-0
 62
     7
370
    50
100
AcDbCircle
 10
110.767493
 20
-115.420707
 30
0.0
 40
6.014434904550999
100
AcDbArc
 50
54.128986
 51
234.128986
  0
ARC
  5
181
330
1F
100
AcDbEntity
  8
LC-001-100-D00-0
 62
     7
370
    50
100
AcDbCircle
 10
252.140317
 20
-115.420707
 30
0.0
 40
6.014434904551011
100
AcDbArc
 50
305.871014
 51
125.871014
  0
ARC
  5
182
330
1F
100
AcDbEntity
  8
LC-001-100-D00-0
 62
     7
370
    50
100
AcDbCircle
 10
181.453905
 20
-17.667181
 30
0.0
 40
114.6185650954487
100
AcDbArc
 50
298.128986
 51
305.871014
  0
ARC
  5
183
330
1F
100
AcDbEntity
  8
LC-001-100-D00-0
 62
     7
370
    50
100
AcDbCircle
 10
181.453905
 20
-17.667181
 30
0.0
 40
114.618565095449
100
AcDbArc
 50
234.128986
 51
241.871014
  0
CIRCLE
  5
184
330
1F
100
AcDbEntity
  8
LC-001-100-D00-0
 62
     7
370
    50
100
AcDbCircle
 10
96.153493
 20
-102.967593
 30
0.0
 40
2.035999999999945
  0
CIRCLE
  5
185
330
1F
100
AcDbEntity
  8
LC-001-100-D00-0
 62
     7
370
    50
100
AcDbCircle
 10
266.754317
 20
-102.967593
 30
0.0
 40
2.035999999999945
  0
ARC
  5
186
330
1F
100
AcDbEntity
  8
LC-001-100-D00-0
 62
     7
370
    50
100
AcDbCircle
 10
82.637136
 20
-86.859427
 30
0.0
 40
7.605497400916355
100
AcDbArc
 50
58.675215
 51
11.324785
  0
ARC
  5
187
330
1F
100
AcDbEntity
  8
LC-001-100-D00-0
 62
     7
370
    50
100
AcDbCircle
 10
280.270674
 20
-86.859427
 30
0.0
 40
7.605497400916415
100
AcDbArc
 50
168.675215
 51
121.324785
  0
ARC
  5
188
330
1F
100
AcDbEntity
  8
LC-001-100-D00-0
 62
     7
370
    50
100
AcDbCircle
 10
293.404324
 20
-62.605186
 30
0.0
 40
6.014434904551084
100
AcDbArc
 50
158.128986
 51
338.128986
  0
ARC
  5
189
330
1F
100
AcDbEntity
  8
LC-001-100-D00-0
 62
     7
370
    50
100
AcDbCircle
 10
69.503485
 20
-62.605186
 30
0.0
 40
6.014434904551021
100
AcDbArc
 50
201.871014
 51
21.871014
  0
ARC
  5
18A
330
1F
100
AcDbEntity
  8
LC-001-100-D00-0
 62
     7
370
    50
100
AcDbCircle
 10
181.453905
 20
-17.667181
 30
0.0
 40
126.6474349045511
100
AcDbArc
 50
338.128986
 51
345.871014
  0
ARC
  5
18B
330
1F
100
AcDbEntity
  8
LC-001-100-D00-0
 62
     7
370
    50
100
AcDbCircle
 10
181.453905
 20
-17.667181
 30
0.0
 40
126.6474349045527
100
AcDbArc
 50
194.128986
 51
201.871014
  0
ARC
  5
18C
330
1F
100
AcDbEntity
  8
LC-001-100-D00-0
 62
     7
370
    50
100
AcDbCircle
 10
181.453905
 20
-17.667181
 30
0.0
 40
114.618565095449
100
AcDbArc
 50
338.128986
 51
345.871014
  0
ARC
  5
18D
330
1F
100
AcDbEntity
  8
LC-001-100-D00-0
 62
     7
370
    50
100
AcDbCircle
 10
181.453905
 20
-17.667181
 30
0.0
 40
114.6185650954507
100
AcDbArc
 50
194.128986
 51
201.871014
  0
ARC
  5
18E
330
1F
100
AcDbEntity
  8
LC-001-100-D00-0
 62
     7
370
    50
100
AcDbCircle
 10
64.470217
 20
-47.114377
 30
0.0
 40
6.014434904551024
100
AcDbArc
 50
14.128986
 51
194.128986
  0
ARC
  5
18F
330
1F
100
AcDbEntity
  8
LC-001-100-D00-0
 62
     7
370
    50
100
AcDbCircle
 10
298.437593
 20
-47.114377
 30
0.0
 40
6.014434904551031
100
AcDbArc
 50
345.871014
 51
165.871014
  0
ARC
  5
190
330
1F
100
AcDbEntity
  8
LC-001-100-D00-0
 62
     7
370
    50
100
AcDbCircle
 10
301.811688
 20
-25.811181
 30
0.0
 40
6.014434904551116
100
AcDbArc
 50
176.128986
 51
356.128986
  0
ARC
  5
191
330
1F
100
AcDbEntity
  8
LC-001-100-D00-0
 62
     7
370
    50
100
AcDbCircle
 10
61.096122
 20
-25.811181
 30
0.0
 40
6.014434904551029
100
AcDbArc
 50
183.871014
 51
3.871014
  0
ARC
  5
192
330
1F
100
AcDbEntity
  8
LC-001-100-D00-0
 62
     7
370
    50
100
AcDbCircle
 10
181.453905
 20
-17.667181
 30
0.0
 40
114.618565095449
100
AcDbArc
 50
176.128986
 51
183.871014
  0
INSERT
  5
198
330
1F
100
AcDbEntity
  8
LC-001-100-D00-0
 62
     7
370
    50
100
AcDbBlockReference
  2
KLON2
 10
0.0
 20
0.0
 30
0.0
  0
INSERT
  5
19E
330
1F
100
AcDbEntity
  8
LC-001-100-D00-0
 62
     7
370
    50
100
AcDbBlockReference
  2
KLON3
 10
0.0
 20
0.0
 30
0.0
  0
INSERT
  5
1A4
330
1F
100
AcDbEntity
  8
LC-001-100-D00-0
 62
     7
370
    50
100
AcDbBlockReference
  2
KLON4
 10
0.0
 20
0.0
 30
0.0
  0
INSERT
  5
1AA
330
1F
100
AcDbEntity
  8
LC-001-100-D00-0
 62
     7
370
    50
100
AcDbBlockReference
  2
KLON5
 10
0.0
 20
0.0
 30
0.0
  0
ARC
  5
1AB
330
1F
100
AcDbEntity
  8
LC-001-100-D00-0
 62
     7
370
    50
100
AcDbCircle
 10
181.453905
 20
-17.667181
 30
0.0
 40
126.6474349045511
100
AcDbArc
 50
176.128986
 51
183.871014
  0
ARC
  5
1AC
330
1F
100
AcDbEntity
  8
LC-001-100-D00-0
 62
     7
370
    50
100
AcDbCircle
 10
61.096122
 20
-9.523181
 30
0.0
 40
6.014434904551029
100
AcDbArc
 50
356.128986
 51
176.128986
  0
ARC
  5
1AD
330
1F
100
AcDbEntity
  8
LC-001-100-D00-0
 62
     7
370
    50
100
AcDbCircle
 10
301.811688
 20
-9.523181
 30
0.0
 40
6.014434904551058
100
AcDbArc
 50
3.871014
 51
183.871014
  0
ARC
  5
1AE
330
1F
100
AcDbEntity
  8
LC-001-100-D00-0
 62
     7
370
    50
100
AcDbCircle
 10
64.470217
 20
11.780015
 30
0.0
 40
6.014434904551059
100
AcDbArc
 50
165.871014
 51
345.871014
  0
ARC
  5
1AF
330
1F
100
AcDbEntity
  8
LC-001-100-D00-0
 62
     7
370
    50
100
AcDbCircle
 10
298.437593
 20
11.780015
 30
0.0
 40
6.014434904551024
100
AcDbArc
 50
194.128986
 51
14.128986
  0
ARC
  5
1B0
330
1F
100
AcDbEntity
  8
LC-001-100-D00-0
 62
     7
370
    50
100
AcDbCircle
 10
181.453905
 20
-17.667181
 30
0.0
 40
114.618565095449
100
AcDbArc
 50
14.128986
 51
21.871014
  0
ARC
  5
1B1
330
1F
100
AcDbEntity
  8
LC-001-100-D00-0
 62
     7
370
    50
100
AcDbCircle
 10
181.453905
 20
-17.667181
 30
0.0
 40
114.618565095449
100
AcDbArc
 50
158.128986
 51
165.871014
  0
ARC
  5
1B2
330
1F
100
AcDbEntity
  8
LC-001-100-D00-0
 62
     7
370
    50
100
AcDbCircle
 10
181.453905
 20
-17.667181
 30
0.0
 40
126.647434904551
100
AcDbArc
 50
14.128986
 51
21.871014
  0
ARC
  5
1B3
330
1F
100
AcDbEntity
  8
LC-001-100-D00-0
 62
     7
370
    50
100
AcDbCircle
 10
181.453905
 20
-17.667181
 30
0.0
 40
126.6474349045511
100
AcDbArc
 50
158.128986
 51
165.871014
  0
ARC
  5
1B4
330
1F
100
AcDbEntity
  8
LC-001-100-D00-0
 62
     7
370
    50
100
AcDbCircle
 10
69.503485
 20
27.270824
 30
0.0
 40
6.014434904551021
100
AcDbArc
 50
338.128986
 51
158.128986
  0
ARC
  5
1B5
330
1F
100
AcDbEntity
  8
LC-001-100-D00-0
 62
     7
370
    50
100
AcDbCircle
 10
293.404324
 20
27.270824
 30
0.0
 40
6.014434904551021
100
AcDbArc
 50
21.871014
 51
201.871014
  0
ARC
  5
1B6
330
1F
100
AcDbEntity
  8
LC-001-100-D00-0
 62
     7
370
    50
100
AcDbCircle
 10
280.270674
 20
51.525065
 30
0.0
 40
7.605497400916355
100
AcDbArc
 50
238.675215
 51
191.324785
  0
ARC
  5
1B7
330
1F
100
AcDbEntity
  8
LC-001-100-D00-0
 62
     7
370
    50
100
AcDbCircle
 10
82.637136
 20
51.525065
 30
0.0
 40
7.605497400916417
100
AcDbArc
 50
348.675215
 51
301.324785
  0
CIRCLE
  5
1B8
330
1F
100
AcDbEntity
  8
LC-001-100-D00-0
 62
     7
370
    50
100
AcDbCircle
 10
266.754317
 20
67.633231
 30
0.0
 40
2.036000000000001
  0
CIRCLE
  5
1B9
330
1F
100
AcDbEntity
  8
LC-001-100-D00-0
 62
     7
370
    50
100
AcDbCircle
 10
96.153493
 20
67.633231
 30
0.0
 40
2.036000000000001
  0
ARC
  5
1BA
330
1F
100
AcDbEntity
  8
LC-001-100-D00-0
 62
     7
370
    50
100
AcDbCircle
 10
252.140317
 20
80.086345
 30
0.0
 40
6.014434904551044
100
AcDbArc
 50
234.128986
 51
54.128986
  0
ARC
  5
1BB
330
1F
100
AcDbEntity
  8
LC-001-100-D00-0
 62
     7
370
    50
100
AcDbCircle
 10
110.767493
 20
80.086345
 30
0.0
 40
6.01443490455109
100
AcDbArc
 50
125.871014
 51
305.871014
  0
ARC
  5
1BC
330
1F
100
AcDbEntity
  8
LC-001-100-D00-0
 62
     7
370
    50
100
AcDbCircle
 10
181.453905
 20
-17.667181
 30
0.0
 40
114.6185650954476
100
AcDbArc
 50
54.128986
 51
61.871014
  0
ARC
  5
1BD
330
1F
100
AcDbEntity
  8
LC-001-100-D00-0
 62
     7
370
    50
100
AcDbCircle
 10
181.453905
 20
-17.667181
 30
0.0
 40
114.618565095449
100
AcDbArc
 50
118.128986
 51
125.871014
  0
ARC
  5
1BE
330
1F
100
AcDbEntity
  8
LC-001-100-D00-0
 62
     7
370
    50
100
AcDbCircle
 10
181.453905
 20
-17.667181
 30
0.0
 40
126.6474349045496
100
AcDbArc
 50
54.128986
 51
61.871014
  0
ARC
  5
1BF
330
1F
100
AcDbEntity
  8
LC-001-100-D00-0
 62
     7
370
    50
100
AcDbCircle
 10
238.327309
 20
88.71767
 30
0.0
 40
6.014434904551069
100
AcDbArc
 50
61.871014
 51
241.871014
  0
ARC
  5
1C0
330
1F
100
AcDbEntity
  8
LC-001-100-D00-0
 62
     7
370
    50
100
AcDbCircle
 10
181.453905
 20
-17.667181
 30
0.0
 40
126.6474349045511
100
AcDbArc
 50
118.128986
 51
125.871014
  0
ARC
  5
1C1
330
1F
100
AcDbEntity
  8
LC-001-100-D00-0
 62
     7
370
    50
100
AcDbCircle
 10
124.580501
 20
88.71767
 30
0.0
 40
6.014434904551069
100
AcDbArc
 50
298.128986
 51
118.128986
  0
ARC
  5
1C2
330
1F
100
AcDbEntity
  8
LC-001-100-D00-0
 62
     7
370
    50
100
AcDbCircle
 10
181.453905
 20
-17.667181
 30
0.0
 40
114.618565095449
100
AcDbArc
 50
72.128986
 51
79.871014
  0
ARC
  5
1C3
330
1F
100
AcDbEntity
  8
LC-001-100-D00-0
 62
     7
370
    50
100
AcDbCircle
 10
218.473176
 20
97.14525
 30
0.0
 40
6.014434904551021
100
AcDbArc
 50
252.128986
 51
72.128986
  0
ARC
  5
1C4
330
1F
100
AcDbEntity
  8
LC-001-100-D00-0
 62
     7
370
    50
100
AcDbCircle
 10
144.434634
 20
97.14525
 30
0.0
 40
6.014434904551075
100
AcDbArc
 50
107.871014
 51
287.871014
  0
ARC
  5
1C5
330
1F
100
AcDbEntity
  8
LC-001-100-D00-0
 62
     7
370
    50
100
AcDbCircle
 10
181.453905
 20
-17.667181
 30
0.0
 40
114.618565095449
100
AcDbArc
 50
100.128986
 51
107.871014
  0
ARC
  5
1C6
330
1F
100
AcDbEntity
  8
LC-001-100-D00-0
 62
     7
370
    50
100
AcDbCircle
 10
160.23881
 20
101.085674
 30
0.0
 40
6.014434904551054
100
AcDbArc
 50
280.128986
 51
100.128986
  0
ARC
  5
1C7
330
1F
100
AcDbEntity
  8
LC-001-100-D00-0
 62
     7
370
    50
100
AcDbCircle
 10
202.669
 20
101.085674
 30
0.0
 40
6.014434904551054
100
AcDbArc
 50
79.871014
 51
259.871014
  0
ARC
  5
1C8
330
1F
100
AcDbEntity
  8
LC-001-100-D00-0
 62
     7
370
    50
100
AcDbCircle
 10
181.453905
 20
102.965819
 30
0.0
 40
7.605497400916404
100
AcDbArc
 50
293.675215
 51
246.324785
  0
ARC
  5
1C9
330
1F
100
AcDbEntity
  8
LC-001-100-D00-0
 62
     7
370
    50
100
AcDbCircle
 10
181.453905
 20
-17.667181
 30
0.0
 40
126.6474349045511
100
AcDbArc
 50
72.128986
 51
79.871014
  0
ARC
  5
1CA
330
1F
100
AcDbEntity
  8
LC-001-100-D00-0
 62
     7
370
    50
100
AcDbCircle
 10
181.453905
 20
-17.667181
 30
0.0
 40
126.6474349045511
100
AcDbArc
 50
100.128986
 51
107.871014
  0
INSERT
  5
1DA
330
1F
100
AcDbEntity
  8
LC-001-100-D00-0
 62
     7
370
    50
100
AcDbBlockReference
  2
POLY13
 10
0.0
 20
0.0
 30
0.0
  0
LINE
  5
1DB
330
1F
100
AcDbEntity
  8
LC-001-100-D00-0
 62
     7
370
    50
100
AcDbLine
 10
178.399906
 20
-131.334789
 30
0.0
 11
178.399906
 21
-133.828349
 31
0.0
  0
LINE
  5
1DC
330
1F
100
AcDbEntity
  8
LC-001-100-D00-0
 62
     7
370
    50
100
AcDbLine
 10
184.507903
 20
-133.828349
 30
0.0
 11
184.507903
 21
-131.334789
 31
0.0
  0
INSERT
  5
1EC
330
1F
100
AcDbEntity
  8
LC-001-100-D00-0
 62
     7
370
    50
100
AcDbBlockReference
  2
POLY14
 10
0.0
 20
0.0
 30
0.0
  0
LINE
  5
1ED
330
1F
100
AcDbEntity
  8
LC-001-100-D00-0
 62
     7
370
    50
100
AcDbLine
 10
86.591151
 20
-80.362554
 30
0.0
 11
84.548545
 21
-81.792801
 31
0.0
  0
LINE
  5
1EE
330
1F
100
AcDbEntity
  8
LC-001-100-D00-0
 62
     7
370
    50
100
AcDbLine
 10
88.051942
 20
-86.796179
 30
0.0
 11
90.094548
 21
-85.365932
 31
0.0
  0
LINE
  5
1EF
330
1F
100
AcDbEntity
  8
LC-001-100-D00-0
 62
     7
370
    50
100
AcDbLine
 10
278.359265
 20
-81.792801
 30
0.0
 11
276.316662
 21
-80.362554
 31
0.0
  0
INSERT
  5
1FF
330
1F
100
AcDbEntity
  8
LC-001-100-D00-0
 62
     7
370
    50
100
AcDbBlockReference
  2
POLY15
 10
0.0
 20
0.0
 30
0.0
  0
LINE
  5
200
330
1F
100
AcDbEntity
  8
LC-001-100-D00-0
 62
     7
370
    50
100
AcDbLine
 10
272.813258
 20
-85.365932
 30
0.0
 11
274.85586
 21
-86.796179
 31
0.0
  0
LINE
  5
201
330
1F
100
AcDbEntity
  8
LC-001-100-D00-0
 62
     7
370
    50
100
AcDbLine
 10
274.85586
 20
51.461816
 30
0.0
 11
272.813258
 21
50.031573
 31
0.0
  0
INSERT
  5
211
330
1F
100
AcDbEntity
  8
LC-001-100-D00-0
 62
     7
370
    50
100
AcDbBlockReference
  2
POLY16
 10
0.0
 20
0.0
 30
0.0
  0
LINE
  5
212
330
1F
100
AcDbEntity
  8
LC-001-100-D00-0
 62
     7
370
    50
100
AcDbLine
 10
276.316662
 20
45.028188
 30
0.0
 11
278.359265
 21
46.458439
 31
0.0
  0
INSERT
  5
222
330
1F
100
AcDbEntity
  8
LC-001-100-D00-0
 62
     7
370
    50
100
AcDbBlockReference
  2
POLY17
 10
0.0
 20
0.0
 30
0.0
  0
LINE
  5
223
330
1F
100
AcDbEntity
  8
LC-001-100-D00-0
 62
     7
370
    50
100
AcDbLine
 10
90.094548
 20
50.031573
 30
0.0
 11
88.051942
 21
51.461816
 31
0.0
  0
LINE
  5
224
330
1F
100
AcDbEntity
  8
LC-001-100-D00-0
 62
     7
370
    50
100
AcDbLine
 10
84.548545
 20
46.458439
 30
0.0
 11
86.591151
 21
45.028188
 31
0.0
  0
INSERT
  5
234
330
1F
100
AcDbEntity
  8
LC-001-100-D00-0
 62
     7
370
    50
100
AcDbBlockReference
  2
POLY18
 10
0.0
 20
0.0
 30
0.0
  0
LINE
  5
235
330
1F
100
AcDbEntity
  8
LC-001-100-D00-0
 62
     7
370
    50
100
AcDbLine
 10
178.399906
 20
98.493986
 30
0.0
 11
178.399906
 21
96.000426
 31
0.0
  0
LINE
  5
236
330
1F
100
AcDbEntity
  8
LC-001-100-D00-0
 62
     7
370
    50
100
AcDbLine
 10
184.507903
 20
96.000426
 30
0.0
 11
184.507903
 21
98.493986
 31
0.0
  0
LINE
  5
237
330
1F
100
AcDbEntity
  8
LC-001-100-D00-0
 62
     7
370
    50
100
AcDbLine
 10
161.937483
 20
-60.793749
 30
0.0
 11
157.383983
 21
-71.786871
 31
0.0
  0
ARC
  5
238
330
1F
100
AcDbEntity
  8
LC-001-100-D00-0
 62
     7
370
    50
100
AcDbCircle
 10
163.338819
 20
-61.400866
 30
0.0
 40
1.527198711706639
100
AcDbArc
 50
338.424286
 51
156.575714
  0
LINE
  5
239
330
1F
100
AcDbEntity
  8
LC-001-100-D00-0
 62
     7
370
    50
100
AcDbLine
 10
160.20551
 20
-72.955585
 30
0.0
 11
164.759011
 21
-61.962464
 31
0.0
  0
ARC
  5
23A
330
1F
100
AcDbEntity
  8
LC-001-100-D00-0
 62
     7
370
    50
100
AcDbCircle
 10
181.453905
 20
-17.667181
 30
0.0
 40
59.23092064205093
100
AcDbArc
 50
246.022725
 51
248.977275
  0
LINE
  5
23B
330
1F
100
AcDbEntity
  8
LC-001-100-D00-0
 62
     7
370
    50
100
AcDbLine
 10
198.148799
 20
-61.962464
 30
0.0
 11
202.7023
 21
-72.955585
 31
0.0
  0
ARC
  5
23C
330
1F
100
AcDbEntity
  8
LC-001-100-D00-0
 62
     7
370
    50
100
AcDbCircle
 10
199.568991
 20
-61.400866
 30
0.0
 40
1.527198711706709
100
AcDbArc
 50
23.424286
 51
201.575714
  0
ARC
  5
23D
330
1F
100
AcDbEntity
  8
LC-001-100-D00-0
 62
     7
370
    50
100
AcDbCircle
 10
181.453905
 20
-17.667181
 30
0.0
 40
59.23092064205093
100
AcDbArc
 50
291.022725
 51
293.977275
  0
LINE
  5
23E
330
1F
100
AcDbEntity
  8
LC-001-100-D00-0
 62
     7
370
    50
100
AcDbLine
 10
205.523827
 20
-71.786871
 30
0.0
 11
200.970326
 21
-60.793749
 31
0.0
  0
ARC
  5
23F
330
1F
100
AcDbEntity
  8
LC-001-100-D00-0
 62
     7
370
    50
100
AcDbCircle
 10
225.18759
 20
-35.782267
 30
0.0
 40
1.527198711706692
100
AcDbArc
 50
68.424286
 51
246.575714
  0
LINE
  5
240
330
1F
100
AcDbEntity
  8
LC-001-100-D00-0
 62
     7
370
    50
100
AcDbLine
 10
236.742309
 20
-38.915575
 30
0.0
 11
225.749188
 21
-34.362075
 31
0.0
  0
ARC
  5
241
330
1F
100
AcDbEntity
  8
LC-001-100-D00-0
 62
     7
370
    50
100
AcDbCircle
 10
181.453905
 20
-17.667181
 30
0.0
 40
59.23092064205096
100
AcDbArc
 50
336.022725
 51
338.977275
  0
LINE
  5
242
330
1F
100
AcDbEntity
  8
LC-001-100-D00-0
 62
     7
370
    50
100
AcDbLine
 10
224.580473
 20
-37.183603
 30
0.0
 11
235.573594
 21
-41.737103
 31
0.0
  0
LINE
  5
243
330
1F
100
AcDbEntity
  8
LC-001-100-D00-0
 62
     7
370
    50
100
AcDbLine
 10
137.158622
 20
-34.362075
 30
0.0
 11
126.165499
 21
-38.915575
 31
0.0
  0
ARC
  5
244
330
1F
100
AcDbEntity
  8
LC-001-100-D00-0
 62
     7
370
    50
100
AcDbCircle
 10
137.72022
 20
-35.782267
 30
0.0
 40
1.527198711706682
100
AcDbArc
 50
293.424286
 51
111.575714
  0
ARC
  5
245
330
1F
100
AcDbEntity
  8
LC-001-100-D00-0
 62
     7
370
    50
100
AcDbCircle
 10
181.453905
 20
-17.667181
 30
0.0
 40
59.23092064205093
100
AcDbArc
 50
201.022725
 51
203.977275
  0
LINE
  5
246
330
1F
100
AcDbEntity
  8
LC-001-100-D00-0
 62
     7
370
    50
100
AcDbLine
 10
127.334212
 20
-41.737103
 30
0.0
 11
138.327335
 21
-37.183603
 31
0.0
  0
LINE
  5
247
330
1F
100
AcDbEntity
  8
LC-001-100-D00-0
 62
     7
370
    50
100
AcDbLine
 10
138.327335
 20
1.849242
 30
0.0
 11
127.334212
 21
6.402743
 31
0.0
  0
LINE
  5
248
330
1F
100
AcDbEntity
  8
LC-001-100-D00-0
 62
     7
370
    50
100
AcDbLine
 10
126.165499
 20
3.581212
 30
0.0
 11
137.158622
 21
-0.972285
 31
0.0
  0
ARC
  5
249
330
1F
100
AcDbEntity
  8
LC-001-100-D00-0
 62
     7
370
    50
100
AcDbCircle
 10
181.453905
 20
-17.667181
 30
0.0
 40
59.23092064205097
100
AcDbArc
 50
156.022725
 51
158.977275
  0
ARC
  5
24A
330
1F
100
AcDbEntity
  8
LC-001-100-D00-0
 62
     7
370
    50
100
AcDbCircle
 10
137.72022
 20
0.447905
 30
0.0
 40
1.527198711706665
100
AcDbArc
 50
248.424286
 51
66.575714
  0
LINE
  5
24B
330
1F
100
AcDbEntity
  8
LC-001-100-D00-0
 62
     7
370
    50
100
AcDbLine
 10
225.749188
 20
-0.972285
 30
0.0
 11
236.742309
 21
3.581212
 31
0.0
  0
ARC
  5
24C
330
1F
100
AcDbEntity
  8
LC-001-100-D00-0
 62
     7
370
    50
100
AcDbCircle
 10
225.18759
 20
0.447905
 30
0.0
 40
1.527198711706682
100
AcDbArc
 50
113.424286
 51
291.575714
  0
LINE
  5
24D
330
1F
100
AcDbEntity
  8
LC-001-100-D00-0
 62
     7
370
    50
100
AcDbLine
 10
235.573594
 20
6.402743
 30
0.0
 11
224.580473
 21
1.849242
 31
0.0
  0
ARC
  5
24E
330
1F
100
AcDbEntity
  8
LC-001-100-D00-0
 62
     7
370
    50
100
AcDbCircle
 10
181.453905
 20
-17.667181
 30
0.0
 40
59.230920642051
100
AcDbArc
 50
21.022725
 51
23.977275
  0
LINE
  5
24F
330
1F
100
AcDbEntity
  8
LC-001-100-D00-0
 62
     7
370
    50
100
AcDbLine
 10
164.759011
 20
26.6281
 30
0.0
 11
160.20551
 21
37.621223
 31
0.0
  0
ARC
  5
250
330
1F
100
AcDbEntity
  8
LC-001-100-D00-0
 62
     7
370
    50
100
AcDbCircle
 10
163.338819
 20
26.066505
 30
0.0
 40
1.527198711706656
100
AcDbArc
 50
203.424286
 51
21.575714
  0
LINE
  5
251
330
1F
100
AcDbEntity
  8
LC-001-100-D00-0
 62
     7
370
    50
100
AcDbLine
 10
157.383983
 20
36.45251
 30
0.0
 11
161.937483
 21
25.459387
 31
0.0
  0
ARC
  5
252
330
1F
100
AcDbEntity
  8
LC-001-100-D00-0
 62
     7
370
    50
100
AcDbCircle
 10
181.453905
 20
-17.667181
 30
0.0
 40
59.23092064205099
100
AcDbArc
 50
111.022725
 51
113.977275
  0
LINE
  5
253
330
1F
100
AcDbEntity
  8
LC-001-100-D00-0
 62
     7
370
    50
100
AcDbLine
 10
200.970326
 20
25.459387
 30
0.0
 11
205.523827
 21
36.45251
 31
0.0
  0
LINE
  5
254
330
1F
100
AcDbEntity
  8
LC-001-100-D00-0
 62
     7
370
    50
100
AcDbLine
 10
202.7023
 20
37.621223
 30
0.0
 11
198.148799
 21
26.6281
 31
0.0
  0
ARC
  5
255
330
1F
100
AcDbEntity
  8
LC-001-100-D00-0
 62
     7
370
    50
100
AcDbCircle
 10
181.453905
 20
-17.667181
 30
0.0
 40
59.23092064205095
100
AcDbArc
 50
66.022725
 51
68.977275
  0
ARC
  5
256
330
1F
100
AcDbEntity
  8
LC-001-100-D00-0
 62
     7
370
    50
100
AcDbCircle
 10
199.568991
 20
26.066505
 30
0.0
 40
1.527198711706702
100
AcDbArc
 50
158.424286
 51
336.575714
  0
CIRCLE
  5
257
330
1F
100
AcDbEntity
  8
LC-001-100-D00-0
 62
     7
370
    50
100
AcDbCircle
 10
181.453905
 20
-17.667181
 30
0.0
 40
43.36680000000001
  0
ARC
  5
258
330
1F
100
AcDbEntity
  8
LC-001-100-D00-0
 62
     7
370
    50
100
AcDbCircle
 10
181.453905
 20
-138.300181
 30
0.0
 40
5.45148700458177
100
AcDbArc
 50
124.070607
 51
55.929393
  0
ARC
  5
259
330
1F
100
AcDbEntity
  8
LC-001-100-D00-0
 62
     7
370
    50
100
AcDbCircle
 10
82.637136
 20
-86.859427
 30
0.0
 40
5.451487004581727
100
AcDbArc
 50
69.070607
 51
0.929393
  0
ARC
  5
25A
330
1F
100
AcDbEntity
  8
LC-001-100-D00-0
 62
     7
370
    50
100
AcDbCircle
 10
280.270674
 20
-86.859427
 30
0.0
 40
5.451487004581783
100
AcDbArc
 50
179.070607
 51
110.929393
  0
ARC
  5
25B
330
1F
100
AcDbEntity
  8
LC-001-100-D00-0
 62
     7
370
    50
100
AcDbCircle
 10
82.637136
 20
51.525065
 30
0.0
 40
5.451487004581783
100
AcDbArc
 50
359.070607
 51
290.929393
  0
ARC
  5
25C
330
1F
100
AcDbEntity
  8
LC-001-100-D00-0
 62
     7
370
    50
100
AcDbCircle
 10
280.270674
 20
51.525065
 30
0.0
 40
5.451487004581741
100
AcDbArc
 50
249.070607
 51
180.929393
  0
ARC
  5
25D
330
1F
100
AcDbEntity
  8
LC-001-100-D00-0
 62
     7
370
    50
100
AcDbCircle
 10
181.453905
 20
102.965819
 30
0.0
 40
5.45148700458177
100
AcDbArc
 50
304.070607
 51
235.929393
  0
LINE
  5
25F
330
1F
100
AcDbEntity
  8
LC-001-100-D00-0
  6
DASHDOT
 62
     7
370
    25
100
AcDbLine
 10
48.604905
 20
-17.667181
 30
0.0
 11
404.081908
 21
-17.667181
 31
0.0
  0
LINE
  5
260
330
1F
100
AcDbEntity
  8
LC-001-100-D00-0
 62
     7
370
    50
100
AcDbLine
 10
224.681905
 20
263.365261
 30
0.0
 11
221.603905
 21
263.365261
 31
0.0
  0
LINE
  5
261
330
1F
100
AcDbEntity
  8
LC-001-100-D00-0
 62
     7
370
    50
100
AcDbLine
 10
223.206411
 20
260.365261
 30
0.0
 11
224.681905
 21
260.365261
 31
0.0
  0
LINE
  5
262
330
1F
100
AcDbEntity
  8
LC-001-100-D00-0
 62
     7
370
    50
100
AcDbLine
 10
312.181902
 20
259.165261
 30
0.0
 11
312.181902
 21
257.315261
 31
0.0
  0
LINE
  5
263
330
1F
100
AcDbEntity
  8
LC-001-100-D00-0
 62
     7
370
    50
100
AcDbLine
 10
312.181902
 20
207.015261
 30
0.0
 11
312.181902
 21
205.165263
 31
0.0
  0
LINE
  5
264
330
1F
100
AcDbEntity
  8
LC-001-100-D00-0
 62
     7
370
    50
100
AcDbLine
 10
316.181903
 20
205.165263
 30
0.0
 11
316.181903
 21
205.265443
 31
0.0
  0
LINE
  5
265
330
1F
100
AcDbEntity
  8
LC-001-100-D00-0
 62
     7
370
    50
100
AcDbLine
 10
316.181903
 20
259.065075
 30
0.0
 11
316.181903
 21
259.165261
 31
0.0
  0
LINE
  5
266
330
1F
100
AcDbEntity
  8
LC-001-100-D00-0
 62
     7
370
    50
100
AcDbLine
 10
223.660392
 20
266.766261
 30
0.0
 11
223.660392
 21
266.257261
 31
0.0
  0
LINE
  5
267
330
1F
100
AcDbEntity
  8
LC-001-100-D00-0
 62
     7
370
    50
100
AcDbLine
 10
139.247422
 20
266.257261
 30
0.0
 11
139.247422
 21
266.766261
 31
0.0
  0
LINE
  5
268
330
1F
100
AcDbEntity
  8
LC-001-100-D00-0
 62
     7
370
    50
100
AcDbLine
 10
198.041792
 20
266.766261
 30
0.0
 11
198.041792
 21
266.257261
 31
0.0
  0
LINE
  5
269
330
1F
100
AcDbEntity
  8
LC-001-100-D00-0
 62
     7
370
    50
100
AcDbLine
 10
164.86602
 20
266.257261
 30
0.0
 11
164.86602
 21
266.766261
 31
0.0
  0
LINE
  5
26A
330
1F
100
AcDbEntity
  8
LC-001-100-D00-0
 62
     7
370
    50
100
AcDbLine
 10
77.185643
 20
257.095261
 30
0.0
 11
77.575815
 21
254.882487
 31
0.0
  0
ARC
  5
26B
330
1F
100
AcDbEntity
  8
LC-001-100-D00-0
 62
     7
370
    50
100
AcDbCircle
 10
78.578355
 20
255.059261
 30
0.0
 40
1.018000000000055
100
AcDbArc
 50
190.0
 51
270.0
  0
INSERT
  5
277
330
1F
100
AcDbEntity
  8
LC-001-100-D00-0
 62
     7
370
    50
100
AcDbBlockReference
  2
POLY19
 10
0.0
 20
0.0
 30
0.0
  0
ARC
  5
278
330
1F
100
AcDbEntity
  8
LC-001-100-D00-0
 62
     7
370
    50
100
AcDbCircle
 10
89.386171
 20
255.059261
 30
0.0
 40
1.018000000000029
100
AcDbArc
 50
270.0
 51
351.513889
  0
LINE
  5
279
330
1F
100
AcDbEntity
  8
LC-001-100-D00-0
 62
     7
370
    50
100
AcDbLine
 10
288.682666
 20
204.665262
 30
0.0
 11
288.682666
 21
202.915262
 31
0.0
  0
LINE
  5
27A
330
1F
100
AcDbEntity
  8
LC-001-100-D00-0
 62
     7
370
    50
100
AcDbLine
 10
293.932666
 20
204.953957
 30
0.0
 11
293.932666
 21
197.665263
 31
0.0
  0
LINE
  5
27B
330
1F
100
AcDbEntity
  8
LC-001-100-D00-0
 62
     7
370
    50
100
AcDbLine
 10
293.932666
 20
197.665263
 30
0.0
 11
288.682666
 21
202.915262
 31
0.0
  0
LINE
  5
27C
330
1F
100
AcDbEntity
  8
LC-001-100-D00-0
 62
     7
370
    50
100
AcDbLine
 10
316.02021
 20
269.665261
 30
0.0
 11
292.690028
 21
269.665261
 31
0.0
  0
LINE
  5
27D
330
1F
100
AcDbEntity
  8
LC-001-100-D00-0
 62
     7
370
    50
100
AcDbLine
 10
292.690028
 20
269.665261
 30
0.0
 11
286.690024
 21
263.665261
 31
0.0
  0
LINE
  5
27E
330
1F
100
AcDbEntity
  8
LC-001-100-D00-0
 62
     7
370
    50
100
AcDbLine
 10
315.564361
 20
201.078716
 30
0.0
 11
315.564361
 21
197.665263
 31
0.0
  0
LINE
  5
27F
330
1F
100
AcDbEntity
  8
LC-001-100-D00-0
 62
     7
370
    50
100
AcDbLine
 10
320.181903
 20
202.979307
 30
0.0
 11
315.564361
 21
197.665263
 31
0.0
  0
LINE
  5
280
330
1F
100
AcDbEntity
  8
LC-001-100-D00-0
 62
     7
370
    50
100
AcDbLine
 10
284.981903
 20
206.165257
 30
0.0
 11
279.181906
 21
206.165257
 31
0.0
  0
LINE
  5
281
330
1F
100
AcDbEntity
  8
LC-001-100-D00-0
 62
     7
370
    50
100
AcDbLine
 10
315.564361
 20
263.251803
 30
0.0
 11
315.564361
 21
266.66526
 31
0.0
  0
LINE
  5
282
330
1F
100
AcDbEntity
  8
LC-001-100-D00-0
 62
     7
370
    50
100
AcDbLine
 10
315.564361
 20
266.66526
 30
0.0
 11
320.181903
 21
261.351217
 31
0.0
  0
LINE
  5
283
330
1F
100
AcDbEntity
  8
LC-001-100-D00-0
 62
     7
370
    50
100
AcDbLine
 10
293.932666
 20
261.311818
 30
0.0
 11
293.932666
 21
266.66526
 31
0.0
  0
LINE
  5
284
330
1F
100
AcDbEntity
  8
LC-001-100-D00-0
 62
     7
370
    50
100
AcDbLine
 10
293.932666
 20
266.66526
 30
0.0
 11
315.564361
 21
266.66526
 31
0.0
  0
LINE
  5
285
330
1F
100
AcDbEntity
  8
LC-001-100-D00-0
 62
     7
370
    50
100
AcDbLine
 10
288.682666
 20
202.915262
 30
0.0
 11
284.981903
 21
202.915262
 31
0.0
  0
LINE
  5
286
330
1F
100
AcDbEntity
  8
LC-001-100-D00-0
 62
     7
370
    50
100
AcDbLine
 10
288.682666
 20
259.665261
 30
0.0
 11
288.682666
 21
261.41526
 31
0.0
  0
LINE
  5
287
330
1F
100
AcDbEntity
  8
LC-001-100-D00-0
 62
     7
370
    50
100
AcDbLine
 10
288.682666
 20
261.41526
 30
0.0
 11
293.932666
 21
266.66526
 31
0.0
  0
LINE
  5
288
330
1F
100
AcDbEntity
  8
LC-001-100-D00-0
 62
     7
370
    50
100
AcDbLine
 10
286.690024
 20
263.665261
 30
0.0
 11
285.181907
 21
263.665261
 31
0.0
  0
LINE
  5
289
330
1F
100
AcDbEntity
  8
LC-001-100-D00-0
 62
     7
370
    50
100
AcDbLine
 10
279.181906
 20
204.56526
 30
0.0
 11
283.181903
 21
204.56526
 31
0.0
  0
LINE
  5
28A
330
1F
100
AcDbEntity
  8
LC-001-100-D00-0
 62
     7
370
    50
100
AcDbLine
 10
315.564361
 20
197.665263
 30
0.0
 11
293.932666
 21
197.665263
 31
0.0
  0
ARC
  5
28B
330
1F
100
AcDbEntity
  8
LC-001-100-D00-0
 62
     7
370
    50
100
AcDbCircle
 10
318.181905
 20
199.153022
 30
0.0
 40
2.00000000000003
100
AcDbArc
 50
319.011567
 51
0.0
  0
LINE
  5
28C
330
1F
100
AcDbEntity
  8
LC-001-100-D00-0
 62
     7
370
    50
100
AcDbLine
 10
317.529891
 20
195.353444
 30
0.0
 11
319.691588
 21
197.841208
 31
0.0
  0
ARC
  5
28D
330
1F
100
AcDbEntity
  8
LC-001-100-D00-0
 62
     7
370
    50
100
AcDbCircle
 10
316.020209
 20
196.665261
 30
0.0
 40
2.0
100
AcDbArc
 50
270.0
 51
319.011567
  0
LINE
  5
28E
330
1F
100
AcDbEntity
  8
LC-001-100-D00-0
 62
     7
370
    50
100
AcDbLine
 10
292.690028
 20
194.665264
 30
0.0
 11
316.02021
 21
194.665264
 31
0.0
  0
LINE
  5
28F
330
1F
100
AcDbEntity
  8
LC-001-100-D00-0
 62
     7
370
    50
100
AcDbLine
 10
286.690024
 20
200.665261
 30
0.0
 11
292.690028
 21
194.665264
 31
0.0
  0
LINE
  5
290
330
1F
100
AcDbEntity
  8
LC-001-100-D00-0
 62
     7
370
    50
100
AcDbLine
 10
285.181907
 20
200.665261
 30
0.0
 11
286.690024
 21
200.665261
 31
0.0
  0
ARC
  5
291
330
1F
100
AcDbEntity
  8
LC-001-100-D00-0
 62
     7
370
    50
100
AcDbCircle
 10
285.181905
 20
202.665261
 30
0.0
 40
2.0
100
AcDbArc
 50
180.0
 51
270.0
  0
LINE
  5
292
330
1F
100
AcDbEntity
  8
LC-001-100-D00-0
 62
     7
370
    50
100
AcDbLine
 10
279.181906
 20
206.165257
 30
0.0
 11
279.181906
 21
204.56526
 31
0.0
  0
LINE
  5
293
330
1F
100
AcDbEntity
  8
LC-001-100-D00-0
 62
     7
370
    50
100
AcDbLine
 10
283.181903
 20
204.56526
 30
0.0
 11
283.181903
 21
202.665258
 31
0.0
  0
LINE
  5
294
330
1F
100
AcDbEntity
  8
LC-001-100-D00-0
 62
     7
370
    50
100
AcDbLine
 10
320.181903
 20
199.153024
 30
0.0
 11
320.181903
 21
202.979307
 31
0.0
  0
LINE
  5
295
330
1F
100
AcDbEntity
  8
LC-001-100-D00-0
 62
     7
370
    50
100
AcDbLine
 10
284.981903
 20
202.915262
 30
0.0
 11
284.981903
 21
206.165257
 31
0.0
  0
LINE
  5
296
330
1F
100
AcDbEntity
  8
LC-001-100-D00-0
 62
     7
370
    50
100
AcDbLine
 10
283.181903
 20
261.665261
 30
0.0
 11
283.181903
 21
259.76526
 31
0.0
  0
ARC
  5
297
330
1F
100
AcDbEntity
  8
LC-001-100-D00-0
 62
     7
370
    50
100
AcDbCircle
 10
285.181905
 20
261.665261
 30
0.0
 40
2.0
100
AcDbArc
 50
90.0
 51
180.0
  0
ARC
  5
298
330
1F
100
AcDbEntity
  8
LC-001-100-D00-0
 62
     7
370
    50
100
AcDbCircle
 10
316.020209
 20
267.665261
 30
0.0
 40
1.999999999999987
100
AcDbArc
 50
40.988433
 51
90.0
  0
LINE
  5
299
330
1F
100
AcDbEntity
  8
LC-001-100-D00-0
 62
     7
370
    50
100
AcDbLine
 10
319.691588
 20
266.489313
 30
0.0
 11
317.529891
 21
268.977074
 31
0.0
  0
ARC
  5
29A
330
1F
100
AcDbEntity
  8
LC-001-100-D00-0
 62
     7
370
    50
100
AcDbCircle
 10
318.181905
 20
265.1775
 30
0.0
 40
2.0
100
AcDbArc
 50
0.0
 51
40.988433
  0
LINE
  5
29B
330
1F
100
AcDbEntity
  8
LC-001-100-D00-0
 62
     7
370
    50
100
AcDbLine
 10
320.181903
 20
261.351217
 30
0.0
 11
320.181903
 21
265.1775
 31
0.0
  0
LINE
  5
29C
330
1F
100
AcDbEntity
  8
LC-001-100-D00-0
 62
     7
370
    50
100
AcDbLine
 10
284.981903
 20
261.41526
 30
0.0
 11
288.682666
 21
261.41526
 31
0.0
  0
LINE
  5
29D
330
1F
100
AcDbEntity
  8
LC-001-100-D00-0
 62
     7
370
    50
100
AcDbLine
 10
284.981903
 20
258.16526
 30
0.0
 11
284.981903
 21
261.41526
 31
0.0
  0
LINE
  5
29E
330
1F
100
AcDbEntity
  8
LC-001-100-D00-0
 62
     7
370
    50
100
AcDbLine
 10
279.181906
 20
258.16526
 30
0.0
 11
284.981903
 21
258.16526
 31
0.0
  0
LINE
  5
29F
330
1F
100
AcDbEntity
  8
LC-001-100-D00-0
 62
     7
370
    50
100
AcDbLine
 10
279.181906
 20
259.76526
 30
0.0
 11
279.181906
 21
258.16526
 31
0.0
  0
LINE
  5
2A0
330
1F
100
AcDbEntity
  8
LC-001-100-D00-0
 62
     7
370
    50
100
AcDbLine
 10
283.181903
 20
259.76526
 30
0.0
 11
279.181906
 21
259.76526
 31
0.0
  0
LINE
  5
2A1
330
1F
100
AcDbEntity
  8
LC-001-100-D00-0
 62
     7
370
    50
100
AcDbLine
 10
305.581902
 20
199.515264
 30
0.0
 11
297.081907
 21
199.515264
 31
0.0
  0
ARC
  5
2A2
330
1F
100
AcDbEntity
  8
LC-001-100-D00-0
 62
     7
370
    50
100
AcDbCircle
 10
297.081905
 20
201.515261
 30
0.0
 40
2.000000000000057
100
AcDbArc
 50
180.0
 51
270.0
  0
LINE
  5
2A3
330
1F
100
AcDbEntity
  8
LC-001-100-D00-0
 62
     7
370
    50
100
AcDbLine
 10
295.081903
 20
202.97211
 30
0.0
 11
295.081903
 21
201.515261
 31
0.0
  0
ARC
  5
2A4
330
1F
100
AcDbEntity
  8
LC-001-100-D00-0
 62
     7
370
    50
100
AcDbCircle
 10
296.081905
 20
202.972111
 30
0.0
 40
1.000000000000018
100
AcDbArc
 50
71.974138
 51
180.0
  0
ARC
  5
2A5
330
1F
100
AcDbEntity
  8
LC-001-100-D00-0
 62
     7
370
    50
100
AcDbCircle
 10
305.581905
 20
232.165261
 30
0.0
 40
29.7000000000001
100
AcDbArc
 50
251.974138
 51
312.205446
  0
LINE
  5
2A6
330
1F
100
AcDbEntity
  8
LC-001-100-D00-0
 62
     7
370
    50
100
AcDbLine
 10
329.381903
 20
210.165262
 30
0.0
 11
325.534095
 21
210.165262
 31
0.0
  0
LINE
  5
2A7
330
1F
100
AcDbEntity
  8
LC-001-100-D00-0
 62
     7
370
    50
100
AcDbLine
 10
329.381903
 20
210.165262
 30
0.0
 11
329.381903
 21
208.466377
 31
0.0
  0
ARC
  5
2A8
330
1F
100
AcDbEntity
  8
LC-001-100-D00-0
 62
     7
370
    50
100
AcDbCircle
 10
330.381905
 20
208.466376
 30
0.0
 40
1.0
100
AcDbArc
 50
180.0
 51
269.5
  0
LINE
  5
2A9
330
1F
100
AcDbEntity
  8
LC-001-100-D00-0
 62
     7
370
    50
100
AcDbLine
 10
330.37318
 20
207.466416
 30
0.0
 11
364.8819
 21
207.165259
 31
0.0
  0
LINE
  5
2AA
330
1F
100
AcDbEntity
  8
LC-001-100-D00-0
 62
     7
370
    50
100
AcDbLine
 10
364.8819
 20
204.007353
 30
0.0
 11
364.8819
 21
207.165259
 31
0.0
  0
LINE
  5
2AB
330
1F
100
AcDbEntity
  8
LC-001-100-D00-0
 62
     7
370
    50
100
AcDbLine
 10
364.8819
 20
204.007353
 30
0.0
 11
404.081908
 21
203.66526
 31
0.0
  0
LINE
  5
2AC
330
1F
100
AcDbEntity
  8
LC-001-100-D00-0
 62
     7
370
    50
100
AcDbLine
 10
404.081908
 20
203.66526
 30
0.0
 11
404.081908
 21
201.757174
 31
0.0
  0
LINE
  5
2AD
330
1F
100
AcDbEntity
  8
LC-001-100-D00-0
 62
     7
370
    50
100
AcDbLine
 10
401.081902
 20
200.665261
 30
0.0
 11
404.081908
 21
201.757174
 31
0.0
  0
LINE
  5
2AE
330
1F
100
AcDbEntity
  8
LC-001-100-D00-0
 62
     7
370
    50
100
AcDbLine
 10
362.381902
 20
200.665261
 30
0.0
 11
401.081902
 21
200.665261
 31
0.0
  0
ARC
  5
2AF
330
1F
100
AcDbEntity
  8
LC-001-100-D00-0
 62
     7
370
    50
100
AcDbCircle
 10
362.381905
 20
201.165261
 30
0.0
 40
0.5000000000001137
100
AcDbArc
 50
180.0
 51
270.0
  0
LINE
  5
2B0
330
1F
100
AcDbEntity
  8
LC-001-100-D00-0
 62
     7
370
    50
100
AcDbLine
 10
361.881909
 20
201.165262
 30
0.0
 11
361.881909
 21
203.66526
 31
0.0
  0
ARC
  5
2B1
330
1F
100
AcDbEntity
  8
LC-001-100-D00-0
 62
     7
370
    50
100
AcDbCircle
 10
361.381905
 20
203.665261
 30
0.0
 40
0.5
100
AcDbArc
 50
0.0
 51
90.0
  0
LINE
  5
2B2
330
1F
100
AcDbEntity
  8
LC-001-100-D00-0
 62
     7
370
    50
100
AcDbLine
 10
322.375429
 20
204.165261
 30
0.0
 11
361.3819
 21
204.165261
 31
0.0
  0
ARC
  5
2B3
330
1F
100
AcDbEntity
  8
LC-001-100-D00-0
 62
     7
370
    50
100
AcDbCircle
 10
305.581905
 20
232.165261
 30
0.0
 40
32.65000000000003
100
AcDbArc
 50
270.0
 51
300.954014
  0
LINE
  5
2B4
330
1F
100
AcDbEntity
  8
LC-001-100-D00-0
 62
     7
370
    50
100
AcDbLine
 10
404.081908
 20
262.57335
 30
0.0
 11
401.081902
 21
263.665261
 31
0.0
  0
LINE
  5
2B5
330
1F
100
AcDbEntity
  8
LC-001-100-D00-0
 62
     7
370
    50
100
AcDbLine
 10
361.3819
 20
260.165261
 30
0.0
 11
322.375429
 21
260.165261
 31
0.0
  0
LINE
  5
2B6
330
1F
100
AcDbEntity
  8
LC-001-100-D00-0
 62
     7
370
    50
100
AcDbLine
 10
401.081902
 20
263.665261
 30
0.0
 11
364.8819
 21
263.665261
 31
0.0
  0
LINE
  5
2B7
330
1F
100
AcDbEntity
  8
LC-001-100-D00-0
 62
     7
370
    50
100
AcDbLine
 10
404.081908
 20
260.665261
 30
0.0
 11
364.8819
 21
260.323167
 31
0.0
  0
LINE
  5
2B8
330
1F
100
AcDbEntity
  8
LC-001-100-D00-0
 62
     7
370
    50
100
AcDbLine
 10
404.081908
 20
260.665261
 30
0.0
 11
404.081908
 21
203.66526
 31
0.0
  0
LINE
  5
2B9
330
1F
100
AcDbEntity
  8
LC-001-100-D00-0
 62
     7
370
    50
100
AcDbLine
 10
364.8819
 20
257.165261
 30
0.0
 11
330.37318
 21
256.864108
 31
0.0
  0
LINE
  5
2BA
330
1F
100
AcDbEntity
  8
LC-001-100-D00-0
 62
     7
370
    50
100
AcDbLine
 10
364.8819
 20
257.165261
 30
0.0
 11
364.8819
 21
207.165259
 31
0.0
  0
ARC
  5
2BB
330
1F
100
AcDbEntity
  8
LC-001-100-D00-0
 62
     7
370
    50
100
AcDbCircle
 10
330.381905
 20
255.864146
 30
0.0
 40
1.000000000000006
100
AcDbArc
 50
90.5
 51
180.0
  0
LINE
  5
2BC
330
1F
100
AcDbEntity
  8
LC-001-100-D00-0
 62
     7
370
    50
100
AcDbLine
 10
325.534095
 20
254.165261
 30
0.0
 11
325.534095
 21
210.165262
 31
0.0
  0
LINE
  5
2BD
330
1F
100
AcDbEntity
  8
LC-001-100-D00-0
 62
     7
370
    50
100
AcDbLine
 10
325.534095
 20
254.165261
 30
0.0
 11
329.381903
 21
254.165261
 31
0.0
  0
LINE
  5
2BE
330
1F
100
AcDbEntity
  8
LC-001-100-D00-0
 62
     7
370
    50
100
AcDbLine
 10
329.381903
 20
254.165261
 30
0.0
 11
329.381903
 21
210.165262
 31
0.0
  0
LINE
  5
2BF
330
1F
100
AcDbEntity
  8
LC-001-100-D00-0
 62
     7
370
    50
100
AcDbLine
 10
297.081907
 20
264.815261
 30
0.0
 11
305.581902
 21
264.815261
 31
0.0
  0
ARC
  5
2C0
330
1F
100
AcDbEntity
  8
LC-001-100-D00-0
 62
     7
370
    50
100
AcDbCircle
 10
305.581905
 20
232.165261
 30
0.0
 40
29.70000000000003
100
AcDbArc
 50
47.794554
 51
108.025862
  0
ARC
  5
2C1
330
1F
100
AcDbEntity
  8
LC-001-100-D00-0
 62
     7
370
    50
100
AcDbCircle
 10
305.581905
 20
232.165261
 30
0.0
 40
32.64999999999999
100
AcDbArc
 50
59.045986
 51
90.0
  0
LINE
  5
2C2
330
1F
100
AcDbEntity
  8
LC-001-100-D00-0
 62
     7
370
    50
100
AcDbLine
 10
361.881909
 20
260.665261
 30
0.0
 11
361.881909
 21
267.665261
 31
0.0
  0
ARC
  5
2C3
330
1F
100
AcDbEntity
  8
LC-001-100-D00-0
 62
     7
370
    50
100
AcDbCircle
 10
362.381905
 20
267.665261
 30
0.0
 40
0.5000000000001137
100
AcDbArc
 50
90.0
 51
180.0
  0
LINE
  5
2C4
330
1F
100
AcDbEntity
  8
LC-001-100-D00-0
 62
     7
370
    50
100
AcDbLine
 10
364.381906
 20
268.165261
 30
0.0
 11
362.381902
 21
268.165261
 31
0.0
  0
ARC
  5
2C5
330
1F
100
AcDbEntity
  8
LC-001-100-D00-0
 62
     7
370
    50
100
AcDbCircle
 10
364.381905
 20
267.665261
 30
0.0
 40
0.5
100
AcDbArc
 50
0.0
 51
90.0
  0
ARC
  5
2C6
330
1F
100
AcDbEntity
  8
LC-001-100-D00-0
 62
     7
370
    50
100
AcDbCircle
 10
296.081905
 20
261.358411
 30
0.0
 40
1.0
100
AcDbArc
 50
180.0
 51
288.025862
  0
LINE
  5
2C7
330
1F
100
AcDbEntity
  8
LC-001-100-D00-0
 62
     7
370
    50
100
AcDbLine
 10
295.081903
 20
262.815261
 30
0.0
 11
295.081903
 21
261.358411
 31
0.0
  0
ARC
  5
2C8
330
1F
100
AcDbEntity
  8
LC-001-100-D00-0
 62
     7
370
    50
100
AcDbCircle
 10
297.081905
 20
262.815261
 30
0.0
 40
2.000000000000057
100
AcDbArc
 50
90.0
 51
180.0
  0
ARC
  5
2C9
330
1F
100
AcDbEntity
  8
LC-001-100-D00-0
 62
     7
370
    50
100
AcDbCircle
 10
361.381905
 20
260.665261
 30
0.0
 40
0.5
100
AcDbArc
 50
270.0
 51
0.0
  0
LINE
  5
2CA
330
1F
100
AcDbEntity
  8
LC-001-100-D00-0
 62
     7
370
    50
100
AcDbLine
 10
329.381903
 20
255.864146
 30
0.0
 11
329.381903
 21
254.165261
 31
0.0
  0
LINE
  5
2CB
330
1F
100
AcDbEntity
  8
LC-001-100-D00-0
 62
     7
370
    50
100
AcDbLine
 10
364.8819
 20
257.165261
 30
0.0
 11
364.8819
 21
260.323167
 31
0.0
  0
LINE
  5
2CC
330
1F
100
AcDbEntity
  8
LC-001-100-D00-0
 62
     7
370
    50
100
AcDbLine
 10
404.081908
 20
262.57335
 30
0.0
 11
404.081908
 21
260.665261
 31
0.0
  0
LINE
  5
2CD
330
1F
100
AcDbEntity
  8
LC-001-100-D00-0
 62
     7
370
    50
100
AcDbLine
 10
364.8819
 20
267.665261
 30
0.0
 11
364.8819
 21
263.665261
 31
0.0
  0
LINE
  5
2CE
330
1F
100
AcDbEntity
  8
LC-001-100-D00-0
 62
     7
370
    50
100
AcDbLine
 10
295.081903
 20
204.490181
 30
0.0
 11
295.081903
 21
202.97211
 31
0.0
  0
CIRCLE
  5
2CF
330
1F
100
AcDbEntity
  8
LC-001-100-D00-0
 62
     7
370
    50
100
AcDbCircle
 10
141.681905
 20
261.865261
 30
0.0
 40
1.500000000000057
  0
CIRCLE
  5
2D0
330
1F
100
AcDbEntity
  8
LC-001-100-D00-0
 62
     7
370
    50
100
AcDbCircle
 10
224.681905
 20
261.865261
 30
0.0
 40
1.5
  0
CIRCLE
  5
2D1
330
1F
100
AcDbEntity
  8
LC-001-100-D00-0
 62
     7
370
    50
100
AcDbCircle
 10
314.181905
 20
259.165261
 30
0.0
 40
2.0
  0
CIRCLE
  5
2D2
330
1F
100
AcDbEntity
  8
LC-001-100-D00-0
 62
     7
370
    50
100
AcDbCircle
 10
314.181905
 20
205.165261
 30
0.0
 40
2.0
  0
LINE
  5
2D3
330
1F
100
AcDbEntity
  8
LC-001-100-D00-0
 62
     7
370
    50
100
AcDbLine
 10
141.953905
 20
257.865261
 30
0.0
 11
148.453903
 21
245.926486
 31
0.0
  0
LINE
  5
2D4
330
1F
100
AcDbEntity
  8
LC-001-100-D00-0
 62
     7
370
    50
100
AcDbLine
 10
214.453905
 20
245.926486
 30
0.0
 11
220.953905
 21
257.865261
 31
0.0
  0
LINE
  5
2D5
330
1F
100
AcDbEntity
  8
LC-001-100-D00-0
 62
     7
370
    50
100
AcDbLine
 10
143.553902
 20
257.865261
 30
0.0
 11
143.672828
 21
257.865261
 31
0.0
  0
INSERT
  5
2DB
330
1F
100
AcDbEntity
  8
LC-001-100-D00-0
 62
     7
370
    50
100
AcDbBlockReference
  2
KLON6
 10
0.0
 20
0.0
 30
0.0
  0
LINE
  5
2DC
330
1F
100
AcDbEntity
  8
LC-001-100-D00-0
 62
     7
370
    50
100
AcDbLine
 10
148.453903
 20
248.865261
 30
0.0
 11
143.553902
 21
257.865261
 31
0.0
  0
LINE
  5
2DD
330
1F
100
AcDbEntity
  8
LC-001-100-D00-0
 62
     7
370
    50
100
AcDbLine
 10
219.353905
 20
257.865261
 30
0.0
 11
219.353905
 21
259.365261
 31
0.0
  0
LINE
  5
2DE
330
1F
100
AcDbEntity
  8
LC-001-100-D00-0
 62
     7
370
    50
100
AcDbLine
 10
219.234985
 20
257.865261
 30
0.0
 11
219.353905
 21
257.865261
 31
0.0
  0
LINE
  5
2DF
330
1F
100
AcDbEntity
  8
LC-001-100-D00-0
 62
     7
370
    50
100
AcDbLine
 10
208.094954
 20
257.865261
 30
0.0
 11
219.234985
 21
257.865261
 31
0.0
  0
LINE
  5
2E0
330
1F
100
AcDbEntity
  8
LC-001-100-D00-0
 62
     7
370
    50
100
AcDbLine
 10
143.672828
 20
257.865261
 30
0.0
 11
154.812855
 21
257.865261
 31
0.0
  0
LINE
  5
2E1
330
1F
100
AcDbEntity
  8
LC-001-100-D00-0
 62
     7
370
    50
100
AcDbLine
 10
143.553902
 20
259.365261
 30
0.0
 11
143.553902
 21
257.865261
 31
0.0
  0
LINE
  5
2E2
330
1F
100
AcDbEntity
  8
LC-001-100-D00-0
 62
     7
370
    50
100
AcDbLine
 10
223.953905
 20
259.365261
 30
0.0
 11
223.953905
 21
257.865261
 31
0.0
  0
LINE
  5
2E3
330
1F
100
AcDbEntity
  8
LC-001-100-D00-0
 62
     7
370
    50
100
AcDbLine
 10
138.953906
 20
257.865261
 30
0.0
 11
138.953906
 21
259.365261
 31
0.0
  0
INSERT
  5
2EF
330
1F
100
AcDbEntity
  8
LC-001-100-D00-0
 62
     7
370
    50
100
AcDbBlockReference
  2
POLY20
 10
0.0
 20
0.0
 30
0.0
  0
LINE
  5
2F0
330
1F
100
AcDbEntity
  8
LC-001-100-D00-0
 62
     7
370
    50
100
AcDbLine
 10
219.353905
 20
257.865261
 30
0.0
 11
214.453905
 21
248.865261
 31
0.0
  0
ARC
  5
2F1
330
1F
100
AcDbEntity
  8
LC-001-100-D00-0
 62
     7
370
    50
100
AcDbCircle
 10
206.953905
 20
205.365261
 30
0.0
 40
6.0
100
AcDbArc
 50
270.0
 51
0.0
  0
ARC
  5
2F2
330
1F
100
AcDbEntity
  8
LC-001-100-D00-0
 62
     7
370
    50
100
AcDbCircle
 10
155.953905
 20
205.365261
 30
0.0
 40
6.0
100
AcDbArc
 50
180.0
 51
270.0
  0
LINE
  5
2F3
330
1F
100
AcDbEntity
  8
LC-001-100-D00-0
 62
     7
370
    50
100
AcDbLine
 10
214.453905
 20
245.926486
 30
0.0
 11
214.453905
 21
205.365259
 31
0.0
  0
LINE
  5
2F4
330
1F
100
AcDbEntity
  8
LC-001-100-D00-0
 62
     7
370
    50
100
AcDbLine
 10
148.453903
 20
205.365259
 30
0.0
 11
148.453903
 21
245.926486
 31
0.0
  0
ARC
  5
2F5
330
1F
100
AcDbEntity
  8
LC-001-100-D00-0
 62
     7
370
    50
100
AcDbCircle
 10
206.953905
 20
205.365261
 30
0.0
 40
7.5
100
AcDbArc
 50
270.0
 51
0.0
  0
LINE
  5
2F6
330
1F
100
AcDbEntity
  8
LC-001-100-D00-0
 62
     7
370
    50
100
AcDbLine
 10
206.953905
 20
197.865259
 30
0.0
 11
155.953903
 21
197.865259
 31
0.0
  0
ARC
  5
2F7
330
1F
100
AcDbEntity
  8
LC-001-100-D00-0
 62
     7
370
    50
100
AcDbCircle
 10
155.953905
 20
205.365261
 30
0.0
 40
7.5
100
AcDbArc
 50
180.0
 51
270.0
  0
LINE
  5
2F8
330
1F
100
AcDbEntity
  8
LC-001-100-D00-0
 62
     7
370
    50
100
AcDbLine
 10
149.953906
 20
248.865261
 30
0.0
 11
149.953906
 21
205.365259
 31
0.0
  0
LINE
  5
2F9
330
1F
100
AcDbEntity
  8
LC-001-100-D00-0
 62
     7
370
    50
100
AcDbLine
 10
212.953905
 20
205.365259
 30
0.0
 11
212.953905
 21
248.865261
 31
0.0
  0
LINE
  5
2FA
330
1F
100
AcDbEntity
  8
LC-001-100-D00-0
 62
     7
370
    50
100
AcDbLine
 10
219.353905
 20
259.365261
 30
0.0
 11
223.953905
 21
259.365261
 31
0.0
  0
LINE
  5
2FB
330
1F
100
AcDbEntity
  8
LC-001-100-D00-0
 62
     7
370
    50
100
AcDbLine
 10
138.953906
 20
259.365261
 30
0.0
 11
143.553902
 21
259.365261
 31
0.0
  0
LINE
  5
2FC
330
1F
100
AcDbEntity
  8
LC-001-100-D00-0
 62
     7
370
    50
100
AcDbLine
 10
141.953905
 20
257.865261
 30
0.0
 11
138.953906
 21
257.865261
 31
0.0
  0
LINE
  5
2FD
330
1F
100
AcDbEntity
  8
LC-001-100-D00-0
 62
     7
370
    50
100
AcDbLine
 10
223.953905
 20
257.865261
 30
0.0
 11
220.953905
 21
257.865261
 31
0.0
  0
LINE
  5
2FE
330
1F
100
AcDbEntity
  8
LC-001-100-D00-0
 62
     7
370
    50
100
AcDbLine
 10
212.953905
 20
248.865261
 30
0.0
 11
214.453905
 21
248.865261
 31
0.0
  0
LINE
  5
2FF
330
1F
100
AcDbEntity
  8
LC-001-100-D00-0
 62
     7
370
    50
100
AcDbLine
 10
148.453903
 20
248.865261
 30
0.0
 11
149.953906
 21
248.865261
 31
0.0
  0
LINE
  5
300
330
1F
100
AcDbEntity
  8
LC-001-100-D00-0
 62
     7
370
    50
100
AcDbLine
 10
155.953903
 20
199.365262
 30
0.0
 11
206.953905
 21
199.365262
 31
0.0
  0
LINE
  5
301
330
1F
100
AcDbEntity
  8
LC-001-100-D00-0
 62
     7
370
    50
100
AcDbLine
 10
212.953905
 20
248.865261
 30
0.0
 11
202.453515
 21
248.865261
 31
0.0
  0
LINE
  5
302
330
1F
100
AcDbEntity
  8
LC-001-100-D00-0
 62
     7
370
    50
100
AcDbLine
 10
160.454296
 20
248.865261
 30
0.0
 11
149.953906
 21
248.865261
 31
0.0
  0
LINE
  5
303
330
1F
100
AcDbEntity
  8
LC-001-100-D00-0
 62
     7
370
    50
100
AcDbLine
 10
138.953906
 20
265.665261
 30
0.0
 11
138.953906
 21
264.36955
 31
0.0
  0
LINE
  5
304
330
1F
100
AcDbEntity
  8
LC-001-100-D00-0
 62
     7
370
    50
100
AcDbLine
 10
223.953905
 20
264.36955
 30
0.0
 11
223.953905
 21
265.665261
 31
0.0
  0
ARC
  5
305
330
1F
100
AcDbEntity
  8
LC-001-100-D00-0
 62
     7
370
    50
100
AcDbCircle
 10
140.803905
 20
263.36955
 30
0.0
 40
0.5
100
AcDbArc
 50
0.0
 51
90.0
  0
ARC
  5
306
330
1F
100
AcDbEntity
  8
LC-001-100-D00-0
 62
     7
370
    50
100
AcDbCircle
 10
222.103905
 20
263.36955
 30
0.0
 40
0.5000000000000568
100
AcDbArc
 50
90.0
 51
180.0
  0
LINE
  5
307
330
1F
100
AcDbEntity
  8
LC-001-100-D00-0
 62
     7
370
    50
100
AcDbLine
 10
141.303901
 20
260.86526
 30
0.0
 11
141.303901
 21
263.36955
 31
0.0
  0
LINE
  5
308
330
1F
100
AcDbEntity
  8
LC-001-100-D00-0
 62
     7
370
    50
100
AcDbLine
 10
221.603905
 20
263.36955
 30
0.0
 11
221.603905
 21
260.86526
 31
0.0
  0
ARC
  5
309
330
1F
100
AcDbEntity
  8
LC-001-100-D00-0
 62
     7
370
    50
100
AcDbCircle
 10
140.803905
 20
260.865261
 30
0.0
 40
0.5
100
AcDbArc
 50
270.0
 51
0.0
  0
ARC
  5
30A
330
1F
100
AcDbEntity
  8
LC-001-100-D00-0
 62
     7
370
    50
100
AcDbCircle
 10
222.103905
 20
260.865261
 30
0.0
 40
0.5
100
AcDbArc
 50
180.0
 51
270.0
  0
ARC
  5
30B
330
1F
100
AcDbEntity
  8
LC-001-100-D00-0
 62
     7
370
    50
100
AcDbCircle
 10
139.701399
 20
259.865261
 30
0.0
 40
0.5000000000000568
100
AcDbArc
 50
90.0
 51
180.0
  0
ARC
  5
30C
330
1F
100
AcDbEntity
  8
LC-001-100-D00-0
 62
     7
370
    50
100
AcDbCircle
 10
223.206411
 20
259.865261
 30
0.0
 40
0.5
100
AcDbArc
 50
0.0
 51
90.0
  0
LINE
  5
30D
330
1F
100
AcDbEntity
  8
LC-001-100-D00-0
 62
     7
370
    50
100
AcDbLine
 10
139.2014
 20
259.365261
 30
0.0
 11
139.2014
 21
259.865261
 31
0.0
  0
LINE
  5
30E
330
1F
100
AcDbEntity
  8
LC-001-100-D00-0
 62
     7
370
    50
100
AcDbLine
 10
223.706411
 20
259.865261
 30
0.0
 11
223.706411
 21
259.365261
 31
0.0
  0
LINE
  5
30F
330
1F
100
AcDbEntity
  8
LC-001-100-D00-0
 62
     7
370
    50
100
AcDbLine
 10
143.698794
 20
259.365261
 30
0.0
 11
143.698794
 21
258.090248
 31
0.0
  0
LINE
  5
310
330
1F
100
AcDbEntity
  8
LC-001-100-D00-0
 62
     7
370
    50
100
AcDbLine
 10
219.209015
 20
258.090248
 30
0.0
 11
219.209015
 21
259.365261
 31
0.0
  0
ARC
  5
311
330
1F
100
AcDbEntity
  8
LC-001-100-D00-0
 62
     7
370
    50
100
AcDbCircle
 10
150.454295
 20
248.865097
 30
0.0
 40
10.0
100
AcDbArc
 50
0.0
 51
112.703416
  0
ARC
  5
312
330
1F
100
AcDbEntity
  8
LC-001-100-D00-0
 62
     7
370
    50
100
AcDbCircle
 10
212.453515
 20
248.865097
 30
0.0
 40
10.00000000000007
100
AcDbArc
 50
67.296584
 51
180.0
  0
LINE
  5
313
330
1F
100
AcDbEntity
  8
LC-001-100-D00-0
 62
     7
370
    50
100
AcDbLine
 10
146.594685
 20
258.090248
 30
0.0
 11
154.313904
 21
258.090248
 31
0.0
  0
LINE
  5
314
330
1F
100
AcDbEntity
  8
LC-001-100-D00-0
 62
     7
370
    50
100
AcDbLine
 10
208.593905
 20
258.090248
 30
0.0
 11
216.313125
 21
258.090248
 31
0.0
  0
LINE
  5
315
330
1F
100
AcDbEntity
  8
LC-001-100-D00-0
 62
     7
370
    50
100
AcDbLine
 10
160.454296
 20
248.865097
 30
0.0
 11
160.454296
 21
208.864677
 31
0.0
  0
LINE
  5
316
330
1F
100
AcDbEntity
  8
LC-001-100-D00-0
 62
     7
370
    50
100
AcDbLine
 10
202.453515
 20
208.864677
 30
0.0
 11
202.453515
 21
248.865097
 31
0.0
  0
LINE
  5
317
330
1F
100
AcDbEntity
  8
LC-001-100-D00-0
 62
     7
370
    50
100
AcDbLine
 10
163.454295
 20
246.865067
 30
0.0
 11
163.454295
 21
208.864677
 31
0.0
  0
LINE
  5
318
330
1F
100
AcDbEntity
  8
LC-001-100-D00-0
 62
     7
370
    50
100
AcDbLine
 10
199.453515
 20
208.864677
 30
0.0
 11
199.453515
 21
246.865067
 31
0.0
  0
LINE
  5
319
330
1F
100
AcDbEntity
  8
LC-001-100-D00-0
 62
     7
370
    50
100
AcDbLine
 10
163.454295
 20
208.864677
 30
0.0
 11
199.453515
 21
208.864677
 31
0.0
  0
ARC
  5
31A
330
1F
100
AcDbEntity
  8
LC-001-100-D00-0
 62
     7
370
    50
100
AcDbCircle
 10
150.454295
 20
246.865067
 30
0.0
 40
13.0
100
AcDbArc
 50
0.0
 51
90.000007
  0
LINE
  5
31B
330
1F
100
AcDbEntity
  8
LC-001-100-D00-0
 62
     7
370
    50
100
AcDbLine
 10
150.454295
 20
259.865067
 30
0.0
 11
212.453516
 21
259.865067
 31
0.0
  0
ARC
  5
31C
330
1F
100
AcDbEntity
  8
LC-001-100-D00-0
 62
     7
370
    50
100
AcDbCircle
 10
212.453515
 20
246.865067
 30
0.0
 40
12.99999999999998
100
AcDbArc
 50
89.999993
 51
180.0
  0
ARC
  5
31D
330
1F
100
AcDbEntity
  8
LC-001-100-D00-0
 62
     7
370
    50
100
AcDbCircle
 10
145.453844
 20
261.865067
 30
0.0
 40
1.999999999107217
100
AcDbArc
 50
180.0
 51
270.0
  0
ARC
  5
31E
330
1F
100
AcDbEntity
  8
LC-001-100-D00-0
 62
     7
370
    50
100
AcDbCircle
 10
217.453966
 20
261.865067
 30
0.0
 40
1.999999999107217
100
AcDbArc
 50
270.0
 51
0.0
  0
LINE
  5
31F
330
1F
100
AcDbEntity
  8
LC-001-100-D00-0
 62
     7
370
    50
100
AcDbLine
 10
143.453841
 20
262.665261
 30
0.0
 11
143.453841
 21
261.865067
 31
0.0
  0
LINE
  5
320
330
1F
100
AcDbEntity
  8
LC-001-100-D00-0
 62
     7
370
    50
100
AcDbLine
 10
219.453966
 20
261.865067
 30
0.0
 11
219.453966
 21
262.665261
 31
0.0
  0
ARC
  5
321
330
1F
100
AcDbEntity
  8
LC-001-100-D00-0
 62
     7
370
    50
100
AcDbCircle
 10
140.453844
 20
262.665261
 30
0.0
 40
3.0
100
AcDbArc
 50
0.0
 51
90.0
  0
LINE
  5
322
330
1F
100
AcDbEntity
  8
LC-001-100-D00-0
 62
     7
370
    50
100
AcDbLine
 10
140.453842
 20
265.665261
 30
0.0
 11
222.453966
 21
265.665261
 31
0.0
  0
ARC
  5
323
330
1F
100
AcDbEntity
  8
LC-001-100-D00-0
 62
     7
370
    50
100
AcDbCircle
 10
222.453966
 20
262.665261
 30
0.0
 40
3.0
100
AcDbArc
 50
90.0
 51
180.0
  0
ARC
  5
324
330
1F
100
AcDbEntity
  8
LC-001-100-D00-0
 62
     7
370
    50
100
AcDbCircle
 10
139.453905
 20
264.36955
 30
0.0
 40
0.5000000000000568
100
AcDbArc
 50
180.0
 51
270.0
  0
LINE
  5
325
330
1F
100
AcDbEntity
  8
LC-001-100-D00-0
 62
     7
370
    50
100
AcDbLine
 10
140.453842
 20
265.665261
 30
0.0
 11
138.953906
 21
265.665261
 31
0.0
  0
LINE
  5
326
330
1F
100
AcDbEntity
  8
LC-001-100-D00-0
 62
     7
370
    50
100
AcDbLine
 10
145.453845
 20
259.865067
 30
0.0
 11
150.454295
 21
259.865067
 31
0.0
  0
LINE
  5
327
330
1F
100
AcDbEntity
  8
LC-001-100-D00-0
 62
     7
370
    50
100
AcDbLine
 10
163.454295
 20
208.864677
 30
0.0
 11
160.454296
 21
208.864677
 31
0.0
  0
LINE
  5
328
330
1F
100
AcDbEntity
  8
LC-001-100-D00-0
 62
     7
370
    50
100
AcDbLine
 10
143.698794
 20
258.090248
 30
0.0
 11
146.594685
 21
258.090248
 31
0.0
  0
LINE
  5
329
330
1F
100
AcDbEntity
  8
LC-001-100-D00-0
 62
     7
370
    50
100
AcDbLine
 10
143.698794
 20
259.365261
 30
0.0
 11
139.2014
 21
259.365261
 31
0.0
  0
LINE
  5
32A
330
1F
100
AcDbEntity
  8
LC-001-100-D00-0
 62
     7
370
    50
100
AcDbLine
 10
140.803908
 20
260.365261
 30
0.0
 11
139.701401
 21
260.365261
 31
0.0
  0
LINE
  5
32B
330
1F
100
AcDbEntity
  8
LC-001-100-D00-0
 62
     7
370
    50
100
AcDbLine
 10
140.803908
 20
263.86955
 30
0.0
 11
139.453907
 21
263.86955
 31
0.0
  0
ARC
  5
32C
330
1F
100
AcDbEntity
  8
LC-001-100-D00-0
 62
     7
370
    50
100
AcDbCircle
 10
223.453905
 20
264.36955
 30
0.0
 40
0.5
100
AcDbArc
 50
270.0
 51
0.0
  0
LINE
  5
32D
330
1F
100
AcDbEntity
  8
LC-001-100-D00-0
 62
     7
370
    50
100
AcDbLine
 10
223.953905
 20
265.665261
 30
0.0
 11
222.453966
 21
265.665261
 31
0.0
  0
LINE
  5
32E
330
1F
100
AcDbEntity
  8
LC-001-100-D00-0
 62
     7
370
    50
100
AcDbLine
 10
212.453516
 20
259.865067
 30
0.0
 11
217.453966
 21
259.865067
 31
0.0
  0
LINE
  5
32F
330
1F
100
AcDbEntity
  8
LC-001-100-D00-0
 62
     7
370
    50
100
AcDbLine
 10
202.453515
 20
208.864677
 30
0.0
 11
199.453515
 21
208.864677
 31
0.0
  0
LINE
  5
330
330
1F
100
AcDbEntity
  8
LC-001-100-D00-0
 62
     7
370
    50
100
AcDbLine
 10
216.313125
 20
258.090248
 30
0.0
 11
219.209015
 21
258.090248
 31
0.0
  0
LINE
  5
331
330
1F
100
AcDbEntity
  8
LC-001-100-D00-0
 62
     7
370
    50
100
AcDbLine
 10
223.706411
 20
259.365261
 30
0.0
 11
219.209015
 21
259.365261
 31
0.0
  0
LINE
  5
332
330
1F
100
AcDbEntity
  8
LC-001-100-D00-0
 62
     7
370
    50
100
AcDbLine
 10
223.206411
 20
260.365261
 30
0.0
 11
222.103905
 21
260.365261
 31
0.0
  0
LINE
  5
333
330
1F
100
AcDbEntity
  8
LC-001-100-D00-0
 62
     7
370
    50
100
AcDbLine
 10
223.453905
 20
263.86955
 30
0.0
 11
222.103905
 21
263.86955
 31
0.0
  0
LINE
  5
334
330
1F
100
AcDbEntity
  8
LC-001-100-D00-0
 62
     7
370
    50
100
AcDbLine
 10
122.155403
 20
271.856261
 30
0.0
 11
122.155403
 21
272.365261
 31
0.0
  0
LINE
  5
335
330
1F
100
AcDbEntity
  8
LC-001-100-D00-0
 62
     7
370
    50
100
AcDbLine
 10
70.23741
 20
271.856261
 30
0.0
 11
70.23741
 21
272.365261
 31
0.0
  0
LINE
  5
336
330
1F
100
AcDbEntity
  8
LC-001-100-D00-0
 62
     7
370
    50
100
AcDbLine
 10
122.155403
 20
271.856261
 30
0.0
 11
70.23741
 21
271.856261
 31
0.0
  0
LINE
  5
337
330
1F
100
AcDbEntity
  8
LC-001-100-D00-0
 62
     7
370
    50
100
AcDbLine
 10
122.155403
 20
272.365261
 30
0.0
 11
70.23741
 21
272.365261
 31
0.0
  0
LINE
  5
338
330
1F
100
AcDbEntity
  8
LC-001-100-D00-0
 62
     7
370
    50
100
AcDbLine
 10
292.670403
 20
272.365261
 30
0.0
 11
292.670403
 21
271.856261
 31
0.0
  0
LINE
  5
339
330
1F
100
AcDbEntity
  8
LC-001-100-D00-0
 62
     7
370
    50
100
AcDbLine
 10
240.752405
 20
272.365261
 30
0.0
 11
240.752405
 21
271.856261
 31
0.0
  0
LINE
  5
33A
330
1F
100
AcDbEntity
  8
LC-001-100-D00-0
 62
     7
370
    50
100
AcDbLine
 10
240.752405
 20
271.856261
 30
0.0
 11
122.155403
 21
271.856261
 31
0.0
  0
LINE
  5
33B
330
1F
100
AcDbEntity
  8
LC-001-100-D00-0
 62
     7
370
    50
100
AcDbLine
 10
240.752405
 20
272.365261
 30
0.0
 11
122.155403
 21
272.365261
 31
0.0
  0
LINE
  5
33C
330
1F
100
AcDbEntity
  8
LC-001-100-D00-0
 62
     7
370
    50
100
AcDbLine
 10
292.670403
 20
271.856261
 30
0.0
 11
240.752405
 21
271.856261
 31
0.0
  0
LINE
  5
33D
330
1F
100
AcDbEntity
  8
LC-001-100-D00-0
 62
     7
370
    50
100
AcDbLine
 10
292.670403
 20
272.365261
 30
0.0
 11
240.752405
 21
272.365261
 31
0.0
  0
LINE
  5
33E
330
1F
100
AcDbEntity
  8
LC-001-100-D00-0
 62
     7
370
    50
100
AcDbLine
 10
227.772905
 20
263.712261
 30
0.0
 11
227.772905
 21
255.568261
 31
0.0
  0
LINE
  5
33F
330
1F
100
AcDbEntity
  8
LC-001-100-D00-0
 62
     7
370
    50
100
AcDbLine
 10
135.134903
 20
255.568261
 30
0.0
 11
135.134903
 21
263.712261
 31
0.0
  0
LINE
  5
340
330
1F
100
AcDbEntity
  8
LC-001-100-D00-0
 62
     7
370
    50
100
AcDbLine
 10
138.087106
 20
266.257261
 30
0.0
 11
138.087106
 21
257.604261
 31
0.0
  0
LINE
  5
341
330
1F
100
AcDbEntity
  8
LC-001-100-D00-0
 62
     7
370
    50
100
AcDbLine
 10
138.087106
 20
266.257261
 30
0.0
 11
224.820705
 21
266.257261
 31
0.0
  0
LINE
  5
342
330
1F
100
AcDbEntity
  8
LC-001-100-D00-0
 62
     7
370
    50
100
AcDbLine
 10
224.820705
 20
257.604261
 30
0.0
 11
224.820705
 21
266.257261
 31
0.0
  0
LINE
  5
343
330
1F
100
AcDbEntity
  8
LC-001-100-D00-0
 62
     7
370
    50
100
AcDbLine
 10
222.682905
 20
257.604261
 30
0.0
 11
224.820705
 21
257.604261
 31
0.0
  0
LINE
  5
344
330
1F
100
AcDbEntity
  8
LC-001-100-D00-0
 62
     7
370
    50
100
AcDbLine
 10
224.820705
 20
266.257261
 30
0.0
 11
240.752405
 21
266.257261
 31
0.0
  0
LINE
  5
345
330
1F
100
AcDbEntity
  8
LC-001-100-D00-0
 62
     7
370
    50
100
AcDbLine
 10
240.752405
 20
266.257261
 30
0.0
 11
240.752405
 21
271.856261
 31
0.0
  0
LINE
  5
346
330
1F
100
AcDbEntity
  8
LC-001-100-D00-0
 62
     7
370
    50
100
AcDbLine
 10
294.960906
 20
272.365261
 30
0.0
 11
292.670403
 21
272.365261
 31
0.0
  0
LINE
  5
347
330
1F
100
AcDbEntity
  8
LC-001-100-D00-0
 62
     7
370
    50
100
AcDbLine
 10
294.960906
 20
272.365261
 30
0.0
 11
296.072473
 21
269.311261
 31
0.0
  0
LINE
  5
348
330
1F
100
AcDbEntity
  8
LC-001-100-D00-0
 62
     7
370
    50
100
AcDbLine
 10
296.072473
 20
269.311261
 30
0.0
 11
279.181906
 21
269.311261
 31
0.0
  0
LINE
  5
349
330
1F
100
AcDbEntity
  8
LC-001-100-D00-0
 62
     7
370
    50
100
AcDbLine
 10
279.181906
 20
269.311261
 30
0.0
 11
279.181906
 21
265.239261
 31
0.0
  0
LINE
  5
34A
330
1F
100
AcDbEntity
  8
LC-001-100-D00-0
 62
     7
370
    50
100
AcDbLine
 10
279.181906
 20
265.239261
 30
0.0
 11
276.127905
 21
265.239261
 31
0.0
  0
LINE
  5
34B
330
1F
100
AcDbEntity
  8
LC-001-100-D00-0
 62
     7
370
    50
100
AcDbLine
 10
276.127905
 20
269.311261
 30
0.0
 11
276.127905
 21
265.239261
 31
0.0
  0
LINE
  5
34C
330
1F
100
AcDbEntity
  8
LC-001-100-D00-0
 62
     7
370
    50
100
AcDbLine
 10
276.127905
 20
269.311261
 30
0.0
 11
243.297404
 21
269.311261
 31
0.0
  0
LINE
  5
34D
330
1F
100
AcDbEntity
  8
LC-001-100-D00-0
 62
     7
370
    50
100
AcDbLine
 10
243.297404
 20
269.311261
 30
0.0
 11
243.297404
 21
263.712261
 31
0.0
  0
LINE
  5
34E
330
1F
100
AcDbEntity
  8
LC-001-100-D00-0
 62
     7
370
    50
100
AcDbLine
 10
227.772905
 20
263.712261
 30
0.0
 11
243.297404
 21
263.712261
 31
0.0
  0
LINE
  5
34F
330
1F
100
AcDbEntity
  8
LC-001-100-D00-0
 62
     7
370
    50
100
AcDbLine
 10
222.682905
 20
255.568261
 30
0.0
 11
227.772905
 21
255.568261
 31
0.0
  0
LINE
  5
350
330
1F
100
AcDbEntity
  8
LC-001-100-D00-0
 62
     7
370
    50
100
AcDbLine
 10
222.682905
 20
255.568261
 30
0.0
 11
222.682905
 21
257.604261
 31
0.0
  0
LINE
  5
351
330
1F
100
AcDbEntity
  8
LC-001-100-D00-0
 62
     7
370
    50
100
AcDbLine
 10
135.134903
 20
255.568261
 30
0.0
 11
140.224908
 21
255.568261
 31
0.0
  0
LINE
  5
352
330
1F
100
AcDbEntity
  8
LC-001-100-D00-0
 62
     7
370
    50
100
AcDbLine
 10
119.610403
 20
263.712261
 30
0.0
 11
135.134903
 21
263.712261
 31
0.0
  0
LINE
  5
353
330
1F
100
AcDbEntity
  8
LC-001-100-D00-0
 62
     7
370
    50
100
AcDbLine
 10
119.610403
 20
263.712261
 30
0.0
 11
119.610403
 21
269.311261
 31
0.0
  0
LINE
  5
354
330
1F
100
AcDbEntity
  8
LC-001-100-D00-0
 62
     7
370
    50
100
AcDbLine
 10
119.610403
 20
269.311261
 30
0.0
 11
115.283903
 21
269.311261
 31
0.0
  0
LINE
  5
355
330
1F
100
AcDbEntity
  8
LC-001-100-D00-0
 62
     7
370
    50
100
AcDbLine
 10
115.283903
 20
265.239261
 30
0.0
 11
115.283903
 21
269.311261
 31
0.0
  0
LINE
  5
356
330
1F
100
AcDbEntity
  8
LC-001-100-D00-0
 62
     7
370
    50
100
AcDbLine
 10
115.283903
 20
265.239261
 30
0.0
 11
112.229903
 21
265.239261
 31
0.0
  0
LINE
  5
357
330
1F
100
AcDbEntity
  8
LC-001-100-D00-0
 62
     7
370
    50
100
AcDbLine
 10
112.229903
 20
265.239261
 30
0.0
 11
112.229903
 21
269.311261
 31
0.0
  0
LINE
  5
358
330
1F
100
AcDbEntity
  8
LC-001-100-D00-0
 62
     7
370
    50
100
AcDbLine
 10
112.229903
 20
269.311261
 30
0.0
 11
66.835341
 21
269.311261
 31
0.0
  0
LINE
  5
359
330
1F
100
AcDbEntity
  8
LC-001-100-D00-0
 62
     7
370
    50
100
AcDbLine
 10
66.835341
 20
269.311261
 30
0.0
 11
67.946908
 21
272.365261
 31
0.0
  0
LINE
  5
35A
330
1F
100
AcDbEntity
  8
LC-001-100-D00-0
 62
     7
370
    50
100
AcDbLine
 10
70.23741
 20
272.365261
 30
0.0
 11
67.946908
 21
272.365261
 31
0.0
  0
LINE
  5
35B
330
1F
100
AcDbEntity
  8
LC-001-100-D00-0
 62
     7
370
    50
100
AcDbLine
 10
122.155403
 20
271.856261
 30
0.0
 11
122.155403
 21
266.257261
 31
0.0
  0
LINE
  5
35C
330
1F
100
AcDbEntity
  8
LC-001-100-D00-0
 62
     7
370
    50
100
AcDbLine
 10
122.155403
 20
266.257261
 30
0.0
 11
138.087106
 21
266.257261
 31
0.0
  0
LINE
  5
35D
330
1F
100
AcDbEntity
  8
LC-001-100-D00-0
 62
     7
370
    50
100
AcDbLine
 10
138.087106
 20
257.604261
 30
0.0
 11
140.224908
 21
257.604261
 31
0.0
  0
LINE
  5
35E
330
1F
100
AcDbEntity
  8
LC-001-100-D00-0
 62
     7
370
    50
100
AcDbLine
 10
140.224908
 20
257.604261
 30
0.0
 11
140.224908
 21
255.568261
 31
0.0
  0
LINE
  5
35F
330
1F
100
AcDbEntity
  8
LC-001-100-D00-0
 62
     7
370
    50
100
AcDbLine
 10
48.604903
 20
269.311261
 30
0.0
 11
48.604903
 21
272.365261
 31
0.0
  0
LINE
  5
360
330
1F
100
AcDbEntity
  8
LC-001-100-D00-0
 62
     7
370
    50
100
AcDbLine
 10
314.302903
 20
272.365261
 30
0.0
 11
314.302903
 21
269.311261
 31
0.0
  0
LINE
  5
361
330
1F
100
AcDbEntity
  8
LC-001-100-D00-0
 62
     7
370
    50
100
AcDbLine
 10
140.224908
 20
257.604261
 30
0.0
 11
142.096002
 21
257.604261
 31
0.0
  0
LINE
  5
362
330
1F
100
AcDbEntity
  8
LC-001-100-D00-0
 62
     7
370
    50
100
AcDbLine
 10
143.699211
 20
257.604261
 30
0.0
 11
155.315061
 21
257.604261
 31
0.0
  0
LINE
  5
363
330
1F
100
AcDbEntity
  8
LC-001-100-D00-0
 62
     7
370
    50
100
AcDbLine
 10
207.592753
 20
257.604261
 30
0.0
 11
219.195045
 21
257.604261
 31
0.0
  0
LINE
  5
364
330
1F
100
AcDbEntity
  8
LC-001-100-D00-0
 62
     7
370
    50
100
AcDbLine
 10
220.811805
 20
257.604261
 30
0.0
 11
222.682905
 21
257.604261
 31
0.0
  0
LINE
  5
365
330
1F
100
AcDbEntity
  8
LC-001-100-D00-0
 62
     7
370
    50
100
AcDbLine
 10
140.224908
 20
255.568261
 30
0.0
 11
143.204492
 21
255.568261
 31
0.0
  0
LINE
  5
366
330
1F
100
AcDbEntity
  8
LC-001-100-D00-0
 62
     7
370
    50
100
AcDbLine
 10
144.774739
 20
255.568261
 30
0.0
 11
157.875051
 21
255.568261
 31
0.0
  0
LINE
  5
367
330
1F
100
AcDbEntity
  8
LC-001-100-D00-0
 62
     7
370
    50
100
AcDbLine
 10
205.032761
 20
255.568261
 30
0.0
 11
218.13542
 21
255.568261
 31
0.0
  0
LINE
  5
368
330
1F
100
AcDbEntity
  8
LC-001-100-D00-0
 62
     7
370
    50
100
AcDbLine
 10
219.703316
 20
255.568261
 30
0.0
 11
222.682905
 21
255.568261
 31
0.0
  0
LINE
  5
369
330
1F
100
AcDbEntity
  8
LC-001-100-D00-0
 62
     7
370
    50
100
AcDbLine
 10
309.212905
 20
272.365261
 30
0.0
 11
308.921431
 21
272.365261
 31
0.0
  0
LINE
  5
36A
330
1F
100
AcDbEntity
  8
LC-001-100-D00-0
 62
     7
370
    50
100
AcDbLine
 10
308.101338
 20
269.311261
 30
0.0
 11
309.212905
 21
272.365261
 31
0.0
  0
LINE
  5
36B
330
1F
100
AcDbEntity
  8
LC-001-100-D00-0
 62
     7
370
    50
100
AcDbLine
 10
54.806468
 20
269.311261
 30
0.0
 11
55.095401
 21
269.311261
 31
0.0
  0
LINE
  5
36C
330
1F
100
AcDbEntity
  8
LC-001-100-D00-0
 62
     7
370
    50
100
AcDbLine
 10
53.694901
 20
272.365261
 30
0.0
 11
54.806468
 21
269.311261
 31
0.0
  0
LINE
  5
36D
330
1F
100
AcDbEntity
  8
LC-001-100-D00-0
 62
     7
370
    50
100
AcDbLine
 10
53.986382
 20
272.365261
 30
0.0
 11
53.694901
 21
272.365261
 31
0.0
  0
LINE
  5
36E
330
1F
100
AcDbEntity
  8
LC-001-100-D00-0
 62
     7
370
    50
100
AcDbLine
 10
314.302903
 20
269.311261
 30
0.0
 11
308.101338
 21
269.311261
 31
0.0
  0
LINE
  5
36F
330
1F
100
AcDbEntity
  8
LC-001-100-D00-0
 62
     7
370
    50
100
AcDbLine
 10
314.302903
 20
272.365261
 30
0.0
 11
309.212905
 21
272.365261
 31
0.0
  0
LINE
  5
370
330
1F
100
AcDbEntity
  8
LC-001-100-D00-0
 62
     7
370
    50
100
AcDbLine
 10
54.806468
 20
269.311261
 30
0.0
 11
48.604903
 21
269.311261
 31
0.0
  0
LINE
  5
371
330
1F
100
AcDbEntity
  8
LC-001-100-D00-0
 62
     7
370
    50
100
AcDbLine
 10
53.694901
 20
272.365261
 30
0.0
 11
48.604903
 21
272.365261
 31
0.0
  0
LINE
  5
372
330
1F
100
AcDbEntity
  8
LC-001-100-D00-0
 62
     7
370
    50
100
AcDbLine
 10
308.921431
 20
272.365261
 30
0.0
 11
294.960906
 21
272.365261
 31
0.0
  0
LINE
  5
373
330
1F
100
AcDbEntity
  8
LC-001-100-D00-0
 62
     7
370
    50
100
AcDbLine
 10
55.095401
 20
269.311261
 30
0.0
 11
66.835341
 21
269.311261
 31
0.0
  0
LINE
  5
374
330
1F
100
AcDbEntity
  8
LC-001-100-D00-0
 62
     7
370
    50
100
AcDbLine
 10
67.946908
 20
272.365261
 30
0.0
 11
53.986382
 21
272.365261
 31
0.0
  0
LINE
  5
375
330
1F
100
AcDbEntity
  8
LC-001-100-D00-0
 62
     7
370
    50
100
AcDbLine
 10
223.660392
 20
266.766261
 30
0.0
 11
225.749188
 21
266.766261
 31
0.0
  0
LINE
  5
376
330
1F
100
AcDbEntity
  8
LC-001-100-D00-0
 62
     7
370
    50
100
AcDbLine
 10
137.158622
 20
266.766261
 30
0.0
 11
139.247422
 21
266.766261
 31
0.0
  0
LINE
  5
377
330
1F
100
AcDbEntity
  8
LC-001-100-D00-0
 62
     7
370
    50
100
AcDbLine
 10
236.742309
 20
266.766261
 30
0.0
 11
236.742309
 21
266.257261
 31
0.0
  0
LINE
  5
378
330
1F
100
AcDbEntity
  8
LC-001-100-D00-0
 62
     7
370
    50
100
AcDbLine
 10
225.749188
 20
266.766261
 30
0.0
 11
236.742309
 21
266.766261
 31
0.0
  0
LINE
  5
379
330
1F
100
AcDbEntity
  8
LC-001-100-D00-0
 62
     7
370
    50
100
AcDbLine
 10
126.165499
 20
266.766261
 30
0.0
 11
126.165499
 21
266.257261
 31
0.0
  0
LINE
  5
37A
330
1F
100
AcDbEntity
  8
LC-001-100-D00-0
 62
     7
370
    50
100
AcDbLine
 10
126.165499
 20
266.766261
 30
0.0
 11
137.158622
 21
266.766261
 31
0.0
  0
LINE
  5
37B
330
1F
100
AcDbEntity
  8
LC-001-100-D00-0
 62
     7
370
    50
100
AcDbLine
 10
198.041792
 20
266.766261
 30
0.0
 11
200.970326
 21
266.766261
 31
0.0
  0
LINE
  5
37C
330
1F
100
AcDbEntity
  8
LC-001-100-D00-0
 62
     7
370
    50
100
AcDbLine
 10
161.937483
 20
266.766261
 30
0.0
 11
164.86602
 21
266.766261
 31
0.0
  0
LINE
  5
37D
330
1F
100
AcDbEntity
  8
LC-001-100-D00-0
 62
     7
370
    50
100
AcDbLine
 10
205.523827
 20
266.766261
 30
0.0
 11
205.523827
 21
266.257261
 31
0.0
  0
LINE
  5
37E
330
1F
100
AcDbEntity
  8
LC-001-100-D00-0
 62
     7
370
    50
100
AcDbLine
 10
200.970326
 20
266.766261
 30
0.0
 11
205.523827
 21
266.766261
 31
0.0
  0
LINE
  5
37F
330
1F
100
AcDbEntity
  8
LC-001-100-D00-0
 62
     7
370
    50
100
AcDbLine
 10
157.383983
 20
266.766261
 30
0.0
 11
157.383983
 21
266.257261
 31
0.0
  0
LINE
  5
380
330
1F
100
AcDbEntity
  8
LC-001-100-D00-0
 62
     7
370
    50
100
AcDbLine
 10
157.383983
 20
266.766261
 30
0.0
 11
161.937483
 21
266.766261
 31
0.0
  0
LINE
  5
381
330
1F
100
AcDbEntity
  8
LC-001-100-D00-0
 62
     7
370
    50
100
AcDbLine
 10
84.548545
 20
257.095261
 30
0.0
 11
86.591151
 21
269.311261
 31
0.0
  0
LINE
  5
382
330
1F
100
AcDbEntity
  8
LC-001-100-D00-0
 62
     7
370
    50
100
AcDbLine
 10
84.584501
 20
257.095261
 30
0.0
 11
84.223565
 21
255.059261
 31
0.0
  0
LINE
  5
383
330
1F
100
AcDbEntity
  8
LC-001-100-D00-0
 62
     7
370
    50
100
AcDbLine
 10
87.050569
 20
254.041261
 30
0.0
 11
84.345531
 21
254.041261
 31
0.0
  0
INSERT
  5
397
330
1F
100
AcDbEntity
  8
LC-001-100-D00-0
 62
     7
370
    50
100
AcDbBlockReference
  2
POLY21
 10
0.0
 20
0.0
 30
0.0
  0
LINE
  5
398
330
1F
100
AcDbEntity
  8
LC-001-100-D00-0
 62
     7
370
    50
100
AcDbLine
 10
84.21002
 20
254.882487
 30
0.0
 11
84.223565
 21
255.059261
 31
0.0
  0
INSERT
  5
3A6
330
1F
100
AcDbEntity
  8
LC-001-100-D00-0
 62
     7
370
    50
100
AcDbBlockReference
  2
POLY22
 10
0.0
 20
0.0
 30
0.0
  0
LINE
  5
3A7
330
1F
100
AcDbEntity
  8
LC-001-100-D00-0
 62
     7
370
    50
100
AcDbLine
 10
84.584501
 20
257.095261
 30
0.0
 11
77.185643
 21
257.095261
 31
0.0
  0
LINE
  5
3A8
330
1F
100
AcDbEntity
  8
LC-001-100-D00-0
 62
     7
370
    50
100
AcDbLine
 10
84.345531
 20
254.041261
 30
0.0
 11
78.57835
 21
254.041261
 31
0.0
  0
ARC
  5
3A9
330
1F
100
AcDbEntity
  8
LC-001-100-D00-0
 62
     7
370
    50
100
AcDbCircle
 10
320.681905
 20
257.040952
 30
0.0
 40
0.5000000000000568
100
AcDbArc
 50
0.0
 51
58.741482
  0
ARC
  5
3AA
330
1F
100
AcDbEntity
  8
LC-001-100-D00-0
 62
     7
370
    50
100
AcDbCircle
 10
320.681905
 20
207.28957
 30
0.0
 40
0.5000000000000315
100
AcDbArc
 50
301.258518
 51
0.0
  0
ARC
  5
3AB
330
1F
100
AcDbEntity
  8
LC-001-100-D00-0
 62
     7
370
    50
100
AcDbCircle
 10
316.681905
 20
259.065075
 30
0.0
 40
0.5000000000001008
100
AcDbArc
 50
67.576887
 51
180.0
  0
ARC
  5
3AC
330
1F
100
AcDbEntity
  8
LC-001-100-D00-0
 62
     7
370
    50
100
AcDbCircle
 10
316.681905
 20
205.265447
 30
0.0
 40
0.5
100
AcDbArc
 50
180.0
 51
292.423113
  0
ARC
  5
3AD
330
1F
100
AcDbEntity
  8
LC-001-100-D00-0
 62
     7
370
    50
100
AcDbCircle
 10
133.181905
 20
220.165261
 30
0.0
 40
14.5
100
AcDbArc
 50
180.0
 51
270.0
  0
LINE
  5
3AE
330
1F
100
AcDbEntity
  8
LC-001-100-D00-0
 62
     7
370
    50
100
AcDbLine
 10
118.681905
 20
267.865261
 30
0.0
 11
118.681905
 21
220.16526
 31
0.0
  0
LINE
  5
3AF
330
1F
100
AcDbEntity
  8
LC-001-100-D00-0
 62
     7
370
    50
100
AcDbLine
 10
119.610403
 20
267.865261
 30
0.0
 11
118.681905
 21
267.865261
 31
0.0
  0
ARC
  5
3B0
330
1F
100
AcDbEntity
  8
LC-001-100-D00-0
 62
     7
370
    50
100
AcDbCircle
 10
142.181905
 20
201.865261
 30
0.0
 40
7.5
100
AcDbArc
 50
180.0
 51
270.0
  0
ARC
  5
3B1
330
1F
100
AcDbEntity
  8
LC-001-100-D00-0
 62
     7
370
    50
100
AcDbCircle
 10
224.181905
 20
201.865261
 30
0.0
 40
7.5
100
AcDbArc
 50
270.0
 51
0.0
  0
LINE
  5
3B2
330
1F
100
AcDbEntity
  8
LC-001-100-D00-0
 62
     7
370
    50
100
AcDbLine
 10
231.681905
 20
202.165264
 30
0.0
 11
231.681905
 21
201.865259
 31
0.0
  0
LINE
  5
3B3
330
1F
100
AcDbEntity
  8
LC-001-100-D00-0
 62
     7
370
    50
100
AcDbLine
 10
134.681907
 20
201.865259
 30
0.0
 11
134.681907
 21
202.165264
 31
0.0
  0
LINE
  5
3B4
330
1F
100
AcDbEntity
  8
LC-001-100-D00-0
 62
     7
370
    50
100
AcDbLine
 10
134.681907
 20
202.165264
 30
0.0
 11
132.681903
 21
202.165264
 31
0.0
  0
ARC
  5
3B5
330
1F
100
AcDbEntity
  8
LC-001-100-D00-0
 62
     7
370
    50
100
AcDbCircle
 10
132.681905
 20
219.665261
 30
0.0
 40
17.5
100
AcDbArc
 50
180.0
 51
270.0
  0
LINE
  5
3B6
330
1F
100
AcDbEntity
  8
LC-001-100-D00-0
 62
     7
370
    50
100
AcDbLine
 10
115.181905
 20
219.665262
 30
0.0
 11
115.181905
 21
267.865261
 31
0.0
  0
LINE
  5
3B7
330
1F
100
AcDbEntity
  8
LC-001-100-D00-0
 62
     7
370
    50
100
AcDbLine
 10
118.681905
 20
267.865261
 30
0.0
 11
115.181905
 21
267.865261
 31
0.0
  0
ARC
  5
3B8
330
1F
100
AcDbEntity
  8
LC-001-100-D00-0
 62
     7
370
    50
100
AcDbCircle
 10
136.181905
 20
203.665261
 30
0.0
 40
2.0
100
AcDbArc
 50
0.0
 51
90.0
  0
LINE
  5
3B9
330
1F
100
AcDbEntity
  8
LC-001-100-D00-0
 62
     7
370
    50
100
AcDbLine
 10
138.181907
 20
203.66526
 30
0.0
 11
138.181907
 21
201.865259
 31
0.0
  0
ARC
  5
3BA
330
1F
100
AcDbEntity
  8
LC-001-100-D00-0
 62
     7
370
    50
100
AcDbCircle
 10
142.181905
 20
201.865261
 30
0.0
 40
4.0
100
AcDbArc
 50
180.0
 51
270.0
  0
LINE
  5
3BB
330
1F
100
AcDbEntity
  8
LC-001-100-D00-0
 62
     7
370
    50
100
AcDbLine
 10
224.181905
 20
197.865259
 30
0.0
 11
142.181908
 21
197.865259
 31
0.0
  0
ARC
  5
3BC
330
1F
100
AcDbEntity
  8
LC-001-100-D00-0
 62
     7
370
    50
100
AcDbCircle
 10
224.181905
 20
201.865261
 30
0.0
 40
4.0
100
AcDbArc
 50
270.0
 51
0.0
  0
LINE
  5
3BD
330
1F
100
AcDbEntity
  8
LC-001-100-D00-0
 62
     7
370
    50
100
AcDbLine
 10
228.181905
 20
201.865259
 30
0.0
 11
228.181905
 21
203.66526
 31
0.0
  0
ARC
  5
3BE
330
1F
100
AcDbEntity
  8
LC-001-100-D00-0
 62
     7
370
    50
100
AcDbCircle
 10
230.181905
 20
203.665261
 30
0.0
 40
2.0
100
AcDbArc
 50
90.0
 51
180.0
  0
LINE
  5
3BF
330
1F
100
AcDbEntity
  8
LC-001-100-D00-0
 62
     7
370
    50
100
AcDbLine
 10
275.681906
 20
205.665264
 30
0.0
 11
275.681906
 21
209.16526
 31
0.0
  0
LINE
  5
3C0
330
1F
100
AcDbEntity
  8
LC-001-100-D00-0
 62
     7
370
    50
100
AcDbLine
 10
275.681906
 20
209.16526
 30
0.0
 11
315.581907
 21
209.16526
 31
0.0
  0
LINE
  5
3C1
330
1F
100
AcDbEntity
  8
LC-001-100-D00-0
 62
     7
370
    50
100
AcDbLine
 10
315.581907
 20
209.16526
 30
0.0
 11
321.181905
 21
207.664746
 31
0.0
  0
ARC
  5
3C2
330
1F
100
AcDbEntity
  8
LC-001-100-D00-0
 62
     7
370
    50
100
AcDbCircle
 10
305.581905
 20
232.165261
 30
0.0
 40
29.60000000000004
100
AcDbArc
 50
292.423113
 51
301.258518
  0
ARC
  5
3C3
330
1F
100
AcDbEntity
  8
LC-001-100-D00-0
 62
     7
370
    50
100
AcDbCircle
 10
315.681905
 20
206.515261
 30
0.0
 40
0.5000000000000568
100
AcDbArc
 50
0.0
 51
90.0
  0
LINE
  5
3C4
330
1F
100
AcDbEntity
  8
LC-001-100-D00-0
 62
     7
370
    50
100
AcDbLine
 10
315.681902
 20
207.015261
 30
0.0
 11
312.181902
 21
207.015261
 31
0.0
  0
ARC
  5
3C5
330
1F
100
AcDbEntity
  8
LC-001-100-D00-0
 62
     7
370
    50
100
AcDbCircle
 10
312.181905
 20
206.515261
 30
0.0
 40
0.5000000000000568
100
AcDbArc
 50
90.0
 51
180.0
  0
LINE
  5
3C6
330
1F
100
AcDbEntity
  8
LC-001-100-D00-0
 62
     7
370
    50
100
AcDbLine
 10
311.681908
 20
206.515263
 30
0.0
 11
311.681908
 21
203.609179
 31
0.0
  0
ARC
  5
3C7
330
1F
100
AcDbEntity
  8
LC-001-100-D00-0
 62
     7
370
    50
100
AcDbCircle
 10
311.181905
 20
203.609176
 30
0.0
 40
0.4999999999999977
100
AcDbArc
 50
281.095206
 51
0.0
  0
ARC
  5
3C8
330
1F
100
AcDbEntity
  8
LC-001-100-D00-0
 62
     7
370
    50
100
AcDbCircle
 10
305.581905
 20
232.165261
 30
0.0
 40
29.60000000000006
100
AcDbArc
 50
241.447363
 51
281.095206
  0
LINE
  5
3C9
330
1F
100
AcDbEntity
  8
LC-001-100-D00-0
 62
     7
370
    50
100
AcDbLine
 10
291.434114
 20
206.165257
 30
0.0
 11
290.181902
 21
206.165257
 31
0.0
  0
LINE
  5
3CA
330
1F
100
AcDbEntity
  8
LC-001-100-D00-0
 62
     7
370
    50
100
AcDbLine
 10
290.181902
 20
206.165257
 30
0.0
 11
290.181902
 21
204.665262
 31
0.0
  0
LINE
  5
3CB
330
1F
100
AcDbEntity
  8
LC-001-100-D00-0
 62
     7
370
    50
100
AcDbLine
 10
290.181902
 20
204.665262
 30
0.0
 11
287.681904
 21
204.665262
 31
0.0
  0
LINE
  5
3CC
330
1F
100
AcDbEntity
  8
LC-001-100-D00-0
 62
     7
370
    50
100
AcDbLine
 10
287.681904
 20
204.665262
 30
0.0
 11
287.681904
 21
206.165257
 31
0.0
  0
LINE
  5
3CD
330
1F
100
AcDbEntity
  8
LC-001-100-D00-0
 62
     7
370
    50
100
AcDbLine
 10
287.681904
 20
206.165257
 30
0.0
 11
279.181906
 21
206.165257
 31
0.0
  0
LINE
  5
3CE
330
1F
100
AcDbEntity
  8
LC-001-100-D00-0
 62
     7
370
    50
100
AcDbLine
 10
279.181906
 20
206.165257
 30
0.0
 11
279.181906
 21
205.165263
 31
0.0
  0
LINE
  5
3CF
330
1F
100
AcDbEntity
  8
LC-001-100-D00-0
 62
     7
370
    50
100
AcDbLine
 10
276.181903
 20
202.165264
 30
0.0
 11
231.681905
 21
202.165264
 31
0.0
  0
ARC
  5
3D0
330
1F
100
AcDbEntity
  8
LC-001-100-D00-0
 62
     7
370
    50
100
AcDbCircle
 10
276.181905
 20
205.165261
 30
0.0
 40
3.0
100
AcDbArc
 50
270.0
 51
0.0
  0
LINE
  5
3D1
330
1F
100
AcDbEntity
  8
LC-001-100-D00-0
 62
     7
370
    50
100
AcDbLine
 10
142.181908
 20
194.365259
 30
0.0
 11
224.181905
 21
194.365259
 31
0.0
  0
LINE
  5
3D2
330
1F
100
AcDbEntity
  8
LC-001-100-D00-0
 62
     7
370
    50
100
AcDbLine
 10
230.181905
 20
205.665264
 30
0.0
 11
275.681906
 21
205.665264
 31
0.0
  0
LINE
  5
3D3
330
1F
100
AcDbEntity
  8
LC-001-100-D00-0
 62
     7
370
    50
100
AcDbLine
 10
133.181904
 20
205.665264
 30
0.0
 11
136.181903
 21
205.665264
 31
0.0
  0
LINE
  5
3D4
330
1F
100
AcDbEntity
  8
LC-001-100-D00-0
 62
     7
370
    50
100
AcDbLine
 10
316.181903
 20
205.265443
 30
0.0
 11
316.181903
 21
206.515263
 31
0.0
  0
LINE
  5
3D5
330
1F
100
AcDbEntity
  8
LC-001-100-D00-0
 62
     7
370
    50
100
AcDbLine
 10
321.181905
 20
207.664746
 30
0.0
 11
321.181905
 21
207.289569
 31
0.0
  0
ARC
  5
3D6
330
1F
100
AcDbEntity
  8
LC-001-100-D00-0
 62
     7
370
    50
100
AcDbCircle
 10
311.181905
 20
260.721346
 30
0.0
 40
0.5
100
AcDbArc
 50
0.0
 51
78.904794
  0
ARC
  5
3D7
330
1F
100
AcDbEntity
  8
LC-001-100-D00-0
 62
     7
370
    50
100
AcDbCircle
 10
315.681905
 20
257.815261
 30
0.0
 40
0.5000000000000568
100
AcDbArc
 50
270.0
 51
0.0
  0
LINE
  5
3D8
330
1F
100
AcDbEntity
  8
LC-001-100-D00-0
 62
     7
370
    50
100
AcDbLine
 10
312.181902
 20
257.315261
 30
0.0
 11
315.681902
 21
257.315261
 31
0.0
  0
ARC
  5
3D9
330
1F
100
AcDbEntity
  8
LC-001-100-D00-0
 62
     7
370
    50
100
AcDbCircle
 10
305.581905
 20
232.165261
 30
0.0
 40
29.60000000000003
100
AcDbArc
 50
58.741482
 51
67.576887
  0
LINE
  5
3DA
330
1F
100
AcDbEntity
  8
LC-001-100-D00-0
 62
     7
370
    50
100
AcDbLine
 10
321.181905
 20
256.665776
 30
0.0
 11
315.581907
 21
255.165261
 31
0.0
  0
LINE
  5
3DB
330
1F
100
AcDbEntity
  8
LC-001-100-D00-0
 62
     7
370
    50
100
AcDbLine
 10
315.581907
 20
255.165261
 30
0.0
 11
275.681906
 21
255.165261
 31
0.0
  0
LINE
  5
3DC
330
1F
100
AcDbEntity
  8
LC-001-100-D00-0
 62
     7
370
    50
100
AcDbLine
 10
275.681906
 20
255.165261
 30
0.0
 11
275.681906
 21
267.865261
 31
0.0
  0
LINE
  5
3DD
330
1F
100
AcDbEntity
  8
LC-001-100-D00-0
 62
     7
370
    50
100
AcDbLine
 10
279.181906
 20
267.865261
 30
0.0
 11
275.681906
 21
267.865261
 31
0.0
  0
LINE
  5
3DE
330
1F
100
AcDbEntity
  8
LC-001-100-D00-0
 62
     7
370
    50
100
AcDbLine
 10
279.181906
 20
267.865261
 30
0.0
 11
279.181906
 21
258.16526
 31
0.0
  0
LINE
  5
3DF
330
1F
100
AcDbEntity
  8
LC-001-100-D00-0
 62
     7
370
    50
100
AcDbLine
 10
279.181906
 20
258.16526
 30
0.0
 11
287.681904
 21
258.16526
 31
0.0
  0
LINE
  5
3E0
330
1F
100
AcDbEntity
  8
LC-001-100-D00-0
 62
     7
370
    50
100
AcDbLine
 10
287.681904
 20
258.16526
 30
0.0
 11
287.681904
 21
259.665261
 31
0.0
  0
LINE
  5
3E1
330
1F
100
AcDbEntity
  8
LC-001-100-D00-0
 62
     7
370
    50
100
AcDbLine
 10
287.681904
 20
259.665261
 30
0.0
 11
290.181902
 21
259.665261
 31
0.0
  0
ARC
  5
3E2
330
1F
100
AcDbEntity
  8
LC-001-100-D00-0
 62
     7
370
    50
100
AcDbCircle
 10
305.581905
 20
232.165261
 30
0.0
 40
29.60000000000002
100
AcDbArc
 50
78.904794
 51
106.688135
  0
ARC
  5
3E3
330
1F
100
AcDbEntity
  8
LC-001-100-D00-0
 62
     7
370
    50
100
AcDbCircle
 10
312.181905
 20
257.815261
 30
0.0
 40
0.5000000000000568
100
AcDbArc
 50
180.0
 51
270.0
  0
LINE
  5
3E4
330
1F
100
AcDbEntity
  8
LC-001-100-D00-0
 62
     7
370
    50
100
AcDbLine
 10
297.081907
 20
262.266846
 30
0.0
 11
297.081907
 21
260.518567
 31
0.0
  0
ARC
  5
3E5
330
1F
100
AcDbEntity
  8
LC-001-100-D00-0
 62
     7
370
    50
100
AcDbCircle
 10
304.490993
 20
232.165261
 30
0.0
 40
31.00000000000002
100
AcDbArc
 50
103.827695
 51
117.489334
  0
LINE
  5
3E6
330
1F
100
AcDbEntity
  8
LC-001-100-D00-0
 62
     7
370
    50
100
AcDbLine
 10
311.681908
 20
260.721346
 30
0.0
 11
311.681908
 21
257.815261
 31
0.0
  0
LINE
  5
3E7
330
1F
100
AcDbEntity
  8
LC-001-100-D00-0
 62
     7
370
    50
100
AcDbLine
 10
316.181903
 20
257.815261
 30
0.0
 11
316.181903
 21
259.065075
 31
0.0
  0
LINE
  5
3E8
330
1F
100
AcDbEntity
  8
LC-001-100-D00-0
 62
     7
370
    50
100
AcDbLine
 10
321.181905
 20
257.040952
 30
0.0
 11
321.181905
 21
256.665776
 31
0.0
  0
LINE
  5
3E9
330
1F
100
AcDbEntity
  8
LC-001-100-D00-0
 62
     7
370
    50
100
AcDbLine
 10
136.181903
 20
205.665264
 30
0.0
 11
148.453903
 21
205.665264
 31
0.0
  0
LINE
  5
3EA
330
1F
100
AcDbEntity
  8
LC-001-100-D00-0
 62
     7
370
    50
100
AcDbLine
 10
214.453905
 20
205.665264
 30
0.0
 11
230.181905
 21
205.665264
 31
0.0
  0
LINE
  5
3EB
330
1F
100
AcDbEntity
  8
LC-001-100-D00-0
 62
     7
370
    50
100
AcDbLine
 10
315.581907
 20
255.165261
 30
0.0
 11
315.581907
 21
209.16526
 31
0.0
  0
LINE
  5
3EC
330
1F
100
AcDbEntity
  8
LC-001-100-D00-0
 62
     7
370
    50
100
AcDbLine
 10
275.681906
 20
255.165261
 30
0.0
 11
275.681906
 21
209.16526
 31
0.0
  0
LINE
  5
3ED
330
1F
100
AcDbEntity
  8
LC-001-100-D00-0
 62
     7
370
    50
100
AcDbLine
 10
321.181905
 20
256.665776
 30
0.0
 11
321.181905
 21
207.664746
 31
0.0
  0
LINE
  5
3EE
330
1F
100
AcDbEntity
  8
LC-001-100-D00-0
 62
     7
370
    50
100
AcDbLine
 10
273.392831
 20
267.865261
 30
0.0
 11
256.892831
 21
267.865261
 31
0.0
  0
LINE
  5
3EF
330
1F
100
AcDbEntity
  8
LC-001-100-D00-0
 62
     7
370
    50
100
AcDbLine
 10
275.681906
 20
267.865261
 30
0.0
 11
273.392831
 21
267.865261
 31
0.0
  0
LINE
  5
3F0
330
1F
100
AcDbEntity
  8
LC-001-100-D00-0
 62
     7
370
    50
100
AcDbLine
 10
256.892831
 20
267.865261
 30
0.0
 11
243.297404
 21
267.865261
 31
0.0
  0
INSERT
  5
3FA
330
1F
100
AcDbEntity
  8
LC-001-100-D00-0
 62
     7
370
    25
100
AcDbBlockReference
  2
KLON7
 10
0.0
 20
0.0
 30
0.0
  0
INSERT
  5
41E
330
1F
100
AcDbEntity
  8
LC-001-100-D00-0
 62
     7
370
    25
100
AcDbBlockReference
  2
KLON8
 10
0.0
 20
0.0
 30
0.0
  0
INSERT
  5
42C
330
1F
100
AcDbEntity
  8
LC-001-100-D00-0
 62
     7
370
    25
100
AcDbBlockReference
  2
KLON9
 10
0.0
 20
0.0
 30
0.0
  0
LINE
  5
42D
330
1F
100
AcDbEntity
  8
LC-001-100-D00-0
 62
     7
370
    50
100
AcDbLine
 10
310.868207
 20
269.311261
 30
0.0
 11
313.922207
 21
272.365261
 31
0.0
  0
INSERT
  5
43C
330
1F
100
AcDbEntity
  8
LC-001-100-D00-0
 62
     7
370
    25
100
AcDbBlockReference
  2
KLON10
 10
0.0
 20
0.0
 30
0.0
  0
LINE
  5
43D
330
1F
100
AcDbEntity
  8
LC-001-100-D00-0
 62
     7
370
    25
100
AcDbLine
 10
50.44078
 20
269.311261
 30
0.0
 11
53.49478
 21
272.365261
 31
0.0
  0
INSERT
  5
447
330
1F
100
AcDbEntity
  8
LC-001-100-D00-0
 62
     7
370
    25
100
AcDbBlockReference
  2
KLON11
 10
0.0
 20
0.0
 30
0.0
  0
INSERT
  5
451
330
1F
100
AcDbEntity
  8
LC-001-100-D00-0
 62
     7
370
    25
100
AcDbBlockReference
  2
KLON12
 10
0.0
 20
0.0
 30
0.0
  0
INSERT
  5
45F
330
1F
100
AcDbEntity
  8
LC-001-100-D00-0
 62
     7
370
    25
100
AcDbBlockReference
  2
KLON13
 10
0.0
 20
0.0
 30
0.0
  0
INSERT
  5
46B
330
1F
100
AcDbEntity
  8
LC-001-100-D00-0
 62
     7
370
    25
100
AcDbBlockReference
  2
KLON14
 10
0.0
 20
0.0
 30
0.0
  0
INSERT
  5
484
330
1F
100
AcDbEntity
  8
LC-001-100-D00-0
 62
     7
370
    25
100
AcDbBlockReference
  2
KLON15
 10
0.0
 20
0.0
 30
0.0
  0
LINE
  5
485
330
1F
100
AcDbEntity
  8
LC-001-100-D00-0
 62
     7
370
    50
100
AcDbLine
 10
223.43764
 20
262.702998
 30
0.0
 11
223.844168
 21
263.109526
 31
0.0
  0
LINE
  5
486
330
1F
100
AcDbEntity
  8
LC-001-100-D00-0
 62
     7
370
    50
100
AcDbLine
 10
140.670171
 20
260.757834
 30
0.0
 11
142.789332
 21
262.876995
 31
0.0
  0
INSERT
  5
496
330
1F
100
AcDbEntity
  8
LC-001-100-D00-0
 62
     7
370
    25
100
AcDbBlockReference
  2
KLON16
 10
0.0
 20
0.0
 30
0.0
  0
INSERT
  5
4A8
330
1F
100
AcDbEntity
  8
LC-001-100-D00-0
 62
     7
370
    25
100
AcDbBlockReference
  2
KLON17
 10
0.0
 20
0.0
 30
0.0
  0
INSERT
  5
4B1
330
1F
100
AcDbEntity
  8
LC-001-100-D00-0
 62
     7
370
    25
100
AcDbBlockReference
  2
KLON18
 10
0.0
 20
0.0
 30
0.0
  0
INSERT
  5
4BA
330
1F
100
AcDbEntity
  8
LC-001-100-D00-0
 62
     7
370
    25
100
AcDbBlockReference
  2
KLON19
 10
0.0
 20
0.0
 30
0.0
  0
DIMENSION
  5
4BD
330
1F
100
AcDbEntity
  8
LC-001-100-D00-0
 62
     7
370
    25
100
AcDbDimension
  2
*D42
 10
314.302905
 20
316.365261
 30
0.0
 11
182.042305
 21
347.165261
 31
0.0
 70
   160
  1
%%c260
 71
     5
 42
265.698
  3
LC-DIM-L-0140-02-02
100
AcDbAlignedDimension
 13
48.604905
 23
269.311261
 33
0.0
 14
314.302905
 24
272.365261
 34
0.0
100
AcDbRotatedDimension
  0
DIMENSION
  5
4CB
330
1F
100
AcDbEntity
  8
LC-001-100-D00-0
 62
     7
370
    25
100
AcDbDimension
  2
*D43
 10
4.159042
 20
194.365261
 30
0.0
 11
-26.640958
 21
226.079819
 31
0.0
 70
   160
  1
78
 71
     5
 42
78.0
 53
90.0
  3
LC-DIM-L-0140-02-02
100
AcDbAlignedDimension
 13
48.604905
 23
272.365261
 33
0.0
 14
142.181905
 24
194.365261
 34
0.0
 50
90.0
100
AcDbRotatedDimension
  0
DIMENSION
  5
4D8
330
1F
100
AcDbEntity
  8
LC-001-100-D00-0
 62
     7
370
    25
100
AcDbDimension
  2
*D44
 10
105.217114
 20
248.865261
 30
0.0
 11
74.417114
 21
169.055819
 31
0.0
 70
   160
  1
40
 71
     5
 42
40.000582
 53
90.0
  3
LC-DIM-L-0140-02-02
100
AcDbAlignedDimension
 13
160.454295
 23
208.864679
 33
0.0
 14
148.453905
 24
248.865261
 34
0.0
 50
90.0
100
AcDbRotatedDimension
  0
DIMENSION
  5
4E6
330
1F
100
AcDbEntity
  8
LC-001-100-D00-0
 62
     7
370
    25
100
AcDbDimension
  2
*D45
 10
404.081905
 20
144.107819
 30
0.0
 11
294.036143
 21
174.907819
 31
0.0
 70
   160
  1
220
 71
     5
 42
222.628
  3
LC-DIM-L-0140-02-02
100
AcDbAlignedDimension
 13
181.453905
 23
204.864679
 33
0.0
 14
404.081905
 24
201.757172
 34
0.0
100
AcDbRotatedDimension
  0
DIMENSION
  5
4F3
330
1F
100
AcDbEntity
  8
LC-001-100-D00-0
 62
     7
370
    25
100
AcDbDimension
  2
*D46
 10
424.081905
 20
232.165261
 30
0.0
 11
393.281905
 21
296.566685
 31
0.0
 70
   160
  1
40
 71
     5
 42
40.2
 53
90.0
  3
LC-DIM-L-0140-02-02
100
AcDbAlignedDimension
 13
314.302905
 23
272.365261
 33
0.0
 14
368.881905
 24
232.165261
 34
0.0
 50
90.0
100
AcDbRotatedDimension
  0
DIMENSION
  5
501
330
1F
100
AcDbEntity
  8
LC-001-100-D00-0
 62
     7
370
    25
100
AcDbDimension
  2
*D47
 10
519.200619
 20
200.665261
 30
0.0
 11
488.400619
 21
180.935819
 31
0.0
 70
   160
  1
%%c63
 71
     5
 42
63.0
 53
90.0
  3
LC-DIM-L-0140-02-02
100
AcDbAlignedDimension
 13
401.081905
 23
263.665261
 33
0.0
 14
401.081905
 24
200.665261
 34
0.0
 50
90.0
100
AcDbRotatedDimension
  0
DIMENSION
  5
50F
330
1F
100
AcDbEntity
  8
LC-001-100-D00-0
 62
     7
370
    25
100
AcDbDimension
  2
*D48
 10
466.01216
 20
204.165261
 30
0.0
 11
435.21216
 21
151.235819
 31
0.0
 70
   160
  1
%%c56
 71
     5
 42
56.0
 53
90.0
  3
LC-DIM-L-0140-02-02
100
AcDbAlignedDimension
 13
361.381905
 23
260.165261
 33
0.0
 14
361.381905
 24
204.165261
 34
0.0
 50
90.0
100
AcDbRotatedDimension
  0
LINE
  5
51D
330
1F
100
AcDbEntity
  8
LC-001-100-D00-0
  6
DASHDOT
 62
     7
370
    25
100
AcDbLine
 10
304.490993
 20
232.165261
 30
0.0
 11
368.881905
 21
232.165261
 31
0.0
  0
LINE
  5
51E
330
1F
100
AcDbEntity
  8
LC-001-100-D00-0
  6
DASHDOT
 62
     7
370
    25
100
AcDbLine
 10
181.453905
 20
204.864679
 30
0.0
 11
181.453905
 21
272.365261
 31
0.0
  0
DIMENSION
  5
520
330
1F
100
AcDbEntity
  8
LC-002-003-----0
 62
     7
370
    25
100
AcDbDimension
  2
*D49
 10
60.893398
 20
254.041261
 30
0.0
 11
30.093398
 21
224.297819
 31
0.0
 70
   160
  1
18
 71
     5
 42
18.324
 53
90.0
  3
LC-DIM-L-0140-02-02
100
AcDbAlignedDimension
 13
48.604903
 23
272.365261
 33
0.0
 14
78.57835
 24
254.041261
 34
0.0
 50
90.0
100
AcDbRotatedDimension
  0
ENDSEC
  0
SECTION
  2
OBJECTS
  0
DICTIONARY
  5
C
330
0
100
AcDbDictionary
281
     1
  3
ACAD_GROUP
350
D
  3
ACAD_LAYOUT
350
1A
  3
ACAD_MLINESTYLE
350
17
  3
ACAD_PLOTSETTINGS
350
19
  3
ACAD_PLOTSTYLENAME
350
E
  0
DICTIONARY
  5
D
102
{ACAD_REACTORS
330
C
102
}
330
C
100
AcDbDictionary
281
     1
  0
DICTIONARY
  5
1A
102
{ACAD_REACTORS
330
C
102
}
330
C
100
AcDbDictionary
281
     1
  3
Layout1
350
1E
  3
Layout2
350
26
  3
Model
350
22
  0
DICTIONARY
  5
17
102
{ACAD_REACTORS
330
C
102
}
330
C
100
AcDbDictionary
281
     1
  3
Standard
350
18
  0
DICTIONARY
  5
19
102
{ACAD_REACTORS
330
C
102
}
330
C
100
AcDbDictionary
281
     1
  0
ACDBDICTIONARYWDFLT
  5
E
102
{ACAD_REACTORS
330
C
102
}
330
C
100
AcDbDictionary
281
     1
  3
Normal
350
F
100
AcDbDictionaryWithDefault
340
F
  0
LAYOUT
  5
1E
102
{ACAD_REACTORS
330
1A
102
}
330
1A
100
AcDbPlotSettings
  1

  2

  4

  6

 40
0.0
 41
0.0
 42
0.0
 43
0.0
 44
0.0
 45
0.0
 46
0.0
 47
0.0
 48
0.0
 49
0.0
140
0.0
141
0.0
142
1.0
143
1.0
 70
   688
 72
     0
 73
     0
 74
     5
  7

 75
    16
147
1.0
148
0.0
149
0.0
100
AcDbLayout
  1
Layout1
 70
     1
 71
     1
 10
-215.497763
 20
-155.268181
 11
624.502237
 21
438.731819
 12
0.0
 22
0.0
 32
0.0
 14
-215.497763
 24
-155.268181
 34
0.0
 15
624.502237
 25
438.731819
 35
0.0
146
0.0
 13
0.0
 23
0.0
 33
0.0
 16
1.0
 26
0.0
 36
0.0
 17
0.0
 27
1.0
 37
0.0
 76
     0
330
1B
  0
LAYOUT
  5
26
102
{ACAD_REACTORS
330
1A
102
}
330
1A
100
AcDbPlotSettings
  1

  2

  4

  6

 40
0.0
 41
0.0
 42
0.0
 43
0.0
 44
0.0
 45
0.0
 46
0.0
 47
0.0
 48
0.0
 49
0.0
140
0.0
141
0.0
142
1.0
143
1.0
 70
   688
 72
     0
 73
     0
 74
     5
  7

 75
    16
147
1.0
148
0.0
149
0.0
100
AcDbLayout
  1
Layout2
 70
     1
 71
     2
 10
0.0
 20
0.0
 11
0.0
 21
0.0
 12
0.0
 22
0.0
 32
0.0
 14
0.0
 24
0.0
 34
0.0
 15
0.0
 25
0.0
 35
0.0
146
0.0
 13
0.0
 23
0.0
 33
0.0
 16
1.0
 26
0.0
 36
0.0
 17
0.0
 27
1.0
 37
0.0
 76
     0
330
23
  0
LAYOUT
  5
22
102
{ACAD_REACTORS
330
1A
102
}
330
1A
100
AcDbPlotSettings
  1

  2

  4

  6

 40
0.0
 41
0.0
 42
0.0
 43
0.0
 44
0.0
 45
0.0
 46
0.0
 47
0.0
 48
0.0
 49
0.0
140
0.0
141
0.0
142
1.0
143
1.0
 70
  1776
 72
     0
 73
     0
 74
     0
  7

 75
     0
147
1.0
148
0.0
149
0.0
100
AcDbLayout
  1
Model
 70
     1
 71
     0
 10
-215.497763
 20
-155.268181
 11
624.502237
 21
438.731819
 12
0.0
 22
0.0
 32
0.0
 14
-215.497763
 24
-155.268181
 34
0.0
 15
624.502237
 25
438.731819
 35
0.0
146
0.0
 13
0.0
 23
0.0
 33
0.0
 16
1.0
 26
0.0
 36
0.0
 17
0.0
 27
1.0
 37
0.0
 76
     0
330
1F
  0
MLINESTYLE
  5
18
102
{ACAD_REACTORS
330
17
102
}
330
17
100
AcDbMlineStyle
  2
Standard
 70
     0
  3

 62
   256
 51
90.0
 52
90.0
 71
     2
 49
0.5
 62
   256
  6
BYLAYER
 49
-0.5
 62
   256
  6
BYLAYER
  0
ACDBPLACEHOLDER
  5
F
102
{ACAD_REACTORS
330
E
102
}
330
E
  0
ENDSEC
  0
EOF
