  0
SECTION
  2
HEADER
  9
$ACADVER
  1
AC1009
  9
$INSBASE
 10
0.0
 20
0.0
 30
0.0
  9
$EXTMIN
 10
-159.156809
 20
-136.26
 30
0.0
  9
$EXTMAX
 10
680.843191
 20
457.74
 30
0.0
  9
$LIMMIN
 10
-159.156809
 20
-136.26
  9
$LIMMAX
 10
680.843191
 20
457.74
  9
$ORTHOMODE
 70
     0
  9
$REGENMODE
 70
     1
  9
$FILLMODE
 70
     1
  9
$QTEXTMODE
 70
     0
  9
$MIRRTEXT
 70
     1
  9
$DRAGMODE
 70
     2
  9
$LTSCALE
 40
2.0
  9
$OSMODE
 70
     0
  9
$ATTMODE
 70
     1
  9
$TEXTSIZE
 40
0.2
  9
$TRACEWID
 40
0.05
  9
$TEXTSTYLE
  7
STANDARD
  9
$CLAYER
  8
0
  9
$CELTYPE
  6
BYLAYER
  9
$CECOLOR
 62
     7
  9
$DIMSCALE
 40
2.0
  9
$DIMASZ
 40
3.5
  9
$DIMEXO
 40
0.0625
  9
$DIMDLI
 40
0.38
  9
$DIMRND
 40
0.0
  9
$DIMDLE
 40
0.0
  9
$DIMEXE
 40
0.18
  9
$DIMTP
 40
0.0
  9
$DIMTM
 40
0.0
  9
$DIMTXT
 40
3.5
  9
$DIMCEN
 40
0.09
  9
$DIMTSZ
 40
0.0
  9
$DIMTOL
 70
     0
  9
$DIMLIM
 70
     0
  9
$DIMTIH
 70
     1
  9
$DIMTOH
 70
     1
  9
$DIMSE1
 70
     0
  9
$DIMSE2
 70
     0
  9
$DIMTAD
 70
     1
  9
$DIMZIN
 70
     0
  9
$DIMBLK
  1

  9
$DIMASO
 70
     1
  9
$DIMSHO
 70
     1
  9
$DIMPOST
  1

  9
$DIMAPOST
  1

  9
$DIMALT
 70
     0
  9
$DIMALTD
 70
     2
  9
$DIMALTF
 40
25.4
  9
$DIMLFAC
 40
1.0
  9
$DIMTOFL
 70
     0
  9
$DIMTVP
 40
0.0
  9
$DIMTIX
 70
     0
  9
$DIMSOXD
 70
     0
  9
$DIMSAH
 70
     0
  9
$DIMBLK1
  1

  9
$DIMBLK2
  1

  9
$DIMSTYLE
  2
STANDARD
  9
$DIMCLRD
 70
     0
  9
$DIMCLRE
 70
     0
  9
$DIMCLRT
 70
     0
  9
$DIMTFAC
 40
1.0
  9
$DIMGAP
 40
0.09
  9
$LUNITS
 70
     2
  9
$LUPREC
 70
     2
  9
$AXISMODE
 70
     0
  9
$AXISUNIT
 10
0.0
 20
0.0
  9
$SKETCHINC
 40
0.1
  9
$FILLETRAD
 40
0.0
  9
$AUNITS
 70
     0
  9
$AUPREC
 70
     0
  9
$MENU
  1
acad
  9
$ELEVATION
 40
0.0
  9
$PELEVATION
 40
0.0
  9
$THICKNESS
 40
0.0
  9
$LIMCHECK
 70
     0
  9
$BLIPMODE
 70
     1
  9
$CHAMFERA
 40
0.0
  9
$CHAMFERB
 40
0.0
  9
$SKPOLY
 70
     0
  9
$TDCREATE
 40
0.000000000
  9
$TDUPDATE
 40
0.000000000
  9
$TDINDWG
 40
0.0000000000
  9
$TDUSRTIMER
 40
0.0000000000
  9
$USRTIMER
 70
     1
  9
$ANGBASE
 50
0.0
  9
$ANGDIR
 70
     0
  9
$PDMODE
 70
     0
  9
$PDSIZE
 40
0.0
  9
$PLINEWID
 40
0.0
  9
$COORDS
 70
     0
  9
$SPLFRAME
 70
     0
  9
$SPLINETYPE
 70
     6
  9
$SPLINESEGS
 70
     8
  9
$ATTDIA
 70
     0
  9
$ATTREQ
 70
     1
  9
$HANDLING
 70
     1
  9
$HANDSEED
  5
E9
  9
$SURFTAB1
 70
     6
  9
$SURFTAB2
 70
     6
  9
$SURFTYPE
 70
     6
  9
$SURFU
 70
     6
  9
$SURFV
 70
     6
  9
$UCSNAME
  2

  9
$UCSORG
 10
0.0
 20
0.0
 30
0.0
  9
$UCSXDIR
 10
1.0
 20
0.0
 30
0.0
  9
$UCSYDIR
 10
0.0
 20
1.0
 30
0.0
  9
$PUCSNAME
  2

  9
$PUCSORG
 10
0.0
 20
0.0
 30
0.0
  9
$PUCSXDIR
 10
1.0
 20
0.0
 30
0.0
  9
$PUCSYDIR
 10
0.0
 20
1.0
 30
0.0
  9
$USERI1
 70
     0
  9
$USERI2
 70
     0
  9
$USERI3
 70
     0
  9
$USERI4
 70
     0
  9
$USERI5
 70
     0
  9
$USERR1
 40
0.0
  9
$USERR2
 40
0.0
  9
$USERR3
 40
0.0
  9
$USERR4
 40
0.0
  9
$USERR5
 40
0.0
  9
$WORLDVIEW
 70
     1
  9
$SHADEDGE
 70
     3
  9
$SHADEDIF
 70
    70
  9
$TILEMODE
 70
     1
  9
$MAXACTVP
 70
    16
  9
$PINSBASE
 10
0.0
 20
0.0
 30
0.0
  9
$PLIMCHECK
 70
     0
  9
$PEXTMIN
 10
1.000000E+20
 20
1.000000E+20
 30
1.000000E+20
  9
$PEXTMAX
 10
-1.000000E+20
 20
-1.000000E+20
 30
-1.000000E+20
  9
$PLIMMIN
 10
-159.156809
 20
-136.26
  9
$PLIMMAX
 10
680.843191
 20
457.74
  9
$UNITMODE
 70
     0
  9
$VISRETAIN
 70
     0
  9
$PLINEGEN
 70
     1
  9
$PSLTSCALE
 70
     0
  9
$TREEDEPTH
 70
  3020
  9
$DWGCODEPAGE
  3
dos850
  0
ENDSEC
  0
SECTION
  2
TABLES
  0
TABLE
  2
VPORT
 70
     1
  0
VPORT
  2
*ACTIVE
 70
     0
 10
0.0
 20
0.0
 11
1.0
 21
1.0
 12
420.0
 22
297.0
 13
0.0
 23
0.0
 14
1.0
 24
1.0
 15
0.0
 25
0.0
 16
0.0
 26
0.0
 36
1.0
 17
-159.156809
 27
-136.26
 37
0.0
 40
594.0
 41
1.604229
 42
50.0
 43
0.0
 44
0.0
 50
0.0
 51
0.0
 71
     0
 72
   100
 73
     1
 74
     1
 75
     0
 76
     0
 77
     0
 78
     0
  0
ENDTAB
  0
TABLE
  2
LTYPE
 70
     1
  0
LTYPE
  2
CONTINUOUS
 70
    64
  3
Solid line
 72
    65
 73
     0
 40
0.0
  0
ENDTAB
  0
TABLE
  2
LAYER
 70
     9
  0
LAYER
  2
0
 70
     0
 62
     7
  6
CONTINUOUS
  0
LAYER
  2
LC-INFO-1-2-MM-A3-0
 70
     1
 62
    -1
  6
CONTINUOUS
  0
LAYER
  2
LC-005-003-MTH-0
 70
     0
 62
     2
  6
CONTINUOUS
  0
LAYER
  2
LC-006-003-MTG-0
 70
     0
 62
     2
  6
CONTINUOUS
  0
LAYER
  2
LC-004-003-----0
 70
     0
 62
     2
  6
CONTINUOUS
  0
LAYER
  2
LC-002-000-----0
 70
     0
 62
     7
  6
CONTINUOUS
  0
LAYER
  2
LC-001-002-----0
 70
     0
 62
     1
  6
CONTINUOUS
  0
LAYER
  2
LC-003-002-RND-0
 70
     0
 62
     1
  6
CONTINUOUS
  0
LAYER
  2
LC-000
 70
     0
 62
     7
  6
CONTINUOUS
  0
ENDTAB
  0
TABLE
  2
STYLE
 70
     4
  0
STYLE
  2
STANDARD
 70
     0
 40
0.0
 41
1.0
 50
0.0
 71
     0
 42
0.0
  3
txt
  4

  0
STYLE
  2
LC-STANDARD
 70
    64
 40
0.0
 41
1.0
 50
0.0
 71
     0
 42
3.5
  3
MONOTXT
  4

  0
STYLE
  2
LC-TXTSTYLE-150-400-0-0-A2
 70
    64
 40
0.0
 41
1.0
 50
15.0
 71
     0
 42
3.5
  3
MONOTXT
  4

  0
STYLE
  2
LC-TXTSTYLE-150-400-0-0-D3
 70
    64
 40
0.0
 41
1.0
 50
15.0
 71
     0
 42
3.5
  3
LC-STANDARD
  4

  0
ENDTAB
  0
TABLE
  2
VIEW
 70
     0
  0
ENDTAB
  0
TABLE
  2
UCS
 70
     0
  0
ENDTAB
  0
TABLE
  2
APPID
 70
     1
  0
APPID
  2
ACAD
 70
     0
  0
ENDTAB
  0
TABLE
  2
DIMSTYLE
 70
     3
  0
DIMSTYLE
  2
STANDARD
 70
     0
  3

  4

  5

  6

  7

 40
1.0
 41
0.18
 42
0.0625
 43
0.38
 44
0.18
 45
0.0
 46
0.0
 47
0.0
 48
0.0
 71
     0
 72
     0
 73
     1
 74
     1
 75
     0
 76
     0
 77
     0
 78
     0
140
0.18
141
0.09
142
0.0
143
25.4
144
1.0
145
0.0
146
1.0
147
0.09
170
     0
171
     2
172
     0
173
     0
174
     0
175
     0
176
     0
177
     0
178
     0
  0
DIMSTYLE
  2
LC-STANDARD
 70
     0
  3

  4

  5

  6

  7

 40
1.0
 41
3.5
 42
0.0
 43
7.5
 44
1.8
 45
0.0
 46
0.0
 47
0.0
 48
0.0
 71
     0
 72
     0
 73
     0
 74
     0
 75
     0
 76
     0
 77
     1
 78
     8
140
3.5
141
0.0
142
0.0
143
25.4
144
1.0
145
0.0
146
0.71
147
1.5
170
     0
171
     2
172
     1
173
     0
174
     0
175
     0
176
     0
177
     0
178
     3
  0
DIMSTYLE
  2
LC-DIM-L-0140-02-02
 70
     0
  3

  4

  5

  6

  7

 40
2.0
 41
3.5
 42
0.0
 43
7.5
 44
1.8
 45
0.0
 46
0.0
 47
0.0
 48
0.0
 71
     0
 72
     0
 73
     0
 74
     0
 75
     0
 76
     0
 77
     1
 78
     8
140
14.0
141
0.0
142
0.0
143
25.4
144
1.0
145
0.0
146
0.71
147
1.5
170
     0
171
     2
172
     0
173
     0
174
     0
175
     0
176
     2
177
     2
178
     8
  0
ENDTAB
  0
ENDSEC
  0
SECTION
  2
BLOCKS
  0
BLOCK
  8
0
  5
23
  2
BLK1
 70
    64
 10
0.0
 20
0.0
 30
0.0
  3
BLK1
  0
ENDBLK
  8
0
  5
24
  0
BLOCK
  8
0
  5
26
  2
*D1
 70
    65
 10
0.0
 20
0.0
 30
0.0
  3
*D1
  0
LINE
  8
LC-005-003-MTH-0
  6
CONTINUOUS
  5
28
 10
44.897469
 20
268.491894
 30
0.0
 11
44.897469
 21
310.8
 31
0.0
  0
LINE
  8
LC-005-003-MTH-0
  6
CONTINUOUS
  5
29
 10
159.897469
 20
268.491894
 30
0.0
 11
159.897469
 21
310.8
 31
0.0
  0
LINE
  8
LC-006-003-MTG-0
  6
CONTINUOUS
  5
2B
 10
44.897469
 20
294.0
 30
0.0
 11
159.897469
 21
294.0
 31
0.0
  0
LINE
  8
LC-004-003-----0
  6
CONTINUOUS
  5
2D
 10
72.657925
 20
297.654733
 30
0.0
 11
44.897469
 21
294.0
 31
0.0
  0
LINE
  8
LC-004-003-----0
  6
CONTINUOUS
  5
2E
 10
44.897469
 20
294.0
 30
0.0
 11
72.657925
 21
290.345267
 31
0.0
  0
LINE
  8
LC-004-003-----0
  6
CONTINUOUS
  5
2F
 10
72.657925
 20
290.345267
 30
0.0
 11
72.657925
 21
297.654733
 31
0.0
  0
LINE
  8
LC-004-003-----0
  6
CONTINUOUS
  5
30
 10
72.720207
 20
296.704503
 30
0.0
 11
52.177469
 21
294.0
 31
0.0
  0
LINE
  8
LC-004-003-----0
  6
CONTINUOUS
  5
31
 10
52.177469
 20
294.0
 30
0.0
 11
72.720207
 21
291.295497
 31
0.0
  0
LINE
  8
LC-004-003-----0
  6
CONTINUOUS
  5
32
 10
72.782488
 20
295.754272
 30
0.0
 11
59.457469
 21
294.0
 31
0.0
  0
LINE
  8
LC-004-003-----0
  6
CONTINUOUS
  5
33
 10
59.457469
 20
294.0
 30
0.0
 11
72.782488
 21
292.245728
 31
0.0
  0
LINE
  8
LC-004-003-----0
  6
CONTINUOUS
  5
34
 10
72.844769
 20
294.804041
 30
0.0
 11
66.737469
 21
294.0
 31
0.0
  0
LINE
  8
LC-004-003-----0
  6
CONTINUOUS
  5
35
 10
66.737469
 20
294.0
 30
0.0
 11
72.844769
 21
293.195959
 31
0.0
  0
LINE
  8
LC-004-003-----0
  6
CONTINUOUS
  5
36
 10
132.137013
 20
290.345267
 30
0.0
 11
159.897469
 21
294.0
 31
0.0
  0
LINE
  8
LC-004-003-----0
  6
CONTINUOUS
  5
37
 10
159.897469
 20
294.0
 30
0.0
 11
132.137013
 21
297.654733
 31
0.0
  0
LINE
  8
LC-004-003-----0
  6
CONTINUOUS
  5
38
 10
132.137013
 20
297.654733
 30
0.0
 11
132.137013
 21
290.345267
 31
0.0
  0
LINE
  8
LC-004-003-----0
  6
CONTINUOUS
  5
39
 10
132.074732
 20
291.295497
 30
0.0
 11
152.617469
 21
294.0
 31
0.0
  0
LINE
  8
LC-004-003-----0
  6
CONTINUOUS
  5
3A
 10
152.617469
 20
294.0
 30
0.0
 11
132.074732
 21
296.704503
 31
0.0
  0
LINE
  8
LC-004-003-----0
  6
CONTINUOUS
  5
3B
 10
132.01245
 20
292.245728
 30
0.0
 11
145.337469
 21
294.0
 31
0.0
  0
LINE
  8
LC-004-003-----0
  6
CONTINUOUS
  5
3C
 10
145.337469
 20
294.0
 30
0.0
 11
132.01245
 21
295.754272
 31
0.0
  0
LINE
  8
LC-004-003-----0
  6
CONTINUOUS
  5
3D
 10
131.950169
 20
293.195959
 30
0.0
 11
138.057469
 21
294.0
 31
0.0
  0
LINE
  8
LC-004-003-----0
  6
CONTINUOUS
  5
3E
 10
138.057469
 20
294.0
 30
0.0
 11
131.950169
 21
294.804041
 31
0.0
  0
TEXT
  8
LC-004-003-----0
  6
CONTINUOUS
 62
     8
  5
40
 10
80.581988
 20
301.827554
 30
0.0
 40
28.0
  1
115
 41
0.8
 51
15.0
  7
LC-TXTSTYLE-150-400-0-0-D0
 72
     1
 11
107.038681
 21
301.827554
 31
0.0
  0
ENDBLK
  8
0
  5
41
  0
ENDSEC
  0
SECTION
  2
ENTITIES
  0
VIEWPORT
  8
LC-000
  5
E4
 67
     1
 68
     1
 10
420.0
 20
297.0
 30
0.0
 40
840.0
 41
594.0
 69
     1
1001
ACAD
1000
MVIEW
1002
{
1070
    16
1010
0.0
1020
0.0
1030
0.0
1010
0.0
1020
0.0
1030
1.0
1040
0.0
1040
594.0
1040
420.0
1040
297.0
1040
50.0
1040
0.0
1040
0.0
1070
     0
1070
   100
1070
     1
1070
     1
1070
     0
1070
     0
1070
     0
1070
     0
1040
0.0
1040
0.0
1040
0.0
1040
1.0
1040
1.0
1040
0.0
1040
0.0
1070
     0
1002
{
1002
}
1002
}
  0
VIEWPORT
  8
0
  5
E5
 67
     1
 68
     1
 10
0.0
 20
0.0
 30
0.0
 40
0.0
 41
0.0
 69
     1
1001
ACAD
1000
MVIEW
1002
{
1070
    16
1010
0.0
1020
0.0
1030
0.0
1010
0.0
1020
0.0
1030
1.0
1040
0.0
1040
594.0
1040
0.0
1040
0.0
1040
50.0
1040
0.0
1040
0.0
1070
     0
1070
   100
1070
     0
1070
     1
1070
     0
1070
     0
1070
     0
1070
     0
1040
0.0
1040
0.0
1040
0.0
1040
0.5
1040
0.5
1040
0.5
1040
0.5
1070
     0
1002
{
1002
}
1002
}
  0
INSERT
  8
0
  5
43
  2
BLK1
 10
0.0
 20
0.0
 30
0.0
  0
DIMENSION
  8
0
  5
44
  2
*D1
 10
102.690521
 20
294.0
 30
0.0
 11
102.690521
 21
294.0
 31
0.0
 13
44.897469
 23
268.491894
 33
0.0
 14
159.897469
 24
268.491894
 34
0.0
  3
LC-DIM-L-0140-02-02
  0
LINE
  8
LC-001-002-----0
  6
CONTINUOUS
  5
46
 10
47.897469
 20
156.491894
 30
0.0
 11
156.897469
 21
156.491894
 31
0.0
  0
LINE
  8
LC-001-002-----0
  6
CONTINUOUS
  5
47
 10
159.897469
 20
159.491894
 30
0.0
 11
159.897469
 21
268.491894
 31
0.0
  0
LINE
  8
LC-001-002-----0
  6
CONTINUOUS
  5
48
 10
156.897469
 20
271.491894
 30
0.0
 11
47.897469
 21
271.491894
 31
0.0
  0
LINE
  8
LC-001-002-----0
  6
CONTINUOUS
  5
49
 10
44.897469
 20
268.491894
 30
0.0
 11
44.897469
 21
159.491894
 31
0.0
  0
LINE
  8
LC-001-002-----0
  6
CONTINUOUS
  5
4A
 10
92.097469
 20
216.991894
 30
0.0
 11
99.397469
 21
216.991894
 31
0.0
  0
LINE
  8
LC-001-002-----0
  6
CONTINUOUS
  5
4B
 10
92.097469
 20
224.291894
 30
0.0
 11
99.397469
 21
224.291894
 31
0.0
  0
LINE
  8
LC-001-002-----0
  6
CONTINUOUS
  5
4C
 10
99.397469
 20
224.291894
 30
0.0
 11
99.397469
 21
216.991894
 31
0.0
  0
LINE
  8
LC-001-002-----0
  6
CONTINUOUS
  5
4D
 10
92.097469
 20
224.291894
 30
0.0
 11
92.097469
 21
216.991894
 31
0.0
  0
LINE
  8
LC-001-002-----0
  6
CONTINUOUS
  5
4E
 10
99.397469
 20
203.691894
 30
0.0
 11
99.397469
 21
210.991894
 31
0.0
  0
LINE
  8
LC-001-002-----0
  6
CONTINUOUS
  5
4F
 10
92.097469
 20
203.691894
 30
0.0
 11
92.097469
 21
210.991894
 31
0.0
  0
LINE
  8
LC-001-002-----0
  6
CONTINUOUS
  5
50
 10
92.097469
 20
210.991894
 30
0.0
 11
99.397469
 21
210.991894
 31
0.0
  0
LINE
  8
LC-001-002-----0
  6
CONTINUOUS
  5
51
 10
92.097469
 20
203.691894
 30
0.0
 11
99.397469
 21
203.691894
 31
0.0
  0
LINE
  8
LC-001-002-----0
  6
CONTINUOUS
  5
52
 10
112.697469
 20
210.991894
 30
0.0
 11
105.397469
 21
210.991894
 31
0.0
  0
LINE
  8
LC-001-002-----0
  6
CONTINUOUS
  5
53
 10
112.697469
 20
203.691894
 30
0.0
 11
105.397469
 21
203.691894
 31
0.0
  0
LINE
  8
LC-001-002-----0
  6
CONTINUOUS
  5
54
 10
105.397469
 20
203.691894
 30
0.0
 11
105.397469
 21
210.991894
 31
0.0
  0
LINE
  8
LC-001-002-----0
  6
CONTINUOUS
  5
55
 10
112.697469
 20
203.691894
 30
0.0
 11
112.697469
 21
210.991894
 31
0.0
  0
LINE
  8
LC-001-002-----0
  6
CONTINUOUS
  5
56
 10
105.397469
 20
224.291894
 30
0.0
 11
105.397469
 21
216.991894
 31
0.0
  0
LINE
  8
LC-001-002-----0
  6
CONTINUOUS
  5
57
 10
112.697469
 20
224.291894
 30
0.0
 11
112.697469
 21
216.991894
 31
0.0
  0
LINE
  8
LC-001-002-----0
  6
CONTINUOUS
  5
58
 10
112.697469
 20
216.991894
 30
0.0
 11
105.397469
 21
216.991894
 31
0.0
  0
LINE
  8
LC-001-002-----0
  6
CONTINUOUS
  5
59
 10
112.697469
 20
224.291894
 30
0.0
 11
105.397469
 21
224.291894
 31
0.0
  0
LINE
  8
LC-001-002-----0
  6
CONTINUOUS
  5
5A
 10
99.397469
 20
237.591894
 30
0.0
 11
99.397469
 21
230.291894
 31
0.0
  0
LINE
  8
LC-001-002-----0
  6
CONTINUOUS
  5
5B
 10
92.097469
 20
237.591894
 30
0.0
 11
92.097469
 21
230.291894
 31
0.0
  0
LINE
  8
LC-001-002-----0
  6
CONTINUOUS
  5
5C
 10
92.097469
 20
230.291894
 30
0.0
 11
99.397469
 21
230.291894
 31
0.0
  0
LINE
  8
LC-001-002-----0
  6
CONTINUOUS
  5
5D
 10
92.097469
 20
237.591894
 30
0.0
 11
99.397469
 21
237.591894
 31
0.0
  0
LINE
  8
LC-001-002-----0
  6
CONTINUOUS
  5
5E
 10
112.697469
 20
230.291894
 30
0.0
 11
105.397469
 21
230.291894
 31
0.0
  0
LINE
  8
LC-001-002-----0
  6
CONTINUOUS
  5
5F
 10
112.697469
 20
237.591894
 30
0.0
 11
105.397469
 21
237.591894
 31
0.0
  0
LINE
  8
LC-001-002-----0
  6
CONTINUOUS
  5
60
 10
105.397469
 20
237.591894
 30
0.0
 11
105.397469
 21
230.291894
 31
0.0
  0
LINE
  8
LC-001-002-----0
  6
CONTINUOUS
  5
61
 10
112.697469
 20
237.591894
 30
0.0
 11
112.697469
 21
230.291894
 31
0.0
  0
LINE
  8
LC-001-002-----0
  6
CONTINUOUS
  5
62
 10
99.397469
 20
190.391894
 30
0.0
 11
99.397469
 21
197.691894
 31
0.0
  0
LINE
  8
LC-001-002-----0
  6
CONTINUOUS
  5
63
 10
92.097469
 20
190.391894
 30
0.0
 11
92.097469
 21
197.691894
 31
0.0
  0
LINE
  8
LC-001-002-----0
  6
CONTINUOUS
  5
64
 10
92.097469
 20
197.691894
 30
0.0
 11
99.397469
 21
197.691894
 31
0.0
  0
LINE
  8
LC-001-002-----0
  6
CONTINUOUS
  5
65
 10
92.097469
 20
190.391894
 30
0.0
 11
99.397469
 21
190.391894
 31
0.0
  0
LINE
  8
LC-001-002-----0
  6
CONTINUOUS
  5
66
 10
112.697469
 20
197.691894
 30
0.0
 11
105.397469
 21
197.691894
 31
0.0
  0
LINE
  8
LC-001-002-----0
  6
CONTINUOUS
  5
67
 10
112.697469
 20
190.391894
 30
0.0
 11
105.397469
 21
190.391894
 31
0.0
  0
LINE
  8
LC-001-002-----0
  6
CONTINUOUS
  5
68
 10
105.397469
 20
190.391894
 30
0.0
 11
105.397469
 21
197.691894
 31
0.0
  0
LINE
  8
LC-001-002-----0
  6
CONTINUOUS
  5
69
 10
112.697469
 20
190.391894
 30
0.0
 11
112.697469
 21
197.691894
 31
0.0
  0
LINE
  8
LC-001-002-----0
  6
CONTINUOUS
  5
6A
 10
125.997469
 20
216.991894
 30
0.0
 11
118.697469
 21
216.991894
 31
0.0
  0
LINE
  8
LC-001-002-----0
  6
CONTINUOUS
  5
6B
 10
125.997469
 20
224.291894
 30
0.0
 11
118.697469
 21
224.291894
 31
0.0
  0
LINE
  8
LC-001-002-----0
  6
CONTINUOUS
  5
6C
 10
118.697469
 20
224.291894
 30
0.0
 11
118.697469
 21
216.991894
 31
0.0
  0
LINE
  8
LC-001-002-----0
  6
CONTINUOUS
  5
6D
 10
125.997469
 20
224.291894
 30
0.0
 11
125.997469
 21
216.991894
 31
0.0
  0
LINE
  8
LC-001-002-----0
  6
CONTINUOUS
  5
6E
 10
118.697469
 20
203.691894
 30
0.0
 11
118.697469
 21
210.991894
 31
0.0
  0
LINE
  8
LC-001-002-----0
  6
CONTINUOUS
  5
6F
 10
125.997469
 20
203.691894
 30
0.0
 11
125.997469
 21
210.991894
 31
0.0
  0
LINE
  8
LC-001-002-----0
  6
CONTINUOUS
  5
70
 10
125.997469
 20
210.991894
 30
0.0
 11
118.697469
 21
210.991894
 31
0.0
  0
LINE
  8
LC-001-002-----0
  6
CONTINUOUS
  5
71
 10
125.997469
 20
203.691894
 30
0.0
 11
118.697469
 21
203.691894
 31
0.0
  0
LINE
  8
LC-001-002-----0
  6
CONTINUOUS
  5
72
 10
118.697469
 20
237.591894
 30
0.0
 11
118.697469
 21
230.291894
 31
0.0
  0
LINE
  8
LC-001-002-----0
  6
CONTINUOUS
  5
73
 10
125.997469
 20
237.591894
 30
0.0
 11
125.997469
 21
230.291894
 31
0.0
  0
LINE
  8
LC-001-002-----0
  6
CONTINUOUS
  5
74
 10
125.997469
 20
230.291894
 30
0.0
 11
118.697469
 21
230.291894
 31
0.0
  0
LINE
  8
LC-001-002-----0
  6
CONTINUOUS
  5
75
 10
125.997469
 20
237.591894
 30
0.0
 11
118.697469
 21
237.591894
 31
0.0
  0
LINE
  8
LC-001-002-----0
  6
CONTINUOUS
  5
76
 10
118.697469
 20
190.391894
 30
0.0
 11
118.697469
 21
197.691894
 31
0.0
  0
LINE
  8
LC-001-002-----0
  6
CONTINUOUS
  5
77
 10
125.997469
 20
190.391894
 30
0.0
 11
125.997469
 21
197.691894
 31
0.0
  0
LINE
  8
LC-001-002-----0
  6
CONTINUOUS
  5
78
 10
125.997469
 20
197.691894
 30
0.0
 11
118.697469
 21
197.691894
 31
0.0
  0
LINE
  8
LC-001-002-----0
  6
CONTINUOUS
  5
79
 10
125.997469
 20
190.391894
 30
0.0
 11
118.697469
 21
190.391894
 31
0.0
  0
LINE
  8
LC-001-002-----0
  6
CONTINUOUS
  5
7A
 10
78.797469
 20
216.991894
 30
0.0
 11
86.097469
 21
216.991894
 31
0.0
  0
LINE
  8
LC-001-002-----0
  6
CONTINUOUS
  5
7B
 10
78.797469
 20
224.291894
 30
0.0
 11
86.097469
 21
224.291894
 31
0.0
  0
LINE
  8
LC-001-002-----0
  6
CONTINUOUS
  5
7C
 10
86.097469
 20
224.291894
 30
0.0
 11
86.097469
 21
216.991894
 31
0.0
  0
LINE
  8
LC-001-002-----0
  6
CONTINUOUS
  5
7D
 10
78.797469
 20
224.291894
 30
0.0
 11
78.797469
 21
216.991894
 31
0.0
  0
LINE
  8
LC-001-002-----0
  6
CONTINUOUS
  5
7E
 10
86.097469
 20
203.691894
 30
0.0
 11
86.097469
 21
210.991894
 31
0.0
  0
LINE
  8
LC-001-002-----0
  6
CONTINUOUS
  5
7F
 10
78.797469
 20
203.691894
 30
0.0
 11
78.797469
 21
210.991894
 31
0.0
  0
LINE
  8
LC-001-002-----0
  6
CONTINUOUS
  5
80
 10
78.797469
 20
210.991894
 30
0.0
 11
86.097469
 21
210.991894
 31
0.0
  0
LINE
  8
LC-001-002-----0
  6
CONTINUOUS
  5
81
 10
78.797469
 20
203.691894
 30
0.0
 11
86.097469
 21
203.691894
 31
0.0
  0
LINE
  8
LC-001-002-----0
  6
CONTINUOUS
  5
82
 10
86.097469
 20
237.591894
 30
0.0
 11
86.097469
 21
230.291894
 31
0.0
  0
LINE
  8
LC-001-002-----0
  6
CONTINUOUS
  5
83
 10
78.797469
 20
237.591894
 30
0.0
 11
78.797469
 21
230.291894
 31
0.0
  0
LINE
  8
LC-001-002-----0
  6
CONTINUOUS
  5
84
 10
78.797469
 20
230.291894
 30
0.0
 11
86.097469
 21
230.291894
 31
0.0
  0
LINE
  8
LC-001-002-----0
  6
CONTINUOUS
  5
85
 10
78.797469
 20
237.591894
 30
0.0
 11
86.097469
 21
237.591894
 31
0.0
  0
LINE
  8
LC-001-002-----0
  6
CONTINUOUS
  5
86
 10
86.097469
 20
190.391894
 30
0.0
 11
86.097469
 21
197.691894
 31
0.0
  0
LINE
  8
LC-001-002-----0
  6
CONTINUOUS
  5
87
 10
78.797469
 20
190.391894
 30
0.0
 11
78.797469
 21
197.691894
 31
0.0
  0
LINE
  8
LC-001-002-----0
  6
CONTINUOUS
  5
88
 10
78.797469
 20
197.691894
 30
0.0
 11
86.097469
 21
197.691894
 31
0.0
  0
LINE
  8
LC-001-002-----0
  6
CONTINUOUS
  5
89
 10
78.797469
 20
190.391894
 30
0.0
 11
86.097469
 21
190.391894
 31
0.0
  0
LINE
  8
LC-001-002-----0
  6
CONTINUOUS
  5
8A
 10
99.397469
 20
250.891894
 30
0.0
 11
99.397469
 21
243.591894
 31
0.0
  0
LINE
  8
LC-001-002-----0
  6
CONTINUOUS
  5
8B
 10
92.097469
 20
250.891894
 30
0.0
 11
92.097469
 21
243.591894
 31
0.0
  0
LINE
  8
LC-001-002-----0
  6
CONTINUOUS
  5
8C
 10
92.097469
 20
243.591894
 30
0.0
 11
99.397469
 21
243.591894
 31
0.0
  0
LINE
  8
LC-001-002-----0
  6
CONTINUOUS
  5
8D
 10
92.097469
 20
250.891894
 30
0.0
 11
99.397469
 21
250.891894
 31
0.0
  0
LINE
  8
LC-001-002-----0
  6
CONTINUOUS
  5
8E
 10
112.697469
 20
243.591894
 30
0.0
 11
105.397469
 21
243.591894
 31
0.0
  0
LINE
  8
LC-001-002-----0
  6
CONTINUOUS
  5
8F
 10
112.697469
 20
250.891894
 30
0.0
 11
105.397469
 21
250.891894
 31
0.0
  0
LINE
  8
LC-001-002-----0
  6
CONTINUOUS
  5
90
 10
105.397469
 20
250.891894
 30
0.0
 11
105.397469
 21
243.591894
 31
0.0
  0
LINE
  8
LC-001-002-----0
  6
CONTINUOUS
  5
91
 10
112.697469
 20
250.891894
 30
0.0
 11
112.697469
 21
243.591894
 31
0.0
  0
LINE
  8
LC-001-002-----0
  6
CONTINUOUS
  5
92
 10
118.697469
 20
250.891894
 30
0.0
 11
118.697469
 21
243.591894
 31
0.0
  0
LINE
  8
LC-001-002-----0
  6
CONTINUOUS
  5
93
 10
125.997469
 20
250.891894
 30
0.0
 11
125.997469
 21
243.591894
 31
0.0
  0
LINE
  8
LC-001-002-----0
  6
CONTINUOUS
  5
94
 10
125.997469
 20
243.591894
 30
0.0
 11
118.697469
 21
243.591894
 31
0.0
  0
LINE
  8
LC-001-002-----0
  6
CONTINUOUS
  5
95
 10
125.997469
 20
250.891894
 30
0.0
 11
118.697469
 21
250.891894
 31
0.0
  0
LINE
  8
LC-001-002-----0
  6
CONTINUOUS
  5
96
 10
86.097469
 20
250.891894
 30
0.0
 11
86.097469
 21
243.591894
 31
0.0
  0
LINE
  8
LC-001-002-----0
  6
CONTINUOUS
  5
97
 10
78.797469
 20
250.891894
 30
0.0
 11
78.797469
 21
243.591894
 31
0.0
  0
LINE
  8
LC-001-002-----0
  6
CONTINUOUS
  5
98
 10
78.797469
 20
243.591894
 30
0.0
 11
86.097469
 21
243.591894
 31
0.0
  0
LINE
  8
LC-001-002-----0
  6
CONTINUOUS
  5
99
 10
78.797469
 20
250.891894
 30
0.0
 11
86.097469
 21
250.891894
 31
0.0
  0
LINE
  8
LC-001-002-----0
  6
CONTINUOUS
  5
9A
 10
99.397469
 20
177.091894
 30
0.0
 11
99.397469
 21
184.391894
 31
0.0
  0
LINE
  8
LC-001-002-----0
  6
CONTINUOUS
  5
9B
 10
92.097469
 20
177.091894
 30
0.0
 11
92.097469
 21
184.391894
 31
0.0
  0
LINE
  8
LC-001-002-----0
  6
CONTINUOUS
  5
9C
 10
92.097469
 20
184.391894
 30
0.0
 11
99.397469
 21
184.391894
 31
0.0
  0
LINE
  8
LC-001-002-----0
  6
CONTINUOUS
  5
9D
 10
92.097469
 20
177.091894
 30
0.0
 11
99.397469
 21
177.091894
 31
0.0
  0
LINE
  8
LC-001-002-----0
  6
CONTINUOUS
  5
9E
 10
112.697469
 20
184.391894
 30
0.0
 11
105.397469
 21
184.391894
 31
0.0
  0
LINE
  8
LC-001-002-----0
  6
CONTINUOUS
  5
9F
 10
112.697469
 20
177.091894
 30
0.0
 11
105.397469
 21
177.091894
 31
0.0
  0
LINE
  8
LC-001-002-----0
  6
CONTINUOUS
  5
A0
 10
105.397469
 20
177.091894
 30
0.0
 11
105.397469
 21
184.391894
 31
0.0
  0
LINE
  8
LC-001-002-----0
  6
CONTINUOUS
  5
A1
 10
112.697469
 20
177.091894
 30
0.0
 11
112.697469
 21
184.391894
 31
0.0
  0
LINE
  8
LC-001-002-----0
  6
CONTINUOUS
  5
A2
 10
118.697469
 20
177.091894
 30
0.0
 11
118.697469
 21
184.391894
 31
0.0
  0
LINE
  8
LC-001-002-----0
  6
CONTINUOUS
  5
A3
 10
125.997469
 20
177.091894
 30
0.0
 11
125.997469
 21
184.391894
 31
0.0
  0
LINE
  8
LC-001-002-----0
  6
CONTINUOUS
  5
A4
 10
125.997469
 20
184.391894
 30
0.0
 11
118.697469
 21
184.391894
 31
0.0
  0
LINE
  8
LC-001-002-----0
  6
CONTINUOUS
  5
A5
 10
125.997469
 20
177.091894
 30
0.0
 11
118.697469
 21
177.091894
 31
0.0
  0
LINE
  8
LC-001-002-----0
  6
CONTINUOUS
  5
A6
 10
86.097469
 20
177.091894
 30
0.0
 11
86.097469
 21
184.391894
 31
0.0
  0
LINE
  8
LC-001-002-----0
  6
CONTINUOUS
  5
A7
 10
78.797469
 20
177.091894
 30
0.0
 11
78.797469
 21
184.391894
 31
0.0
  0
LINE
  8
LC-001-002-----0
  6
CONTINUOUS
  5
A8
 10
78.797469
 20
184.391894
 30
0.0
 11
86.097469
 21
184.391894
 31
0.0
  0
LINE
  8
LC-001-002-----0
  6
CONTINUOUS
  5
A9
 10
78.797469
 20
177.091894
 30
0.0
 11
86.097469
 21
177.091894
 31
0.0
  0
LINE
  8
LC-001-002-----0
  6
CONTINUOUS
  5
AA
 10
65.497469
 20
216.991894
 30
0.0
 11
72.797469
 21
216.991894
 31
0.0
  0
LINE
  8
LC-001-002-----0
  6
CONTINUOUS
  5
AB
 10
65.497469
 20
224.291894
 30
0.0
 11
72.797469
 21
224.291894
 31
0.0
  0
LINE
  8
LC-001-002-----0
  6
CONTINUOUS
  5
AC
 10
72.797469
 20
224.291894
 30
0.0
 11
72.797469
 21
216.991894
 31
0.0
  0
LINE
  8
LC-001-002-----0
  6
CONTINUOUS
  5
AD
 10
65.497469
 20
224.291894
 30
0.0
 11
65.497469
 21
216.991894
 31
0.0
  0
LINE
  8
LC-001-002-----0
  6
CONTINUOUS
  5
AE
 10
72.797469
 20
203.691894
 30
0.0
 11
72.797469
 21
210.991894
 31
0.0
  0
LINE
  8
LC-001-002-----0
  6
CONTINUOUS
  5
AF
 10
65.497469
 20
203.691894
 30
0.0
 11
65.497469
 21
210.991894
 31
0.0
  0
LINE
  8
LC-001-002-----0
  6
CONTINUOUS
  5
B0
 10
65.497469
 20
210.991894
 30
0.0
 11
72.797469
 21
210.991894
 31
0.0
  0
LINE
  8
LC-001-002-----0
  6
CONTINUOUS
  5
B1
 10
65.497469
 20
203.691894
 30
0.0
 11
72.797469
 21
203.691894
 31
0.0
  0
LINE
  8
LC-001-002-----0
  6
CONTINUOUS
  5
B2
 10
72.797469
 20
237.591894
 30
0.0
 11
72.797469
 21
230.291894
 31
0.0
  0
LINE
  8
LC-001-002-----0
  6
CONTINUOUS
  5
B3
 10
65.497469
 20
237.591894
 30
0.0
 11
65.497469
 21
230.291894
 31
0.0
  0
LINE
  8
LC-001-002-----0
  6
CONTINUOUS
  5
B4
 10
65.497469
 20
230.291894
 30
0.0
 11
72.797469
 21
230.291894
 31
0.0
  0
LINE
  8
LC-001-002-----0
  6
CONTINUOUS
  5
B5
 10
65.497469
 20
237.591894
 30
0.0
 11
72.797469
 21
237.591894
 31
0.0
  0
LINE
  8
LC-001-002-----0
  6
CONTINUOUS
  5
B6
 10
72.797469
 20
190.391894
 30
0.0
 11
72.797469
 21
197.691894
 31
0.0
  0
LINE
  8
LC-001-002-----0
  6
CONTINUOUS
  5
B7
 10
65.497469
 20
190.391894
 30
0.0
 11
65.497469
 21
197.691894
 31
0.0
  0
LINE
  8
LC-001-002-----0
  6
CONTINUOUS
  5
B8
 10
65.497469
 20
197.691894
 30
0.0
 11
72.797469
 21
197.691894
 31
0.0
  0
LINE
  8
LC-001-002-----0
  6
CONTINUOUS
  5
B9
 10
65.497469
 20
190.391894
 30
0.0
 11
72.797469
 21
190.391894
 31
0.0
  0
LINE
  8
LC-001-002-----0
  6
CONTINUOUS
  5
BA
 10
72.797469
 20
250.891894
 30
0.0
 11
72.797469
 21
243.591894
 31
0.0
  0
LINE
  8
LC-001-002-----0
  6
CONTINUOUS
  5
BB
 10
65.497469
 20
250.891894
 30
0.0
 11
65.497469
 21
243.591894
 31
0.0
  0
LINE
  8
LC-001-002-----0
  6
CONTINUOUS
  5
BC
 10
65.497469
 20
243.591894
 30
0.0
 11
72.797469
 21
243.591894
 31
0.0
  0
LINE
  8
LC-001-002-----0
  6
CONTINUOUS
  5
BD
 10
65.497469
 20
250.891894
 30
0.0
 11
72.797469
 21
250.891894
 31
0.0
  0
LINE
  8
LC-001-002-----0
  6
CONTINUOUS
  5
BE
 10
72.797469
 20
177.091894
 30
0.0
 11
72.797469
 21
184.391894
 31
0.0
  0
LINE
  8
LC-001-002-----0
  6
CONTINUOUS
  5
BF
 10
65.497469
 20
177.091894
 30
0.0
 11
65.497469
 21
184.391894
 31
0.0
  0
LINE
  8
LC-001-002-----0
  6
CONTINUOUS
  5
C0
 10
65.497469
 20
184.391894
 30
0.0
 11
72.797469
 21
184.391894
 31
0.0
  0
LINE
  8
LC-001-002-----0
  6
CONTINUOUS
  5
C1
 10
65.497469
 20
177.091894
 30
0.0
 11
72.797469
 21
177.091894
 31
0.0
  0
LINE
  8
LC-001-002-----0
  6
CONTINUOUS
  5
C2
 10
139.297469
 20
216.991894
 30
0.0
 11
131.997469
 21
216.991894
 31
0.0
  0
LINE
  8
LC-001-002-----0
  6
CONTINUOUS
  5
C3
 10
139.297469
 20
224.291894
 30
0.0
 11
131.997469
 21
224.291894
 31
0.0
  0
LINE
  8
LC-001-002-----0
  6
CONTINUOUS
  5
C4
 10
131.997469
 20
224.291894
 30
0.0
 11
131.997469
 21
216.991894
 31
0.0
  0
LINE
  8
LC-001-002-----0
  6
CONTINUOUS
  5
C5
 10
139.297469
 20
224.291894
 30
0.0
 11
139.297469
 21
216.991894
 31
0.0
  0
LINE
  8
LC-001-002-----0
  6
CONTINUOUS
  5
C6
 10
131.997469
 20
203.691894
 30
0.0
 11
131.997469
 21
210.991894
 31
0.0
  0
LINE
  8
LC-001-002-----0
  6
CONTINUOUS
  5
C7
 10
139.297469
 20
203.691894
 30
0.0
 11
139.297469
 21
210.991894
 31
0.0
  0
LINE
  8
LC-001-002-----0
  6
CONTINUOUS
  5
C8
 10
139.297469
 20
210.991894
 30
0.0
 11
131.997469
 21
210.991894
 31
0.0
  0
LINE
  8
LC-001-002-----0
  6
CONTINUOUS
  5
C9
 10
139.297469
 20
203.691894
 30
0.0
 11
131.997469
 21
203.691894
 31
0.0
  0
LINE
  8
LC-001-002-----0
  6
CONTINUOUS
  5
CA
 10
131.997469
 20
237.591894
 30
0.0
 11
131.997469
 21
230.291894
 31
0.0
  0
LINE
  8
LC-001-002-----0
  6
CONTINUOUS
  5
CB
 10
139.297469
 20
237.591894
 30
0.0
 11
139.297469
 21
230.291894
 31
0.0
  0
LINE
  8
LC-001-002-----0
  6
CONTINUOUS
  5
CC
 10
139.297469
 20
230.291894
 30
0.0
 11
131.997469
 21
230.291894
 31
0.0
  0
LINE
  8
LC-001-002-----0
  6
CONTINUOUS
  5
CD
 10
139.297469
 20
237.591894
 30
0.0
 11
131.997469
 21
237.591894
 31
0.0
  0
LINE
  8
LC-001-002-----0
  6
CONTINUOUS
  5
CE
 10
131.997469
 20
190.391894
 30
0.0
 11
131.997469
 21
197.691894
 31
0.0
  0
LINE
  8
LC-001-002-----0
  6
CONTINUOUS
  5
CF
 10
139.297469
 20
190.391894
 30
0.0
 11
139.297469
 21
197.691894
 31
0.0
  0
LINE
  8
LC-001-002-----0
  6
CONTINUOUS
  5
D0
 10
139.297469
 20
197.691894
 30
0.0
 11
131.997469
 21
197.691894
 31
0.0
  0
LINE
  8
LC-001-002-----0
  6
CONTINUOUS
  5
D1
 10
139.297469
 20
190.391894
 30
0.0
 11
131.997469
 21
190.391894
 31
0.0
  0
LINE
  8
LC-001-002-----0
  6
CONTINUOUS
  5
D2
 10
131.997469
 20
250.891894
 30
0.0
 11
131.997469
 21
243.591894
 31
0.0
  0
LINE
  8
LC-001-002-----0
  6
CONTINUOUS
  5
D3
 10
139.297469
 20
250.891894
 30
0.0
 11
139.297469
 21
243.591894
 31
0.0
  0
LINE
  8
LC-001-002-----0
  6
CONTINUOUS
  5
D4
 10
139.297469
 20
243.591894
 30
0.0
 11
131.997469
 21
243.591894
 31
0.0
  0
LINE
  8
LC-001-002-----0
  6
CONTINUOUS
  5
D5
 10
139.297469
 20
250.891894
 30
0.0
 11
131.997469
 21
250.891894
 31
0.0
  0
LINE
  8
LC-001-002-----0
  6
CONTINUOUS
  5
D6
 10
131.997469
 20
177.091894
 30
0.0
 11
131.997469
 21
184.391894
 31
0.0
  0
LINE
  8
LC-001-002-----0
  6
CONTINUOUS
  5
D7
 10
139.297469
 20
177.091894
 30
0.0
 11
139.297469
 21
184.391894
 31
0.0
  0
LINE
  8
LC-001-002-----0
  6
CONTINUOUS
  5
D8
 10
139.297469
 20
184.391894
 30
0.0
 11
131.997469
 21
184.391894
 31
0.0
  0
LINE
  8
LC-001-002-----0
  6
CONTINUOUS
  5
D9
 10
139.297469
 20
177.091894
 30
0.0
 11
131.997469
 21
177.091894
 31
0.0
  0
ARC
  8
LC-003-002-RND-0
  6
CONTINUOUS
  5
DB
 10
47.897469
 20
268.491894
 30
0.0
 40
3.0
 50
90.0
 51
180.0
  0
ARC
  8
LC-003-002-RND-0
  6
CONTINUOUS
  5
DC
 10
156.897469
 20
268.491894
 30
0.0
 40
3.0
 50
0.0
 51
90.0
  0
ARC
  8
LC-003-002-RND-0
  6
CONTINUOUS
  5
DD
 10
156.897469
 20
159.491894
 30
0.0
 40
3.0
 50
270.0
 51
0.0
  0
ARC
  8
LC-003-002-RND-0
  6
CONTINUOUS
  5
DE
 10
47.897469
 20
159.491894
 30
0.0
 40
3.0
 50
180.0
 51
270.0
  0
LINE
  8
LC-001-002-----0
  6
CONTINUOUS
 62
     2
  5
DF
 10
78.915371
 20
305.676
 30
0.0
 11
63.915371
 21
305.676
 31
0.0
  0
LINE
  8
LC-001-002-----0
  6
CONTINUOUS
 62
     2
  5
E0
 10
78.915371
 20
320.676
 30
0.0
 11
63.915371
 21
320.676
 31
0.0
  0
LINE
  8
LC-001-002-----0
  6
CONTINUOUS
 62
     2
  5
E1
 10
78.915371
 20
305.676
 30
0.0
 11
78.915371
 21
320.676
 31
0.0
  0
LINE
  8
LC-001-002-----0
  6
CONTINUOUS
 62
     2
  5
E2
 10
63.915371
 20
305.676
 30
0.0
 11
63.915371
 21
320.676
 31
0.0
  0
ENDSEC
  0
EOF
