  0
SECTION
  2
HEADER
  9
$ACADVER
  1
AC1015
  9
$ACADMAINTVER
 70
     6
  9
$DWGCODEPAGE
  3
ANSI_1252
  9
$INSBASE
 10
0.0
 20
0.0
 30
0.0
  9
$EXTMIN
 10
-271.75
 20
-87.358416
 30
0.0
  9
$EXTMAX
 10
568.25
 20
506.641584
 30
0.0
  9
$LIMMIN
 10
-271.75
 20
-87.358416
  9
$LIMMAX
 10
568.25
 20
506.641584
  9
$ORTHOMODE
 70
     0
  9
$REGENMODE
 70
     1
  9
$FILLMODE
 70
     1
  9
$QTEXTMODE
 70
     0
  9
$MIRRTEXT
 70
     1
  9
$LTSCALE
 40
2.0
  9
$ATTMODE
 70
     1
  9
$TEXTSIZE
 40
2.5
  9
$TRACEWID
 40
1.0
  9
$TEXTSTYLE
  7
Standard
  9
$CLAYER
  8
0
  9
$CELTYPE
  6
ByLayer
  9
$CECOLOR
 62
     7
  9
$CELTSCALE
 40
1.0
  9
$DISPSILH
 70
     0
  9
$DIMSCALE
 40
2.0
  9
$DIMASZ
 40
3.5
  9
$DIMEXO
 40
0.625
  9
$DIMDLI
 40
3.75
  9
$DIMRND
 40
0.0
  9
$DIMDLE
 40
0.0
  9
$DIMEXE
 40
1.25
  9
$DIMTP
 40
0.0
  9
$DIMTM
 40
0.0
  9
$DIMTXT
 40
3.5
  9
$DIMCEN
 40
2.5
  9
$DIMTSZ
 40
0.0
  9
$DIMTOL
 70
     0
  9
$DIMLIM
 70
     0
  9
$DIMTIH
 70
     0
  9
$DIMTOH
 70
     0
  9
$DIMSE1
 70
     0
  9
$DIMSE2
 70
     0
  9
$DIMTAD
 70
     1
  9
$DIMZIN
 70
     8
  9
$DIMBLK
  1

  9
$DIMASO
 70
     1
  9
$DIMSHO
 70
     1
  9
$DIMPOST
  1

  9
$DIMAPOST
  1

  9
$DIMALT
 70
     0
  9
$DIMALTD
 70
     3
  9
$DIMALTF
 40
0.03937
  9
$DIMLFAC
 40
1.0
  9
$DIMTOFL
 70
     1
  9
$DIMTVP
 40
0.0
  9
$DIMTIX
 70
     0
  9
$DIMSOXD
 70
     0
  9
$DIMSAH
 70
     0
  9
$DIMBLK1
  1

  9
$DIMBLK2
  1

  9
$DIMSTYLE
  2
ISO-25
  9
$DIMCLRD
 70
     0
  9
$DIMCLRE
 70
     0
  9
$DIMCLRT
 70
     0
  9
$DIMTFAC
 40
1.0
  9
$DIMGAP
 40
0.625
  9
$DIMJUST
 70
     0
  9
$DIMSD1
 70
     0
  9
$DIMSD2
 70
     0
  9
$DIMTOLJ
 70
     0
  9
$DIMTZIN
 70
     8
  9
$DIMALTZ
 70
     0
  9
$DIMALTTZ
 70
     0
  9
$DIMUPT
 70
     0
  9
$DIMDEC
 70
     2
  9
$DIMTDEC
 70
     2
  9
$DIMALTU
 70
     2
  9
$DIMALTTD
 70
     3
  9
$DIMTXSTY
  7
Standard
  9
$DIMAUNIT
 70
     0
  9
$DIMADEC
 70
     0
  9
$DIMALTRND
 40
0.0
  9
$DIMAZIN
 70
     0
  9
$DIMDSEP
 70
    44
  9
$DIMATFIT
 70
     3
  9
$DIMFRAC
 70
     0
  9
$DIMLDRBLK
  1

  9
$DIMLUNIT
 70
     2
  9
$DIMLWD
 70
    -2
  9
$DIMLWE
 70
    -2
  9
$DIMTMOVE
 70
     0
  9
$LUNITS
 70
     2
  9
$LUPREC
 70
     4
  9
$SKETCHINC
 40
1.0
  9
$FILLETRAD
 40
10.0
  9
$AUNITS
 70
     0
  9
$AUPREC
 70
     0
  9
$MENU
  1
.
  9
$ELEVATION
 40
0.0
  9
$PELEVATION
 40
0.0
  9
$THICKNESS
 40
0.0
  9
$LIMCHECK
 70
     0
  9
$CHAMFERA
 40
10.0
  9
$CHAMFERB
 40
10.0
  9
$CHAMFERC
 40
20.0
  9
$CHAMFERD
 40
0.0
  9
$SKPOLY
 70
     0
  9
$TDCREATE
 40
2456014.236106019
  9
$TDUCREATE
 40
2456014.152772685
  9
$TDUPDATE
 40
2456014.23610603
  9
$TDUUPDATE
 40
2456014.152772697
  9
$TDINDWG
 40
0.0000000116
  9
$TDUSRTIMER
 40
0.0000000116
  9
$USRTIMER
 70
     1
  9
$ANGBASE
 50
0.0
  9
$ANGDIR
 70
     0
  9
$PDMODE
 70
     0
  9
$PDSIZE
 40
0.0
  9
$PLINEWID
 40
0.0
  9
$SPLFRAME
 70
     0
  9
$SPLINETYPE
 70
     6
  9
$SPLINESEGS
 70
     8
  9
$HANDSEED
  5
1C3
  9
$SURFTAB1
 70
     6
  9
$SURFTAB2
 70
     6
  9
$SURFTYPE
 70
     6
  9
$SURFU
 70
     6
  9
$SURFV
 70
     6
  9
$UCSBASE
  2

  9
$UCSNAME
  2

  9
$UCSORG
 10
0.0
 20
0.0
 30
0.0
  9
$UCSXDIR
 10
1.0
 20
0.0
 30
0.0
  9
$UCSYDIR
 10
0.0
 20
1.0
 30
0.0
  9
$UCSORTHOREF
  2

  9
$UCSORTHOVIEW
 70
     0
  9
$UCSORGTOP
 10
0.0
 20
0.0
 30
0.0
  9
$UCSORGBOTTOM
 10
0.0
 20
0.0
 30
0.0
  9
$UCSORGLEFT
 10
0.0
 20
0.0
 30
0.0
  9
$UCSORGRIGHT
 10
0.0
 20
0.0
 30
0.0
  9
$UCSORGFRONT
 10
0.0
 20
0.0
 30
0.0
  9
$UCSORGBACK
 10
0.0
 20
0.0
 30
0.0
  9
$PUCSBASE
  2

  9
$PUCSNAME
  2

  9
$PUCSORG
 10
0.0
 20
0.0
 30
0.0
  9
$PUCSXDIR
 10
1.0
 20
0.0
 30
0.0
  9
$PUCSYDIR
 10
0.0
 20
1.0
 30
0.0
  9
$PUCSORTHOREF
  2

  9
$PUCSORTHOVIEW
 70
     0
  9
$PUCSORGTOP
 10
0.0
 20
0.0
 30
0.0
  9
$PUCSORGBOTTOM
 10
0.0
 20
0.0
 30
0.0
  9
$PUCSORGLEFT
 10
0.0
 20
0.0
 30
0.0
  9
$PUCSORGRIGHT
 10
0.0
 20
0.0
 30
0.0
  9
$PUCSORGFRONT
 10
0.0
 20
0.0
 30
0.0
  9
$PUCSORGBACK
 10
0.0
 20
0.0
 30
0.0
  9
$USERI1
 70
     0
  9
$USERI2
 70
     0
  9
$USERI3
 70
     0
  9
$USERI4
 70
     0
  9
$USERI5
 70
     0
  9
$USERR1
 40
0.0
  9
$USERR2
 40
0.0
  9
$USERR3
 40
0.0
  9
$USERR4
 40
0.0
  9
$USERR5
 40
0.0
  9
$WORLDVIEW
 70
     1
  9
$SHADEDGE
 70
     3
  9
$SHADEDIF
 70
    70
  9
$TILEMODE
 70
     1
  9
$MAXACTVP
 70
    64
  9
$PINSBASE
 10
0.0
 20
0.0
 30
0.0
  9
$PLIMCHECK
 70
     0
  9
$PEXTMIN
 10
-271.75
 20
-87.358416
 30
0.0
  9
$PEXTMAX
 10
568.25
 20
506.641584
 30
0.0
  9
$PLIMMIN
 10
-271.75
 20
-87.358416
  9
$PLIMMAX
 10
568.25
 20
506.641584
  9
$UNITMODE
 70
     0
  9
$VISRETAIN
 70
     1
  9
$PLINEGEN
 70
     0
  9
$PSLTSCALE
 70
     1
  9
$TREEDEPTH
 70
  3020
  9
$CMLSTYLE
  2
Standard
  9
$CMLJUST
 70
     0
  9
$CMLSCALE
 40
20.0
  9
$PROXYGRAPHICS
 70
     1
  9
$MEASUREMENT
 70
     1
  9
$CELWEIGHT
370
    -1
  9
$ENDCAPS
280
     0
  9
$JOINSTYLE
280
     0
  9
$LWDISPLAY
290
     0
  9
$INSUNITS
 70
     4
  9
$HYPERLINKBASE
  1

  9
$STYLESHEET
  1

  9
$XEDIT
290
     1
  9
$CEPSNTYPE
380
     0
  9
$PSTYLEMODE
290
     1
  9
$FINGERPRINTGUID
  2
{FAEB1C30-E019-11D5-929B-00C0DF256EC4}
  9
$VERSIONGUID
  2
{FAEB1C32-E019-11D5-929B-00C0DF256EC4}
  9
$EXTNAMES
290
     1
  9
$PSVPSCALE
 40
0.0
  9
$OLESTARTUP
290
     0
  0
ENDSEC
  0
SECTION
  2
CLASSES
  0
CLASS
  1
ACDBDICTIONARYWDFLT
  2
AcDbDictionaryWithDefault
  3
ObjectDBX Classes
 90
        0
280
     0
281
     0
  0
CLASS
  1
ACDBPLACEHOLDER
  2
AcDbPlaceHolder
  3
ObjectDBX Classes
 90
        0
280
     0
281
     0
  0
CLASS
  1
LAYOUT
  2
AcDbLayout
  3
ObjectDBX Classes
 90
        0
280
     0
281
     0
  0
ENDSEC
  0
SECTION
  2
TABLES
  0
TABLE
  2
VPORT
  5
8
330
0
100
AcDbSymbolTable
 70
     2
  0
VPORT
  5
29
330
8
100
AcDbSymbolTableRecord
100
AcDbViewportTableRecord
  2
*ACTIVE
 70
     0
 10
0.0
 20
0.0
 11
1.0
 21
1.0
 12
148.25
 22
209.641584
 13
0.0
 23
0.0
 14
1.0
 24
1.0
 15
0.0
 25
0.0
 16
0.0
 26
0.0
 36
1.0
 17
0.0
 27
0.0
 37
0.0
 40
594.0
 41
1.414141
 42
50.0
 43
0.0
 44
0.0
 50
0.0
 51
0.0
 71
    16
 72
   100
 73
     1
 74
     0
 75
     0
 76
     0
 77
     0
 78
     0
281
     0
 65
     0
110
0.0
120
0.0
130
0.0
111
1.0
121
0.0
131
0.0
112
0.0
122
1.0
132
0.0
 79
     0
146
0.0
  0
ENDTAB
  0
TABLE
  2
LTYPE
  5
5
330
0
100
AcDbSymbolTable
 70
     3
  0
LTYPE
  5
14
330
5
100
AcDbSymbolTableRecord
100
AcDbLinetypeTableRecord
  2
ByBlock
 70
     0
  3

 72
    65
 73
     0
 40
0.0
  0
LTYPE
  5
15
330
5
100
AcDbSymbolTableRecord
100
AcDbLinetypeTableRecord
  2
ByLayer
 70
     0
  3

 72
    65
 73
     0
 40
0.0
  0
LTYPE
  5
16
330
5
100
AcDbSymbolTableRecord
100
AcDbLinetypeTableRecord
  2
Continuous
 70
     0
  3
Solid line
 72
    65
 73
     0
 40
0.0
  0
LTYPE
  5
2A
330
5
100
AcDbSymbolTableRecord
100
AcDbLinetypeTableRecord
  2
DASHED
 70
     0
  3
__ __ __ __ __
 72
    65
 73
     2
 40
6.25
 49
5.0
 74
     4
 75
     0
340
0
 46
1.0
 50
0.0
 44
0.0
 45
0.0
 49
-1.25
 74
     4
 75
     0
340
0
 46
1.0
 50
0.0
 44
0.0
 45
0.0
  0
LTYPE
  5
1B3
330
5
100
AcDbSymbolTableRecord
100
AcDbLinetypeTableRecord
  2
DASHDOT
 70
     0
  3
__ . __ . __ . __ . __
 72
    65
 73
     4
 40
7.5
 49
5.0
 74
     4
 75
     0
340
0
 46
1.0
 50
0.0
 44
0.0
 45
0.0
 49
-1.25
 74
     4
 75
     0
340
0
 46
1.0
 50
0.0
 44
0.0
 45
0.0
 49
0.0
 74
     4
 75
     0
340
0
 46
1.0
 50
0.0
 44
0.0
 45
0.0
 49
-1.25
 74
     4
 75
     0
340
0
 46
1.0
 50
0.0
 44
0.0
 45
0.0
  0
ENDTAB
  0
TABLE
  2
LAYER
  5
2
330
0
100
AcDbSymbolTable
 70
     9
  0
LAYER
  5
10
330
2
100
AcDbSymbolTableRecord
100
AcDbLayerTableRecord
  2
0
 70
     0
 62
     7
  6
Continuous
370
    -3
390
F
  0
LAYER
  5
2B
330
2
100
AcDbSymbolTableRecord
100
AcDbLayerTableRecord
  2
LC-INFO-1-2-mm-A3-0
 70
     1
 62
     7
  6
ByBlock
370
    -3
390
F
  0
LAYER
  5
2C
330
2
100
AcDbSymbolTableRecord
100
AcDbLayerTableRecord
  2
LC-CUT-HIDDEN
 70
     0
 62
     7
  6
DASHED
370
    -3
390
F
  0
LAYER
  5
2D
330
2
100
AcDbSymbolTableRecord
100
AcDbLayerTableRecord
  2
LC-VIEWPORT
 70
     0
 62
     7
  6
ByBlock
370
    -3
390
F
  0
LAYER
  5
2E
330
2
100
AcDbSymbolTableRecord
100
AcDbLayerTableRecord
  2
LC-3D-HIDDEN
 70
     0
 62
     9
  6
DASHED
370
    -3
390
F
  0
LAYER
  5
30
330
2
100
AcDbSymbolTableRecord
100
AcDbLayerTableRecord
  2
LC-001-100-D00-0
 70
     0
 62
     1
  6
ByBlock
370
    -3
390
F
  0
LAYER
  5
194
330
2
100
AcDbSymbolTableRecord
100
AcDbLayerTableRecord
  2
LC-002-003-----0
 70
     0
 62
     2
  6
ByBlock
370
    -3
390
F
  0
LAYER
  5
196
330
2
100
AcDbSymbolTableRecord
100
AcDbLayerTableRecord
  2
Defpoints
 70
     0
 62
     7
  6
Continuous
290
     0
370
    -3
390
F
  0
LAYER
  5
1B4
330
2
100
AcDbSymbolTableRecord
100
AcDbLayerTableRecord
  2
LC-003-105-D00-0
 70
     0
 62
     2
  6
DASHDOT
370
    -3
390
F
  0
ENDTAB
  0
TABLE
  2
STYLE
  5
3
330
0
100
AcDbSymbolTable
 70
     3
  0
STYLE
  5
11
330
3
100
AcDbSymbolTableRecord
100
AcDbTextStyleTableRecord
  2
Standard
 70
     0
 40
0.0
 41
1.0
 50
0.0
 71
     0
 42
2.5
  3
txt
  4

  0
STYLE
  5
2F
330
3
100
AcDbSymbolTableRecord
100
AcDbTextStyleTableRecord
  2
LCTX15-400-0-0-Arial
 70
     0
 40
0.0
 41
0.8
 50
0.0
 71
     0
 42
3.5
  3

  4

1001
ACAD
1000
Arial
1071
 16777218
  0
STYLE
  5
192
330
3
100
AcDbSymbolTableRecord
100
AcDbTextStyleTableRecord
  2
LCTX15-400-0-0pDIN-Schrift
 70
     0
 40
2.5
 41
0.8
 50
15.0
 71
     0
 42
3.5
  3
STANDARD
  4

  0
ENDTAB
  0
TABLE
  2
VIEW
  5
6
330
0
100
AcDbSymbolTable
 70
     0
  0
ENDTAB
  0
TABLE
  2
UCS
  5
7
330
0
100
AcDbSymbolTable
 70
     0
  0
ENDTAB
  0
TABLE
  2
APPID
  5
9
330
0
100
AcDbSymbolTable
 70
     1
  0
APPID
  5
12
330
9
100
AcDbSymbolTableRecord
100
AcDbRegAppTableRecord
  2
ACAD
 70
     0
  0
ENDTAB
  0
TABLE
  2
DIMSTYLE
  5
A
330
0
100
AcDbSymbolTable
 70
     2
100
AcDbDimStyleTable
  0
DIMSTYLE
105
27
330
A
100
AcDbSymbolTableRecord
100
AcDbDimStyleTableRecord
  2
ISO-25
 70
     0
 41
2.5
 42
0.625
 43
3.75
 44
1.25
 73
     0
 74
     0
 77
     1
 78
     8
140
2.5
141
2.5
143
0.03937
147
0.625
171
     3
172
     1
271
     2
272
     2
274
     3
278
    44
283
     0
284
     8
340
11
  0
DIMSTYLE
105
193
102
{ACAD_REACTORS
330
195
330
1A4
330
1B6
102
}
330
A
100
AcDbSymbolTableRecord
100
AcDbDimStyleTableRecord
  2
LC-DIM-L-0140-02-02
 70
     0
 40
2.0
 41
14.0
 42
0.0
 43
7.5
 44
1.8
 73
     0
 74
     0
 77
     1
 78
     8
 79
     2
140
14.0
141
0.0
146
0.71
147
1.5
176
     2
177
     2
178
     2
179
     2
271
     2
278
    44
289
     1
340
192
  0
ENDTAB
  0
TABLE
  2
BLOCK_RECORD
  5
1
330
0
100
AcDbSymbolTable
 70
    14
  0
BLOCK_RECORD
  5
1F
330
1
100
AcDbSymbolTableRecord
100
AcDbBlockTableRecord
  2
*Model_Space
340
22
  0
BLOCK_RECORD
  5
1B
330
1
100
AcDbSymbolTableRecord
100
AcDbBlockTableRecord
  2
*Paper_Space
340
1E
  0
BLOCK_RECORD
  5
23
330
1
100
AcDbSymbolTableRecord
100
AcDbBlockTableRecord
  2
*Paper_Space0
340
26
  0
BLOCK_RECORD
  5
64
330
1
100
AcDbSymbolTableRecord
100
AcDbBlockTableRecord
  2
POLY1
340
0
102
{BLKREFS
331
73
102
}
  0
BLOCK_RECORD
  5
76
330
1
100
AcDbSymbolTableRecord
100
AcDbBlockTableRecord
  2
POLY2
340
0
102
{BLKREFS
331
83
102
}
  0
BLOCK_RECORD
  5
84
330
1
100
AcDbSymbolTableRecord
100
AcDbBlockTableRecord
  2
POLY3
340
0
102
{BLKREFS
331
91
102
}
  0
BLOCK_RECORD
  5
114
330
1
100
AcDbSymbolTableRecord
100
AcDbBlockTableRecord
  2
POLY4
340
0
102
{BLKREFS
331
121
102
}
  0
BLOCK_RECORD
  5
122
330
1
100
AcDbSymbolTableRecord
100
AcDbBlockTableRecord
  2
POLY5
340
0
102
{BLKREFS
331
135
102
}
  0
BLOCK_RECORD
  5
136
330
1
100
AcDbSymbolTableRecord
100
AcDbBlockTableRecord
  2
POLY6
340
0
102
{BLKREFS
331
145
102
}
  0
BLOCK_RECORD
  5
155
330
1
100
AcDbSymbolTableRecord
100
AcDbBlockTableRecord
  2
KLON1
340
0
102
{BLKREFS
331
164
102
}
  0
BLOCK_RECORD
  5
165
330
1
100
AcDbSymbolTableRecord
100
AcDbBlockTableRecord
  2
KLON2
340
0
102
{BLKREFS
331
175
102
}
  0
BLOCK_RECORD
  5
176
330
1
100
AcDbSymbolTableRecord
100
AcDbBlockTableRecord
  2
KLON3
340
0
102
{BLKREFS
331
184
102
}
  0
BLOCK_RECORD
  5
185
330
1
100
AcDbSymbolTableRecord
100
AcDbBlockTableRecord
  2
KLON4
340
0
102
{BLKREFS
331
191
102
}
  0
BLOCK_RECORD
  5
197
330
1
100
AcDbSymbolTableRecord
100
AcDbBlockTableRecord
  2
*D11
340
0
  0
BLOCK_RECORD
  5
1A5
330
1
100
AcDbSymbolTableRecord
100
AcDbBlockTableRecord
  2
*D12
340
0
  0
BLOCK_RECORD
  5
1B7
330
1
100
AcDbSymbolTableRecord
100
AcDbBlockTableRecord
  2
*D13
340
0
  0
ENDTAB
  0
ENDSEC
  0
SECTION
  2
BLOCKS
  0
BLOCK
  5
20
330
1F
100
AcDbEntity
  8
0
100
AcDbBlockBegin
  2
*Model_Space
 70
     0
 71
     0
 10
0.0
 20
0.0
 30
0.0
  3
*Model_Space
  1

  0
ENDBLK
  5
21
330
1F
100
AcDbEntity
  8
0
100
AcDbBlockEnd
  0
BLOCK
  5
1C
330
1B
100
AcDbEntity
 67
     1
  8
0
100
AcDbBlockBegin
  2
*Paper_Space
 70
     0
 71
     0
 10
0.0
 20
0.0
 30
0.0
  3
*Paper_Space
  1

  0
ENDBLK
  5
1D
330
1B
100
AcDbEntity
 67
     1
  8
0
100
AcDbBlockEnd
  0
BLOCK
  5
24
330
23
100
AcDbEntity
  8
0
100
AcDbBlockBegin
  2
*Paper_Space0
 70
     0
 71
     0
 10
0.0
 20
0.0
 30
0.0
  3
*Paper_Space0
  1

  0
ENDBLK
  5
25
330
23
100
AcDbEntity
  8
0
100
AcDbBlockEnd
  0
BLOCK
  5
65
330
64
100
AcDbEntity
  8
0
100
AcDbBlockBegin
  2
POLY1
 70
     0
 71
     0
 10
0.0
 20
0.0
 30
0.0
  3
POLY1
  1

  4
POLY1
  0
LINE
  5
67
330
64
100
AcDbEntity
  8
LC-001-100-D00-0
 62
     7
370
    50
100
AcDbLine
 10
98.06622
 20
264.165221
 30
0.0
 11
98.06622
 21
264.165221
 31
0.0
  0
LINE
  5
68
330
64
100
AcDbEntity
  8
LC-001-100-D00-0
 62
     7
370
    50
100
AcDbLine
 10
98.06622
 20
264.165221
 30
0.0
 11
97.271202
 21
264.173352
 31
0.0
  0
LINE
  5
69
330
64
100
AcDbEntity
  8
LC-001-100-D00-0
 62
     7
370
    50
100
AcDbLine
 10
97.271202
 20
264.173352
 30
0.0
 11
97.271202
 21
264.173352
 31
0.0
  0
LINE
  5
6A
330
64
100
AcDbEntity
  8
LC-001-100-D00-0
 62
     7
370
    50
100
AcDbLine
 10
97.271202
 20
264.173352
 30
0.0
 11
95.135652
 21
264.195192
 31
0.0
  0
LINE
  5
6B
330
64
100
AcDbEntity
  8
LC-001-100-D00-0
 62
     7
370
    50
100
AcDbLine
 10
95.135652
 20
264.195192
 30
0.0
 11
95.135652
 21
264.195192
 31
0.0
  0
LINE
  5
6C
330
64
100
AcDbEntity
  8
LC-001-100-D00-0
 62
     7
370
    50
100
AcDbLine
 10
95.135652
 20
264.195192
 30
0.0
 11
92.035726
 21
264.25507
 31
0.0
  0
LINE
  5
6D
330
64
100
AcDbEntity
  8
LC-001-100-D00-0
 62
     7
370
    50
100
AcDbLine
 10
92.035726
 20
264.25507
 30
0.0
 11
92.035726
 21
264.25507
 31
0.0
  0
LINE
  5
6E
330
64
100
AcDbEntity
  8
LC-001-100-D00-0
 62
     7
370
    50
100
AcDbLine
 10
92.035726
 20
264.25507
 30
0.0
 11
88.789288
 21
264.196844
 31
0.0
  0
LINE
  5
6F
330
64
100
AcDbEntity
  8
LC-001-100-D00-0
 62
     7
370
    50
100
AcDbLine
 10
88.789288
 20
264.196844
 30
0.0
 11
88.789288
 21
264.196844
 31
0.0
  0
LINE
  5
70
330
64
100
AcDbEntity
  8
LC-001-100-D00-0
 62
     7
370
    50
100
AcDbLine
 10
88.789288
 20
264.196844
 30
0.0
 11
86.904316
 21
264.175775
 31
0.0
  0
LINE
  5
71
330
64
100
AcDbEntity
  8
LC-001-100-D00-0
 62
     7
370
    50
100
AcDbLine
 10
86.904316
 20
264.175775
 30
0.0
 11
86.904316
 21
264.175775
 31
0.0
  0
LINE
  5
72
330
64
100
AcDbEntity
  8
LC-001-100-D00-0
 62
     7
370
    50
100
AcDbLine
 10
86.904316
 20
264.175775
 30
0.0
 11
85.960024
 21
264.165221
 31
0.0
  0
ENDBLK
  5
66
330
64
100
AcDbEntity
  8
0
100
AcDbBlockEnd
  0
BLOCK
  5
77
330
76
100
AcDbEntity
  8
0
100
AcDbBlockBegin
  2
POLY2
 70
     0
 71
     0
 10
0.0
 20
0.0
 30
0.0
  3
POLY2
  1

  4
POLY2
  0
LINE
  5
79
330
76
100
AcDbEntity
  8
LC-001-100-D00-0
 62
     7
370
    50
100
AcDbLine
 10
138.013123
 20
264.23385
 30
0.0
 11
138.013123
 21
264.23385
 31
0.0
  0
LINE
  5
7A
330
76
100
AcDbEntity
  8
LC-001-100-D00-0
 62
     7
370
    50
100
AcDbLine
 10
138.013123
 20
264.23385
 30
0.0
 11
138.012765
 21
264.233751
 31
0.0
  0
LINE
  5
7B
330
76
100
AcDbEntity
  8
LC-001-100-D00-0
 62
     7
370
    50
100
AcDbLine
 10
138.012765
 20
264.233751
 30
0.0
 11
138.012765
 21
264.233751
 31
0.0
  0
LINE
  5
7C
330
76
100
AcDbEntity
  8
LC-001-100-D00-0
 62
     7
370
    50
100
AcDbLine
 10
138.012765
 20
264.233751
 30
0.0
 11
138.009728
 21
264.232905
 31
0.0
  0
LINE
  5
7D
330
76
100
AcDbEntity
  8
LC-001-100-D00-0
 62
     7
370
    50
100
AcDbLine
 10
138.009728
 20
264.232905
 30
0.0
 11
138.009728
 21
264.232905
 31
0.0
  0
LINE
  5
7E
330
76
100
AcDbEntity
  8
LC-001-100-D00-0
 62
     7
370
    50
100
AcDbLine
 10
138.009728
 20
264.232905
 30
0.0
 11
137.937178
 21
264.196934
 31
0.0
  0
LINE
  5
7F
330
76
100
AcDbEntity
  8
LC-001-100-D00-0
 62
     7
370
    50
100
AcDbLine
 10
137.937178
 20
264.196934
 30
0.0
 11
137.937178
 21
264.196934
 31
0.0
  0
LINE
  5
80
330
76
100
AcDbEntity
  8
LC-001-100-D00-0
 62
     7
370
    50
100
AcDbLine
 10
137.937178
 20
264.196934
 30
0.0
 11
137.72128
 21
264.175806
 31
0.0
  0
LINE
  5
81
330
76
100
AcDbEntity
  8
LC-001-100-D00-0
 62
     7
370
    50
100
AcDbLine
 10
137.72128
 20
264.175806
 30
0.0
 11
137.72128
 21
264.175806
 31
0.0
  0
LINE
  5
82
330
76
100
AcDbEntity
  8
LC-001-100-D00-0
 62
     7
370
    50
100
AcDbLine
 10
137.72128
 20
264.175806
 30
0.0
 11
137.613124
 21
264.165221
 31
0.0
  0
ENDBLK
  5
78
330
76
100
AcDbEntity
  8
0
100
AcDbBlockEnd
  0
BLOCK
  5
85
330
84
100
AcDbEntity
  8
0
100
AcDbBlockBegin
  2
POLY3
 70
     0
 71
     0
 10
0.0
 20
0.0
 30
0.0
  3
POLY3
  1

  4
POLY3
  0
LINE
  5
87
330
84
100
AcDbEntity
  8
LC-001-100-D00-0
 62
     7
370
    50
100
AcDbLine
 10
46.013123
 20
264.23385
 30
0.0
 11
46.013123
 21
264.23385
 31
0.0
  0
LINE
  5
88
330
84
100
AcDbEntity
  8
LC-001-100-D00-0
 62
     7
370
    50
100
AcDbLine
 10
46.013123
 20
264.23385
 30
0.0
 11
46.013481
 21
264.233751
 31
0.0
  0
LINE
  5
89
330
84
100
AcDbEntity
  8
LC-001-100-D00-0
 62
     7
370
    50
100
AcDbLine
 10
46.013481
 20
264.233751
 30
0.0
 11
46.013481
 21
264.233751
 31
0.0
  0
LINE
  5
8A
330
84
100
AcDbEntity
  8
LC-001-100-D00-0
 62
     7
370
    50
100
AcDbLine
 10
46.013481
 20
264.233751
 30
0.0
 11
46.016517
 21
264.232905
 31
0.0
  0
LINE
  5
8B
330
84
100
AcDbEntity
  8
LC-001-100-D00-0
 62
     7
370
    50
100
AcDbLine
 10
46.016517
 20
264.232905
 30
0.0
 11
46.016517
 21
264.232905
 31
0.0
  0
LINE
  5
8C
330
84
100
AcDbEntity
  8
LC-001-100-D00-0
 62
     7
370
    50
100
AcDbLine
 10
46.016517
 20
264.232905
 30
0.0
 11
46.089068
 21
264.196934
 31
0.0
  0
LINE
  5
8D
330
84
100
AcDbEntity
  8
LC-001-100-D00-0
 62
     7
370
    50
100
AcDbLine
 10
46.089068
 20
264.196934
 30
0.0
 11
46.089068
 21
264.196934
 31
0.0
  0
LINE
  5
8E
330
84
100
AcDbEntity
  8
LC-001-100-D00-0
 62
     7
370
    50
100
AcDbLine
 10
46.089068
 20
264.196934
 30
0.0
 11
46.304966
 21
264.175806
 31
0.0
  0
LINE
  5
8F
330
84
100
AcDbEntity
  8
LC-001-100-D00-0
 62
     7
370
    50
100
AcDbLine
 10
46.304966
 20
264.175806
 30
0.0
 11
46.304966
 21
264.175806
 31
0.0
  0
LINE
  5
90
330
84
100
AcDbEntity
  8
LC-001-100-D00-0
 62
     7
370
    50
100
AcDbLine
 10
46.304966
 20
264.175806
 30
0.0
 11
46.413122
 21
264.165221
 31
0.0
  0
ENDBLK
  5
86
330
84
100
AcDbEntity
  8
0
100
AcDbBlockEnd
  0
BLOCK
  5
115
330
114
100
AcDbEntity
  8
0
100
AcDbBlockBegin
  2
POLY4
 70
     0
 71
     0
 10
0.0
 20
0.0
 30
0.0
  3
POLY4
  1

  4
POLY4
  0
LINE
  5
117
330
114
100
AcDbEntity
  8
LC-001-100-D00-0
 62
     7
370
    50
100
AcDbLine
 10
137.113123
 20
264.165221
 30
0.0
 11
137.113123
 21
264.165221
 31
0.0
  0
LINE
  5
118
330
114
100
AcDbEntity
  8
LC-001-100-D00-0
 62
     7
370
    50
100
AcDbLine
 10
137.113123
 20
264.165221
 30
0.0
 11
137.32373
 21
264.191392
 31
0.0
  0
LINE
  5
119
330
114
100
AcDbEntity
  8
LC-001-100-D00-0
 62
     7
370
    50
100
AcDbLine
 10
137.32373
 20
264.191392
 30
0.0
 11
137.32373
 21
264.191392
 31
0.0
  0
LINE
  5
11A
330
114
100
AcDbEntity
  8
LC-001-100-D00-0
 62
     7
370
    50
100
AcDbLine
 10
137.32373
 20
264.191392
 30
0.0
 11
137.726286
 21
264.241415
 31
0.0
  0
LINE
  5
11B
330
114
100
AcDbEntity
  8
LC-001-100-D00-0
 62
     7
370
    50
100
AcDbLine
 10
137.726286
 20
264.241415
 30
0.0
 11
137.726286
 21
264.241415
 31
0.0
  0
LINE
  5
11C
330
114
100
AcDbEntity
  8
LC-001-100-D00-0
 62
     7
370
    50
100
AcDbLine
 10
137.726286
 20
264.241415
 30
0.0
 11
138.0498
 21
264.445292
 31
0.0
  0
LINE
  5
11D
330
114
100
AcDbEntity
  8
LC-001-100-D00-0
 62
     7
370
    50
100
AcDbLine
 10
138.0498
 20
264.445292
 30
0.0
 11
138.0498
 21
264.445292
 31
0.0
  0
LINE
  5
11E
330
114
100
AcDbEntity
  8
LC-001-100-D00-0
 62
     7
370
    50
100
AcDbLine
 10
138.0498
 20
264.445292
 30
0.0
 11
138.09198
 21
264.475372
 31
0.0
  0
LINE
  5
11F
330
114
100
AcDbEntity
  8
LC-001-100-D00-0
 62
     7
370
    50
100
AcDbLine
 10
138.09198
 20
264.475372
 30
0.0
 11
138.09198
 21
264.475372
 31
0.0
  0
LINE
  5
120
330
114
100
AcDbEntity
  8
LC-001-100-D00-0
 62
     7
370
    50
100
AcDbLine
 10
138.09198
 20
264.475372
 30
0.0
 11
138.113121
 21
264.490448
 31
0.0
  0
ENDBLK
  5
116
330
114
100
AcDbEntity
  8
0
100
AcDbBlockEnd
  0
BLOCK
  5
123
330
122
100
AcDbEntity
  8
0
100
AcDbBlockBegin
  2
POLY5
 70
     0
 71
     0
 10
0.0
 20
0.0
 30
0.0
  3
POLY5
  1

  4
POLY5
  0
LINE
  5
125
330
122
100
AcDbEntity
  8
LC-001-100-D00-0
 62
     7
370
    50
100
AcDbLine
 10
82.463253
 20
264.165221
 30
0.0
 11
82.463253
 21
264.165221
 31
0.0
  0
LINE
  5
126
330
122
100
AcDbEntity
  8
LC-001-100-D00-0
 62
     7
370
    50
100
AcDbLine
 10
82.463253
 20
264.165221
 30
0.0
 11
83.578329
 21
264.192408
 31
0.0
  0
LINE
  5
127
330
122
100
AcDbEntity
  8
LC-001-100-D00-0
 62
     7
370
    50
100
AcDbLine
 10
83.578329
 20
264.192408
 30
0.0
 11
83.578329
 21
264.192408
 31
0.0
  0
LINE
  5
128
330
122
100
AcDbEntity
  8
LC-001-100-D00-0
 62
     7
370
    50
100
AcDbLine
 10
83.578329
 20
264.192408
 30
0.0
 11
85.930984
 21
264.249768
 31
0.0
  0
LINE
  5
129
330
122
100
AcDbEntity
  8
LC-001-100-D00-0
 62
     7
370
    50
100
AcDbLine
 10
85.930984
 20
264.249768
 30
0.0
 11
85.930984
 21
264.249768
 31
0.0
  0
LINE
  5
12A
330
122
100
AcDbEntity
  8
LC-001-100-D00-0
 62
     7
370
    50
100
AcDbLine
 10
85.930984
 20
264.249768
 30
0.0
 11
89.578535
 21
264.480476
 31
0.0
  0
LINE
  5
12B
330
122
100
AcDbEntity
  8
LC-001-100-D00-0
 62
     7
370
    50
100
AcDbLine
 10
89.578535
 20
264.480476
 30
0.0
 11
89.578535
 21
264.480476
 31
0.0
  0
LINE
  5
12C
330
122
100
AcDbEntity
  8
LC-001-100-D00-0
 62
     7
370
    50
100
AcDbLine
 10
89.578535
 20
264.480476
 30
0.0
 11
93.483215
 21
264.513477
 31
0.0
  0
LINE
  5
12D
330
122
100
AcDbEntity
  8
LC-001-100-D00-0
 62
     7
370
    50
100
AcDbLine
 10
93.483215
 20
264.513477
 30
0.0
 11
93.483215
 21
264.513477
 31
0.0
  0
LINE
  5
12E
330
122
100
AcDbEntity
  8
LC-001-100-D00-0
 62
     7
370
    50
100
AcDbLine
 10
93.483215
 20
264.513477
 30
0.0
 11
96.805433
 21
264.341501
 31
0.0
  0
LINE
  5
12F
330
122
100
AcDbEntity
  8
LC-001-100-D00-0
 62
     7
370
    50
100
AcDbLine
 10
96.805433
 20
264.341501
 30
0.0
 11
96.805433
 21
264.341501
 31
0.0
  0
LINE
  5
130
330
122
100
AcDbEntity
  8
LC-001-100-D00-0
 62
     7
370
    50
100
AcDbLine
 10
96.805433
 20
264.341501
 30
0.0
 11
99.529178
 21
264.195255
 31
0.0
  0
LINE
  5
131
330
122
100
AcDbEntity
  8
LC-001-100-D00-0
 62
     7
370
    50
100
AcDbLine
 10
99.529178
 20
264.195255
 30
0.0
 11
99.529178
 21
264.195255
 31
0.0
  0
LINE
  5
132
330
122
100
AcDbEntity
  8
LC-001-100-D00-0
 62
     7
370
    50
100
AcDbLine
 10
99.529178
 20
264.195255
 30
0.0
 11
100.885101
 21
264.175232
 31
0.0
  0
LINE
  5
133
330
122
100
AcDbEntity
  8
LC-001-100-D00-0
 62
     7
370
    50
100
AcDbLine
 10
100.885101
 20
264.175232
 30
0.0
 11
100.885101
 21
264.175232
 31
0.0
  0
LINE
  5
134
330
122
100
AcDbEntity
  8
LC-001-100-D00-0
 62
     7
370
    50
100
AcDbLine
 10
100.885101
 20
264.175232
 30
0.0
 11
101.562991
 21
264.165221
 31
0.0
  0
ENDBLK
  5
124
330
122
100
AcDbEntity
  8
0
100
AcDbBlockEnd
  0
BLOCK
  5
137
330
136
100
AcDbEntity
  8
0
100
AcDbBlockBegin
  2
POLY6
 70
     0
 71
     0
 10
0.0
 20
0.0
 30
0.0
  3
POLY6
  1

  4
POLY6
  0
LINE
  5
139
330
136
100
AcDbEntity
  8
LC-001-100-D00-0
 62
     7
370
    50
100
AcDbLine
 10
45.913121
 20
264.490448
 30
0.0
 11
45.913121
 21
264.490448
 31
0.0
  0
LINE
  5
13A
330
136
100
AcDbEntity
  8
LC-001-100-D00-0
 62
     7
370
    50
100
AcDbLine
 10
45.913121
 20
264.490448
 30
0.0
 11
45.917253
 21
264.487381
 31
0.0
  0
LINE
  5
13B
330
136
100
AcDbEntity
  8
LC-001-100-D00-0
 62
     7
370
    50
100
AcDbLine
 10
45.917253
 20
264.487381
 30
0.0
 11
45.917253
 21
264.487381
 31
0.0
  0
LINE
  5
13C
330
136
100
AcDbEntity
  8
LC-001-100-D00-0
 62
     7
370
    50
100
AcDbLine
 10
45.917253
 20
264.487381
 30
0.0
 11
45.933827
 21
264.475078
 31
0.0
  0
LINE
  5
13D
330
136
100
AcDbEntity
  8
LC-001-100-D00-0
 62
     7
370
    50
100
AcDbLine
 10
45.933827
 20
264.475078
 30
0.0
 11
45.933827
 21
264.475078
 31
0.0
  0
LINE
  5
13E
330
136
100
AcDbEntity
  8
LC-001-100-D00-0
 62
     7
370
    50
100
AcDbLine
 10
45.933827
 20
264.475078
 30
0.0
 11
46.130397
 21
264.34086
 31
0.0
  0
LINE
  5
13F
330
136
100
AcDbEntity
  8
LC-001-100-D00-0
 62
     7
370
    50
100
AcDbLine
 10
46.130397
 20
264.34086
 30
0.0
 11
46.130397
 21
264.34086
 31
0.0
  0
LINE
  5
140
330
136
100
AcDbEntity
  8
LC-001-100-D00-0
 62
     7
370
    50
100
AcDbLine
 10
46.130397
 20
264.34086
 30
0.0
 11
46.509941
 21
264.195369
 31
0.0
  0
LINE
  5
141
330
136
100
AcDbEntity
  8
LC-001-100-D00-0
 62
     7
370
    50
100
AcDbLine
 10
46.509941
 20
264.195369
 30
0.0
 11
46.509941
 21
264.195369
 31
0.0
  0
LINE
  5
142
330
136
100
AcDbEntity
  8
LC-001-100-D00-0
 62
     7
370
    50
100
AcDbLine
 10
46.509941
 20
264.195369
 30
0.0
 11
46.778738
 21
264.17527
 31
0.0
  0
LINE
  5
143
330
136
100
AcDbEntity
  8
LC-001-100-D00-0
 62
     7
370
    50
100
AcDbLine
 10
46.778738
 20
264.17527
 30
0.0
 11
46.778738
 21
264.17527
 31
0.0
  0
LINE
  5
144
330
136
100
AcDbEntity
  8
LC-001-100-D00-0
 62
     7
370
    50
100
AcDbLine
 10
46.778738
 20
264.17527
 30
0.0
 11
46.913123
 21
264.165221
 31
0.0
  0
ENDBLK
  5
138
330
136
100
AcDbEntity
  8
0
100
AcDbBlockEnd
  0
BLOCK
  5
156
330
155
100
AcDbEntity
  8
0
100
AcDbBlockBegin
  2
KLON1
 70
     0
 71
     0
 10
0.0
 20
0.0
 30
0.0
  3
KLON1
  1

  4
KLON1
  0
LINE
  5
158
330
155
100
AcDbEntity
  8
LC-001-100-D00-0
 62
     7
370
    25
100
AcDbLine
 10
142.013123
 20
268.833595
 30
0.0
 11
140.281496
 21
270.565221
 31
0.0
  0
LINE
  5
159
330
155
100
AcDbEntity
  8
LC-001-100-D00-0
 62
     7
370
    25
100
AcDbLine
 10
142.013123
 20
267.711063
 30
0.0
 11
141.313123
 21
268.411063
 31
0.0
  0
LINE
  5
15A
330
155
100
AcDbEntity
  8
LC-001-100-D00-0
 62
     7
370
    25
100
AcDbLine
 10
139.858964
 20
269.865221
 30
0.0
 11
139.25366
 21
270.470526
 31
0.0
  0
LINE
  5
15B
330
155
100
AcDbEntity
  8
LC-001-100-D00-0
 62
     7
370
    25
100
AcDbLine
 10
142.013123
 20
266.588531
 30
0.0
 11
141.313123
 21
267.288531
 31
0.0
  0
LINE
  5
15C
330
155
100
AcDbEntity
  8
LC-001-100-D00-0
 62
     7
370
    25
100
AcDbLine
 10
139.068711
 20
269.532943
 30
0.0
 11
138.573308
 21
270.028346
 31
0.0
  0
LINE
  5
15D
330
155
100
AcDbEntity
  8
LC-001-100-D00-0
 62
     7
370
    25
100
AcDbLine
 10
142.176365
 20
265.302757
 30
0.0
 11
141.313123
 21
266.165999
 31
0.0
  0
LINE
  5
15E
330
155
100
AcDbEntity
  8
LC-001-100-D00-0
 62
     7
370
    25
100
AcDbLine
 10
138.813123
 20
268.665999
 30
0.0
 11
138.171654
 21
269.307467
 31
0.0
  0
LINE
  5
15F
330
155
100
AcDbEntity
  8
LC-001-100-D00-0
 62
     7
370
    25
100
AcDbLine
 10
142.127833
 20
264.228757
 30
0.0
 11
141.376658
 21
264.979932
 31
0.0
  0
LINE
  5
160
330
155
100
AcDbEntity
  8
LC-001-100-D00-0
 62
     7
370
    25
100
AcDbLine
 10
138.813123
 20
267.543467
 30
0.0
 11
138.113123
 21
268.243467
 31
0.0
  0
LINE
  5
161
330
155
100
AcDbEntity
  8
LC-001-100-D00-0
 62
     7
370
    25
100
AcDbLine
 10
138.813123
 20
266.420935
 30
0.0
 11
138.113123
 21
267.120935
 31
0.0
  0
LINE
  5
162
330
155
100
AcDbEntity
  8
LC-001-100-D00-0
 62
     7
370
    25
100
AcDbLine
 10
138.73989
 20
265.371635
 30
0.0
 11
138.113123
 21
265.998403
 31
0.0
  0
LINE
  5
163
330
155
100
AcDbEntity
  8
LC-001-100-D00-0
 62
     7
370
    25
100
AcDbLine
 10
138.320517
 20
264.668476
 30
0.0
 11
138.113123
 21
264.875871
 31
0.0
  0
ENDBLK
  5
157
330
155
100
AcDbEntity
  8
0
100
AcDbBlockEnd
  0
BLOCK
  5
166
330
165
100
AcDbEntity
  8
0
100
AcDbBlockBegin
  2
KLON2
 70
     0
 71
     0
 10
0.0
 20
0.0
 30
0.0
  3
KLON2
  1

  4
KLON2
  0
LINE
  5
168
330
165
100
AcDbEntity
  8
LC-001-100-D00-0
 62
     7
370
    25
100
AcDbLine
 10
45.636008
 20
269.795488
 30
0.0
 11
45.143389
 21
270.288107
 31
0.0
  0
LINE
  5
169
330
165
100
AcDbEntity
  8
LC-001-100-D00-0
 62
     7
370
    25
100
AcDbLine
 10
45.913123
 20
268.395842
 30
0.0
 11
45.176848
 21
269.132116
 31
0.0
  0
LINE
  5
16A
330
165
100
AcDbEntity
  8
LC-001-100-D00-0
 62
     7
370
    25
100
AcDbLine
 10
44.480017
 20
269.828947
 30
0.0
 11
43.743743
 21
270.565221
 31
0.0
  0
LINE
  5
16B
330
165
100
AcDbEntity
  8
LC-001-100-D00-0
 62
     7
370
    25
100
AcDbLine
 10
45.913123
 20
267.27331
 30
0.0
 11
45.213123
 21
267.97331
 31
0.0
  0
LINE
  5
16C
330
165
100
AcDbEntity
  8
LC-001-100-D00-0
 62
     7
370
    25
100
AcDbLine
 10
43.378765
 20
269.807668
 30
0.0
 11
42.854172
 21
270.33226
 31
0.0
  0
LINE
  5
16D
330
165
100
AcDbEntity
  8
LC-001-100-D00-0
 62
     7
370
    25
100
AcDbLine
 10
45.913123
 20
266.150778
 30
0.0
 11
45.213123
 21
266.850778
 31
0.0
  0
LINE
  5
16E
330
165
100
AcDbEntity
  8
LC-001-100-D00-0
 62
     7
370
    25
100
AcDbLine
 10
42.797238
 20
269.266663
 30
0.0
 11
42.281662
 21
269.782238
 31
0.0
  0
LINE
  5
16F
330
165
100
AcDbEntity
  8
LC-001-100-D00-0
 62
     7
370
    25
100
AcDbLine
 10
45.913123
 20
265.028246
 30
0.0
 11
45.219148
 21
265.722221
 31
0.0
  0
LINE
  5
170
330
165
100
AcDbEntity
  8
LC-001-100-D00-0
 62
     7
370
    25
100
AcDbLine
 10
42.713123
 20
268.228246
 30
0.0
 11
42.01425
 21
268.927118
 31
0.0
  0
LINE
  5
171
330
165
100
AcDbEntity
  8
LC-001-100-D00-0
 62
     7
370
    25
100
AcDbLine
 10
42.713123
 20
267.105714
 30
0.0
 11
42.013123
 21
267.805714
 31
0.0
  0
LINE
  5
172
330
165
100
AcDbEntity
  8
LC-001-100-D00-0
 62
     7
370
    25
100
AcDbLine
 10
42.713123
 20
265.983182
 30
0.0
 11
42.013123
 21
266.683182
 31
0.0
  0
LINE
  5
173
330
165
100
AcDbEntity
  8
LC-001-100-D00-0
 62
     7
370
    25
100
AcDbLine
 10
42.634849
 20
264.938923
 30
0.0
 11
41.965496
 21
265.608276
 31
0.0
  0
LINE
  5
174
330
165
100
AcDbEntity
  8
LC-001-100-D00-0
 62
     7
370
    25
100
AcDbLine
 10
42.120787
 20
264.330454
 30
0.0
 11
41.550974
 21
264.900266
 31
0.0
  0
ENDBLK
  5
167
330
165
100
AcDbEntity
  8
0
100
AcDbBlockEnd
  0
BLOCK
  5
177
330
176
100
AcDbEntity
  8
0
100
AcDbBlockBegin
  2
KLON3
 70
     0
 71
     0
 10
0.0
 20
0.0
 30
0.0
  3
KLON3
  1

  4
KLON3
  0
LINE
  5
179
330
176
100
AcDbEntity
  8
LC-001-100-D00-0
 62
     7
370
    25
100
AcDbLine
 10
139.513123
 20
233.805812
 30
0.0
 11
140.472532
 21
234.765221
 31
0.0
  0
LINE
  5
17A
330
176
100
AcDbEntity
  8
LC-001-100-D00-0
 62
     7
370
    25
100
AcDbLine
 10
139.513123
 20
238.29594
 30
0.0
 11
139.813123
 21
238.59594
 31
0.0
  0
LINE
  5
17B
330
176
100
AcDbEntity
  8
LC-001-100-D00-0
 62
     7
370
    25
100
AcDbLine
 10
139.513123
 20
242.786068
 30
0.0
 11
139.813123
 21
243.086068
 31
0.0
  0
LINE
  5
17C
330
176
100
AcDbEntity
  8
LC-001-100-D00-0
 62
     7
370
    25
100
AcDbLine
 10
139.892276
 20
243.165221
 30
0.0
 11
141.013123
 21
244.286068
 31
0.0
  0
LINE
  5
17D
330
176
100
AcDbEntity
  8
LC-001-100-D00-0
 62
     7
370
    25
100
AcDbLine
 10
139.513123
 20
247.276196
 30
0.0
 11
139.813123
 21
247.576196
 31
0.0
  0
LINE
  5
17E
330
176
100
AcDbEntity
  8
LC-001-100-D00-0
 62
     7
370
    25
100
AcDbLine
 10
139.513123
 20
251.766324
 30
0.0
 11
139.813123
 21
252.066324
 31
0.0
  0
LINE
  5
17F
330
176
100
AcDbEntity
  8
LC-001-100-D00-0
 62
     7
370
    25
100
AcDbLine
 10
140.51202
 20
252.765221
 30
0.0
 11
141.013123
 21
253.266324
 31
0.0
  0
LINE
  5
180
330
176
100
AcDbEntity
  8
LC-001-100-D00-0
 62
     7
370
    25
100
AcDbLine
 10
139.513123
 20
256.256452
 30
0.0
 11
140.421892
 21
257.165221
 31
0.0
  0
LINE
  5
181
330
176
100
AcDbEntity
  8
LC-001-100-D00-0
 62
     7
370
    25
100
AcDbLine
 10
139.513123
 20
260.74658
 30
0.0
 11
139.813123
 21
261.04658
 31
0.0
  0
LINE
  5
182
330
176
100
AcDbEntity
  8
LC-001-100-D00-0
 62
     7
370
    25
100
AcDbLine
 10
138.013123
 20
263.736708
 30
0.0
 11
141.313123
 21
267.036708
 31
0.0
  0
LINE
  5
183
330
176
100
AcDbEntity
  8
LC-001-100-D00-0
 62
     7
370
    25
100
AcDbLine
 10
138.829
 20
269.042714
 30
0.0
 11
139.63563
 21
269.849344
 31
0.0
  0
ENDBLK
  5
178
330
176
100
AcDbEntity
  8
0
100
AcDbBlockEnd
  0
BLOCK
  5
186
330
185
100
AcDbEntity
  8
0
100
AcDbBlockBegin
  2
KLON4
 70
     0
 71
     0
 10
0.0
 20
0.0
 30
0.0
  3
KLON4
  1

  4
KLON4
  0
LINE
  5
188
330
185
100
AcDbEntity
  8
LC-001-100-D00-0
 62
     7
370
    25
100
AcDbLine
 10
43.689715
 20
236.765221
 30
0.0
 11
44.513123
 21
237.588629
 31
0.0
  0
LINE
  5
189
330
185
100
AcDbEntity
  8
LC-001-100-D00-0
 62
     7
370
    25
100
AcDbLine
 10
43.013123
 20
240.578757
 30
0.0
 11
43.599587
 21
241.165221
 31
0.0
  0
LINE
  5
18A
330
185
100
AcDbEntity
  8
LC-001-100-D00-0
 62
     7
370
    25
100
AcDbLine
 10
44.213123
 20
241.778757
 30
0.0
 11
44.513123
 21
242.078757
 31
0.0
  0
LINE
  5
18B
330
185
100
AcDbEntity
  8
LC-001-100-D00-0
 62
     7
370
    25
100
AcDbLine
 10
44.213123
 20
246.268885
 30
0.0
 11
44.513123
 21
246.568885
 31
0.0
  0
LINE
  5
18C
330
185
100
AcDbEntity
  8
LC-001-100-D00-0
 62
     7
370
    25
100
AcDbLine
 10
43.019331
 20
249.565221
 30
0.0
 11
44.513123
 21
251.059013
 31
0.0
  0
LINE
  5
18D
330
185
100
AcDbEntity
  8
LC-001-100-D00-0
 62
     7
370
    25
100
AcDbLine
 10
44.213123
 20
255.249141
 30
0.0
 11
44.513123
 21
255.549141
 31
0.0
  0
LINE
  5
18E
330
185
100
AcDbEntity
  8
LC-001-100-D00-0
 62
     7
370
    25
100
AcDbLine
 10
43.639074
 20
259.165221
 30
0.0
 11
44.513123
 21
260.039269
 31
0.0
  0
LINE
  5
18F
330
185
100
AcDbEntity
  8
LC-001-100-D00-0
 62
     7
370
    25
100
AcDbLine
 10
43.013123
 20
263.029397
 30
0.0
 11
45.220064
 21
265.236339
 31
0.0
  0
LINE
  5
190
330
185
100
AcDbEntity
  8
LC-001-100-D00-0
 62
     7
370
    25
100
AcDbLine
 10
42.713123
 20
267.219526
 30
0.0
 11
44.989315
 21
269.495718
 31
0.0
  0
ENDBLK
  5
187
330
185
100
AcDbEntity
  8
0
100
AcDbBlockEnd
  0
BLOCK
  5
1A2
330
197
100
AcDbEntity
  8
0
100
AcDbBlockBegin
  2
*D11
 70
     1
 71
     0
 10
0.0
 20
0.0
 30
0.0
  3
*D11
  1

  0
LINE
  5
198
330
197
100
AcDbEntity
  8
LC-002-003-----0
 62
     2
370
    -2
100
AcDbLine
 10
44.213123
 20
270.565221
 30
0.0
 11
2.263036
 21
270.565221
 31
0.0
  0
LINE
  5
199
330
197
100
AcDbEntity
  8
LC-002-003-----0
 62
     2
370
    -2
100
AcDbLine
 10
41.513123
 20
264.165221
 30
0.0
 11
2.263036
 21
264.165221
 31
0.0
  0
LINE
  5
19A
330
197
100
AcDbEntity
  8
LC-002-003-----0
 62
     2
370
    -2
100
AcDbLine
 10
5.863036
 20
236.165221
 30
0.0
 11
5.863036
 21
208.165221
 31
0.0
  0
LINE
  5
19B
330
197
100
AcDbEntity
  8
LC-002-003-----0
 62
     2
370
    -2
100
AcDbLine
 10
5.863036
 20
298.565221
 30
0.0
 11
5.863036
 21
302.223448
 31
0.0
  0
SOLID
  5
19C
330
197
100
AcDbEntity
  8
LC-002-003-----0
 62
     2
100
AcDbTrace
 10
1.19637
 20
298.565221
 30
0.0
 11
10.529703
 21
298.565221
 31
0.0
 12
5.863036
 22
270.565221
 32
0.0
 13
5.863036
 23
270.565221
 33
0.0
  0
SOLID
  5
19D
330
197
100
AcDbEntity
  8
LC-002-003-----0
 62
     2
100
AcDbTrace
 10
10.529703
 20
236.165221
 30
0.0
 11
1.19637
 21
236.165221
 31
0.0
 12
5.863036
 22
264.165221
 32
0.0
 13
5.863036
 23
264.165221
 33
0.0
  0
MTEXT
  5
19E
330
197
100
AcDbEntity
  8
LC-002-003-----0
 62
     2
100
AcDbMText
 10
-24.936964
 20
275.575584
 30
0.0
 40
28.0
 41
0.0
 71
     5
 72
     1
  1
\A1;6,4
  7
LCTX15-400-0-0pDIN-Schrift
 11
6.123031769111886E-17
 21
1.0
 31
0.0
 73
     1
 44
1.0
  0
POINT
  5
19F
330
197
100
AcDbEntity
  8
Defpoints
 62
     0
100
AcDbPoint
 10
44.213123
 20
270.565221
 30
0.0
  0
POINT
  5
1A0
330
197
100
AcDbEntity
  8
Defpoints
 62
     0
100
AcDbPoint
 10
41.513123
 20
264.165221
 30
0.0
  0
POINT
  5
1A1
330
197
100
AcDbEntity
  8
Defpoints
 62
     0
100
AcDbPoint
 10
5.863036
 20
264.165221
 30
0.0
  0
ENDBLK
  5
1A3
330
197
100
AcDbEntity
  8
0
100
AcDbBlockEnd
  0
BLOCK
  5
1B1
330
1A5
100
AcDbEntity
  8
0
100
AcDbBlockBegin
  2
*D12
 70
     1
 71
     0
 10
0.0
 20
0.0
 30
0.0
  3
*D12
  1

  0
LINE
  5
1A6
330
1A5
100
AcDbEntity
  8
LC-002-003-----0
 62
     2
370
    -2
100
AcDbLine
 10
140.313123
 20
270.565221
 30
0.0
 11
196.069554
 21
270.565221
 31
0.0
  0
LINE
  5
1A7
330
1A5
100
AcDbEntity
  8
LC-002-003-----0
 62
     2
370
    -2
100
AcDbLine
 10
138.093156
 20
233.565221
 30
0.0
 11
196.069554
 21
233.565221
 31
0.0
  0
LINE
  5
1A8
330
1A5
100
AcDbEntity
  8
LC-002-003-----0
 62
     2
370
    -2
100
AcDbLine
 10
192.469554
 20
298.565221
 30
0.0
 11
192.469554
 21
326.565221
 31
0.0
  0
LINE
  5
1A9
330
1A5
100
AcDbEntity
  8
LC-002-003-----0
 62
     2
370
    -2
100
AcDbLine
 10
192.469554
 20
205.565221
 30
0.0
 11
192.469554
 21
177.565221
 31
0.0
  0
LINE
  5
1AA
330
1A5
100
AcDbEntity
  8
LC-002-003-----0
 62
     2
370
    -2
100
AcDbLine
 10
192.469554
 20
270.565221
 30
0.0
 11
192.469554
 21
233.565221
 31
0.0
  0
SOLID
  5
1AB
330
1A5
100
AcDbEntity
  8
LC-002-003-----0
 62
     2
100
AcDbTrace
 10
187.802887
 20
298.565221
 30
0.0
 11
197.136221
 21
298.565221
 31
0.0
 12
192.469554
 22
270.565221
 32
0.0
 13
192.469554
 23
270.565221
 33
0.0
  0
SOLID
  5
1AC
330
1A5
100
AcDbEntity
  8
LC-002-003-----0
 62
     2
100
AcDbTrace
 10
197.136221
 20
205.565221
 30
0.0
 11
187.802887
 21
205.565221
 31
0.0
 12
192.469554
 22
233.565221
 32
0.0
 13
192.469554
 23
233.565221
 33
0.0
  0
MTEXT
  5
1AD
330
1A5
100
AcDbEntity
  8
LC-002-003-----0
 62
     2
100
AcDbMText
 10
161.669554
 20
262.507584
 30
0.0
 40
28.0
 41
0.0
 71
     5
 72
     1
  1
\A1;37
  7
LCTX15-400-0-0pDIN-Schrift
 11
6.123031769111886E-17
 21
1.0
 31
0.0
 73
     1
 44
1.0
  0
POINT
  5
1AE
330
1A5
100
AcDbEntity
  8
Defpoints
 62
     0
100
AcDbPoint
 10
140.313123
 20
270.565221
 30
0.0
  0
POINT
  5
1AF
330
1A5
100
AcDbEntity
  8
Defpoints
 62
     0
100
AcDbPoint
 10
138.093156
 20
233.565221
 30
0.0
  0
POINT
  5
1B0
330
1A5
100
AcDbEntity
  8
Defpoints
 62
     0
100
AcDbPoint
 10
192.469554
 20
233.565221
 30
0.0
  0
ENDBLK
  5
1B2
330
1A5
100
AcDbEntity
  8
0
100
AcDbBlockEnd
  0
BLOCK
  5
1C1
330
1B7
100
AcDbEntity
  8
0
100
AcDbBlockBegin
  2
*D13
 70
     1
 71
     0
 10
0.0
 20
0.0
 30
0.0
  3
*D13
  1

  0
LINE
  5
1B8
330
1B7
100
AcDbEntity
  8
LC-002-003-----0
 62
     2
370
    -2
100
AcDbLine
 10
42.01425
 20
268.927118
 30
0.0
 11
42.01425
 21
305.311584
 31
0.0
  0
LINE
  5
1B9
330
1B7
100
AcDbEntity
  8
LC-002-003-----0
 62
     2
370
    -2
100
AcDbLine
 10
142.013123
 20
268.833595
 30
0.0
 11
142.013123
 21
305.311584
 31
0.0
  0
LINE
  5
1BA
330
1B7
100
AcDbEntity
  8
LC-002-003-----0
 62
     2
370
    -2
100
AcDbLine
 10
70.01425
 20
301.711584
 30
0.0
 11
114.013123
 21
301.711584
 31
0.0
  0
SOLID
  5
1BB
330
1B7
100
AcDbEntity
  8
LC-002-003-----0
 62
     2
100
AcDbTrace
 10
70.01425
 20
306.37825
 30
0.0
 11
70.01425
 21
297.044917
 31
0.0
 12
42.01425
 22
301.711584
 32
0.0
 13
42.01425
 23
301.711584
 33
0.0
  0
SOLID
  5
1BC
330
1B7
100
AcDbEntity
  8
LC-002-003-----0
 62
     2
100
AcDbTrace
 10
114.013123
 20
297.044917
 30
0.0
 11
114.013123
 21
306.37825
 31
0.0
 12
142.013123
 22
301.711584
 32
0.0
 13
142.013123
 23
301.711584
 33
0.0
  0
MTEXT
  5
1BD
330
1B7
100
AcDbEntity
  8
LC-002-003-----0
 62
     2
100
AcDbMText
 10
105.799228
 20
332.511584
 30
0.0
 40
28.0
 41
0.0
 71
     5
 72
     1
  1
\A1;100
  7
LCTX15-400-0-0pDIN-Schrift
 73
     1
 44
1.0
  0
POINT
  5
1BE
330
1B7
100
AcDbEntity
  8
Defpoints
 62
     0
100
AcDbPoint
 10
42.01425
 20
268.927118
 30
0.0
  0
POINT
  5
1BF
330
1B7
100
AcDbEntity
  8
Defpoints
 62
     0
100
AcDbPoint
 10
142.013123
 20
268.833595
 30
0.0
  0
POINT
  5
1C0
330
1B7
100
AcDbEntity
  8
Defpoints
 62
     0
100
AcDbPoint
 10
142.013123
 20
301.711584
 30
0.0
  0
ENDBLK
  5
1C2
330
1B7
100
AcDbEntity
  8
0
100
AcDbBlockEnd
  0
ENDSEC
  0
SECTION
  2
ENTITIES
  0
ARC
  5
31
330
1F
100
AcDbEntity
  8
LC-001-100-D00-0
 62
     7
370
    50
100
AcDbCircle
 10
48.713123
 20
107.742456
 30
0.0
 40
4.500000000000007
100
AcDbArc
 50
180.0
 51
270.0
  0
LINE
  5
32
330
1F
100
AcDbEntity
  8
LC-001-100-D00-0
 62
     7
370
    50
100
AcDbLine
 10
48.713124
 20
198.842457
 30
0.0
 11
135.313122
 21
198.842457
 31
0.0
  0
LINE
  5
33
330
1F
100
AcDbEntity
  8
LC-001-100-D00-0
 62
     7
370
    50
100
AcDbLine
 10
44.213122
 20
107.742457
 30
0.0
 11
44.213122
 21
194.342455
 31
0.0
  0
ARC
  5
34
330
1F
100
AcDbEntity
  8
LC-001-100-D00-0
 62
     7
370
    50
100
AcDbCircle
 10
48.713123
 20
194.342456
 30
0.0
 40
4.5
100
AcDbArc
 50
90.0
 51
180.0
  0
ARC
  5
35
330
1F
100
AcDbEntity
  8
LC-001-100-D00-0
 62
     7
370
    50
100
AcDbCircle
 10
135.313123
 20
194.342456
 30
0.0
 40
4.5
100
AcDbArc
 50
0.0
 51
90.0
  0
ARC
  5
36
330
1F
100
AcDbEntity
  8
LC-001-100-D00-0
 62
     7
370
    50
100
AcDbCircle
 10
135.313123
 20
107.742456
 30
0.0
 40
4.5
100
AcDbArc
 50
270.0
 51
0.0
  0
LINE
  5
37
330
1F
100
AcDbEntity
  8
LC-001-100-D00-0
 62
     7
370
    50
100
AcDbLine
 10
139.813124
 20
194.342455
 30
0.0
 11
139.813124
 21
107.742457
 31
0.0
  0
LINE
  5
38
330
1F
100
AcDbEntity
  8
LC-001-100-D00-0
 62
     7
370
    50
100
AcDbLine
 10
135.313122
 20
103.242455
 30
0.0
 11
48.713124
 21
103.242455
 31
0.0
  0
ARC
  5
39
330
1F
100
AcDbEntity
  8
LC-001-100-D00-0
 62
     7
370
    50
100
AcDbCircle
 10
92.013123
 20
151.042456
 30
0.0
 40
46.10000000000003
100
AcDbArc
 50
348.04429
 51
0.0
  0
ARC
  5
3A
330
1F
100
AcDbEntity
  8
LC-001-100-D00-0
 62
     7
370
    50
100
AcDbCircle
 10
92.013123
 20
151.042456
 30
0.0
 40
46.10000000000001
100
AcDbArc
 50
168.04429
 51
180.0
  0
ARC
  5
3B
330
1F
100
AcDbEntity
  8
LC-001-100-D00-0
 62
     7
370
    50
100
AcDbCircle
 10
92.013123
 20
151.042456
 30
0.0
 40
46.10000000000002
100
AcDbArc
 50
180.0
 51
191.95571
  0
ARC
  5
3C
330
1F
100
AcDbEntity
  8
LC-001-100-D00-0
 62
     7
370
    50
100
AcDbCircle
 10
92.013123
 20
151.042456
 30
0.0
 40
46.10000000000002
100
AcDbArc
 50
0.0
 51
11.95571
  0
ARC
  5
3D
330
1F
100
AcDbEntity
  8
LC-001-100-D00-0
 62
     7
370
    50
100
AcDbCircle
 10
92.013123
 20
151.042456
 30
0.0
 40
46.10000000000001
100
AcDbArc
 50
270.0
 51
281.95571
  0
ARC
  5
3E
330
1F
100
AcDbEntity
  8
LC-001-100-D00-0
 62
     7
370
    50
100
AcDbCircle
 10
92.013123
 20
151.042456
 30
0.0
 40
46.10000000000001
100
AcDbArc
 50
258.04429
 51
270.0
  0
ARC
  5
3F
330
1F
100
AcDbEntity
  8
LC-001-100-D00-0
 62
     7
370
    50
100
AcDbCircle
 10
92.013123
 20
151.042456
 30
0.0
 40
46.09999999999999
100
AcDbArc
 50
90.0
 51
101.95571
  0
ARC
  5
40
330
1F
100
AcDbEntity
  8
LC-001-100-D00-0
 62
     7
370
    50
100
AcDbCircle
 10
92.013123
 20
151.042456
 30
0.0
 40
46.09999999999997
100
AcDbArc
 50
78.04429
 51
90.0
  0
LINE
  5
41
330
1F
100
AcDbEntity
  8
LC-001-100-D00-0
 62
     7
370
    50
100
AcDbLine
 10
47.513122
 20
100.542454
 30
0.0
 11
136.513124
 21
100.542454
 31
0.0
  0
ARC
  5
42
330
1F
100
AcDbEntity
  8
LC-001-100-D00-0
 62
     7
370
    50
100
AcDbCircle
 10
47.513123
 20
106.542456
 30
0.0
 40
6.0
100
AcDbArc
 50
180.0
 51
270.0
  0
ARC
  5
43
330
1F
100
AcDbEntity
  8
LC-001-100-D00-0
 62
     7
370
    50
100
AcDbCircle
 10
136.513123
 20
106.542456
 30
0.0
 40
6.0
100
AcDbArc
 50
270.0
 51
0.0
  0
LINE
  5
44
330
1F
100
AcDbEntity
  8
LC-001-100-D00-0
 62
     7
370
    50
100
AcDbLine
 10
41.513121
 20
195.542457
 30
0.0
 11
41.513121
 21
106.542455
 31
0.0
  0
ARC
  5
45
330
1F
100
AcDbEntity
  8
LC-001-100-D00-0
 62
     7
370
    50
100
AcDbCircle
 10
47.513123
 20
195.542456
 30
0.0
 40
6.0
100
AcDbArc
 50
90.0
 51
180.0
  0
LINE
  5
46
330
1F
100
AcDbEntity
  8
LC-001-100-D00-0
 62
     7
370
    50
100
AcDbLine
 10
142.513121
 20
106.542455
 30
0.0
 11
142.513121
 21
195.542457
 31
0.0
  0
LINE
  5
47
330
1F
100
AcDbEntity
  8
LC-001-100-D00-0
 62
     7
370
    50
100
AcDbLine
 10
136.513124
 20
201.542458
 30
0.0
 11
47.513122
 21
201.542458
 31
0.0
  0
ARC
  5
48
330
1F
100
AcDbEntity
  8
LC-001-100-D00-0
 62
     7
370
    50
100
AcDbCircle
 10
136.513123
 20
195.542456
 30
0.0
 40
6.000000000000028
100
AcDbArc
 50
0.0
 51
90.0
  0
LINE
  5
49
330
1F
100
AcDbEntity
  8
LC-001-100-D00-0
 62
     7
370
    50
100
AcDbLine
 10
46.913123
 20
141.492587
 30
0.0
 11
46.913123
 21
107.742457
 31
0.0
  0
LINE
  5
4A
330
1F
100
AcDbEntity
  8
LC-001-100-D00-0
 62
     7
370
    50
100
AcDbLine
 10
82.463253
 20
196.142456
 30
0.0
 11
48.713124
 21
196.142456
 31
0.0
  0
ARC
  5
4B
330
1F
100
AcDbEntity
  8
LC-001-100-D00-0
 62
     7
370
    50
100
AcDbCircle
 10
48.713123
 20
194.342456
 30
0.0
 40
1.799999999999983
100
AcDbArc
 50
90.0
 51
180.0
  0
LINE
  5
4C
330
1F
100
AcDbEntity
  8
LC-001-100-D00-0
 62
     7
370
    50
100
AcDbLine
 10
137.113123
 20
107.742457
 30
0.0
 11
137.113123
 21
141.492587
 31
0.0
  0
LINE
  5
4D
330
1F
100
AcDbEntity
  8
LC-001-100-D00-0
 62
     7
370
    50
100
AcDbLine
 10
137.113123
 20
160.592325
 30
0.0
 11
137.113123
 21
194.342455
 31
0.0
  0
LINE
  5
4E
330
1F
100
AcDbEntity
  8
LC-001-100-D00-0
 62
     7
370
    50
100
AcDbLine
 10
46.913123
 20
194.342455
 30
0.0
 11
46.913123
 21
160.592325
 31
0.0
  0
ARC
  5
4F
330
1F
100
AcDbEntity
  8
LC-001-100-D00-0
 62
     7
370
    50
100
AcDbCircle
 10
135.313123
 20
194.342456
 30
0.0
 40
1.80000000000004
100
AcDbArc
 50
0.0
 51
90.0
  0
LINE
  5
50
330
1F
100
AcDbEntity
  8
LC-001-100-D00-0
 62
     7
370
    50
100
AcDbLine
 10
101.562991
 20
105.942457
 30
0.0
 11
135.313122
 21
105.942457
 31
0.0
  0
ARC
  5
51
330
1F
100
AcDbEntity
  8
LC-001-100-D00-0
 62
     7
370
    50
100
AcDbCircle
 10
135.313123
 20
107.742456
 30
0.0
 40
1.800000000000011
100
AcDbArc
 50
270.0
 51
0.0
  0
LINE
  5
52
330
1F
100
AcDbEntity
  8
LC-001-100-D00-0
 62
     7
370
    50
100
AcDbLine
 10
135.313122
 20
196.142456
 30
0.0
 11
101.562991
 21
196.142456
 31
0.0
  0
ARC
  5
53
330
1F
100
AcDbEntity
  8
LC-001-100-D00-0
 62
     7
370
    50
100
AcDbCircle
 10
48.713123
 20
107.742456
 30
0.0
 40
1.799999999999997
100
AcDbArc
 50
180.0
 51
270.0
  0
LINE
  5
54
330
1F
100
AcDbEntity
  8
LC-001-100-D00-0
 62
     7
370
    50
100
AcDbLine
 10
48.713124
 20
105.942457
 30
0.0
 11
82.463253
 21
105.942457
 31
0.0
  0
ARC
  5
55
330
1F
100
AcDbEntity
  8
LC-001-100-D00-0
 62
     7
370
    50
100
AcDbCircle
 10
92.013123
 20
151.042456
 30
0.0
 40
46.10000000000001
100
AcDbArc
 50
11.95571
 51
78.04429
  0
ARC
  5
56
330
1F
100
AcDbEntity
  8
LC-001-100-D00-0
 62
     7
370
    50
100
AcDbCircle
 10
92.013123
 20
151.042456
 30
0.0
 40
46.10000000000002
100
AcDbArc
 50
281.95571
 51
348.04429
  0
ARC
  5
57
330
1F
100
AcDbEntity
  8
LC-001-100-D00-0
 62
     7
370
    50
100
AcDbCircle
 10
92.013123
 20
151.042456
 30
0.0
 40
46.10000000000001
100
AcDbArc
 50
101.95571
 51
168.04429
  0
ARC
  5
58
330
1F
100
AcDbEntity
  8
LC-001-100-D00-0
 62
     7
370
    50
100
AcDbCircle
 10
92.013123
 20
151.042456
 30
0.0
 40
46.10000000000002
100
AcDbArc
 50
191.95571
 51
258.04429
  0
LINE
  5
59
330
1F
100
AcDbEntity
  8
LC-001-100-D00-0
 62
     7
370
    50
100
AcDbLine
 10
137.613124
 20
157.095555
 30
0.0
 11
137.613124
 21
157.813719
 31
0.0
  0
LINE
  5
5A
330
1F
100
AcDbEntity
  8
LC-001-100-D00-0
 62
     7
370
    50
100
AcDbLine
 10
137.613124
 20
144.271194
 30
0.0
 11
137.613124
 21
144.989358
 31
0.0
  0
LINE
  5
5B
330
1F
100
AcDbEntity
  8
LC-001-100-D00-0
 62
     7
370
    50
100
AcDbLine
 10
98.06622
 20
105.442455
 30
0.0
 11
98.784386
 21
105.442455
 31
0.0
  0
LINE
  5
5C
330
1F
100
AcDbEntity
  8
LC-001-100-D00-0
 62
     7
370
    50
100
AcDbLine
 10
85.24186
 20
105.442455
 30
0.0
 11
85.960024
 21
105.442455
 31
0.0
  0
LINE
  5
5D
330
1F
100
AcDbEntity
  8
LC-001-100-D00-0
 62
     7
370
    50
100
AcDbLine
 10
46.413122
 20
157.095555
 30
0.0
 11
46.413122
 21
157.813719
 31
0.0
  0
LINE
  5
5E
330
1F
100
AcDbEntity
  8
LC-001-100-D00-0
 62
     7
370
    50
100
AcDbLine
 10
46.413122
 20
144.271194
 30
0.0
 11
46.413122
 21
144.989358
 31
0.0
  0
LINE
  5
5F
330
1F
100
AcDbEntity
  8
LC-001-100-D00-0
 62
     7
370
    50
100
AcDbLine
 10
85.960024
 20
196.642457
 30
0.0
 11
85.24186
 21
196.642457
 31
0.0
  0
LINE
  5
60
330
1F
100
AcDbEntity
  8
LC-001-100-D00-0
 62
     7
370
    50
100
AcDbLine
 10
98.784386
 20
196.642457
 30
0.0
 11
98.06622
 21
196.642457
 31
0.0
  0
LINE
  5
61
330
1F
100
AcDbEntity
  8
LC-001-100-D00-0
 62
     7
370
    50
100
AcDbLine
 10
138.013123
 20
263.165221
 30
0.0
 11
46.013123
 21
263.165221
 31
0.0
  0
LINE
  5
62
330
1F
100
AcDbEntity
  8
LC-001-100-D00-0
 62
     7
370
    50
100
AcDbLine
 10
46.013123
 20
263.165221
 30
0.0
 11
46.013123
 21
264.23385
 31
0.0
  0
LINE
  5
63
330
1F
100
AcDbEntity
  8
LC-001-100-D00-0
 62
     7
370
    50
100
AcDbLine
 10
85.960024
 20
264.165221
 30
0.0
 11
46.413122
 21
264.165221
 31
0.0
  0
INSERT
  5
73
330
1F
100
AcDbEntity
  8
LC-001-100-D00-0
 62
     7
370
    50
100
AcDbBlockReference
  2
POLY1
 10
0.0
 20
0.0
 30
0.0
  0
LINE
  5
74
330
1F
100
AcDbEntity
  8
LC-001-100-D00-0
 62
     7
370
    50
100
AcDbLine
 10
137.613124
 20
264.165221
 30
0.0
 11
98.06622
 21
264.165221
 31
0.0
  0
LINE
  5
75
330
1F
100
AcDbEntity
  8
LC-001-100-D00-0
 62
     7
370
    50
100
AcDbLine
 10
138.013123
 20
264.23385
 30
0.0
 11
138.013123
 21
263.165221
 31
0.0
  0
INSERT
  5
83
330
1F
100
AcDbEntity
  8
LC-001-100-D00-0
 62
     7
370
    50
100
AcDbBlockReference
  2
POLY2
 10
0.0
 20
0.0
 30
0.0
  0
INSERT
  5
91
330
1F
100
AcDbEntity
  8
LC-001-100-D00-0
 62
     7
370
    50
100
AcDbBlockReference
  2
POLY3
 10
0.0
 20
0.0
 30
0.0
  0
LINE
  5
92
330
1F
100
AcDbEntity
  8
LC-001-100-D00-0
 62
     7
370
    50
100
AcDbLine
 10
139.813124
 20
239.965221
 30
0.0
 11
141.013122
 21
239.965221
 31
0.0
  0
LINE
  5
93
330
1F
100
AcDbEntity
  8
LC-001-100-D00-0
 62
     7
370
    50
100
AcDbLine
 10
139.813124
 20
239.965221
 30
0.0
 11
139.813124
 21
237.965221
 31
0.0
  0
LINE
  5
94
330
1F
100
AcDbEntity
  8
LC-001-100-D00-0
 62
     7
370
    50
100
AcDbLine
 10
141.013122
 20
237.965221
 30
0.0
 11
139.813124
 21
237.965221
 31
0.0
  0
LINE
  5
95
330
1F
100
AcDbEntity
  8
LC-001-100-D00-0
 62
     7
370
    50
100
AcDbLine
 10
141.013122
 20
237.965221
 30
0.0
 11
141.013122
 21
236.765222
 31
0.0
  0
LINE
  5
96
330
1F
100
AcDbEntity
  8
LC-001-100-D00-0
 62
     7
370
    50
100
AcDbLine
 10
139.813124
 20
236.765222
 30
0.0
 11
141.013122
 21
236.765222
 31
0.0
  0
LINE
  5
97
330
1F
100
AcDbEntity
  8
LC-001-100-D00-0
 62
     7
370
    50
100
AcDbLine
 10
139.813124
 20
236.765222
 30
0.0
 11
139.813124
 21
234.765222
 31
0.0
  0
LINE
  5
98
330
1F
100
AcDbEntity
  8
LC-001-100-D00-0
 62
     7
370
    50
100
AcDbLine
 10
141.013122
 20
234.765222
 30
0.0
 11
139.813124
 21
234.765222
 31
0.0
  0
LINE
  5
99
330
1F
100
AcDbEntity
  8
LC-001-100-D00-0
 62
     7
370
    50
100
AcDbLine
 10
141.013122
 20
234.765222
 30
0.0
 11
141.013122
 21
233.565222
 31
0.0
  0
LINE
  5
9A
330
1F
100
AcDbEntity
  8
LC-001-100-D00-0
 62
     7
370
    50
100
AcDbLine
 10
139.513122
 20
233.565222
 30
0.0
 11
141.013122
 21
233.565222
 31
0.0
  0
LINE
  5
9B
330
1F
100
AcDbEntity
  8
LC-001-100-D00-0
 62
     7
370
    50
100
AcDbLine
 10
139.513122
 20
263.165221
 30
0.0
 11
139.513122
 21
233.565222
 31
0.0
  0
LINE
  5
9C
330
1F
100
AcDbEntity
  8
LC-001-100-D00-0
 62
     7
370
    50
100
AcDbLine
 10
139.513122
 20
263.165221
 30
0.0
 11
138.013123
 21
263.165221
 31
0.0
  0
ARC
  5
9D
330
1F
100
AcDbEntity
  8
LC-001-100-D00-0
 62
     7
370
    50
100
AcDbCircle
 10
139.813123
 20
268.865221
 30
0.0
 40
1.0
100
AcDbArc
 50
90.0
 51
180.0
  0
LINE
  5
9E
330
1F
100
AcDbEntity
  8
LC-001-100-D00-0
 62
     7
370
    50
100
AcDbLine
 10
140.313121
 20
269.865222
 30
0.0
 11
139.813124
 21
269.865222
 31
0.0
  0
ARC
  5
9F
330
1F
100
AcDbEntity
  8
LC-001-100-D00-0
 62
     7
370
    50
100
AcDbCircle
 10
140.313123
 20
268.865221
 30
0.0
 40
1.0
100
AcDbArc
 50
0.0
 51
90.0
  0
LINE
  5
A0
330
1F
100
AcDbEntity
  8
LC-001-100-D00-0
 62
     7
370
    50
100
AcDbLine
 10
142.513121
 20
264.165221
 30
0.0
 11
141.013122
 21
264.165221
 31
0.0
  0
LINE
  5
A1
330
1F
100
AcDbEntity
  8
LC-001-100-D00-0
 62
     7
370
    50
100
AcDbLine
 10
141.013122
 20
264.165221
 30
0.0
 11
141.013122
 21
262.365221
 31
0.0
  0
LINE
  5
A2
330
1F
100
AcDbEntity
  8
LC-001-100-D00-0
 62
     7
370
    50
100
AcDbLine
 10
139.813124
 20
262.365221
 30
0.0
 11
141.013122
 21
262.365221
 31
0.0
  0
LINE
  5
A3
330
1F
100
AcDbEntity
  8
LC-001-100-D00-0
 62
     7
370
    50
100
AcDbLine
 10
139.813124
 20
262.365221
 30
0.0
 11
139.813124
 21
260.365222
 31
0.0
  0
LINE
  5
A4
330
1F
100
AcDbEntity
  8
LC-001-100-D00-0
 62
     7
370
    50
100
AcDbLine
 10
141.013122
 20
260.365222
 30
0.0
 11
139.813124
 21
260.365222
 31
0.0
  0
LINE
  5
A5
330
1F
100
AcDbEntity
  8
LC-001-100-D00-0
 62
     7
370
    50
100
AcDbLine
 10
141.013122
 20
260.365222
 30
0.0
 11
141.013122
 21
259.165221
 31
0.0
  0
LINE
  5
A6
330
1F
100
AcDbEntity
  8
LC-001-100-D00-0
 62
     7
370
    50
100
AcDbLine
 10
139.813124
 20
259.165221
 30
0.0
 11
141.013122
 21
259.165221
 31
0.0
  0
LINE
  5
A7
330
1F
100
AcDbEntity
  8
LC-001-100-D00-0
 62
     7
370
    50
100
AcDbLine
 10
139.813124
 20
259.165221
 30
0.0
 11
139.813124
 21
257.165221
 31
0.0
  0
LINE
  5
A8
330
1F
100
AcDbEntity
  8
LC-001-100-D00-0
 62
     7
370
    50
100
AcDbLine
 10
141.013122
 20
257.165221
 30
0.0
 11
139.813124
 21
257.165221
 31
0.0
  0
LINE
  5
A9
330
1F
100
AcDbEntity
  8
LC-001-100-D00-0
 62
     7
370
    50
100
AcDbLine
 10
141.013122
 20
257.165221
 30
0.0
 11
141.013122
 21
255.965221
 31
0.0
  0
LINE
  5
AA
330
1F
100
AcDbEntity
  8
LC-001-100-D00-0
 62
     7
370
    50
100
AcDbLine
 10
139.813124
 20
255.965221
 30
0.0
 11
141.013122
 21
255.965221
 31
0.0
  0
LINE
  5
AB
330
1F
100
AcDbEntity
  8
LC-001-100-D00-0
 62
     7
370
    50
100
AcDbLine
 10
139.813124
 20
255.965221
 30
0.0
 11
139.813124
 21
253.965221
 31
0.0
  0
LINE
  5
AC
330
1F
100
AcDbEntity
  8
LC-001-100-D00-0
 62
     7
370
    50
100
AcDbLine
 10
141.013122
 20
253.965221
 30
0.0
 11
139.813124
 21
253.965221
 31
0.0
  0
LINE
  5
AD
330
1F
100
AcDbEntity
  8
LC-001-100-D00-0
 62
     7
370
    50
100
AcDbLine
 10
141.013122
 20
253.965221
 30
0.0
 11
141.013122
 21
252.765221
 31
0.0
  0
LINE
  5
AE
330
1F
100
AcDbEntity
  8
LC-001-100-D00-0
 62
     7
370
    50
100
AcDbLine
 10
139.813124
 20
252.765221
 30
0.0
 11
141.013122
 21
252.765221
 31
0.0
  0
LINE
  5
AF
330
1F
100
AcDbEntity
  8
LC-001-100-D00-0
 62
     7
370
    50
100
AcDbLine
 10
139.813124
 20
252.765221
 30
0.0
 11
139.813124
 21
250.765221
 31
0.0
  0
LINE
  5
B0
330
1F
100
AcDbEntity
  8
LC-001-100-D00-0
 62
     7
370
    50
100
AcDbLine
 10
141.013122
 20
250.765221
 30
0.0
 11
139.813124
 21
250.765221
 31
0.0
  0
LINE
  5
B1
330
1F
100
AcDbEntity
  8
LC-001-100-D00-0
 62
     7
370
    50
100
AcDbLine
 10
141.013122
 20
250.765221
 30
0.0
 11
141.013122
 21
249.565221
 31
0.0
  0
LINE
  5
B2
330
1F
100
AcDbEntity
  8
LC-001-100-D00-0
 62
     7
370
    50
100
AcDbLine
 10
139.813124
 20
249.565221
 30
0.0
 11
141.013122
 21
249.565221
 31
0.0
  0
LINE
  5
B3
330
1F
100
AcDbEntity
  8
LC-001-100-D00-0
 62
     7
370
    50
100
AcDbLine
 10
139.813124
 20
249.565221
 30
0.0
 11
139.813124
 21
247.565221
 31
0.0
  0
LINE
  5
B4
330
1F
100
AcDbEntity
  8
LC-001-100-D00-0
 62
     7
370
    50
100
AcDbLine
 10
141.013122
 20
247.565221
 30
0.0
 11
139.813124
 21
247.565221
 31
0.0
  0
LINE
  5
B5
330
1F
100
AcDbEntity
  8
LC-001-100-D00-0
 62
     7
370
    50
100
AcDbLine
 10
141.013122
 20
247.565221
 30
0.0
 11
141.013122
 21
246.365221
 31
0.0
  0
LINE
  5
B6
330
1F
100
AcDbEntity
  8
LC-001-100-D00-0
 62
     7
370
    50
100
AcDbLine
 10
139.813124
 20
246.365221
 30
0.0
 11
141.013122
 21
246.365221
 31
0.0
  0
LINE
  5
B7
330
1F
100
AcDbEntity
  8
LC-001-100-D00-0
 62
     7
370
    50
100
AcDbLine
 10
139.813124
 20
246.365221
 30
0.0
 11
139.813124
 21
244.365221
 31
0.0
  0
LINE
  5
B8
330
1F
100
AcDbEntity
  8
LC-001-100-D00-0
 62
     7
370
    50
100
AcDbLine
 10
141.013122
 20
244.365221
 30
0.0
 11
139.813124
 21
244.365221
 31
0.0
  0
LINE
  5
B9
330
1F
100
AcDbEntity
  8
LC-001-100-D00-0
 62
     7
370
    50
100
AcDbLine
 10
141.013122
 20
244.365221
 30
0.0
 11
141.013122
 21
243.165222
 31
0.0
  0
LINE
  5
BA
330
1F
100
AcDbEntity
  8
LC-001-100-D00-0
 62
     7
370
    50
100
AcDbLine
 10
139.813124
 20
243.165222
 30
0.0
 11
141.013122
 21
243.165222
 31
0.0
  0
LINE
  5
BB
330
1F
100
AcDbEntity
  8
LC-001-100-D00-0
 62
     7
370
    50
100
AcDbLine
 10
139.813124
 20
243.165222
 30
0.0
 11
139.813124
 21
241.165221
 31
0.0
  0
LINE
  5
BC
330
1F
100
AcDbEntity
  8
LC-001-100-D00-0
 62
     7
370
    50
100
AcDbLine
 10
141.013122
 20
241.165221
 30
0.0
 11
139.813124
 21
241.165221
 31
0.0
  0
LINE
  5
BD
330
1F
100
AcDbEntity
  8
LC-001-100-D00-0
 62
     7
370
    50
100
AcDbLine
 10
141.013122
 20
241.165221
 30
0.0
 11
141.013122
 21
239.965221
 31
0.0
  0
LINE
  5
BE
330
1F
100
AcDbEntity
  8
LC-001-100-D00-0
 62
     7
370
    50
100
AcDbLine
 10
138.813122
 20
268.865222
 30
0.0
 11
138.813122
 21
265.365221
 31
0.0
  0
ARC
  5
BF
330
1F
100
AcDbEntity
  8
LC-001-100-D00-0
 62
     7
370
    50
100
AcDbCircle
 10
142.513123
 20
265.365221
 30
0.0
 40
1.200000000000017
100
AcDbArc
 50
180.0
 51
270.0
  0
ARC
  5
C0
330
1F
100
AcDbEntity
  8
LC-001-100-D00-0
 62
     7
370
    50
100
AcDbCircle
 10
137.613123
 20
265.365221
 30
0.0
 40
1.200000000000129
100
AcDbArc
 50
289.471221
 51
0.0
  0
LINE
  5
C1
330
1F
100
AcDbEntity
  8
LC-001-100-D00-0
 62
     7
370
    50
100
AcDbLine
 10
141.313123
 20
268.865222
 30
0.0
 11
141.313123
 21
265.365221
 31
0.0
  0
LINE
  5
C2
330
1F
100
AcDbEntity
  8
LC-001-100-D00-0
 62
     7
370
    50
100
AcDbLine
 10
43.013124
 20
249.565221
 30
0.0
 11
43.013124
 21
250.765221
 31
0.0
  0
LINE
  5
C3
330
1F
100
AcDbEntity
  8
LC-001-100-D00-0
 62
     7
370
    50
100
AcDbLine
 10
44.213122
 20
250.765221
 30
0.0
 11
43.013124
 21
250.765221
 31
0.0
  0
LINE
  5
C4
330
1F
100
AcDbEntity
  8
LC-001-100-D00-0
 62
     7
370
    50
100
AcDbLine
 10
44.213122
 20
252.765221
 30
0.0
 11
44.213122
 21
250.765221
 31
0.0
  0
LINE
  5
C5
330
1F
100
AcDbEntity
  8
LC-001-100-D00-0
 62
     7
370
    50
100
AcDbLine
 10
43.013124
 20
252.765221
 30
0.0
 11
44.213122
 21
252.765221
 31
0.0
  0
LINE
  5
C6
330
1F
100
AcDbEntity
  8
LC-001-100-D00-0
 62
     7
370
    50
100
AcDbLine
 10
43.013124
 20
252.765221
 30
0.0
 11
43.013124
 21
253.965221
 31
0.0
  0
LINE
  5
C7
330
1F
100
AcDbEntity
  8
LC-001-100-D00-0
 62
     7
370
    50
100
AcDbLine
 10
44.213122
 20
253.965221
 30
0.0
 11
43.013124
 21
253.965221
 31
0.0
  0
LINE
  5
C8
330
1F
100
AcDbEntity
  8
LC-001-100-D00-0
 62
     7
370
    50
100
AcDbLine
 10
44.213122
 20
255.965221
 30
0.0
 11
44.213122
 21
253.965221
 31
0.0
  0
LINE
  5
C9
330
1F
100
AcDbEntity
  8
LC-001-100-D00-0
 62
     7
370
    50
100
AcDbLine
 10
43.013124
 20
255.965221
 30
0.0
 11
44.213122
 21
255.965221
 31
0.0
  0
LINE
  5
CA
330
1F
100
AcDbEntity
  8
LC-001-100-D00-0
 62
     7
370
    50
100
AcDbLine
 10
43.013124
 20
255.965221
 30
0.0
 11
43.013124
 21
257.165221
 31
0.0
  0
LINE
  5
CB
330
1F
100
AcDbEntity
  8
LC-001-100-D00-0
 62
     7
370
    50
100
AcDbLine
 10
44.213122
 20
257.165221
 30
0.0
 11
43.013124
 21
257.165221
 31
0.0
  0
LINE
  5
CC
330
1F
100
AcDbEntity
  8
LC-001-100-D00-0
 62
     7
370
    50
100
AcDbLine
 10
44.213122
 20
259.165221
 30
0.0
 11
44.213122
 21
257.165221
 31
0.0
  0
LINE
  5
CD
330
1F
100
AcDbEntity
  8
LC-001-100-D00-0
 62
     7
370
    50
100
AcDbLine
 10
43.013124
 20
259.165221
 30
0.0
 11
44.213122
 21
259.165221
 31
0.0
  0
LINE
  5
CE
330
1F
100
AcDbEntity
  8
LC-001-100-D00-0
 62
     7
370
    50
100
AcDbLine
 10
43.013124
 20
259.165221
 30
0.0
 11
43.013124
 21
260.365222
 31
0.0
  0
LINE
  5
CF
330
1F
100
AcDbEntity
  8
LC-001-100-D00-0
 62
     7
370
    50
100
AcDbLine
 10
44.213122
 20
260.365222
 30
0.0
 11
43.013124
 21
260.365222
 31
0.0
  0
LINE
  5
D0
330
1F
100
AcDbEntity
  8
LC-001-100-D00-0
 62
     7
370
    50
100
AcDbLine
 10
44.213122
 20
262.365221
 30
0.0
 11
44.213122
 21
260.365222
 31
0.0
  0
LINE
  5
D1
330
1F
100
AcDbEntity
  8
LC-001-100-D00-0
 62
     7
370
    50
100
AcDbLine
 10
43.013124
 20
262.365221
 30
0.0
 11
44.213122
 21
262.365221
 31
0.0
  0
LINE
  5
D2
330
1F
100
AcDbEntity
  8
LC-001-100-D00-0
 62
     7
370
    50
100
AcDbLine
 10
43.013124
 20
262.365221
 30
0.0
 11
43.013124
 21
264.165221
 31
0.0
  0
LINE
  5
D3
330
1F
100
AcDbEntity
  8
LC-001-100-D00-0
 62
     7
370
    50
100
AcDbLine
 10
43.013124
 20
264.165221
 30
0.0
 11
41.513121
 21
264.165221
 31
0.0
  0
ARC
  5
D4
330
1F
100
AcDbEntity
  8
LC-001-100-D00-0
 62
     7
370
    50
100
AcDbCircle
 10
43.713123
 20
268.865221
 30
0.0
 40
1.0
100
AcDbArc
 50
90.0
 51
180.0
  0
LINE
  5
D5
330
1F
100
AcDbEntity
  8
LC-001-100-D00-0
 62
     7
370
    50
100
AcDbLine
 10
44.213122
 20
269.865222
 30
0.0
 11
43.713121
 21
269.865222
 31
0.0
  0
ARC
  5
D6
330
1F
100
AcDbEntity
  8
LC-001-100-D00-0
 62
     7
370
    50
100
AcDbCircle
 10
44.213123
 20
268.865221
 30
0.0
 40
1.0
100
AcDbArc
 50
0.0
 51
90.0
  0
LINE
  5
D7
330
1F
100
AcDbEntity
  8
LC-001-100-D00-0
 62
     7
370
    50
100
AcDbLine
 10
46.013123
 20
263.165221
 30
0.0
 11
44.513123
 21
263.165221
 31
0.0
  0
LINE
  5
D8
330
1F
100
AcDbEntity
  8
LC-001-100-D00-0
 62
     7
370
    50
100
AcDbLine
 10
44.513123
 20
233.565222
 30
0.0
 11
44.513123
 21
263.165221
 31
0.0
  0
LINE
  5
D9
330
1F
100
AcDbEntity
  8
LC-001-100-D00-0
 62
     7
370
    50
100
AcDbLine
 10
43.013124
 20
233.565222
 30
0.0
 11
44.513123
 21
233.565222
 31
0.0
  0
LINE
  5
DA
330
1F
100
AcDbEntity
  8
LC-001-100-D00-0
 62
     7
370
    50
100
AcDbLine
 10
43.013124
 20
233.565222
 30
0.0
 11
43.013124
 21
234.765222
 31
0.0
  0
LINE
  5
DB
330
1F
100
AcDbEntity
  8
LC-001-100-D00-0
 62
     7
370
    50
100
AcDbLine
 10
44.213122
 20
234.765222
 30
0.0
 11
43.013124
 21
234.765222
 31
0.0
  0
LINE
  5
DC
330
1F
100
AcDbEntity
  8
LC-001-100-D00-0
 62
     7
370
    50
100
AcDbLine
 10
44.213122
 20
236.765222
 30
0.0
 11
44.213122
 21
234.765222
 31
0.0
  0
LINE
  5
DD
330
1F
100
AcDbEntity
  8
LC-001-100-D00-0
 62
     7
370
    50
100
AcDbLine
 10
43.013124
 20
236.765222
 30
0.0
 11
44.213122
 21
236.765222
 31
0.0
  0
LINE
  5
DE
330
1F
100
AcDbEntity
  8
LC-001-100-D00-0
 62
     7
370
    50
100
AcDbLine
 10
43.013124
 20
236.765222
 30
0.0
 11
43.013124
 21
237.965221
 31
0.0
  0
LINE
  5
DF
330
1F
100
AcDbEntity
  8
LC-001-100-D00-0
 62
     7
370
    50
100
AcDbLine
 10
44.213122
 20
237.965221
 30
0.0
 11
43.013124
 21
237.965221
 31
0.0
  0
LINE
  5
E0
330
1F
100
AcDbEntity
  8
LC-001-100-D00-0
 62
     7
370
    50
100
AcDbLine
 10
44.213122
 20
239.965221
 30
0.0
 11
44.213122
 21
237.965221
 31
0.0
  0
LINE
  5
E1
330
1F
100
AcDbEntity
  8
LC-001-100-D00-0
 62
     7
370
    50
100
AcDbLine
 10
43.013124
 20
239.965221
 30
0.0
 11
44.213122
 21
239.965221
 31
0.0
  0
LINE
  5
E2
330
1F
100
AcDbEntity
  8
LC-001-100-D00-0
 62
     7
370
    50
100
AcDbLine
 10
43.013124
 20
239.965221
 30
0.0
 11
43.013124
 21
241.165221
 31
0.0
  0
LINE
  5
E3
330
1F
100
AcDbEntity
  8
LC-001-100-D00-0
 62
     7
370
    50
100
AcDbLine
 10
44.213122
 20
241.165221
 30
0.0
 11
43.013124
 21
241.165221
 31
0.0
  0
LINE
  5
E4
330
1F
100
AcDbEntity
  8
LC-001-100-D00-0
 62
     7
370
    50
100
AcDbLine
 10
44.213122
 20
243.165222
 30
0.0
 11
44.213122
 21
241.165221
 31
0.0
  0
LINE
  5
E5
330
1F
100
AcDbEntity
  8
LC-001-100-D00-0
 62
     7
370
    50
100
AcDbLine
 10
43.013124
 20
243.165222
 30
0.0
 11
44.213122
 21
243.165222
 31
0.0
  0
LINE
  5
E6
330
1F
100
AcDbEntity
  8
LC-001-100-D00-0
 62
     7
370
    50
100
AcDbLine
 10
43.013124
 20
243.165222
 30
0.0
 11
43.013124
 21
244.365221
 31
0.0
  0
LINE
  5
E7
330
1F
100
AcDbEntity
  8
LC-001-100-D00-0
 62
     7
370
    50
100
AcDbLine
 10
44.213122
 20
244.365221
 30
0.0
 11
43.013124
 21
244.365221
 31
0.0
  0
LINE
  5
E8
330
1F
100
AcDbEntity
  8
LC-001-100-D00-0
 62
     7
370
    50
100
AcDbLine
 10
44.213122
 20
246.365221
 30
0.0
 11
44.213122
 21
244.365221
 31
0.0
  0
LINE
  5
E9
330
1F
100
AcDbEntity
  8
LC-001-100-D00-0
 62
     7
370
    50
100
AcDbLine
 10
43.013124
 20
246.365221
 30
0.0
 11
44.213122
 21
246.365221
 31
0.0
  0
LINE
  5
EA
330
1F
100
AcDbEntity
  8
LC-001-100-D00-0
 62
     7
370
    50
100
AcDbLine
 10
43.013124
 20
246.365221
 30
0.0
 11
43.013124
 21
247.565221
 31
0.0
  0
LINE
  5
EB
330
1F
100
AcDbEntity
  8
LC-001-100-D00-0
 62
     7
370
    50
100
AcDbLine
 10
44.213122
 20
247.565221
 30
0.0
 11
43.013124
 21
247.565221
 31
0.0
  0
LINE
  5
EC
330
1F
100
AcDbEntity
  8
LC-001-100-D00-0
 62
     7
370
    50
100
AcDbLine
 10
44.213122
 20
249.565221
 30
0.0
 11
44.213122
 21
247.565221
 31
0.0
  0
LINE
  5
ED
330
1F
100
AcDbEntity
  8
LC-001-100-D00-0
 62
     7
370
    50
100
AcDbLine
 10
43.013124
 20
249.565221
 30
0.0
 11
44.213122
 21
249.565221
 31
0.0
  0
ARC
  5
EE
330
1F
100
AcDbEntity
  8
LC-001-100-D00-0
 62
     7
370
    50
100
AcDbCircle
 10
41.513123
 20
265.365221
 30
0.0
 40
1.199999999999989
100
AcDbArc
 50
270.0
 51
0.0
  0
LINE
  5
EF
330
1F
100
AcDbEntity
  8
LC-001-100-D00-0
 62
     7
370
    50
100
AcDbLine
 10
45.213124
 20
265.365221
 30
0.0
 11
45.213124
 21
268.865222
 31
0.0
  0
LINE
  5
F0
330
1F
100
AcDbEntity
  8
LC-001-100-D00-0
 62
     7
370
    50
100
AcDbLine
 10
42.713123
 20
265.365221
 30
0.0
 11
42.713123
 21
268.865222
 31
0.0
  0
ARC
  5
F1
330
1F
100
AcDbEntity
  8
LC-001-100-D00-0
 62
     7
370
    50
100
AcDbCircle
 10
46.413123
 20
265.365221
 30
0.0
 40
1.200000000000109
100
AcDbArc
 50
180.0
 51
250.528779
  0
LINE
  5
F2
330
1F
100
AcDbEntity
  8
LC-001-100-D00-0
 62
     7
370
    50
100
AcDbLine
 10
138.569115
 20
233.565222
 30
0.0
 11
139.513122
 21
233.565222
 31
0.0
  0
LINE
  5
F3
330
1F
100
AcDbEntity
  8
LC-001-100-D00-0
 62
     7
370
    50
100
AcDbLine
 10
138.569115
 20
263.165221
 30
0.0
 11
138.569115
 21
233.565222
 31
0.0
  0
LINE
  5
F4
330
1F
100
AcDbEntity
  8
LC-001-100-D00-0
 62
     7
370
    50
100
AcDbLine
 10
45.457131
 20
233.565222
 30
0.0
 11
45.457131
 21
263.165221
 31
0.0
  0
LINE
  5
F5
330
1F
100
AcDbEntity
  8
LC-001-100-D00-0
 62
     7
370
    50
100
AcDbLine
 10
44.513123
 20
233.565222
 30
0.0
 11
45.457131
 21
233.565222
 31
0.0
  0
LINE
  5
F6
330
1F
100
AcDbEntity
  8
LC-001-100-D00-0
 62
     7
370
    50
100
AcDbLine
 10
138.093157
 20
233.565222
 30
0.0
 11
138.093157
 21
263.165221
 31
0.0
  0
LINE
  5
F7
330
1F
100
AcDbEntity
  8
LC-001-100-D00-0
 62
     7
370
    50
100
AcDbLine
 10
138.093157
 20
233.565222
 30
0.0
 11
138.569115
 21
233.565222
 31
0.0
  0
LINE
  5
F8
330
1F
100
AcDbEntity
  8
LC-001-100-D00-0
 62
     7
370
    50
100
AcDbLine
 10
45.933089
 20
263.165221
 30
0.0
 11
45.933089
 21
233.565222
 31
0.0
  0
LINE
  5
F9
330
1F
100
AcDbEntity
  8
LC-001-100-D00-0
 62
     7
370
    50
100
AcDbLine
 10
45.457131
 20
233.565222
 30
0.0
 11
45.933089
 21
233.565222
 31
0.0
  0
LINE
  5
FA
330
1F
100
AcDbEntity
  8
LC-001-100-D00-0
 62
     7
370
    50
100
AcDbLine
 10
119.19548
 20
263.165221
 30
0.0
 11
119.19548
 21
233.565222
 31
0.0
  0
LINE
  5
FB
330
1F
100
AcDbEntity
  8
LC-001-100-D00-0
 62
     7
370
    50
100
AcDbLine
 10
119.19548
 20
233.565222
 30
0.0
 11
138.093157
 21
233.565222
 31
0.0
  0
LINE
  5
FC
330
1F
100
AcDbEntity
  8
LC-001-100-D00-0
 62
     7
370
    50
100
AcDbLine
 10
64.830766
 20
233.565222
 30
0.0
 11
64.830766
 21
263.165221
 31
0.0
  0
LINE
  5
FD
330
1F
100
AcDbEntity
  8
LC-001-100-D00-0
 62
     7
370
    50
100
AcDbLine
 10
45.933089
 20
233.565222
 30
0.0
 11
64.830766
 21
233.565222
 31
0.0
  0
LINE
  5
FE
330
1F
100
AcDbEntity
  8
LC-001-100-D00-0
 62
     7
370
    50
100
AcDbLine
 10
117.674359
 20
233.565222
 30
0.0
 11
117.674359
 21
263.165221
 31
0.0
  0
LINE
  5
FF
330
1F
100
AcDbEntity
  8
LC-001-100-D00-0
 62
     7
370
    50
100
AcDbLine
 10
117.674359
 20
233.565222
 30
0.0
 11
119.19548
 21
233.565222
 31
0.0
  0
LINE
  5
100
330
1F
100
AcDbEntity
  8
LC-001-100-D00-0
 62
     7
370
    50
100
AcDbLine
 10
66.351887
 20
263.165221
 30
0.0
 11
66.351887
 21
233.565222
 31
0.0
  0
LINE
  5
101
330
1F
100
AcDbEntity
  8
LC-001-100-D00-0
 62
     7
370
    50
100
AcDbLine
 10
64.830766
 20
233.565222
 30
0.0
 11
66.351887
 21
233.565222
 31
0.0
  0
LINE
  5
102
330
1F
100
AcDbEntity
  8
LC-001-100-D00-0
 62
     7
370
    50
100
AcDbLine
 10
66.351887
 20
233.565222
 30
0.0
 11
117.674359
 21
233.565222
 31
0.0
  0
ARC
  5
103
330
1F
100
AcDbEntity
  8
LC-001-100-D00-0
 62
     7
370
    50
100
AcDbCircle
 10
139.813123
 20
268.865221
 30
0.0
 40
1.699999999999989
100
AcDbArc
 50
90.0
 51
180.0
  0
LINE
  5
104
330
1F
100
AcDbEntity
  8
LC-001-100-D00-0
 62
     7
370
    50
100
AcDbLine
 10
139.813124
 20
270.565221
 30
0.0
 11
140.313121
 21
270.565221
 31
0.0
  0
ARC
  5
105
330
1F
100
AcDbEntity
  8
LC-001-100-D00-0
 62
     7
370
    50
100
AcDbCircle
 10
140.313123
 20
268.865221
 30
0.0
 40
1.700000000000017
100
AcDbArc
 50
0.0
 51
90.0
  0
LINE
  5
106
330
1F
100
AcDbEntity
  8
LC-001-100-D00-0
 62
     7
370
    50
100
AcDbLine
 10
142.013124
 20
268.865222
 30
0.0
 11
142.013124
 21
265.983255
 31
0.0
  0
ARC
  5
107
330
1F
100
AcDbEntity
  8
LC-001-100-D00-0
 62
     7
370
    50
100
AcDbCircle
 10
143.513123
 20
265.983255
 30
0.0
 40
1.500000000000028
100
AcDbArc
 50
180.0
 51
228.189685
  0
LINE
  5
108
330
1F
100
AcDbEntity
  8
LC-001-100-D00-0
 62
     7
370
    50
100
AcDbLine
 10
142.513121
 20
264.865221
 30
0.0
 11
142.513121
 21
264.165221
 31
0.0
  0
LINE
  5
109
330
1F
100
AcDbEntity
  8
LC-001-100-D00-0
 62
     7
370
    50
100
AcDbLine
 10
138.813122
 20
265.865221
 30
0.0
 11
138.813122
 21
268.865222
 31
0.0
  0
ARC
  5
10A
330
1F
100
AcDbEntity
  8
LC-001-100-D00-0
 62
     7
370
    50
100
AcDbCircle
 10
137.113123
 20
265.865221
 30
0.0
 40
1.700000000000022
100
AcDbArc
 50
306.031879
 51
0.0
  0
LINE
  5
10B
330
1F
100
AcDbEntity
  8
LC-001-100-D00-0
 62
     7
370
    50
100
AcDbLine
 10
138.113121
 20
264.490448
 30
0.0
 11
138.113121
 21
264.865221
 31
0.0
  0
LINE
  5
10C
330
1F
100
AcDbEntity
  8
LC-001-100-D00-0
 62
     7
370
    50
100
AcDbLine
 10
138.113121
 20
264.865221
 30
0.0
 11
138.113121
 21
268.865222
 31
0.0
  0
ARC
  5
10D
330
1F
100
AcDbEntity
  8
LC-001-100-D00-0
 62
     7
370
    50
100
AcDbCircle
 10
46.913123
 20
265.865221
 30
0.0
 40
1.0
100
AcDbArc
 50
180.0
 51
270.0
  0
LINE
  5
10E
330
1F
100
AcDbEntity
  8
LC-001-100-D00-0
 62
     7
370
    50
100
AcDbLine
 10
46.913123
 20
264.865221
 30
0.0
 11
45.913121
 21
264.865221
 31
0.0
  0
LINE
  5
10F
330
1F
100
AcDbEntity
  8
LC-001-100-D00-0
 62
     7
370
    50
100
AcDbLine
 10
82.463253
 20
264.865221
 30
0.0
 11
46.913123
 21
264.865221
 31
0.0
  0
LINE
  5
110
330
1F
100
AcDbEntity
  8
LC-001-100-D00-0
 62
     7
370
    50
100
AcDbLine
 10
92.013122
 20
264.865221
 30
0.0
 11
82.463253
 21
264.865221
 31
0.0
  0
LINE
  5
111
330
1F
100
AcDbEntity
  8
LC-001-100-D00-0
 62
     7
370
    50
100
AcDbLine
 10
101.562991
 20
264.865221
 30
0.0
 11
92.013122
 21
264.865221
 31
0.0
  0
LINE
  5
112
330
1F
100
AcDbEntity
  8
LC-001-100-D00-0
 62
     7
370
    50
100
AcDbLine
 10
137.113123
 20
264.865221
 30
0.0
 11
101.562991
 21
264.865221
 31
0.0
  0
LINE
  5
113
330
1F
100
AcDbEntity
  8
LC-001-100-D00-0
 62
     7
370
    50
100
AcDbLine
 10
138.113121
 20
264.865221
 30
0.0
 11
137.113123
 21
264.865221
 31
0.0
  0
INSERT
  5
121
330
1F
100
AcDbEntity
  8
LC-001-100-D00-0
 62
     7
370
    50
100
AcDbBlockReference
  2
POLY4
 10
0.0
 20
0.0
 30
0.0
  0
INSERT
  5
135
330
1F
100
AcDbEntity
  8
LC-001-100-D00-0
 62
     7
370
    50
100
AcDbBlockReference
  2
POLY5
 10
0.0
 20
0.0
 30
0.0
  0
INSERT
  5
145
330
1F
100
AcDbEntity
  8
LC-001-100-D00-0
 62
     7
370
    50
100
AcDbBlockReference
  2
POLY6
 10
0.0
 20
0.0
 30
0.0
  0
LINE
  5
146
330
1F
100
AcDbEntity
  8
LC-001-100-D00-0
 62
     7
370
    50
100
AcDbLine
 10
45.913121
 20
264.865221
 30
0.0
 11
45.913121
 21
264.490448
 31
0.0
  0
ARC
  5
147
330
1F
100
AcDbEntity
  8
LC-001-100-D00-0
 62
     7
370
    50
100
AcDbCircle
 10
46.913123
 20
265.865221
 30
0.0
 40
1.700000000000024
100
AcDbArc
 50
180.0
 51
233.968121
  0
LINE
  5
148
330
1F
100
AcDbEntity
  8
LC-001-100-D00-0
 62
     7
370
    50
100
AcDbLine
 10
45.213124
 20
268.865222
 30
0.0
 11
45.213124
 21
265.865221
 31
0.0
  0
LINE
  5
149
330
1F
100
AcDbEntity
  8
LC-001-100-D00-0
 62
     7
370
    50
100
AcDbLine
 10
41.513121
 20
264.165221
 30
0.0
 11
41.513121
 21
264.865221
 31
0.0
  0
ARC
  5
14A
330
1F
100
AcDbEntity
  8
LC-001-100-D00-0
 62
     7
370
    50
100
AcDbCircle
 10
40.513123
 20
265.983255
 30
0.0
 40
1.499999999999993
100
AcDbArc
 50
311.810315
 51
0.0
  0
LINE
  5
14B
330
1F
100
AcDbEntity
  8
LC-001-100-D00-0
 62
     7
370
    50
100
AcDbLine
 10
42.013122
 20
265.983255
 30
0.0
 11
42.013122
 21
268.865222
 31
0.0
  0
ARC
  5
14C
330
1F
100
AcDbEntity
  8
LC-001-100-D00-0
 62
     7
370
    50
100
AcDbCircle
 10
43.713123
 20
268.865221
 30
0.0
 40
1.699999999999989
100
AcDbArc
 50
90.0
 51
180.0
  0
LINE
  5
14D
330
1F
100
AcDbEntity
  8
LC-001-100-D00-0
 62
     7
370
    50
100
AcDbLine
 10
43.713121
 20
270.565221
 30
0.0
 11
44.213122
 21
270.565221
 31
0.0
  0
ARC
  5
14E
330
1F
100
AcDbEntity
  8
LC-001-100-D00-0
 62
     7
370
    50
100
AcDbCircle
 10
44.213123
 20
268.865221
 30
0.0
 40
1.699999999999996
100
AcDbArc
 50
0.0
 51
90.0
  0
LINE
  5
14F
330
1F
100
AcDbEntity
  8
LC-001-100-D00-0
 62
     7
370
    50
100
AcDbLine
 10
45.913121
 20
268.865222
 30
0.0
 11
45.913121
 21
264.865221
 31
0.0
  0
LINE
  5
150
330
1F
100
AcDbEntity
  8
LC-001-100-D00-0
 62
     7
370
    50
100
AcDbLine
 10
44.213122
 20
270.565221
 30
0.0
 11
48.713124
 21
270.565221
 31
0.0
  0
LINE
  5
151
330
1F
100
AcDbEntity
  8
LC-001-100-D00-0
 62
     7
370
    50
100
AcDbLine
 10
135.313122
 20
270.565221
 30
0.0
 11
139.813124
 21
270.565221
 31
0.0
  0
LINE
  5
152
330
1F
100
AcDbEntity
  8
LC-001-100-D00-0
 62
     7
370
    50
100
AcDbLine
 10
48.713124
 20
270.565221
 30
0.0
 11
135.313122
 21
270.565221
 31
0.0
  0
LINE
  5
153
330
1F
100
AcDbEntity
  8
LC-001-100-D00-0
 62
     7
370
    50
100
AcDbLine
 10
138.813122
 20
265.365221
 30
0.0
 11
138.73793
 21
265.365221
 31
0.0
  0
LINE
  5
154
330
1F
100
AcDbEntity
  8
LC-001-100-D00-0
 62
     7
370
    50
100
AcDbLine
 10
45.288315
 20
265.365221
 30
0.0
 11
45.213124
 21
265.365221
 31
0.0
  0
INSERT
  5
164
330
1F
100
AcDbEntity
  8
LC-001-100-D00-0
 62
     7
370
    25
100
AcDbBlockReference
  2
KLON1
 10
0.0
 20
0.0
 30
0.0
  0
INSERT
  5
175
330
1F
100
AcDbEntity
  8
LC-001-100-D00-0
 62
     7
370
    25
100
AcDbBlockReference
  2
KLON2
 10
0.0
 20
0.0
 30
0.0
  0
INSERT
  5
184
330
1F
100
AcDbEntity
  8
LC-001-100-D00-0
 62
     7
370
    25
100
AcDbBlockReference
  2
KLON3
 10
0.0
 20
0.0
 30
0.0
  0
INSERT
  5
191
330
1F
100
AcDbEntity
  8
LC-001-100-D00-0
 62
     7
370
    25
100
AcDbBlockReference
  2
KLON4
 10
0.0
 20
0.0
 30
0.0
  0
DIMENSION
  5
195
330
1F
100
AcDbEntity
  8
LC-002-003-----0
 62
     7
370
    25
100
AcDbDimension
  2
*D11
 10
5.863036
 20
264.165221
 30
0.0
 11
-24.936964
 21
275.575584
 31
0.0
 70
   160
  1
6,4
 71
     5
 42
6.4
 53
90.0
  3
LC-DIM-L-0140-02-02
100
AcDbAlignedDimension
 13
44.213123
 23
270.565221
 33
0.0
 14
41.513123
 24
264.165221
 34
0.0
 50
90.0
100
AcDbRotatedDimension
  0
DIMENSION
  5
1A4
330
1F
100
AcDbEntity
  8
LC-002-003-----0
 62
     7
370
    25
100
AcDbDimension
  2
*D12
 10
192.469554
 20
233.565221
 30
0.0
 11
161.669554
 21
262.507584
 31
0.0
 70
   160
 71
     5
 42
37.0
 53
90.0
  3
LC-DIM-L-0140-02-02
100
AcDbAlignedDimension
 13
140.313123
 23
270.565221
 33
0.0
 14
138.093156
 24
233.565221
 34
0.0
 50
90.0
100
AcDbRotatedDimension
  0
LINE
  5
1B5
330
1F
100
AcDbEntity
  8
LC-003-105-D00-0
 62
     7
370
    25
100
AcDbLine
 10
92.013123
 20
233.565222
 30
0.0
 11
92.013123
 21
270.565221
 31
0.0
  0
DIMENSION
  5
1B6
330
1F
100
AcDbEntity
  8
LC-002-003-----0
 62
     7
370
    25
100
AcDbDimension
  2
*D13
 10
142.013123
 20
301.711584
 30
0.0
 11
105.799228
 21
332.511584
 31
0.0
 70
   160
 71
     5
 42
99.998873
  3
LC-DIM-L-0140-02-02
100
AcDbAlignedDimension
 13
42.01425
 23
268.927118
 33
0.0
 14
142.013123
 24
268.833595
 34
0.0
100
AcDbRotatedDimension
  0
ENDSEC
  0
SECTION
  2
OBJECTS
  0
DICTIONARY
  5
C
330
0
100
AcDbDictionary
281
     1
  3
ACAD_GROUP
350
D
  3
ACAD_LAYOUT
350
1A
  3
ACAD_MLINESTYLE
350
17
  3
ACAD_PLOTSETTINGS
350
19
  3
ACAD_PLOTSTYLENAME
350
E
  0
DICTIONARY
  5
D
102
{ACAD_REACTORS
330
C
102
}
330
C
100
AcDbDictionary
281
     1
  0
DICTIONARY
  5
1A
102
{ACAD_REACTORS
330
C
102
}
330
C
100
AcDbDictionary
281
     1
  3
Layout1
350
1E
  3
Layout2
350
26
  3
Model
350
22
  0
DICTIONARY
  5
17
102
{ACAD_REACTORS
330
C
102
}
330
C
100
AcDbDictionary
281
     1
  3
Standard
350
18
  0
DICTIONARY
  5
19
102
{ACAD_REACTORS
330
C
102
}
330
C
100
AcDbDictionary
281
     1
  0
ACDBDICTIONARYWDFLT
  5
E
102
{ACAD_REACTORS
330
C
102
}
330
C
100
AcDbDictionary
281
     1
  3
Normal
350
F
100
AcDbDictionaryWithDefault
340
F
  0
LAYOUT
  5
1E
102
{ACAD_REACTORS
330
1A
102
}
330
1A
100
AcDbPlotSettings
  1

  2

  4

  6

 40
0.0
 41
0.0
 42
0.0
 43
0.0
 44
0.0
 45
0.0
 46
0.0
 47
0.0
 48
0.0
 49
0.0
140
0.0
141
0.0
142
1.0
143
1.0
 70
   688
 72
     0
 73
     0
 74
     5
  7

 75
    16
147
1.0
148
0.0
149
0.0
100
AcDbLayout
  1
Layout1
 70
     1
 71
     1
 10
-271.75
 20
-87.358416
 11
568.25
 21
506.641584
 12
0.0
 22
0.0
 32
0.0
 14
-271.75
 24
-87.358416
 34
0.0
 15
568.25
 25
506.641584
 35
0.0
146
0.0
 13
0.0
 23
0.0
 33
0.0
 16
1.0
 26
0.0
 36
0.0
 17
0.0
 27
1.0
 37
0.0
 76
     0
330
1B
  0
LAYOUT
  5
26
102
{ACAD_REACTORS
330
1A
102
}
330
1A
100
AcDbPlotSettings
  1

  2

  4

  6

 40
0.0
 41
0.0
 42
0.0
 43
0.0
 44
0.0
 45
0.0
 46
0.0
 47
0.0
 48
0.0
 49
0.0
140
0.0
141
0.0
142
1.0
143
1.0
 70
   688
 72
     0
 73
     0
 74
     5
  7

 75
    16
147
1.0
148
0.0
149
0.0
100
AcDbLayout
  1
Layout2
 70
     1
 71
     2
 10
0.0
 20
0.0
 11
0.0
 21
0.0
 12
0.0
 22
0.0
 32
0.0
 14
0.0
 24
0.0
 34
0.0
 15
0.0
 25
0.0
 35
0.0
146
0.0
 13
0.0
 23
0.0
 33
0.0
 16
1.0
 26
0.0
 36
0.0
 17
0.0
 27
1.0
 37
0.0
 76
     0
330
23
  0
LAYOUT
  5
22
102
{ACAD_REACTORS
330
1A
102
}
330
1A
100
AcDbPlotSettings
  1

  2

  4

  6

 40
0.0
 41
0.0
 42
0.0
 43
0.0
 44
0.0
 45
0.0
 46
0.0
 47
0.0
 48
0.0
 49
0.0
140
0.0
141
0.0
142
1.0
143
1.0
 70
  1776
 72
     0
 73
     0
 74
     0
  7

 75
     0
147
1.0
148
0.0
149
0.0
100
AcDbLayout
  1
Model
 70
     1
 71
     0
 10
-271.75
 20
-87.358416
 11
568.25
 21
506.641584
 12
0.0
 22
0.0
 32
0.0
 14
-271.75
 24
-87.358416
 34
0.0
 15
568.25
 25
506.641584
 35
0.0
146
0.0
 13
0.0
 23
0.0
 33
0.0
 16
1.0
 26
0.0
 36
0.0
 17
0.0
 27
1.0
 37
0.0
 76
     0
330
1F
  0
MLINESTYLE
  5
18
102
{ACAD_REACTORS
330
17
102
}
330
17
100
AcDbMlineStyle
  2
Standard
 70
     0
  3

 62
   256
 51
90.0
 52
90.0
 71
     2
 49
0.5
 62
   256
  6
BYLAYER
 49
-0.5
 62
   256
  6
BYLAYER
  0
ACDBPLACEHOLDER
  5
F
102
{ACAD_REACTORS
330
E
102
}
330
E
  0
ENDSEC
  0
EOF
