  0
SECTION
  2
HEADER
  9
$ACADVER
  1
AC1015
  9
$ACADMAINTVER
 70
     6
  9
$DWGCODEPAGE
  3
DOS850
  9
$INSBASE
 10
-0.259531
 20
1.882426
 30
0.0
  9
$EXTMIN
 10
-210.0
 20
-148.5
 30
0.0
  9
$EXTMAX
 10
630.0
 20
445.5
 30
0.0
  9
$LIMMIN
 10
-210.0
 20
-148.5
  9
$LIMMAX
 10
630.0
 20
445.5
  9
$ORTHOMODE
 70
     0
  9
$REGENMODE
 70
     1
  9
$FILLMODE
 70
     1
  9
$QTEXTMODE
 70
     0
  9
$MIRRTEXT
 70
     1
  9
$LTSCALE
 40
2.0
  9
$ATTMODE
 70
     1
  9
$TEXTSIZE
 40
2.5
  9
$TRACEWID
 40
1.0
  9
$TEXTSTYLE
  7
Standard
  9
$CLAYER
  8
0
  9
$CELTYPE
  6
ByLayer
  9
$CECOLOR
 62
     7
  9
$CELTSCALE
 40
1.0
  9
$DISPSILH
 70
     0
  9
$DIMSCALE
 40
2.0
  9
$DIMASZ
 40
3.5
  9
$DIMEXO
 40
0.625
  9
$DIMDLI
 40
3.75
  9
$DIMRND
 40
0.0
  9
$DIMDLE
 40
0.0
  9
$DIMEXE
 40
1.25
  9
$DIMTP
 40
0.0
  9
$DIMTM
 40
0.0
  9
$DIMTXT
 40
3.5
  9
$DIMCEN
 40
2.5
  9
$DIMTSZ
 40
0.0
  9
$DIMTOL
 70
     0
  9
$DIMLIM
 70
     0
  9
$DIMTIH
 70
     0
  9
$DIMTOH
 70
     0
  9
$DIMSE1
 70
     0
  9
$DIMSE2
 70
     0
  9
$DIMTAD
 70
     1
  9
$DIMZIN
 70
     8
  9
$DIMBLK
  1

  9
$DIMASO
 70
     1
  9
$DIMSHO
 70
     1
  9
$DIMPOST
  1

  9
$DIMAPOST
  1

  9
$DIMALT
 70
     0
  9
$DIMALTD
 70
     3
  9
$DIMALTF
 40
0.03937
  9
$DIMLFAC
 40
1.0
  9
$DIMTOFL
 70
     1
  9
$DIMTVP
 40
0.0
  9
$DIMTIX
 70
     0
  9
$DIMSOXD
 70
     0
  9
$DIMSAH
 70
     0
  9
$DIMBLK1
  1

  9
$DIMBLK2
  1

  9
$DIMSTYLE
  2
ISO-25
  9
$DIMCLRD
 70
     0
  9
$DIMCLRE
 70
     0
  9
$DIMCLRT
 70
     0
  9
$DIMTFAC
 40
1.0
  9
$DIMGAP
 40
0.625
  9
$DIMJUST
 70
     0
  9
$DIMSD1
 70
     0
  9
$DIMSD2
 70
     0
  9
$DIMTOLJ
 70
     0
  9
$DIMTZIN
 70
     8
  9
$DIMALTZ
 70
     0
  9
$DIMALTTZ
 70
     0
  9
$DIMUPT
 70
     0
  9
$DIMDEC
 70
     2
  9
$DIMTDEC
 70
     2
  9
$DIMALTU
 70
     2
  9
$DIMALTTD
 70
     3
  9
$DIMTXSTY
  7
Standard
  9
$DIMAUNIT
 70
     0
  9
$DIMADEC
 70
     0
  9
$DIMALTRND
 40
0.0
  9
$DIMAZIN
 70
     0
  9
$DIMDSEP
 70
    44
  9
$DIMATFIT
 70
     3
  9
$DIMFRAC
 70
     0
  9
$DIMLDRBLK
  1

  9
$DIMLUNIT
 70
     2
  9
$DIMLWD
 70
    -2
  9
$DIMLWE
 70
    -2
  9
$DIMTMOVE
 70
     0
  9
$LUNITS
 70
     2
  9
$LUPREC
 70
     4
  9
$SKETCHINC
 40
1.0
  9
$FILLETRAD
 40
10.0
  9
$AUNITS
 70
     0
  9
$AUPREC
 70
     0
  9
$MENU
  1
.
  9
$ELEVATION
 40
0.0
  9
$PELEVATION
 40
0.0
  9
$THICKNESS
 40
0.0
  9
$LIMCHECK
 70
     0
  9
$CHAMFERA
 40
10.0
  9
$CHAMFERB
 40
10.0
  9
$CHAMFERC
 40
20.0
  9
$CHAMFERD
 40
0.0
  9
$SKPOLY
 70
     0
  9
$TDCREATE
 40
2453663.386787847
  9
$TDUCREATE
 40
2453663.303454514
  9
$TDUPDATE
 40
2453663.386787859
  9
$TDUUPDATE
 40
2453663.303454525
  9
$TDINDWG
 40
0.0000000116
  9
$TDUSRTIMER
 40
0.0000000116
  9
$USRTIMER
 70
     1
  9
$ANGBASE
 50
0.0
  9
$ANGDIR
 70
     0
  9
$PDMODE
 70
     0
  9
$PDSIZE
 40
0.0
  9
$PLINEWID
 40
0.0
  9
$SPLFRAME
 70
     0
  9
$SPLINETYPE
 70
     6
  9
$SPLINESEGS
 70
     8
  9
$HANDSEED
  5
96
  9
$SURFTAB1
 70
     6
  9
$SURFTAB2
 70
     6
  9
$SURFTYPE
 70
     6
  9
$SURFU
 70
     6
  9
$SURFV
 70
     6
  9
$UCSBASE
  2

  9
$UCSNAME
  2

  9
$UCSORG
 10
0.0
 20
0.0
 30
0.0
  9
$UCSXDIR
 10
1.0
 20
0.0
 30
0.0
  9
$UCSYDIR
 10
0.0
 20
1.0
 30
0.0
  9
$UCSORTHOREF
  2

  9
$UCSORTHOVIEW
 70
     0
  9
$UCSORGTOP
 10
0.0
 20
0.0
 30
0.0
  9
$UCSORGBOTTOM
 10
0.0
 20
0.0
 30
0.0
  9
$UCSORGLEFT
 10
0.0
 20
0.0
 30
0.0
  9
$UCSORGRIGHT
 10
0.0
 20
0.0
 30
0.0
  9
$UCSORGFRONT
 10
0.0
 20
0.0
 30
0.0
  9
$UCSORGBACK
 10
0.0
 20
0.0
 30
0.0
  9
$PUCSBASE
  2

  9
$PUCSNAME
  2

  9
$PUCSORG
 10
0.0
 20
0.0
 30
0.0
  9
$PUCSXDIR
 10
1.0
 20
0.0
 30
0.0
  9
$PUCSYDIR
 10
0.0
 20
1.0
 30
0.0
  9
$PUCSORTHOREF
  2

  9
$PUCSORTHOVIEW
 70
     0
  9
$PUCSORGTOP
 10
0.0
 20
0.0
 30
0.0
  9
$PUCSORGBOTTOM
 10
0.0
 20
0.0
 30
0.0
  9
$PUCSORGLEFT
 10
0.0
 20
0.0
 30
0.0
  9
$PUCSORGRIGHT
 10
0.0
 20
0.0
 30
0.0
  9
$PUCSORGFRONT
 10
0.0
 20
0.0
 30
0.0
  9
$PUCSORGBACK
 10
0.0
 20
0.0
 30
0.0
  9
$USERI1
 70
     0
  9
$USERI2
 70
     0
  9
$USERI3
 70
     0
  9
$USERI4
 70
     0
  9
$USERI5
 70
     0
  9
$USERR1
 40
0.0
  9
$USERR2
 40
0.0
  9
$USERR3
 40
0.0
  9
$USERR4
 40
0.0
  9
$USERR5
 40
0.0
  9
$WORLDVIEW
 70
     1
  9
$SHADEDGE
 70
     3
  9
$SHADEDIF
 70
    70
  9
$TILEMODE
 70
     1
  9
$MAXACTVP
 70
    64
  9
$PINSBASE
 10
0.0
 20
0.0
 30
0.0
  9
$PLIMCHECK
 70
     0
  9
$PEXTMIN
 10
-210.0
 20
-148.5
 30
0.0
  9
$PEXTMAX
 10
630.0
 20
445.5
 30
0.0
  9
$PLIMMIN
 10
-210.0
 20
-148.5
  9
$PLIMMAX
 10
630.0
 20
445.5
  9
$UNITMODE
 70
     0
  9
$VISRETAIN
 70
     1
  9
$PLINEGEN
 70
     0
  9
$PSLTSCALE
 70
     1
  9
$TREEDEPTH
 70
  3020
  9
$CMLSTYLE
  2
Standard
  9
$CMLJUST
 70
     0
  9
$CMLSCALE
 40
20.0
  9
$PROXYGRAPHICS
 70
     1
  9
$MEASUREMENT
 70
     1
  9
$CELWEIGHT
370
    -1
  9
$ENDCAPS
280
     0
  9
$JOINSTYLE
280
     0
  9
$LWDISPLAY
290
     0
  9
$INSUNITS
 70
     4
  9
$HYPERLINKBASE
  1

  9
$STYLESHEET
  1

  9
$XEDIT
290
     1
  9
$CEPSNTYPE
380
     0
  9
$PSTYLEMODE
290
     1
  9
$FINGERPRINTGUID
  2
{FAEB1C30-E019-11D5-929B-00C0DF256EC4}
  9
$VERSIONGUID
  2
{FAEB1C32-E019-11D5-929B-00C0DF256EC4}
  9
$EXTNAMES
290
     1
  9
$PSVPSCALE
 40
0.0
  9
$OLESTARTUP
290
     0
  0
ENDSEC
  0
SECTION
  2
CLASSES
  0
CLASS
  1
ACDBDICTIONARYWDFLT
  2
AcDbDictionaryWithDefault
  3
ObjectDBX Classes
 90
        0
280
     0
281
     0
  0
CLASS
  1
ACDBPLACEHOLDER
  2
AcDbPlaceHolder
  3
ObjectDBX Classes
 90
        0
280
     0
281
     0
  0
CLASS
  1
LAYOUT
  2
AcDbLayout
  3
ObjectDBX Classes
 90
        0
280
     0
281
     0
  0
ENDSEC
  0
SECTION
  2
TABLES
  0
TABLE
  2
VPORT
  5
8
330
0
100
AcDbSymbolTable
 70
     2
  0
VPORT
  5
29
330
8
100
AcDbSymbolTableRecord
100
AcDbViewportTableRecord
  2
*ACTIVE
 70
     0
 10
0.0
 20
0.0
 11
1.0
 21
1.0
 12
210.0
 22
148.5
 13
0.0
 23
0.0
 14
1.0
 24
1.0
 15
0.0
 25
0.0
 16
0.0
 26
0.0
 36
1.0
 17
0.0
 27
0.0
 37
0.0
 40
594.0
 41
1.414141
 42
50.0
 43
0.0
 44
0.0
 50
0.0
 51
0.0
 71
    16
 72
   100
 73
     1
 74
     0
 75
     0
 76
     0
 77
     0
 78
     0
281
     0
 65
     0
110
0.0
120
0.0
130
0.0
111
1.0
121
0.0
131
0.0
112
0.0
122
1.0
132
0.0
 79
     0
146
0.0
  0
ENDTAB
  0
TABLE
  2
LTYPE
  5
5
330
0
100
AcDbSymbolTable
 70
     3
  0
LTYPE
  5
14
330
5
100
AcDbSymbolTableRecord
100
AcDbLinetypeTableRecord
  2
ByBlock
 70
     0
  3

 72
    65
 73
     0
 40
0.0
  0
LTYPE
  5
15
330
5
100
AcDbSymbolTableRecord
100
AcDbLinetypeTableRecord
  2
ByLayer
 70
     0
  3

 72
    65
 73
     0
 40
0.0
  0
LTYPE
  5
16
330
5
100
AcDbSymbolTableRecord
100
AcDbLinetypeTableRecord
  2
Continuous
 70
     0
  3
Solid line
 72
    65
 73
     0
 40
0.0
  0
LTYPE
  5
2A
330
5
100
AcDbSymbolTableRecord
100
AcDbLinetypeTableRecord
  2
DASHED
 70
     0
  3
__ __ __ __ __
 72
    65
 73
     2
 40
6.25
 49
5.0
 74
     4
 75
     0
340
0
 46
1.0
 50
0.0
 44
0.0
 45
0.0
 49
-1.25
 74
     4
 75
     0
340
0
 46
1.0
 50
0.0
 44
0.0
 45
0.0
  0
LTYPE
  5
30
330
5
100
AcDbSymbolTableRecord
100
AcDbLinetypeTableRecord
  2
DASHDOT
 70
     0
  3
__ . __ . __ . __ . __
 72
    65
 73
     4
 40
7.5
 49
5.0
 74
     4
 75
     0
340
0
 46
1.0
 50
0.0
 44
0.0
 45
0.0
 49
-1.25
 74
     4
 75
     0
340
0
 46
1.0
 50
0.0
 44
0.0
 45
0.0
 49
0.0
 74
     4
 75
     0
340
0
 46
1.0
 50
0.0
 44
0.0
 45
0.0
 49
-1.25
 74
     4
 75
     0
340
0
 46
1.0
 50
0.0
 44
0.0
 45
0.0
  0
ENDTAB
  0
TABLE
  2
LAYER
  5
2
330
0
100
AcDbSymbolTable
 70
    12
  0
LAYER
  5
10
330
2
100
AcDbSymbolTableRecord
100
AcDbLayerTableRecord
  2
0
 70
     0
 62
     7
  6
Continuous
370
    -3
390
F
  0
LAYER
  5
2B
330
2
100
AcDbSymbolTableRecord
100
AcDbLayerTableRecord
  2
LC-INFO-1-2-mm-A3-0
 70
     1
 62
     7
  6
ByBlock
370
    -3
390
F
  0
LAYER
  5
2C
330
2
100
AcDbSymbolTableRecord
100
AcDbLayerTableRecord
  2
LC-CUT-HIDDEN
 70
     0
 62
     7
  6
DASHED
370
    -3
390
F
  0
LAYER
  5
2D
330
2
100
AcDbSymbolTableRecord
100
AcDbLayerTableRecord
  2
LC-VIEWPORT
 70
     0
 62
     7
  6
ByBlock
370
    -3
390
F
  0
LAYER
  5
2E
330
2
100
AcDbSymbolTableRecord
100
AcDbLayerTableRecord
  2
LC-3D-HIDDEN
 70
     0
 62
     9
  6
DASHED
370
    -3
390
F
  0
LAYER
  5
31
330
2
100
AcDbSymbolTableRecord
100
AcDbLayerTableRecord
  2
LC-001-006-MLN-0
 70
     0
 62
     2
  6
DASHDOT
370
    -3
390
F
  0
LAYER
  5
33
330
2
100
AcDbSymbolTableRecord
100
AcDbLayerTableRecord
  2
LC-002-007-KH--0
 70
     0
 62
    44
  6
DASHDOT
370
    -3
390
F
  0
LAYER
  5
36
330
2
100
AcDbSymbolTableRecord
100
AcDbLayerTableRecord
  2
LC-003-002-----0
 70
     0
 62
     1
  6
ByBlock
370
    -3
390
F
  0
LAYER
  5
3A
330
2
100
AcDbSymbolTableRecord
100
AcDbLayerTableRecord
  2
LC-004-002-RND-0
 70
     0
 62
     1
  6
ByBlock
370
    -3
390
F
  0
LAYER
  5
64
330
2
100
AcDbSymbolTableRecord
100
AcDbLayerTableRecord
  2
LC-005-005-----0
 70
     0
 62
     2
  6
ByBlock
370
    -3
390
F
  0
LAYER
  5
77
330
2
100
AcDbSymbolTableRecord
100
AcDbLayerTableRecord
  2
LC-006-003-----0
 70
     0
 62
     2
  6
ByBlock
370
    -3
390
F
  0
LAYER
  5
79
330
2
100
AcDbSymbolTableRecord
100
AcDbLayerTableRecord
  2
Defpoints
 70
     0
 62
     7
  6
Continuous
290
     0
370
    -3
390
F
  0
ENDTAB
  0
TABLE
  2
STYLE
  5
3
330
0
100
AcDbSymbolTable
 70
     3
  0
STYLE
  5
11
330
3
100
AcDbSymbolTableRecord
100
AcDbTextStyleTableRecord
  2
Standard
 70
     0
 40
0.0
 41
1.0
 50
0.0
 71
     0
 42
2.5
  3
txt
  4

  0
STYLE
  5
2F
330
3
100
AcDbSymbolTableRecord
100
AcDbTextStyleTableRecord
  2
LCTX15-400-0-0-Arial
 70
     0
 40
0.0
 41
0.9
 50
0.0
 71
     0
 42
3.5
  3

  4

1001
ACAD
1000
Arial
1071
 16777218
  0
STYLE
  5
75
330
3
100
AcDbSymbolTableRecord
100
AcDbTextStyleTableRecord
  2
LCTX15-400-0-0pDIN-Schrift
 70
     0
 40
2.5
 41
0.8
 50
15.0
 71
     0
 42
3.5
  3
STANDARD
  4

  0
ENDTAB
  0
TABLE
  2
VIEW
  5
6
330
0
100
AcDbSymbolTable
 70
     0
  0
ENDTAB
  0
TABLE
  2
UCS
  5
7
330
0
100
AcDbSymbolTable
 70
     0
  0
ENDTAB
  0
TABLE
  2
APPID
  5
9
330
0
100
AcDbSymbolTable
 70
     1
  0
APPID
  5
12
330
9
100
AcDbSymbolTableRecord
100
AcDbRegAppTableRecord
  2
ACAD
 70
     0
  0
ENDTAB
  0
TABLE
  2
DIMSTYLE
  5
A
330
0
100
AcDbSymbolTable
 70
     2
100
AcDbDimStyleTable
  0
DIMSTYLE
105
27
330
A
100
AcDbSymbolTableRecord
100
AcDbDimStyleTableRecord
  2
ISO-25
 70
     0
 41
2.5
 42
0.625
 43
3.75
 44
1.25
 73
     0
 74
     0
 77
     1
 78
     8
140
2.5
141
2.5
143
0.03937
147
0.625
171
     3
172
     1
271
     2
272
     2
274
     3
278
    44
283
     0
284
     8
340
11
  0
DIMSTYLE
105
76
102
{ACAD_REACTORS
330
78
330
86
102
}
330
A
100
AcDbSymbolTableRecord
100
AcDbDimStyleTableRecord
  2
LC-DIM-L-0140-02-02
 70
     0
 40
2.0
 41
14.0
 42
0.0
 43
7.5
 44
1.8
 73
     0
 74
     0
 77
     1
 78
     8
 79
     2
140
14.0
141
0.0
146
0.71
147
1.5
176
     2
177
     2
178
     2
179
     2
271
     2
278
    44
289
     1
340
75
  0
ENDTAB
  0
TABLE
  2
BLOCK_RECORD
  5
1
330
0
100
AcDbSymbolTable
 70
     5
  0
BLOCK_RECORD
  5
1F
330
1
100
AcDbSymbolTableRecord
100
AcDbBlockTableRecord
  2
*Model_Space
340
22
  0
BLOCK_RECORD
  5
1B
330
1
100
AcDbSymbolTableRecord
100
AcDbBlockTableRecord
  2
*Paper_Space
340
1E
  0
BLOCK_RECORD
  5
23
330
1
100
AcDbSymbolTableRecord
100
AcDbBlockTableRecord
  2
*Paper_Space0
340
26
  0
BLOCK_RECORD
  5
61
330
1
100
AcDbSymbolTableRecord
100
AcDbBlockTableRecord
  2
KLON1
340
0
102
{BLKREFS
331
6B
102
}
  0
BLOCK_RECORD
  5
6C
330
1
100
AcDbSymbolTableRecord
100
AcDbBlockTableRecord
  2
KLON2
340
0
102
{BLKREFS
331
74
102
}
  0
BLOCK_RECORD
  5
7A
330
1
100
AcDbSymbolTableRecord
100
AcDbBlockTableRecord
  2
*D3
340
0
  0
BLOCK_RECORD
  5
87
330
1
100
AcDbSymbolTableRecord
100
AcDbBlockTableRecord
  2
*D4
340
0
  0
ENDTAB
  0
ENDSEC
  0
SECTION
  2
BLOCKS
  0
BLOCK
  5
20
330
1F
100
AcDbEntity
  8
0
100
AcDbBlockBegin
  2
*Model_Space
 70
     0
 71
     0
 10
0.0
 20
0.0
 30
0.0
  3
*Model_Space
  1

  0
ENDBLK
  5
21
330
1F
100
AcDbEntity
  8
0
100
AcDbBlockEnd
  0
BLOCK
  5
1C
330
1B
100
AcDbEntity
 67
     1
  8
0
100
AcDbBlockBegin
  2
*Paper_Space
 70
     0
 71
     0
 10
0.0
 20
0.0
 30
0.0
  3
*Paper_Space
  1

  0
ENDBLK
  5
1D
330
1B
100
AcDbEntity
 67
     1
  8
0
100
AcDbBlockEnd
  0
BLOCK
  5
24
330
23
100
AcDbEntity
  8
0
100
AcDbBlockBegin
  2
*Paper_Space0
 70
     0
 71
     0
 10
0.0
 20
0.0
 30
0.0
  3
*Paper_Space0
  1

  0
ENDBLK
  5
25
330
23
100
AcDbEntity
  8
0
100
AcDbBlockEnd
  0
BLOCK
  5
62
330
61
100
AcDbEntity
  8
0
100
AcDbBlockBegin
  2
KLON1
 70
     0
 71
     0
 10
0.0
 20
0.0
 30
0.0
  3
KLON1
  1

  4
KLON1
  0
LINE
  5
65
330
61
100
AcDbEntity
  8
LC-005-005-----0
 62
     7
370
    25
100
AcDbLine
 10
134.957652
 20
179.468364
 30
0.0
 11
134.985012
 21
179.441003
 31
0.0
  0
LINE
  5
66
330
61
100
AcDbEntity
  8
LC-005-005-----0
 62
     7
370
    25
100
AcDbLine
 10
136.406333
 20
180.141003
 30
0.0
 11
137.084664
 21
179.462673
 31
0.0
  0
LINE
  5
67
330
61
100
AcDbEntity
  8
LC-005-005-----0
 62
     7
370
    25
100
AcDbLine
 10
137.357652
 20
181.311005
 30
0.0
 11
138.057286
 21
180.61137
 31
0.0
  0
LINE
  5
68
330
61
100
AcDbEntity
  8
LC-005-005-----0
 62
     7
370
    25
100
AcDbLine
 10
137.357652
 20
183.432325
 30
0.0
 11
138.057652
 21
182.732326
 31
0.0
  0
LINE
  5
69
330
61
100
AcDbEntity
  8
LC-005-005-----0
 62
     7
370
    25
100
AcDbLine
 10
137.608216
 20
185.303081
 30
0.0
 11
138.106386
 21
184.804911
 31
0.0
  0
LINE
  5
6A
330
61
100
AcDbEntity
  8
LC-005-005-----0
 62
     7
370
    25
100
AcDbLine
 10
139.157652
 20
183.753645
 30
0.0
 11
139.270294
 21
183.641003
 31
0.0
  0
ENDBLK
  5
63
330
61
100
AcDbEntity
  8
0
100
AcDbBlockEnd
  0
BLOCK
  5
6D
330
6C
100
AcDbEntity
  8
0
100
AcDbBlockBegin
  2
KLON2
 70
     0
 71
     0
 10
0.0
 20
0.0
 30
0.0
  3
KLON2
  1

  4
KLON2
  0
LINE
  5
6F
330
6C
100
AcDbEntity
  8
LC-005-005-----0
 62
     7
370
    25
100
AcDbLine
 10
20.657652
 20
181.338386
 30
0.0
 11
21.357659
 21
180.638379
 31
0.0
  0
LINE
  5
70
330
6C
100
AcDbEntity
  8
LC-005-005-----0
 62
     7
370
    25
100
AcDbLine
 10
21.855027
 20
180.14101
 30
0.0
 11
22.555034
 21
179.441003
 31
0.0
  0
LINE
  5
71
330
6C
100
AcDbEntity
  8
LC-005-005-----0
 62
     7
370
    25
100
AcDbLine
 10
18.986082
 20
185.131275
 30
0.0
 11
19.557652
 21
184.559706
 31
0.0
  0
LINE
  5
72
330
6C
100
AcDbEntity
  8
LC-005-005-----0
 62
     7
370
    25
100
AcDbLine
 10
20.657652
 20
183.459706
 30
0.0
 11
21.357652
 21
182.759706
 31
0.0
  0
LINE
  5
73
330
6C
100
AcDbEntity
  8
LC-005-005-----0
 62
     7
370
    25
100
AcDbLine
 10
20.637684
 20
185.600994
 30
0.0
 11
21.317642
 21
184.921036
 31
0.0
  0
ENDBLK
  5
6E
330
6C
100
AcDbEntity
  8
0
100
AcDbBlockEnd
  0
BLOCK
  5
84
330
7A
100
AcDbEntity
  8
0
100
AcDbBlockBegin
  2
*D3
 70
     1
 71
     0
 10
0.0
 20
0.0
 30
0.0
  3
*D3
  1

  0
LINE
  5
7B
330
7A
100
AcDbEntity
  8
LC-006-003-----0
 62
     2
370
    -2
100
AcDbLine
 10
18.857652
 20
183.641003
 30
0.0
 11
18.857652
 21
209.396237
 31
0.0
  0
LINE
  5
7C
330
7A
100
AcDbEntity
  8
LC-006-003-----0
 62
     2
370
    -2
100
AcDbLine
 10
139.857652
 20
183.641004
 30
0.0
 11
139.857652
 21
209.396237
 31
0.0
  0
LINE
  5
7D
330
7A
100
AcDbEntity
  8
LC-006-003-----0
 62
     2
370
    -2
100
AcDbLine
 10
46.857652
 20
205.796237
 30
0.0
 11
111.857652
 21
205.796237
 31
0.0
  0
SOLID
  5
7E
330
7A
100
AcDbEntity
  8
LC-006-003-----0
 62
     2
100
AcDbTrace
 10
46.857652
 20
210.462904
 30
0.0
 11
46.857652
 21
201.129571
 31
0.0
 12
18.857652
 22
205.796237
 32
0.0
 13
18.857652
 23
205.796237
 33
0.0
  0
SOLID
  5
7F
330
7A
100
AcDbEntity
  8
LC-006-003-----0
 62
     2
100
AcDbTrace
 10
111.857652
 20
201.129571
 30
0.0
 11
111.857652
 21
210.462904
 31
0.0
 12
139.857652
 22
205.796237
 32
0.0
 13
139.857652
 23
205.796237
 33
0.0
  0
MTEXT
  5
80
330
7A
100
AcDbEntity
  8
LC-006-003-----0
 62
     2
100
AcDbMText
 10
79.357652
 20
236.596237
 30
0.0
 40
28.0
 41
0.0
 71
     5
 72
     1
  1
\A1;%%c120
  7
LCTX15-400-0-0pDIN-Schrift
 73
     1
 44
1.0
  0
POINT
  5
81
330
7A
100
AcDbEntity
  8
Defpoints
 62
     0
100
AcDbPoint
 10
18.857652
 20
183.641003
 30
0.0
  0
POINT
  5
82
330
7A
100
AcDbEntity
  8
Defpoints
 62
     0
100
AcDbPoint
 10
139.857652
 20
183.641004
 30
0.0
  0
POINT
  5
83
330
7A
100
AcDbEntity
  8
Defpoints
 62
     0
100
AcDbPoint
 10
139.857652
 20
205.796237
 30
0.0
  0
ENDBLK
  5
85
330
7A
100
AcDbEntity
  8
0
100
AcDbBlockEnd
  0
BLOCK
  5
93
330
87
100
AcDbEntity
  8
0
100
AcDbBlockBegin
  2
*D4
 70
     1
 71
     0
 10
0.0
 20
0.0
 30
0.0
  3
*D4
  1

  0
LINE
  5
88
330
87
100
AcDbEntity
  8
LC-006-003-----0
 62
     2
370
    -2
100
AcDbLine
 10
20.357652
 20
185.641003
 30
0.0
 11
-8.31324
 21
185.641003
 31
0.0
  0
LINE
  5
89
330
87
100
AcDbEntity
  8
LC-006-003-----0
 62
     2
370
    -2
100
AcDbLine
 10
23.357652
 20
179.441003
 30
0.0
 11
-8.31324
 21
179.441003
 31
0.0
  0
LINE
  5
8A
330
87
100
AcDbEntity
  8
LC-006-003-----0
 62
     2
370
    -2
100
AcDbLine
 10
-4.71324
 20
213.641003
 30
0.0
 11
-4.71324
 21
241.641003
 31
0.0
  0
LINE
  5
8B
330
87
100
AcDbEntity
  8
LC-006-003-----0
 62
     2
370
    -2
100
AcDbLine
 10
-4.71324
 20
151.441003
 30
0.0
 11
-4.71324
 21
123.441003
 31
0.0
  0
LINE
  5
8C
330
87
100
AcDbEntity
  8
LC-006-003-----0
 62
     2
370
    -2
100
AcDbLine
 10
-4.71324
 20
185.641003
 30
0.0
 11
-4.71324
 21
179.441003
 31
0.0
  0
SOLID
  5
8D
330
87
100
AcDbEntity
  8
LC-006-003-----0
 62
     2
100
AcDbTrace
 10
-9.379907
 20
213.641003
 30
0.0
 11
-0.046573
 21
213.641003
 31
0.0
 12
-4.71324
 22
185.641003
 32
0.0
 13
-4.71324
 23
185.641003
 33
0.0
  0
SOLID
  5
8E
330
87
100
AcDbEntity
  8
LC-006-003-----0
 62
     2
100
AcDbTrace
 10
-0.046573
 20
151.441003
 30
0.0
 11
-9.379907
 21
151.441003
 31
0.0
 12
-4.71324
 22
179.441003
 32
0.0
 13
-4.71324
 23
179.441003
 33
0.0
  0
MTEXT
  5
8F
330
87
100
AcDbEntity
  8
LC-006-003-----0
 62
     2
100
AcDbMText
 10
-35.51324
 20
182.541003
 30
0.0
 40
28.0
 41
0.0
 71
     5
 72
     1
  1
\A1;6,2
  7
LCTX15-400-0-0pDIN-Schrift
 11
6.123031769111886E-17
 21
1.0
 31
0.0
 73
     1
 44
1.0
  0
POINT
  5
90
330
87
100
AcDbEntity
  8
Defpoints
 62
     0
100
AcDbPoint
 10
20.357652
 20
185.641003
 30
0.0
  0
POINT
  5
91
330
87
100
AcDbEntity
  8
Defpoints
 62
     0
100
AcDbPoint
 10
23.357652
 20
179.441003
 30
0.0
  0
POINT
  5
92
330
87
100
AcDbEntity
  8
Defpoints
 62
     0
100
AcDbPoint
 10
-4.71324
 20
179.441003
 30
0.0
  0
ENDBLK
  5
94
330
87
100
AcDbEntity
  8
0
100
AcDbBlockEnd
  0
ENDSEC
  0
SECTION
  2
ENTITIES
  0
LINE
  5
32
102
{ACAD_REACTORS
330
95
102
}
330
1F
100
AcDbEntity
  8
LC-001-006-MLN-0
 62
     7
370
    25
100
AcDbLine
 10
79.357652
 20
177.441003
 30
0.0
 11
79.357652
 21
187.641003
 31
0.0
  0
LINE
  5
34
102
{ACAD_REACTORS
330
95
102
}
330
1F
100
AcDbEntity
  8
LC-002-007-KH--0
 62
     7
370
    13
100
AcDbLine
 10
119.857652
 20
180.141003
 30
0.0
 11
119.857652
 21
180.141003
 31
0.0
  0
LINE
  5
35
102
{ACAD_REACTORS
330
95
102
}
330
1F
100
AcDbEntity
  8
LC-002-007-KH--0
 62
     7
370
    13
100
AcDbLine
 10
134.257652
 20
180.141004
 30
0.0
 11
134.257652
 21
180.141004
 31
0.0
  0
LINE
  5
37
102
{ACAD_REACTORS
330
95
102
}
330
1F
100
AcDbEntity
  8
LC-003-002-----0
 62
     7
370
    50
100
AcDbLine
 10
135.357652
 20
179.441004
 30
0.0
 11
135.357652
 21
180.141004
 31
0.0
  0
LINE
  5
38
102
{ACAD_REACTORS
330
95
102
}
330
1F
100
AcDbEntity
  8
LC-003-002-----0
 62
     7
370
    50
100
AcDbLine
 10
138.357652
 20
185.641004
 30
0.0
 11
79.357652
 21
185.641003
 31
0.0
  0
LINE
  5
39
102
{ACAD_REACTORS
330
95
102
}
330
1F
100
AcDbEntity
  8
LC-003-002-----0
 62
     7
370
    50
100
AcDbLine
 10
136.857652
 20
179.441004
 30
0.0
 11
79.357652
 21
179.441003
 31
0.0
  0
ARC
  5
3B
102
{ACAD_REACTORS
330
95
102
}
330
1F
100
AcDbEntity
  8
LC-004-002-RND-0
 62
     7
370
    50
100
AcDbCircle
 10
136.857652
 20
180.641004
 30
0.0
 40
1.199999999999989
100
AcDbArc
 50
270.0
 51
0.0
  0
LINE
  5
3C
102
{ACAD_REACTORS
330
95
102
}
330
1F
100
AcDbEntity
  8
LC-003-002-----0
 62
     7
370
    50
100
AcDbLine
 10
136.857652
 20
180.141004
 30
0.0
 11
136.257652
 21
180.141004
 31
0.0
  0
ARC
  5
3D
102
{ACAD_REACTORS
330
95
102
}
330
1F
100
AcDbEntity
  8
LC-004-002-RND-0
 62
     7
370
    50
100
AcDbCircle
 10
136.857652
 20
180.641004
 30
0.0
 40
0.5
100
AcDbArc
 50
270.0
 51
0.0
  0
LINE
  5
3E
102
{ACAD_REACTORS
330
95
102
}
330
1F
100
AcDbEntity
  8
LC-003-002-----0
 62
     7
370
    50
100
AcDbLine
 10
21.857652
 20
179.441003
 30
0.0
 11
79.357652
 21
179.441003
 31
0.0
  0
ARC
  5
3F
102
{ACAD_REACTORS
330
95
102
}
330
1F
100
AcDbEntity
  8
LC-004-002-RND-0
 62
     7
370
    50
100
AcDbCircle
 10
21.857652
 20
180.641003
 30
0.0
 40
1.199999999999989
100
AcDbArc
 50
180.0
 51
270.0
  0
ARC
  5
40
102
{ACAD_REACTORS
330
95
102
}
330
1F
100
AcDbEntity
  8
LC-004-002-RND-0
 62
     7
370
    50
100
AcDbCircle
 10
21.857652
 20
180.641003
 30
0.0
 40
0.5
100
AcDbArc
 50
180.0
 51
270.0
  0
LINE
  5
41
102
{ACAD_REACTORS
330
95
102
}
330
1F
100
AcDbEntity
  8
LC-003-002-----0
 62
     7
370
    50
100
AcDbLine
 10
21.357652
 20
180.641003
 30
0.0
 11
21.357652
 21
184.641003
 31
0.0
  0
LINE
  5
42
102
{ACAD_REACTORS
330
95
102
}
330
1F
100
AcDbEntity
  8
LC-003-002-----0
 62
     7
370
    50
100
AcDbLine
 10
138.057652
 20
183.641004
 30
0.0
 11
139.857652
 21
183.641004
 31
0.0
  0
LINE
  5
43
102
{ACAD_REACTORS
330
95
102
}
330
1F
100
AcDbEntity
  8
LC-003-002-----0
 62
     7
370
    50
100
AcDbLine
 10
136.257652
 20
180.141004
 30
0.0
 11
79.357652
 21
180.141003
 31
0.0
  0
LINE
  5
44
102
{ACAD_REACTORS
330
95
102
}
330
1F
100
AcDbEntity
  8
LC-003-002-----0
 62
     7
370
    50
100
AcDbLine
 10
20.357652
 20
185.641003
 30
0.0
 11
79.357652
 21
185.641003
 31
0.0
  0
LINE
  5
45
102
{ACAD_REACTORS
330
95
102
}
330
1F
100
AcDbEntity
  8
LC-003-002-----0
 62
     7
370
    50
100
AcDbLine
 10
21.857652
 20
180.141003
 30
0.0
 11
22.857652
 21
180.141003
 31
0.0
  0
LINE
  5
46
102
{ACAD_REACTORS
330
95
102
}
330
1F
100
AcDbEntity
  8
LC-003-002-----0
 62
     7
370
    50
100
AcDbLine
 10
137.357652
 20
180.641004
 30
0.0
 11
137.357652
 21
184.641004
 31
0.0
  0
LINE
  5
47
102
{ACAD_REACTORS
330
95
102
}
330
1F
100
AcDbEntity
  8
LC-003-002-----0
 62
     7
370
    50
100
AcDbLine
 10
22.857652
 20
180.141003
 30
0.0
 11
79.357652
 21
180.141003
 31
0.0
  0
LINE
  5
48
102
{ACAD_REACTORS
330
95
102
}
330
1F
100
AcDbEntity
  8
LC-003-002-----0
 62
     7
370
    50
100
AcDbLine
 10
138.057652
 20
180.641004
 30
0.0
 11
138.057652
 21
184.641004
 31
0.0
  0
LINE
  5
49
102
{ACAD_REACTORS
330
95
102
}
330
1F
100
AcDbEntity
  8
LC-003-002-----0
 62
     7
370
    50
100
AcDbLine
 10
139.857652
 20
183.641004
 30
0.0
 11
139.857652
 21
184.641004
 31
0.0
  0
LINE
  5
4A
102
{ACAD_REACTORS
330
95
102
}
330
1F
100
AcDbEntity
  8
LC-003-002-----0
 62
     7
370
    50
100
AcDbLine
 10
138.357652
 20
185.641004
 30
0.0
 11
138.857652
 21
185.641004
 31
0.0
  0
LINE
  5
4B
102
{ACAD_REACTORS
330
95
102
}
330
1F
100
AcDbEntity
  8
LC-003-002-----0
 62
     7
370
    50
100
AcDbLine
 10
138.357652
 20
184.941004
 30
0.0
 11
138.857652
 21
184.941004
 31
0.0
  0
LINE
  5
4C
102
{ACAD_REACTORS
330
95
102
}
330
1F
100
AcDbEntity
  8
LC-003-002-----0
 62
     7
370
    50
100
AcDbLine
 10
139.157652
 20
183.641004
 30
0.0
 11
139.157652
 21
184.641004
 31
0.0
  0
ARC
  5
4D
102
{ACAD_REACTORS
330
95
102
}
330
1F
100
AcDbEntity
  8
LC-004-002-RND-0
 62
     7
370
    50
100
AcDbCircle
 10
138.857652
 20
184.641004
 30
0.0
 40
0.3000000000000114
100
AcDbArc
 50
0.0
 51
90.0
  0
ARC
  5
4E
102
{ACAD_REACTORS
330
95
102
}
330
1F
100
AcDbEntity
  8
LC-004-002-RND-0
 62
     7
370
    50
100
AcDbCircle
 10
138.357652
 20
184.641004
 30
0.0
 40
0.299999999999983
100
AcDbArc
 50
90.0
 51
180.0
  0
ARC
  5
4F
102
{ACAD_REACTORS
330
95
102
}
330
1F
100
AcDbEntity
  8
LC-003-002-----0
 62
     7
370
    50
100
AcDbCircle
 10
138.857652
 20
184.641004
 30
0.0
 40
1.0
100
AcDbArc
 50
0.0
 51
90.0
  0
ARC
  5
50
102
{ACAD_REACTORS
330
95
102
}
330
1F
100
AcDbEntity
  8
LC-003-002-----0
 62
     7
370
    50
100
AcDbCircle
 10
138.357652
 20
184.641004
 30
0.0
 40
1.0
100
AcDbArc
 50
90.0
 51
180.0
  0
LINE
  5
51
102
{ACAD_REACTORS
330
95
102
}
330
1F
100
AcDbEntity
  8
LC-003-002-----0
 62
     7
370
    50
100
AcDbLine
 10
20.657652
 20
183.641003
 30
0.0
 11
18.857652
 21
183.641003
 31
0.0
  0
LINE
  5
52
102
{ACAD_REACTORS
330
95
102
}
330
1F
100
AcDbEntity
  8
LC-003-002-----0
 62
     7
370
    50
100
AcDbLine
 10
20.657652
 20
180.641003
 30
0.0
 11
20.657652
 21
184.641003
 31
0.0
  0
LINE
  5
53
102
{ACAD_REACTORS
330
95
102
}
330
1F
100
AcDbEntity
  8
LC-003-002-----0
 62
     7
370
    50
100
AcDbLine
 10
18.857652
 20
183.641003
 30
0.0
 11
18.857652
 21
184.641003
 31
0.0
  0
LINE
  5
54
102
{ACAD_REACTORS
330
95
102
}
330
1F
100
AcDbEntity
  8
LC-003-002-----0
 62
     7
370
    50
100
AcDbLine
 10
20.357652
 20
185.641003
 30
0.0
 11
19.857652
 21
185.641003
 31
0.0
  0
LINE
  5
55
102
{ACAD_REACTORS
330
95
102
}
330
1F
100
AcDbEntity
  8
LC-003-002-----0
 62
     7
370
    50
100
AcDbLine
 10
20.357652
 20
184.941003
 30
0.0
 11
19.857652
 21
184.941003
 31
0.0
  0
LINE
  5
56
102
{ACAD_REACTORS
330
95
102
}
330
1F
100
AcDbEntity
  8
LC-003-002-----0
 62
     7
370
    50
100
AcDbLine
 10
19.557652
 20
183.641003
 30
0.0
 11
19.557652
 21
184.641003
 31
0.0
  0
ARC
  5
57
102
{ACAD_REACTORS
330
95
102
}
330
1F
100
AcDbEntity
  8
LC-004-002-RND-0
 62
     7
370
    50
100
AcDbCircle
 10
19.857652
 20
184.641003
 30
0.0
 40
0.3000000000000114
100
AcDbArc
 50
90.0
 51
180.0
  0
ARC
  5
58
102
{ACAD_REACTORS
330
95
102
}
330
1F
100
AcDbEntity
  8
LC-004-002-RND-0
 62
     7
370
    50
100
AcDbCircle
 10
20.357652
 20
184.641003
 30
0.0
 40
0.3000000000000114
100
AcDbArc
 50
0.0
 51
90.0
  0
ARC
  5
59
102
{ACAD_REACTORS
330
95
102
}
330
1F
100
AcDbEntity
  8
LC-003-002-----0
 62
     7
370
    50
100
AcDbCircle
 10
19.857652
 20
184.641003
 30
0.0
 40
1.0
100
AcDbArc
 50
90.0
 51
180.0
  0
ARC
  5
5A
102
{ACAD_REACTORS
330
95
102
}
330
1F
100
AcDbEntity
  8
LC-003-002-----0
 62
     7
370
    50
100
AcDbCircle
 10
20.357652
 20
184.641003
 30
0.0
 40
1.0
100
AcDbArc
 50
0.0
 51
90.0
  0
LINE
  5
5B
102
{ACAD_REACTORS
330
95
102
}
330
1F
100
AcDbEntity
  8
LC-003-002-----0
 62
     7
370
    50
100
AcDbLine
 10
23.357652
 20
179.441003
 30
0.0
 11
23.357652
 21
180.141003
 31
0.0
  0
LINE
  5
5C
102
{ACAD_REACTORS
330
95
102
}
330
1F
100
AcDbEntity
  8
LC-002-007-KH--0
 62
     7
370
    13
100
AcDbLine
 10
38.857652
 20
180.141003
 30
0.0
 11
38.857652
 21
180.141003
 31
0.0
  0
LINE
  5
5D
102
{ACAD_REACTORS
330
95
102
}
330
1F
100
AcDbEntity
  8
LC-002-007-KH--0
 62
     7
370
    13
100
AcDbLine
 10
24.457652
 20
180.141003
 30
0.0
 11
24.457652
 21
180.141003
 31
0.0
  0
CIRCLE
  5
5E
330
1F
100
AcDbEntity
  8
LC-003-002-----0
 62
     7
370
    50
100
AcDbCircle
 10
292.357652
 20
181.541004
 30
0.0
 40
58.00000000000472
  0
CIRCLE
  5
5F
330
1F
100
AcDbEntity
  8
LC-003-002-----0
 62
     7
370
    50
100
AcDbCircle
 10
292.357652
 20
181.541004
 30
0.0
 40
60.49999999999949
  0
CIRCLE
  5
60
330
1F
100
AcDbEntity
  8
LC-003-002-----0
 62
     7
370
    50
100
AcDbCircle
 10
292.357652
 20
181.541004
 30
0.0
 40
56.0
  0
INSERT
  5
6B
102
{ACAD_REACTORS
330
95
102
}
330
1F
100
AcDbEntity
  8
LC-005-005-----0
 62
     7
370
    25
100
AcDbBlockReference
  2
KLON1
 10
0.0
 20
0.0
 30
0.0
  0
INSERT
  5
74
102
{ACAD_REACTORS
330
95
102
}
330
1F
100
AcDbEntity
  8
LC-005-005-----0
 62
     7
370
    25
100
AcDbBlockReference
  2
KLON2
 10
0.0
 20
0.0
 30
0.0
  0
DIMENSION
  5
78
330
1F
100
AcDbEntity
  8
LC-006-003-----0
 62
     7
370
    25
100
AcDbDimension
  2
*D3
 10
139.857652
 20
205.796237
 30
0.0
 11
79.357652
 21
236.596237
 31
0.0
 70
   160
  1
%%c120
 71
     5
 42
121.0
  3
LC-DIM-L-0140-02-02
100
AcDbAlignedDimension
 13
18.857652
 23
183.641003
 33
0.0
 14
139.857652
 24
183.641004
 34
0.0
100
AcDbRotatedDimension
  0
DIMENSION
  5
86
330
1F
100
AcDbEntity
  8
LC-006-003-----0
 62
     7
370
    25
100
AcDbDimension
  2
*D4
 10
-4.71324
 20
179.441003
 30
0.0
 11
-35.51324
 21
182.541003
 31
0.0
 70
   160
 71
     5
 42
6.2
 53
90.0
  3
LC-DIM-L-0140-02-02
100
AcDbAlignedDimension
 13
20.357652
 23
185.641003
 33
0.0
 14
23.357652
 24
179.441003
 34
0.0
 50
90.0
100
AcDbRotatedDimension
  0
ENDSEC
  0
SECTION
  2
OBJECTS
  0
DICTIONARY
  5
C
330
0
100
AcDbDictionary
281
     1
  3
ACAD_GROUP
350
D
  3
ACAD_LAYOUT
350
1A
  3
ACAD_MLINESTYLE
350
17
  3
ACAD_PLOTSETTINGS
350
19
  3
ACAD_PLOTSTYLENAME
350
E
  0
DICTIONARY
  5
D
102
{ACAD_REACTORS
330
C
102
}
330
C
100
AcDbDictionary
281
     1
  3
LCGROUP25
350
95
  0
DICTIONARY
  5
1A
102
{ACAD_REACTORS
330
C
102
}
330
C
100
AcDbDictionary
281
     1
  3
Layout1
350
1E
  3
Layout2
350
26
  3
Model
350
22
  0
DICTIONARY
  5
17
102
{ACAD_REACTORS
330
C
102
}
330
C
100
AcDbDictionary
281
     1
  3
Standard
350
18
  0
DICTIONARY
  5
19
102
{ACAD_REACTORS
330
C
102
}
330
C
100
AcDbDictionary
281
     1
  0
ACDBDICTIONARYWDFLT
  5
E
102
{ACAD_REACTORS
330
C
102
}
330
C
100
AcDbDictionary
281
     1
  3
Normal
350
F
100
AcDbDictionaryWithDefault
340
F
  0
GROUP
  5
95
102
{ACAD_REACTORS
330
D
102
}
330
D
100
AcDbGroup
300
GRP10
 70
     1
 71
     1
340
32
340
34
340
35
340
37
340
38
340
39
340
3B
340
3C
340
3D
340
3E
340
3F
340
40
340
41
340
42
340
43
340
44
340
45
340
46
340
47
340
48
340
49
340
4A
340
4B
340
4C
340
4D
340
4E
340
4F
340
50
340
51
340
52
340
53
340
54
340
55
340
56
340
57
340
58
340
59
340
5A
340
5B
340
5C
340
5D
340
6B
340
74
  0
LAYOUT
  5
1E
102
{ACAD_REACTORS
330
1A
102
}
330
1A
100
AcDbPlotSettings
  1

  2

  4

  6

 40
0.0
 41
0.0
 42
0.0
 43
0.0
 44
0.0
 45
0.0
 46
0.0
 47
0.0
 48
0.0
 49
0.0
140
0.0
141
0.0
142
1.0
143
1.0
 70
   688
 72
     0
 73
     0
 74
     5
  7

 75
    16
147
1.0
148
0.0
149
0.0
100
AcDbLayout
  1
Layout1
 70
     1
 71
     1
 10
-210.0
 20
-148.5
 11
630.0
 21
445.5
 12
0.0
 22
0.0
 32
0.0
 14
-210.0
 24
-148.5
 34
0.0
 15
630.0
 25
445.5
 35
0.0
146
0.0
 13
0.0
 23
0.0
 33
0.0
 16
1.0
 26
0.0
 36
0.0
 17
0.0
 27
1.0
 37
0.0
 76
     0
330
1B
  0
LAYOUT
  5
26
102
{ACAD_REACTORS
330
1A
102
}
330
1A
100
AcDbPlotSettings
  1

  2

  4

  6

 40
0.0
 41
0.0
 42
0.0
 43
0.0
 44
0.0
 45
0.0
 46
0.0
 47
0.0
 48
0.0
 49
0.0
140
0.0
141
0.0
142
1.0
143
1.0
 70
   688
 72
     0
 73
     0
 74
     5
  7

 75
    16
147
1.0
148
0.0
149
0.0
100
AcDbLayout
  1
Layout2
 70
     1
 71
     2
 10
0.0
 20
0.0
 11
0.0
 21
0.0
 12
0.0
 22
0.0
 32
0.0
 14
0.0
 24
0.0
 34
0.0
 15
0.0
 25
0.0
 35
0.0
146
0.0
 13
0.0
 23
0.0
 33
0.0
 16
1.0
 26
0.0
 36
0.0
 17
0.0
 27
1.0
 37
0.0
 76
     0
330
23
  0
LAYOUT
  5
22
102
{ACAD_REACTORS
330
1A
102
}
330
1A
100
AcDbPlotSettings
  1

  2

  4

  6

 40
0.0
 41
0.0
 42
0.0
 43
0.0
 44
0.0
 45
0.0
 46
0.0
 47
0.0
 48
0.0
 49
0.0
140
0.0
141
0.0
142
1.0
143
1.0
 70
  1776
 72
     0
 73
     0
 74
     0
  7

 75
     0
147
1.0
148
0.0
149
0.0
100
AcDbLayout
  1
Model
 70
     1
 71
     0
 10
-210.0
 20
-148.5
 11
630.0
 21
445.5
 12
-0.259531
 22
1.882426
 32
0.0
 14
-210.0
 24
-148.5
 34
0.0
 15
630.0
 25
445.5
 35
0.0
146
0.0
 13
0.0
 23
0.0
 33
0.0
 16
1.0
 26
0.0
 36
0.0
 17
0.0
 27
1.0
 37
0.0
 76
     0
330
1F
  0
MLINESTYLE
  5
18
102
{ACAD_REACTORS
330
17
102
}
330
17
100
AcDbMlineStyle
  2
Standard
 70
     0
  3

 62
   256
 51
90.0
 52
90.0
 71
     2
 49
0.5
 62
   256
  6
BYLAYER
 49
-0.5
 62
   256
  6
BYLAYER
  0
ACDBPLACEHOLDER
  5
F
102
{ACAD_REACTORS
330
E
102
}
330
E
  0
ENDSEC
  0
EOF
