  0
SECTION
  2
HEADER
  9
$ACADVER
  1
AC1015
  9
$ACADMAINTVER
 70
     6
  9
$DWGCODEPAGE
  3
DOS850
  9
$INSBASE
 10
-34.197508
 20
8.634
 30
0.0
  9
$EXTMIN
 10
-157.197508
 20
-78.366
 30
0.0
  9
$EXTMAX
 10
682.802492
 20
515.634
 30
0.0
  9
$LIMMIN
 10
-157.197508
 20
-78.366
  9
$LIMMAX
 10
682.802492
 20
515.634
  9
$ORTHOMODE
 70
     0
  9
$REGENMODE
 70
     1
  9
$FILLMODE
 70
     1
  9
$QTEXTMODE
 70
     0
  9
$MIRRTEXT
 70
     1
  9
$LTSCALE
 40
2.0
  9
$ATTMODE
 70
     1
  9
$TEXTSIZE
 40
0.2
  9
$TRACEWID
 40
0.05
  9
$TEXTSTYLE
  7
Standard
  9
$CLAYER
  8
0
  9
$CELTYPE
  6
ByBlock
  9
$CECOLOR
 62
     7
  9
$CELTSCALE
 40
1.0
  9
$DISPSILH
 70
     0
  9
$DIMSCALE
 40
2.0
  9
$DIMASZ
 40
3.5
  9
$DIMEXO
 40
0.0625
  9
$DIMDLI
 40
0.38
  9
$DIMRND
 40
0.0
  9
$DIMDLE
 40
0.0
  9
$DIMEXE
 40
0.18
  9
$DIMTP
 40
0.0
  9
$DIMTM
 40
0.0
  9
$DIMTXT
 40
3.5
  9
$DIMCEN
 40
0.09
  9
$DIMTSZ
 40
0.0
  9
$DIMTOL
 70
     0
  9
$DIMLIM
 70
     0
  9
$DIMTIH
 70
     1
  9
$DIMTOH
 70
     1
  9
$DIMSE1
 70
     0
  9
$DIMSE2
 70
     0
  9
$DIMTAD
 70
     1
  9
$DIMZIN
 70
     0
  9
$DIMBLK
  1

  9
$DIMASO
 70
     1
  9
$DIMSHO
 70
     1
  9
$DIMPOST
  1

  9
$DIMAPOST
  1

  9
$DIMALT
 70
     0
  9
$DIMALTD
 70
     2
  9
$DIMALTF
 40
25.4
  9
$DIMLFAC
 40
1.0
  9
$DIMTOFL
 70
     0
  9
$DIMTVP
 40
0.0
  9
$DIMTIX
 70
     0
  9
$DIMSOXD
 70
     0
  9
$DIMSAH
 70
     0
  9
$DIMBLK1
  1

  9
$DIMBLK2
  1

  9
$DIMSTYLE
  2
Standard
  9
$DIMCLRD
 70
     0
  9
$DIMCLRE
 70
     0
  9
$DIMCLRT
 70
     0
  9
$DIMTFAC
 40
1.0
  9
$DIMGAP
 40
0.09
  9
$DIMJUST
 70
     0
  9
$DIMSD1
 70
     0
  9
$DIMSD2
 70
     0
  9
$DIMTOLJ
 70
     1
  9
$DIMTZIN
 70
     0
  9
$DIMALTZ
 70
     0
  9
$DIMALTTZ
 70
     0
  9
$DIMUPT
 70
     0
  9
$DIMDEC
 70
     4
  9
$DIMTDEC
 70
     4
  9
$DIMALTU
 70
     2
  9
$DIMALTTD
 70
     2
  9
$DIMTXSTY
  7
Standard
  9
$DIMAUNIT
 70
     0
  9
$DIMADEC
 70
     0
  9
$DIMALTRND
 40
0.0
  9
$DIMAZIN
 70
     0
  9
$DIMDSEP
 70
     0
  9
$DIMATFIT
 70
     3
  9
$DIMFRAC
 70
     0
  9
$DIMLDRBLK
  1

  9
$DIMLUNIT
 70
     2
  9
$DIMLWD
 70
     0
  9
$DIMLWE
 70
     0
  9
$DIMTMOVE
 70
     0
  9
$LUNITS
 70
     2
  9
$LUPREC
 70
     6
  9
$SKETCHINC
 40
0.1
  9
$FILLETRAD
 40
0.0
  9
$AUNITS
 70
     0
  9
$AUPREC
 70
     0
  9
$MENU
  1
acad
  9
$ELEVATION
 40
0.0
  9
$PELEVATION
 40
0.0
  9
$THICKNESS
 40
0.0
  9
$LIMCHECK
 70
     0
  9
$CHAMFERA
 40
0.0
  9
$CHAMFERB
 40
0.0
  9
$CHAMFERC
 40
0.0
  9
$CHAMFERD
 40
0.0
  9
$SKPOLY
 70
     0
  9
$TDCREATE
 40
0.000000000
  9
$TDUCREATE
 40
0.000000000
  9
$TDUPDATE
 40
0.000000000
  9
$TDUUPDATE
 40
0.000000000
  9
$TDINDWG
 40
0.0000000000
  9
$TDUSRTIMER
 40
0.0000000000
  9
$USRTIMER
 70
     1
  9
$ANGBASE
 50
0.0
  9
$ANGDIR
 70
     0
  9
$PDMODE
 70
     0
  9
$PDSIZE
 40
0.0
  9
$PLINEWID
 40
0.0
  9
$SPLFRAME
 70
     0
  9
$SPLINETYPE
 70
     6
  9
$SPLINESEGS
 70
     8
  9
$HANDSEED
  5
190
  9
$SURFTAB1
 70
     6
  9
$SURFTAB2
 70
     6
  9
$SURFTYPE
 70
     6
  9
$SURFU
 70
     6
  9
$SURFV
 70
     6
  9
$UCSBASE
  2

  9
$UCSNAME
  2

  9
$UCSORG
 10
0.0
 20
0.0
 30
0.0
  9
$UCSXDIR
 10
1.0
 20
0.0
 30
0.0
  9
$UCSYDIR
 10
0.0
 20
1.0
 30
0.0
  9
$UCSORTHOREF
  2

  9
$UCSORTHOVIEW
 70
     0
  9
$UCSORGTOP
 10
0.0
 20
0.0
 30
0.0
  9
$UCSORGBOTTOM
 10
0.0
 20
0.0
 30
0.0
  9
$UCSORGLEFT
 10
0.0
 20
0.0
 30
0.0
  9
$UCSORGRIGHT
 10
0.0
 20
0.0
 30
0.0
  9
$UCSORGFRONT
 10
0.0
 20
0.0
 30
0.0
  9
$UCSORGBACK
 10
0.0
 20
0.0
 30
0.0
  9
$PUCSBASE
  2

  9
$PUCSNAME
  2

  9
$PUCSORG
 10
0.0
 20
0.0
 30
0.0
  9
$PUCSXDIR
 10
1.0
 20
0.0
 30
0.0
  9
$PUCSYDIR
 10
0.0
 20
1.0
 30
0.0
  9
$PUCSORTHOREF
  2

  9
$PUCSORTHOVIEW
 70
     0
  9
$PUCSORGTOP
 10
0.0
 20
0.0
 30
0.0
  9
$PUCSORGBOTTOM
 10
0.0
 20
0.0
 30
0.0
  9
$PUCSORGLEFT
 10
0.0
 20
0.0
 30
0.0
  9
$PUCSORGRIGHT
 10
0.0
 20
0.0
 30
0.0
  9
$PUCSORGFRONT
 10
0.0
 20
0.0
 30
0.0
  9
$PUCSORGBACK
 10
0.0
 20
0.0
 30
0.0
  9
$USERI1
 70
     0
  9
$USERI2
 70
     0
  9
$USERI3
 70
     0
  9
$USERI4
 70
     0
  9
$USERI5
 70
     0
  9
$USERR1
 40
0.0
  9
$USERR2
 40
0.0
  9
$USERR3
 40
0.0
  9
$USERR4
 40
0.0
  9
$USERR5
 40
0.0
  9
$WORLDVIEW
 70
     1
  9
$SHADEDGE
 70
     3
  9
$SHADEDIF
 70
    70
  9
$TILEMODE
 70
     1
  9
$MAXACTVP
 70
    16
  9
$PINSBASE
 10
0.0
 20
0.0
 30
0.0
  9
$PLIMCHECK
 70
     0
  9
$PEXTMIN
 10
-157.197508
 20
-78.366
 30
0.0
  9
$PEXTMAX
 10
682.802492
 20
515.634
 30
0.0
  9
$PLIMMIN
 10
-157.197508
 20
-78.366
  9
$PLIMMAX
 10
682.802492
 20
515.634
  9
$UNITMODE
 70
     0
  9
$VISRETAIN
 70
     0
  9
$PLINEGEN
 70
     1
  9
$PSLTSCALE
 70
     0
  9
$TREEDEPTH
 70
  3020
  9
$CMLSTYLE
  2
Standard
  9
$CMLJUST
 70
     0
  9
$CMLSCALE
 40
1.0
  9
$PROXYGRAPHICS
 70
     0
  9
$MEASUREMENT
 70
     0
  9
$CELWEIGHT
370
     0
  9
$ENDCAPS
280
     0
  9
$JOINSTYLE
280
     0
  9
$LWDISPLAY
290
     0
  9
$INSUNITS
 70
     0
  9
$HYPERLINKBASE
  1

  9
$STYLESHEET
  1

  9
$XEDIT
290
     1
  9
$CEPSNTYPE
380
     0
  9
$PSTYLEMODE
290
     1
  9
$FINGERPRINTGUID
  2

  9
$VERSIONGUID
  2

  9
$EXTNAMES
290
     1
  9
$PSVPSCALE
 40
0.0
  0
ENDSEC
  0
SECTION
  2
CLASSES
  0
CLASS
  1
LWPOLYLINE
  2
AcDbPolyline
  3
AutoCAD 2000
 90
        0
280
     0
281
     1
  0
CLASS
  1
IMAGE
  2
AcDbRasterImage
  3
ISM
 90
      127
280
     0
281
     1
  0
CLASS
  1
OLE2FRAME
  2
AcDbOle2Frame
  3
AutoCAD 2000
 90
        0
280
     0
281
     1
  0
CLASS
  1
HATCH
  2
AcDbHatch
  3
AutoCAD 2000
 90
        0
280
     0
281
     1
  0
CLASS
  1
DICTIONARYVAR
  2
AcDbDictionaryVar
  3
AutoCAD 2000
 90
        0
280
     0
281
     0
  0
CLASS
  1
RASTERVARIABLES
  2
AcDbRasterVariables
  3
ISM
 90
        0
280
     0
281
     0
  0
CLASS
  1
IMAGEDEF
  2
AcDbRasterImageDef
  3
ISM
 90
        0
280
     0
281
     0
  0
CLASS
  1
IMAGEDEF_REACTOR
  2
AcDbRasterImageDefReactor
  3
ISM
 90
        1
280
     0
281
     0
  0
CLASS
  1
IDBUFFER
  2
AcDbIdBuffer
  3
AutoCAD 2000
 90
        0
280
     0
281
     0
  0
CLASS
  1
SPATIAL_FILTER
  2
AcDbSpatialFilter
  3
AutoCAD 2000
 90
        0
280
     0
281
     0
  0
CLASS
  1
XRECORD
  2
AcDbXrecord
  3
AutoCAD 2000
 90
        0
280
     0
281
     0
  0
CLASS
  1
SORTENTSTABLE
  2
AcDbSortentsTable
  3
AutoCAD 2000
 90
        0
280
     0
281
     0
  0
CLASS
  1
LAYER_INDEX
  2
AcDbLayerIndex
  3
AutoCAD 2000
 90
        0
280
     0
281
     0
  0
CLASS
  1
SPATIAL_INDEX
  2
AcDbSpatialIndex
  3
AutoCAD 2000
 90
        0
280
     0
281
     0
  0
CLASS
  1
OBJECT_PTR
  2
CAseDLPNTableRecord
  3
"ASE-LPNTableRecord"
 90
        1
280
     0
281
     0
  0
CLASS
  1
LAYOUT
  2
AcDbLayout
  3
AutoCAD 2000
 90
        0
280
     0
281
     0
  0
CLASS
  1
PLOTSETTINGS
  2
AcDbPlotSettings
  3
AutoCAD 2000
 90
        0
280
     0
281
     0
  0
CLASS
  1
ACDBDICTIONARYWDFLT
  2
AcDbDictionaryWithDefault
  3
AutoCAD 2000
 90
        0
280
     0
281
     0
  0
CLASS
  1
ACDBPLACEHOLDER
  2
AcDbPlaceHolder
  3
AutoCAD 2000
 90
        0
280
     0
281
     0
  0
ENDSEC
  0
SECTION
  2
TABLES
  0
TABLE
  2
VPORT
  5
7
100
AcDbSymbolTable
 70
     1
  0
VPORT
  5
15
100
AcDbSymbolTableRecord
100
AcDbViewportTableRecord
  2
*ACTIVE
 70
     0
 10
0.0
 20
0.0
 11
1.0
 21
1.0
 12
420.0
 22
297.0
 13
0.0
 23
0.0
 14
1.0
 24
1.0
 15
0.0
 25
0.0
 16
0.0
 26
0.0
 36
1.0
 17
-157.197508
 27
-78.366
 37
0.0
 40
594.0
 41
1.604229
 42
50.0
 43
0.0
 44
0.0
 50
0.0
 51
0.0
 71
     0
 72
   100
 73
     1
 74
     1
 75
     0
 76
     0
 77
     0
 78
     0
281
     0
 65
     0
110
0.0
120
0.0
130
0.0
111
1.0
121
0.0
131
0.0
112
0.0
122
1.0
132
0.0
345
0
346
0
 79
     0
146
0.0
  0
ENDTAB
  0
TABLE
  2
LTYPE
  5
4
100
AcDbSymbolTable
 70
     5
  0
LTYPE
  5
11
100
AcDbSymbolTableRecord
100
AcDbLinetypeTableRecord
  2
ByBlock
 70
    64
  3

 72
    65
 73
     0
 40
0.0
  0
LTYPE
  5
12
100
AcDbSymbolTableRecord
100
AcDbLinetypeTableRecord
  2
ByLayer
 70
    64
  3

 72
    65
 73
     0
 40
0.0
  0
LTYPE
  5
13
100
AcDbSymbolTableRecord
100
AcDbLinetypeTableRecord
  2
Continuous
 70
    64
  3
Solid line
 72
    65
 73
     0
 40
0.0
  0
LTYPE
  5
23
100
AcDbSymbolTableRecord
100
AcDbLinetypeTableRecord
  2
DASHED
 70
    64
  3
__ __ __ __ __
 72
    65
 73
     2
 40
6.25
 49
5.0
 74
     0
 49
-1.25
 74
     0
  0
LTYPE
  5
2F
100
AcDbSymbolTableRecord
100
AcDbLinetypeTableRecord
  2
CENTER
 70
    64
  3
__ . __ . __ . __ . __
 72
    65
 73
     4
 40
7.5
 49
5.0
 74
     0
 49
-1.25
 74
     0
 49
0.0
 74
     0
 49
-1.25
 74
     0
  0
ENDTAB
  0
TABLE
  2
LAYER
  5
2
100
AcDbSymbolTable
 70
    12
  0
LAYER
  5
14
100
AcDbSymbolTableRecord
100
AcDbLayerTableRecord
  2
0
 70
     0
 62
     7
  6
Continuous
290
     1
370
    -3
390
1D
  0
LAYER
  5
24
100
AcDbSymbolTableRecord
100
AcDbLayerTableRecord
  2
LC-INFO-1-2-mm-A3-0
 70
     1
 62
   255
  6
ByBlock
290
     1
370
    -3
390
1D
  0
LAYER
  5
25
100
AcDbSymbolTableRecord
100
AcDbLayerTableRecord
  2
LC-3D-HIDDEN
 70
     0
 62
     9
  6
DASHED
290
     1
370
    -3
390
1D
  0
LAYER
  5
26
100
AcDbSymbolTableRecord
100
AcDbLayerTableRecord
  2
LC-CUT-HIDDEN
 70
     0
 62
     9
  6
DASHED
290
     1
370
    -3
390
1D
  0
LAYER
  5
27
100
AcDbSymbolTableRecord
100
AcDbLayerTableRecord
  2
LC-VIEWPORT
 70
     0
 62
     7
  6
ByBlock
290
     1
370
    -3
390
1D
  0
LAYER
  5
2A
100
AcDbSymbolTableRecord
100
AcDbLayerTableRecord
  2
LC-001-002-----0
 70
     0
 62
     1
  6
ByBlock
290
     1
370
    -3
390
1D
  0
LAYER
  5
30
100
AcDbSymbolTableRecord
100
AcDbLayerTableRecord
  2
LC-002-006-MLN-0
 70
     0
 62
     2
  6
CENTER
290
     1
370
    -3
390
1D
  0
LAYER
  5
36
100
AcDbSymbolTableRecord
100
AcDbLayerTableRecord
  2
LC-003-005-----0
 70
     0
 62
     2
  6
ByBlock
290
     1
370
    -3
390
1D
  0
LAYER
  5
AD
100
AcDbSymbolTableRecord
100
AcDbLayerTableRecord
  2
LC-004-003-MTH-0
 70
     0
 62
     2
  6
ByBlock
290
     1
370
    -3
390
1D
  0
LAYER
  5
B0
100
AcDbSymbolTableRecord
100
AcDbLayerTableRecord
  2
LC-005-003-MTG-0
 70
     0
 62
     2
  6
ByBlock
290
     1
370
    -3
390
1D
  0
LAYER
  5
B2
100
AcDbSymbolTableRecord
100
AcDbLayerTableRecord
  2
LC-006-003-----0
 70
     0
 62
     2
  6
ByBlock
290
     1
370
    -3
390
1D
  0
LAYER
  5
113
100
AcDbSymbolTableRecord
100
AcDbLayerTableRecord
  2
LC-007-002-RND-0
 70
     0
 62
     1
  6
ByBlock
290
     1
370
    -3
390
1D
  0
ENDTAB
  0
TABLE
  2
STYLE
  5
3
100
AcDbSymbolTable
 70
     3
  0
STYLE
  5
17
100
AcDbSymbolTableRecord
100
AcDbTextStyleTableRecord
  2
Standard
 70
     0
 40
0.0
 41
1.0
 50
0.0
 71
     0
 42
0.0
  3
txt
  4

  0
STYLE
  5
29
100
AcDbSymbolTableRecord
100
AcDbTextStyleTableRecord
  2
LCTX15-400-0-0-ARIAL
 70
    64
 40
3.5
 41
1.0
 50
0.0
 71
     0
 42
0.0
  3
Arial
  4

1001
ACAD
1000
Arial
1071
 16777216
  0
STYLE
  5
AA
100
AcDbSymbolTableRecord
100
AcDbTextStyleTableRecord
  2
LCTX15-400-0-0-DIN-SCHRIFTP
 70
    64
 40
0.0
 41
1.0
 50
1.5
 71
     0
 42
3.5
  3
STANDARD
  4

  0
ENDTAB
  0
TABLE
  2
VIEW
  5
5
100
AcDbSymbolTable
 70
     0
  0
ENDTAB
  0
TABLE
  2
UCS
  5
6
100
AcDbSymbolTable
 70
     0
  0
ENDTAB
  0
TABLE
  2
APPID
  5
8
100
AcDbSymbolTable
 70
     1
  0
APPID
  5
16
100
AcDbSymbolTableRecord
100
AcDbRegAppTableRecord
  2
ACAD
 70
     0
  0
ENDTAB
  0
TABLE
  2
DIMSTYLE
  5
9
100
AcDbSymbolTable
 70
     2
100
AcDbDimStyleTable
 71
     0
  0
DIMSTYLE
105
18
100
AcDbSymbolTableRecord
100
AcDbDimStyleTableRecord
  2
Standard
 70
     0
  3

  4

 40
1.0
 41
0.18
 42
0.0625
 43
0.38
 44
0.18
 45
0.0
 46
0.0
 47
0.0
 48
0.0
 71
     0
 72
     0
 73
     1
 74
     1
 75
     0
 76
     0
 77
     0
 78
     0
 79
     0
140
0.18
141
0.09
142
0.0
143
25.4
144
1.0
145
0.0
146
1.0
147
0.09
148
0.0
170
     0
171
     2
172
     0
173
     0
174
     0
175
     0
176
     0
177
     0
178
     0
179
     0
271
     4
272
     4
273
     2
274
     2
275
     0
276
     0
277
     2
278
    46
279
     0
280
     0
281
     0
282
     0
283
     1
284
     0
285
     0
286
     0
288
     0
289
     0
340
17
341
0
342
0
343
0
344
0
371
    -2
372
    -2
  0
DIMSTYLE
105
A9
100
AcDbSymbolTableRecord
100
AcDbDimStyleTableRecord
  2
LC-DIM-L-0140-02-02
 70
     0
  3

  4

 40
2.0
 41
3.5
 42
0.0
 43
7.5
 44
1.8
 45
0.0
 46
0.0
 47
0.0
 48
0.0
 71
     0
 72
     0
 73
     0
 74
     0
 75
     0
 76
     0
 77
     1
 78
     8
 79
     0
140
14.0
141
0.0
142
0.0
143
25.4
144
1.0
145
0.0
146
0.71
147
1.5
148
0.0
170
     0
171
     2
172
     0
173
     0
174
     0
175
     0
176
     2
177
     2
178
     2
179
     2
271
     2
272
     4
273
     2
274
     2
275
     0
276
     0
277
     2
278
    44
279
     0
280
     0
281
     0
282
     0
283
     1
284
     0
285
     0
286
     0
288
     0
289
     0
340
AA
341
0
342
0
343
0
344
0
371
    -3
372
     0
  0
ENDTAB
  0
TABLE
  2
BLOCK_RECORD
  5
1
100
AcDbSymbolTable
 70
     7
  0
BLOCK_RECORD
  5
A
100
AcDbSymbolTableRecord
100
AcDbBlockTableRecord
  2
*MODEL_SPACE
340
20
  0
BLOCK_RECORD
  5
B
100
AcDbSymbolTableRecord
100
AcDbBlockTableRecord
  2
*PAPER_SPACE
340
21
  0
BLOCK_RECORD
  5
34
100
AcDbSymbolTableRecord
100
AcDbBlockTableRecord
  2
*X0
340
0
102
{BLKREFS
331
A8
102
}
  0
BLOCK_RECORD
  5
AB
100
AcDbSymbolTableRecord
100
AcDbBlockTableRecord
  2
*D1
340
0
  0
BLOCK_RECORD
  5
C8
100
AcDbSymbolTableRecord
100
AcDbBlockTableRecord
  2
*D2
340
0
  0
BLOCK_RECORD
  5
119
100
AcDbSymbolTableRecord
100
AcDbBlockTableRecord
  2
*D3
340
0
  0
BLOCK_RECORD
  5
136
100
AcDbSymbolTableRecord
100
AcDbBlockTableRecord
  2
*X4
340
0
102
{BLKREFS
331
155
102
}
  0
BLOCK_RECORD
  5
158
100
AcDbSymbolTableRecord
100
AcDbBlockTableRecord
  2
*D5
340
0
  0
BLOCK_RECORD
  5
173
100
AcDbSymbolTableRecord
100
AcDbBlockTableRecord
  2
*X6
340
0
102
{BLKREFS
331
187
102
}
  0
ENDTAB
  0
ENDSEC
  0
SECTION
  2
BLOCKS
  0
BLOCK
  5
D
100
AcDbEntity
  8
0
390
0
100
AcDbBlockBegin
  2
*MODEL_SPACE
 70
     0
 10
0.0
 20
0.0
 30
0.0
  3
*MODEL_SPACE
  1

  0
ENDBLK
  5
E
100
AcDbEntity
  8
0
390
0
100
AcDbBlockEnd
  0
BLOCK
  5
F
100
AcDbEntity
 67
     1
  8
0
390
0
100
AcDbBlockBegin
  2
*PAPER_SPACE
 70
     0
 10
0.0
 20
0.0
 30
0.0
  3
*PAPER_SPACE
  1

  0
ENDBLK
  5
10
100
AcDbEntity
 67
     1
  8
0
390
0
100
AcDbBlockEnd
  0
BLOCK
  5
35
100
AcDbEntity
  8
0
390
0
100
AcDbBlockBegin
  2
*X0
 70
    65
 10
0.0
 20
0.0
 30
0.0
  3
*X0
  1

  0
LINE
  5
37
100
AcDbEntity
  8
LC-003-005-----0
370
    25
390
0
 62
     2
100
AcDbLine
 10
278.535783
 20
134.286
 30
0.0
 11
283.58915
 21
139.339366
 31
0.0
  0
LINE
  5
38
100
AcDbEntity
  8
LC-003-005-----0
370
    25
390
0
 62
     2
100
AcDbLine
 10
270.050502
 20
134.286
 30
0.0
 11
283.58915
 21
147.824648
 31
0.0
  0
LINE
  5
39
100
AcDbEntity
  8
LC-003-005-----0
370
    25
390
0
 62
     2
100
AcDbLine
 10
261.565221
 20
134.286
 30
0.0
 11
283.58915
 21
156.309929
 31
0.0
  0
LINE
  5
3A
100
AcDbEntity
  8
LC-003-005-----0
370
    25
390
0
 62
     2
100
AcDbLine
 10
253.079939
 20
134.286
 30
0.0
 11
283.58915
 21
164.795211
 31
0.0
  0
LINE
  5
3B
100
AcDbEntity
  8
LC-003-005-----0
370
    25
390
0
 62
     2
100
AcDbLine
 10
244.594658
 20
134.286
 30
0.0
 11
283.58915
 21
173.280492
 31
0.0
  0
LINE
  5
3C
100
AcDbEntity
  8
LC-003-005-----0
370
    25
390
0
 62
     2
100
AcDbLine
 10
236.109376
 20
134.286
 30
0.0
 11
283.58915
 21
181.765773
 31
0.0
  0
LINE
  5
3D
100
AcDbEntity
  8
LC-003-005-----0
370
    25
390
0
 62
     2
100
AcDbLine
 10
227.624095
 20
134.286
 30
0.0
 11
283.58915
 21
190.251055
 31
0.0
  0
LINE
  5
3E
100
AcDbEntity
  8
LC-003-005-----0
370
    25
390
0
 62
     2
100
AcDbLine
 10
219.138814
 20
134.286
 30
0.0
 11
283.58915
 21
198.736336
 31
0.0
  0
LINE
  5
3F
100
AcDbEntity
  8
LC-003-005-----0
370
    25
390
0
 62
     2
100
AcDbLine
 10
210.653532
 20
134.286
 30
0.0
 11
283.58915
 21
207.221617
 31
0.0
  0
LINE
  5
40
100
AcDbEntity
  8
LC-003-005-----0
370
    25
390
0
 62
     2
100
AcDbLine
 10
202.168251
 20
134.286
 30
0.0
 11
283.58915
 21
215.706899
 31
0.0
  0
LINE
  5
41
100
AcDbEntity
  8
LC-003-005-----0
370
    25
390
0
 62
     2
100
AcDbLine
 10
193.68297
 20
134.286
 30
0.0
 11
283.58915
 21
224.19218
 31
0.0
  0
LINE
  5
42
100
AcDbEntity
  8
LC-003-005-----0
370
    25
390
0
 62
     2
100
AcDbLine
 10
185.197688
 20
134.286
 30
0.0
 11
283.58915
 21
232.677462
 31
0.0
  0
LINE
  5
43
100
AcDbEntity
  8
LC-003-005-----0
370
    25
390
0
 62
     2
100
AcDbLine
 10
176.712407
 20
134.286
 30
0.0
 11
283.58915
 21
241.162743
 31
0.0
  0
LINE
  5
44
100
AcDbEntity
  8
LC-003-005-----0
370
    25
390
0
 62
     2
100
AcDbLine
 10
168.227125
 20
134.286
 30
0.0
 11
283.58915
 21
249.648024
 31
0.0
  0
LINE
  5
45
100
AcDbEntity
  8
LC-003-005-----0
370
    25
390
0
 62
     2
100
AcDbLine
 10
159.741844
 20
134.286
 30
0.0
 11
283.58915
 21
258.133306
 31
0.0
  0
LINE
  5
46
100
AcDbEntity
  8
LC-003-005-----0
370
    25
390
0
 62
     2
100
AcDbLine
 10
151.256563
 20
134.286
 30
0.0
 11
283.58915
 21
266.618587
 31
0.0
  0
LINE
  5
47
100
AcDbEntity
  8
LC-003-005-----0
370
    25
390
0
 62
     2
100
AcDbLine
 10
142.771281
 20
134.286
 30
0.0
 11
283.58915
 21
275.103868
 31
0.0
  0
LINE
  5
48
100
AcDbEntity
  8
LC-003-005-----0
370
    25
390
0
 62
     2
100
AcDbLine
 10
134.286
 20
134.286
 30
0.0
 11
283.58915
 21
283.58915
 31
0.0
  0
LINE
  5
49
100
AcDbEntity
  8
LC-003-005-----0
370
    25
390
0
 62
     2
100
AcDbLine
 10
125.800719
 20
134.286
 30
0.0
 11
283.58915
 21
292.074431
 31
0.0
  0
LINE
  5
4A
100
AcDbEntity
  8
LC-003-005-----0
370
    25
390
0
 62
     2
100
AcDbLine
 10
117.315437
 20
134.286
 30
0.0
 11
283.58915
 21
300.559713
 31
0.0
  0
LINE
  5
4B
100
AcDbEntity
  8
LC-003-005-----0
370
    25
390
0
 62
     2
100
AcDbLine
 10
108.830156
 20
134.286
 30
0.0
 11
283.58915
 21
309.044994
 31
0.0
  0
LINE
  5
4C
100
AcDbEntity
  8
LC-003-005-----0
370
    25
390
0
 62
     2
100
AcDbLine
 10
108.58915
 20
142.530275
 30
0.0
 11
283.58915
 21
317.530275
 31
0.0
  0
LINE
  5
4D
100
AcDbEntity
  8
LC-003-005-----0
370
    25
390
0
 62
     2
100
AcDbLine
 10
108.58915
 20
151.015557
 30
0.0
 11
283.58915
 21
326.015557
 31
0.0
  0
LINE
  5
4E
100
AcDbEntity
  8
LC-003-005-----0
370
    25
390
0
 62
     2
100
AcDbLine
 10
108.58915
 20
159.500838
 30
0.0
 11
283.58915
 21
334.500838
 31
0.0
  0
LINE
  5
4F
100
AcDbEntity
  8
LC-003-005-----0
370
    25
390
0
 62
     2
100
AcDbLine
 10
108.58915
 20
167.986119
 30
0.0
 11
283.58915
 21
342.986119
 31
0.0
  0
LINE
  5
50
100
AcDbEntity
  8
LC-003-005-----0
370
    25
390
0
 62
     2
100
AcDbLine
 10
108.58915
 20
176.471401
 30
0.0
 11
283.58915
 21
351.471401
 31
0.0
  0
LINE
  5
51
100
AcDbEntity
  8
LC-003-005-----0
370
    25
390
0
 62
     2
100
AcDbLine
 10
108.58915
 20
184.956682
 30
0.0
 11
283.58915
 21
359.956682
 31
0.0
  0
LINE
  5
52
100
AcDbEntity
  8
LC-003-005-----0
370
    25
390
0
 62
     2
100
AcDbLine
 10
108.58915
 20
193.441964
 30
0.0
 11
283.58915
 21
368.441964
 31
0.0
  0
LINE
  5
53
100
AcDbEntity
  8
LC-003-005-----0
370
    25
390
0
 62
     2
100
AcDbLine
 10
108.58915
 20
201.927245
 30
0.0
 11
283.58915
 21
376.927245
 31
0.0
  0
LINE
  5
54
100
AcDbEntity
  8
LC-003-005-----0
370
    25
390
0
 62
     2
100
AcDbLine
 10
108.58915
 20
210.412526
 30
0.0
 11
283.58915
 21
385.412526
 31
0.0
  0
LINE
  5
55
100
AcDbEntity
  8
LC-003-005-----0
370
    25
390
0
 62
     2
100
AcDbLine
 10
108.58915
 20
218.897808
 30
0.0
 11
283.58915
 21
393.897808
 31
0.0
  0
LINE
  5
56
100
AcDbEntity
  8
LC-003-005-----0
370
    25
390
0
 62
     2
100
AcDbLine
 10
108.58915
 20
227.383089
 30
0.0
 11
283.58915
 21
402.383089
 31
0.0
  0
LINE
  5
57
100
AcDbEntity
  8
LC-003-005-----0
370
    25
390
0
 62
     2
100
AcDbLine
 10
108.58915
 20
235.86837
 30
0.0
 11
283.58915
 21
410.86837
 31
0.0
  0
LINE
  5
58
100
AcDbEntity
  8
LC-003-005-----0
370
    25
390
0
 62
     2
100
AcDbLine
 10
108.58915
 20
244.353652
 30
0.0
 11
283.58915
 21
419.353652
 31
0.0
  0
LINE
  5
59
100
AcDbEntity
  8
LC-003-005-----0
370
    25
390
0
 62
     2
100
AcDbLine
 10
108.58915
 20
252.838933
 30
0.0
 11
283.58915
 21
427.838933
 31
0.0
  0
LINE
  5
5A
100
AcDbEntity
  8
LC-003-005-----0
370
    25
390
0
 62
     2
100
AcDbLine
 10
108.58915
 20
261.324215
 30
0.0
 11
281.550935
 21
434.286
 31
0.0
  0
LINE
  5
5B
100
AcDbEntity
  8
LC-003-005-----0
370
    25
390
0
 62
     2
100
AcDbLine
 10
108.58915
 20
269.809496
 30
0.0
 11
273.065654
 21
434.286
 31
0.0
  0
LINE
  5
5C
100
AcDbEntity
  8
LC-003-005-----0
370
    25
390
0
 62
     2
100
AcDbLine
 10
108.58915
 20
278.294777
 30
0.0
 11
264.580373
 21
434.286
 31
0.0
  0
LINE
  5
5D
100
AcDbEntity
  8
LC-003-005-----0
370
    25
390
0
 62
     2
100
AcDbLine
 10
108.58915
 20
286.780059
 30
0.0
 11
256.095091
 21
434.286
 31
0.0
  0
LINE
  5
5E
100
AcDbEntity
  8
LC-003-005-----0
370
    25
390
0
 62
     2
100
AcDbLine
 10
108.58915
 20
295.26534
 30
0.0
 11
247.60981
 21
434.286
 31
0.0
  0
LINE
  5
5F
100
AcDbEntity
  8
LC-003-005-----0
370
    25
390
0
 62
     2
100
AcDbLine
 10
108.58915
 20
303.750621
 30
0.0
 11
239.124528
 21
434.286
 31
0.0
  0
LINE
  5
60
100
AcDbEntity
  8
LC-003-005-----0
370
    25
390
0
 62
     2
100
AcDbLine
 10
108.58915
 20
312.235903
 30
0.0
 11
230.639247
 21
434.286
 31
0.0
  0
LINE
  5
61
100
AcDbEntity
  8
LC-003-005-----0
370
    25
390
0
 62
     2
100
AcDbLine
 10
108.58915
 20
320.721184
 30
0.0
 11
222.153966
 21
434.286
 31
0.0
  0
LINE
  5
62
100
AcDbEntity
  8
LC-003-005-----0
370
    25
390
0
 62
     2
100
AcDbLine
 10
108.58915
 20
329.206465
 30
0.0
 11
213.668684
 21
434.286
 31
0.0
  0
LINE
  5
63
100
AcDbEntity
  8
LC-003-005-----0
370
    25
390
0
 62
     2
100
AcDbLine
 10
108.58915
 20
337.691747
 30
0.0
 11
205.183403
 21
434.286
 31
0.0
  0
LINE
  5
64
100
AcDbEntity
  8
LC-003-005-----0
370
    25
390
0
 62
     2
100
AcDbLine
 10
108.58915
 20
346.177028
 30
0.0
 11
196.698122
 21
434.286
 31
0.0
  0
LINE
  5
65
100
AcDbEntity
  8
LC-003-005-----0
370
    25
390
0
 62
     2
100
AcDbLine
 10
108.58915
 20
354.66231
 30
0.0
 11
188.21284
 21
434.286
 31
0.0
  0
LINE
  5
66
100
AcDbEntity
  8
LC-003-005-----0
370
    25
390
0
 62
     2
100
AcDbLine
 10
108.58915
 20
363.147591
 30
0.0
 11
179.727559
 21
434.286
 31
0.0
  0
LINE
  5
67
100
AcDbEntity
  8
LC-003-005-----0
370
    25
390
0
 62
     2
100
AcDbLine
 10
108.58915
 20
371.632872
 30
0.0
 11
171.242277
 21
434.286
 31
0.0
  0
LINE
  5
68
100
AcDbEntity
  8
LC-003-005-----0
370
    25
390
0
 62
     2
100
AcDbLine
 10
108.58915
 20
380.118154
 30
0.0
 11
162.756996
 21
434.286
 31
0.0
  0
LINE
  5
69
100
AcDbEntity
  8
LC-003-005-----0
370
    25
390
0
 62
     2
100
AcDbLine
 10
108.58915
 20
388.603435
 30
0.0
 11
154.271715
 21
434.286
 31
0.0
  0
LINE
  5
6A
100
AcDbEntity
  8
LC-003-005-----0
370
    25
390
0
 62
     2
100
AcDbLine
 10
108.58915
 20
397.088716
 30
0.0
 11
145.786433
 21
434.286
 31
0.0
  0
LINE
  5
6B
100
AcDbEntity
  8
LC-003-005-----0
370
    25
390
0
 62
     2
100
AcDbLine
 10
108.58915
 20
405.573998
 30
0.0
 11
137.301152
 21
434.286
 31
0.0
  0
LINE
  5
6C
100
AcDbEntity
  8
LC-003-005-----0
370
    25
390
0
 62
     2
100
AcDbLine
 10
108.58915
 20
414.059279
 30
0.0
 11
128.815871
 21
434.286
 31
0.0
  0
LINE
  5
6D
100
AcDbEntity
  8
LC-003-005-----0
370
    25
390
0
 62
     2
100
AcDbLine
 10
108.58915
 20
422.544561
 30
0.0
 11
120.330589
 21
434.286
 31
0.0
  0
LINE
  5
6E
100
AcDbEntity
  8
LC-003-005-----0
370
    25
390
0
 62
     2
100
AcDbLine
 10
108.58915
 20
431.029842
 30
0.0
 11
111.845308
 21
434.286
 31
0.0
  0
LINE
  5
6F
100
AcDbEntity
  8
LC-003-005-----0
370
    25
390
0
 62
     2
100
AcDbLine
 10
283.58915
 20
429.174486
 30
0.0
 11
278.477635
 21
434.286
 31
0.0
  0
LINE
  5
70
100
AcDbEntity
  8
LC-003-005-----0
370
    25
390
0
 62
     2
100
AcDbLine
 10
283.58915
 20
420.689204
 30
0.0
 11
269.992354
 21
434.286
 31
0.0
  0
LINE
  5
71
100
AcDbEntity
  8
LC-003-005-----0
370
    25
390
0
 62
     2
100
AcDbLine
 10
283.58915
 20
412.203923
 30
0.0
 11
261.507073
 21
434.286
 31
0.0
  0
LINE
  5
72
100
AcDbEntity
  8
LC-003-005-----0
370
    25
390
0
 62
     2
100
AcDbLine
 10
283.58915
 20
403.718642
 30
0.0
 11
253.021791
 21
434.286
 31
0.0
  0
LINE
  5
73
100
AcDbEntity
  8
LC-003-005-----0
370
    25
390
0
 62
     2
100
AcDbLine
 10
283.58915
 20
395.23336
 30
0.0
 11
244.53651
 21
434.286
 31
0.0
  0
LINE
  5
74
100
AcDbEntity
  8
LC-003-005-----0
370
    25
390
0
 62
     2
100
AcDbLine
 10
283.58915
 20
386.748079
 30
0.0
 11
236.051229
 21
434.286
 31
0.0
  0
LINE
  5
75
100
AcDbEntity
  8
LC-003-005-----0
370
    25
390
0
 62
     2
100
AcDbLine
 10
283.58915
 20
378.262797
 30
0.0
 11
227.565947
 21
434.286
 31
0.0
  0
LINE
  5
76
100
AcDbEntity
  8
LC-003-005-----0
370
    25
390
0
 62
     2
100
AcDbLine
 10
283.58915
 20
369.777516
 30
0.0
 11
219.080666
 21
434.286
 31
0.0
  0
LINE
  5
77
100
AcDbEntity
  8
LC-003-005-----0
370
    25
390
0
 62
     2
100
AcDbLine
 10
283.58915
 20
361.292235
 30
0.0
 11
210.595384
 21
434.286
 31
0.0
  0
LINE
  5
78
100
AcDbEntity
  8
LC-003-005-----0
370
    25
390
0
 62
     2
100
AcDbLine
 10
283.58915
 20
352.806953
 30
0.0
 11
202.110103
 21
434.286
 31
0.0
  0
LINE
  5
79
100
AcDbEntity
  8
LC-003-005-----0
370
    25
390
0
 62
     2
100
AcDbLine
 10
283.58915
 20
344.321672
 30
0.0
 11
193.624822
 21
434.286
 31
0.0
  0
LINE
  5
7A
100
AcDbEntity
  8
LC-003-005-----0
370
    25
390
0
 62
     2
100
AcDbLine
 10
283.58915
 20
335.836391
 30
0.0
 11
185.13954
 21
434.286
 31
0.0
  0
LINE
  5
7B
100
AcDbEntity
  8
LC-003-005-----0
370
    25
390
0
 62
     2
100
AcDbLine
 10
283.58915
 20
327.351109
 30
0.0
 11
176.654259
 21
434.286
 31
0.0
  0
LINE
  5
7C
100
AcDbEntity
  8
LC-003-005-----0
370
    25
390
0
 62
     2
100
AcDbLine
 10
283.58915
 20
318.865828
 30
0.0
 11
168.168978
 21
434.286
 31
0.0
  0
LINE
  5
7D
100
AcDbEntity
  8
LC-003-005-----0
370
    25
390
0
 62
     2
100
AcDbLine
 10
283.58915
 20
310.380546
 30
0.0
 11
159.683696
 21
434.286
 31
0.0
  0
LINE
  5
7E
100
AcDbEntity
  8
LC-003-005-----0
370
    25
390
0
 62
     2
100
AcDbLine
 10
283.58915
 20
301.895265
 30
0.0
 11
151.198415
 21
434.286
 31
0.0
  0
LINE
  5
7F
100
AcDbEntity
  8
LC-003-005-----0
370
    25
390
0
 62
     2
100
AcDbLine
 10
283.58915
 20
293.409984
 30
0.0
 11
142.713133
 21
434.286
 31
0.0
  0
LINE
  5
80
100
AcDbEntity
  8
LC-003-005-----0
370
    25
390
0
 62
     2
100
AcDbLine
 10
283.58915
 20
284.924702
 30
0.0
 11
134.227852
 21
434.286
 31
0.0
  0
LINE
  5
81
100
AcDbEntity
  8
LC-003-005-----0
370
    25
390
0
 62
     2
100
AcDbLine
 10
283.58915
 20
276.439421
 30
0.0
 11
125.742571
 21
434.286
 31
0.0
  0
LINE
  5
82
100
AcDbEntity
  8
LC-003-005-----0
370
    25
390
0
 62
     2
100
AcDbLine
 10
283.58915
 20
267.95414
 30
0.0
 11
117.257289
 21
434.286
 31
0.0
  0
LINE
  5
83
100
AcDbEntity
  8
LC-003-005-----0
370
    25
390
0
 62
     2
100
AcDbLine
 10
283.58915
 20
259.468858
 30
0.0
 11
108.772008
 21
434.286
 31
0.0
  0
LINE
  5
84
100
AcDbEntity
  8
LC-003-005-----0
370
    25
390
0
 62
     2
100
AcDbLine
 10
283.58915
 20
250.983577
 30
0.0
 11
108.58915
 21
425.983577
 31
0.0
  0
LINE
  5
85
100
AcDbEntity
  8
LC-003-005-----0
370
    25
390
0
 62
     2
100
AcDbLine
 10
283.58915
 20
242.498295
 30
0.0
 11
108.58915
 21
417.498295
 31
0.0
  0
LINE
  5
86
100
AcDbEntity
  8
LC-003-005-----0
370
    25
390
0
 62
     2
100
AcDbLine
 10
283.58915
 20
234.013014
 30
0.0
 11
108.58915
 21
409.013014
 31
0.0
  0
LINE
  5
87
100
AcDbEntity
  8
LC-003-005-----0
370
    25
390
0
 62
     2
100
AcDbLine
 10
283.58915
 20
225.527733
 30
0.0
 11
108.58915
 21
400.527733
 31
0.0
  0
LINE
  5
88
100
AcDbEntity
  8
LC-003-005-----0
370
    25
390
0
 62
     2
100
AcDbLine
 10
283.58915
 20
217.042451
 30
0.0
 11
108.58915
 21
392.042451
 31
0.0
  0
LINE
  5
89
100
AcDbEntity
  8
LC-003-005-----0
370
    25
390
0
 62
     2
100
AcDbLine
 10
283.58915
 20
208.55717
 30
0.0
 11
108.58915
 21
383.55717
 31
0.0
  0
LINE
  5
8A
100
AcDbEntity
  8
LC-003-005-----0
370
    25
390
0
 62
     2
100
AcDbLine
 10
283.58915
 20
200.071889
 30
0.0
 11
108.58915
 21
375.071889
 31
0.0
  0
LINE
  5
8B
100
AcDbEntity
  8
LC-003-005-----0
370
    25
390
0
 62
     2
100
AcDbLine
 10
283.58915
 20
191.586607
 30
0.0
 11
108.58915
 21
366.586607
 31
0.0
  0
LINE
  5
8C
100
AcDbEntity
  8
LC-003-005-----0
370
    25
390
0
 62
     2
100
AcDbLine
 10
283.58915
 20
183.101326
 30
0.0
 11
108.58915
 21
358.101326
 31
0.0
  0
LINE
  5
8D
100
AcDbEntity
  8
LC-003-005-----0
370
    25
390
0
 62
     2
100
AcDbLine
 10
283.58915
 20
174.616044
 30
0.0
 11
108.58915
 21
349.616044
 31
0.0
  0
LINE
  5
8E
100
AcDbEntity
  8
LC-003-005-----0
370
    25
390
0
 62
     2
100
AcDbLine
 10
283.58915
 20
166.130763
 30
0.0
 11
108.58915
 21
341.130763
 31
0.0
  0
LINE
  5
8F
100
AcDbEntity
  8
LC-003-005-----0
370
    25
390
0
 62
     2
100
AcDbLine
 10
283.58915
 20
157.645482
 30
0.0
 11
108.58915
 21
332.645482
 31
0.0
  0
LINE
  5
90
100
AcDbEntity
  8
LC-003-005-----0
370
    25
390
0
 62
     2
100
AcDbLine
 10
283.58915
 20
149.1602
 30
0.0
 11
108.58915
 21
324.1602
 31
0.0
  0
LINE
  5
91
100
AcDbEntity
  8
LC-003-005-----0
370
    25
390
0
 62
     2
100
AcDbLine
 10
283.58915
 20
140.674919
 30
0.0
 11
108.58915
 21
315.674919
 31
0.0
  0
LINE
  5
92
100
AcDbEntity
  8
LC-003-005-----0
370
    25
390
0
 62
     2
100
AcDbLine
 10
281.492787
 20
134.286
 30
0.0
 11
108.58915
 21
307.189638
 31
0.0
  0
LINE
  5
93
100
AcDbEntity
  8
LC-003-005-----0
370
    25
390
0
 62
     2
100
AcDbLine
 10
273.007506
 20
134.286
 30
0.0
 11
108.58915
 21
298.704356
 31
0.0
  0
LINE
  5
94
100
AcDbEntity
  8
LC-003-005-----0
370
    25
390
0
 62
     2
100
AcDbLine
 10
264.522225
 20
134.286
 30
0.0
 11
108.58915
 21
290.219075
 31
0.0
  0
LINE
  5
95
100
AcDbEntity
  8
LC-003-005-----0
370
    25
390
0
 62
     2
100
AcDbLine
 10
256.036943
 20
134.286
 30
0.0
 11
108.58915
 21
281.733793
 31
0.0
  0
LINE
  5
96
100
AcDbEntity
  8
LC-003-005-----0
370
    25
390
0
 62
     2
100
AcDbLine
 10
247.551662
 20
134.286
 30
0.0
 11
108.58915
 21
273.248512
 31
0.0
  0
LINE
  5
97
100
AcDbEntity
  8
LC-003-005-----0
370
    25
390
0
 62
     2
100
AcDbLine
 10
239.06638
 20
134.286
 30
0.0
 11
108.58915
 21
264.763231
 31
0.0
  0
LINE
  5
98
100
AcDbEntity
  8
LC-003-005-----0
370
    25
390
0
 62
     2
100
AcDbLine
 10
230.581099
 20
134.286
 30
0.0
 11
108.58915
 21
256.277949
 31
0.0
  0
LINE
  5
99
100
AcDbEntity
  8
LC-003-005-----0
370
    25
390
0
 62
     2
100
AcDbLine
 10
222.095818
 20
134.286
 30
0.0
 11
108.58915
 21
247.792668
 31
0.0
  0
LINE
  5
9A
100
AcDbEntity
  8
LC-003-005-----0
370
    25
390
0
 62
     2
100
AcDbLine
 10
213.610536
 20
134.286
 30
0.0
 11
108.58915
 21
239.307387
 31
0.0
  0
LINE
  5
9B
100
AcDbEntity
  8
LC-003-005-----0
370
    25
390
0
 62
     2
100
AcDbLine
 10
205.125255
 20
134.286
 30
0.0
 11
108.58915
 21
230.822105
 31
0.0
  0
LINE
  5
9C
100
AcDbEntity
  8
LC-003-005-----0
370
    25
390
0
 62
     2
100
AcDbLine
 10
196.639974
 20
134.286
 30
0.0
 11
108.58915
 21
222.336824
 31
0.0
  0
LINE
  5
9D
100
AcDbEntity
  8
LC-003-005-----0
370
    25
390
0
 62
     2
100
AcDbLine
 10
188.154692
 20
134.286
 30
0.0
 11
108.58915
 21
213.851542
 31
0.0
  0
LINE
  5
9E
100
AcDbEntity
  8
LC-003-005-----0
370
    25
390
0
 62
     2
100
AcDbLine
 10
179.669411
 20
134.286
 30
0.0
 11
108.58915
 21
205.366261
 31
0.0
  0
LINE
  5
9F
100
AcDbEntity
  8
LC-003-005-----0
370
    25
390
0
 62
     2
100
AcDbLine
 10
171.184129
 20
134.286
 30
0.0
 11
108.58915
 21
196.88098
 31
0.0
  0
LINE
  5
A0
100
AcDbEntity
  8
LC-003-005-----0
370
    25
390
0
 62
     2
100
AcDbLine
 10
162.698848
 20
134.286
 30
0.0
 11
108.58915
 21
188.395698
 31
0.0
  0
LINE
  5
A1
100
AcDbEntity
  8
LC-003-005-----0
370
    25
390
0
 62
     2
100
AcDbLine
 10
154.213567
 20
134.286
 30
0.0
 11
108.58915
 21
179.910417
 31
0.0
  0
LINE
  5
A2
100
AcDbEntity
  8
LC-003-005-----0
370
    25
390
0
 62
     2
100
AcDbLine
 10
145.728285
 20
134.286
 30
0.0
 11
108.58915
 21
171.425136
 31
0.0
  0
LINE
  5
A3
100
AcDbEntity
  8
LC-003-005-----0
370
    25
390
0
 62
     2
100
AcDbLine
 10
137.243004
 20
134.286
 30
0.0
 11
108.58915
 21
162.939854
 31
0.0
  0
LINE
  5
A4
100
AcDbEntity
  8
LC-003-005-----0
370
    25
390
0
 62
     2
100
AcDbLine
 10
128.757723
 20
134.286
 30
0.0
 11
108.58915
 21
154.454573
 31
0.0
  0
LINE
  5
A5
100
AcDbEntity
  8
LC-003-005-----0
370
    25
390
0
 62
     2
100
AcDbLine
 10
120.272441
 20
134.286
 30
0.0
 11
108.58915
 21
145.969291
 31
0.0
  0
LINE
  5
A6
100
AcDbEntity
  8
LC-003-005-----0
370
    25
390
0
 62
     2
100
AcDbLine
 10
111.78716
 20
134.286
 30
0.0
 11
108.58915
 21
137.48401
 31
0.0
  0
ENDBLK
  5
A7
100
AcDbEntity
  8
0
390
0
100
AcDbBlockEnd
  0
BLOCK
  5
AC
100
AcDbEntity
  8
0
390
0
100
AcDbBlockBegin
  2
*D1
 70
    65
 10
0.0
 20
0.0
 30
0.0
  3
*D1
  1

  0
LINE
  5
AE
100
AcDbEntity
  8
LC-004-003-MTH-0
370
    25
390
0
 62
     2
100
AcDbLine
 10
108.58915
 20
134.286
 30
0.0
 11
108.58915
 21
487.2
 31
0.0
  0
LINE
  5
AF
100
AcDbEntity
  8
LC-004-003-MTH-0
370
    25
390
0
 62
     2
100
AcDbLine
 10
283.58915
 20
134.286
 30
0.0
 11
283.58915
 21
487.2
 31
0.0
  0
LINE
  5
B1
100
AcDbEntity
  8
LC-005-003-MTG-0
370
    25
390
0
 62
     2
100
AcDbLine
 10
108.58915
 20
470.4
 30
0.0
 11
283.58915
 21
470.4
 31
0.0
  0
LINE
  5
B3
100
AcDbEntity
  8
LC-006-003-----0
370
    25
390
0
 62
     2
100
AcDbLine
 10
136.349606
 20
474.054733
 30
0.0
 11
108.58915
 21
470.4
 31
0.0
  0
LINE
  5
B4
100
AcDbEntity
  8
LC-006-003-----0
370
    25
390
0
 62
     2
100
AcDbLine
 10
108.58915
 20
470.4
 30
0.0
 11
136.349606
 21
466.745267
 31
0.0
  0
LINE
  5
B5
100
AcDbEntity
  8
LC-006-003-----0
370
    25
390
0
 62
     2
100
AcDbLine
 10
136.349606
 20
466.745267
 30
0.0
 11
136.349606
 21
474.054733
 31
0.0
  0
LINE
  5
B6
100
AcDbEntity
  8
LC-006-003-----0
370
    25
390
0
 62
     2
100
AcDbLine
 10
136.411887
 20
473.104503
 30
0.0
 11
115.86915
 21
470.4
 31
0.0
  0
LINE
  5
B7
100
AcDbEntity
  8
LC-006-003-----0
370
    25
390
0
 62
     2
100
AcDbLine
 10
115.86915
 20
470.4
 30
0.0
 11
136.411887
 21
467.695497
 31
0.0
  0
LINE
  5
B8
100
AcDbEntity
  8
LC-006-003-----0
370
    25
390
0
 62
     2
100
AcDbLine
 10
136.474169
 20
472.154272
 30
0.0
 11
123.14915
 21
470.4
 31
0.0
  0
LINE
  5
B9
100
AcDbEntity
  8
LC-006-003-----0
370
    25
390
0
 62
     2
100
AcDbLine
 10
123.14915
 20
470.4
 30
0.0
 11
136.474169
 21
468.645728
 31
0.0
  0
LINE
  5
BA
100
AcDbEntity
  8
LC-006-003-----0
370
    25
390
0
 62
     2
100
AcDbLine
 10
136.53645
 20
471.204041
 30
0.0
 11
130.42915
 21
470.4
 31
0.0
  0
LINE
  5
BB
100
AcDbEntity
  8
LC-006-003-----0
370
    25
390
0
 62
     2
100
AcDbLine
 10
130.42915
 20
470.4
 30
0.0
 11
136.53645
 21
469.595959
 31
0.0
  0
LINE
  5
BC
100
AcDbEntity
  8
LC-006-003-----0
370
    25
390
0
 62
     2
100
AcDbLine
 10
255.828694
 20
466.745267
 30
0.0
 11
283.58915
 21
470.4
 31
0.0
  0
LINE
  5
BD
100
AcDbEntity
  8
LC-006-003-----0
370
    25
390
0
 62
     2
100
AcDbLine
 10
283.58915
 20
470.4
 30
0.0
 11
255.828694
 21
474.054733
 31
0.0
  0
LINE
  5
BE
100
AcDbEntity
  8
LC-006-003-----0
370
    25
390
0
 62
     2
100
AcDbLine
 10
255.828694
 20
474.054733
 30
0.0
 11
255.828694
 21
466.745267
 31
0.0
  0
LINE
  5
BF
100
AcDbEntity
  8
LC-006-003-----0
370
    25
390
0
 62
     2
100
AcDbLine
 10
255.766412
 20
467.695497
 30
0.0
 11
276.30915
 21
470.4
 31
0.0
  0
LINE
  5
C0
100
AcDbEntity
  8
LC-006-003-----0
370
    25
390
0
 62
     2
100
AcDbLine
 10
276.30915
 20
470.4
 30
0.0
 11
255.766412
 21
473.104503
 31
0.0
  0
LINE
  5
C1
100
AcDbEntity
  8
LC-006-003-----0
370
    25
390
0
 62
     2
100
AcDbLine
 10
255.704131
 20
468.645728
 30
0.0
 11
269.02915
 21
470.4
 31
0.0
  0
LINE
  5
C2
100
AcDbEntity
  8
LC-006-003-----0
370
    25
390
0
 62
     2
100
AcDbLine
 10
269.02915
 20
470.4
 30
0.0
 11
255.704131
 21
472.154272
 31
0.0
  0
LINE
  5
C3
100
AcDbEntity
  8
LC-006-003-----0
370
    25
390
0
 62
     2
100
AcDbLine
 10
255.641849
 20
469.595959
 30
0.0
 11
261.74915
 21
470.4
 31
0.0
  0
LINE
  5
C4
100
AcDbEntity
  8
LC-006-003-----0
370
    25
390
0
 62
     2
100
AcDbLine
 10
261.74915
 20
470.4
 30
0.0
 11
255.641849
 21
471.204041
 31
0.0
  0
TEXT
  5
C5
100
AcDbEntity
  8
LC-006-003-----0
370
    -2
390
0
 62
     7
100
AcDbText
 10
137.43731
 20
478.227554
 30
0.0
 40
28.0
  1
%%c175
 41
0.9
 51
15.0
  7
LCTX15-400-0-0-ARIAL
 72
     1
 11
200.43731
 21
478.227554
 31
0.0
100
AcDbText
  0
ENDBLK
  5
C6
100
AcDbEntity
  8
0
390
0
100
AcDbBlockEnd
  0
BLOCK
  5
C9
100
AcDbEntity
  8
0
390
0
100
AcDbBlockBegin
  2
*D2
 70
    65
 10
0.0
 20
0.0
 30
0.0
  3
*D2
  1

  0
LINE
  5
CA
100
AcDbEntity
  8
LC-004-003-MTH-0
370
    25
390
0
 62
     2
100
AcDbLine
 10
283.58915
 20
134.286
 30
0.0
 11
352.8
 21
134.286
 31
0.0
  0
LINE
  5
CB
100
AcDbEntity
  8
LC-004-003-MTH-0
370
    25
390
0
 62
     2
100
AcDbLine
 10
283.58915
 20
434.286
 30
0.0
 11
352.8
 21
434.286
 31
0.0
  0
LINE
  5
CC
100
AcDbEntity
  8
LC-005-003-MTG-0
370
    25
390
0
 62
     2
100
AcDbLine
 10
336.0
 20
134.286
 30
0.0
 11
336.0
 21
434.286
 31
0.0
  0
LINE
  5
CD
100
AcDbEntity
  8
LC-006-003-----0
370
    25
390
0
 62
     2
100
AcDbLine
 10
332.345267
 20
162.046456
 30
0.0
 11
336.0
 21
134.286
 31
0.0
  0
LINE
  5
CE
100
AcDbEntity
  8
LC-006-003-----0
370
    25
390
0
 62
     2
100
AcDbLine
 10
336.0
 20
134.286
 30
0.0
 11
339.654733
 21
162.046456
 31
0.0
  0
LINE
  5
CF
100
AcDbEntity
  8
LC-006-003-----0
370
    25
390
0
 62
     2
100
AcDbLine
 10
339.654733
 20
162.046456
 30
0.0
 11
332.345267
 21
162.046456
 31
0.0
  0
LINE
  5
D0
100
AcDbEntity
  8
LC-006-003-----0
370
    25
390
0
 62
     2
100
AcDbLine
 10
333.295497
 20
162.108738
 30
0.0
 11
336.0
 21
141.566
 31
0.0
  0
LINE
  5
D1
100
AcDbEntity
  8
LC-006-003-----0
370
    25
390
0
 62
     2
100
AcDbLine
 10
336.0
 20
141.566
 30
0.0
 11
338.704503
 21
162.108738
 31
0.0
  0
LINE
  5
D2
100
AcDbEntity
  8
LC-006-003-----0
370
    25
390
0
 62
     2
100
AcDbLine
 10
334.245728
 20
162.171019
 30
0.0
 11
336.0
 21
148.846
 31
0.0
  0
LINE
  5
D3
100
AcDbEntity
  8
LC-006-003-----0
370
    25
390
0
 62
     2
100
AcDbLine
 10
336.0
 20
148.846
 30
0.0
 11
337.754272
 21
162.171019
 31
0.0
  0
LINE
  5
D4
100
AcDbEntity
  8
LC-006-003-----0
370
    25
390
0
 62
     2
100
AcDbLine
 10
335.195959
 20
162.2333
 30
0.0
 11
336.0
 21
156.126
 31
0.0
  0
LINE
  5
D5
100
AcDbEntity
  8
LC-006-003-----0
370
    25
390
0
 62
     2
100
AcDbLine
 10
336.0
 20
156.126
 30
0.0
 11
336.804041
 21
162.2333
 31
0.0
  0
LINE
  5
D6
100
AcDbEntity
  8
LC-006-003-----0
370
    25
390
0
 62
     2
100
AcDbLine
 10
339.654733
 20
406.525544
 30
0.0
 11
336.0
 21
434.286
 31
0.0
  0
LINE
  5
D7
100
AcDbEntity
  8
LC-006-003-----0
370
    25
390
0
 62
     2
100
AcDbLine
 10
336.0
 20
434.286
 30
0.0
 11
332.345267
 21
406.525544
 31
0.0
  0
LINE
  5
D8
100
AcDbEntity
  8
LC-006-003-----0
370
    25
390
0
 62
     2
100
AcDbLine
 10
332.345267
 20
406.525544
 30
0.0
 11
339.654733
 21
406.525544
 31
0.0
  0
LINE
  5
D9
100
AcDbEntity
  8
LC-006-003-----0
370
    25
390
0
 62
     2
100
AcDbLine
 10
338.704503
 20
406.463262
 30
0.0
 11
336.0
 21
427.006
 31
0.0
  0
LINE
  5
DA
100
AcDbEntity
  8
LC-006-003-----0
370
    25
390
0
 62
     2
100
AcDbLine
 10
336.0
 20
427.006
 30
0.0
 11
333.295497
 21
406.463262
 31
0.0
  0
LINE
  5
DB
100
AcDbEntity
  8
LC-006-003-----0
370
    25
390
0
 62
     2
100
AcDbLine
 10
337.754272
 20
406.400981
 30
0.0
 11
336.0
 21
419.726
 31
0.0
  0
LINE
  5
DC
100
AcDbEntity
  8
LC-006-003-----0
370
    25
390
0
 62
     2
100
AcDbLine
 10
336.0
 20
419.726
 30
0.0
 11
334.245728
 21
406.400981
 31
0.0
  0
LINE
  5
DD
100
AcDbEntity
  8
LC-006-003-----0
370
    25
390
0
 62
     2
100
AcDbLine
 10
336.804041
 20
406.3387
 30
0.0
 11
336.0
 21
412.446
 31
0.0
  0
LINE
  5
DE
100
AcDbEntity
  8
LC-006-003-----0
370
    25
390
0
 62
     2
100
AcDbLine
 10
336.0
 20
412.446
 30
0.0
 11
335.195959
 21
406.3387
 31
0.0
  0
TEXT
  5
DF
100
AcDbEntity
  8
LC-006-003-----0
370
    -2
390
0
 62
     7
100
AcDbText
 10
328.172446
 20
262.00616
 30
0.0
 40
28.0
  1
300
 50
90.0
 41
0.9
 51
15.0
  7
LCTX15-400-0-0-ARIAL
 72
     1
 11
328.172446
 21
288.63416
 31
0.0
100
AcDbText
  0
ENDBLK
  5
E0
100
AcDbEntity
  8
0
390
0
100
AcDbBlockEnd
  0
BLOCK
  5
11A
100
AcDbEntity
  8
0
390
0
100
AcDbBlockBegin
  2
*D3
 70
    65
 10
0.0
 20
0.0
 30
0.0
  3
*D3
  1

  0
LINE
  5
11B
100
AcDbEntity
  8
LC-004-003-MTH-0
370
    25
390
0
 62
     2
100
AcDbLine
 10
63.58915
 20
134.286
 30
0.0
 11
27.39015
 21
134.286
 31
0.0
  0
LINE
  5
11C
100
AcDbEntity
  8
LC-004-003-MTH-0
370
    25
390
0
 62
     2
100
AcDbLine
 10
97.08915
 20
184.286
 30
0.0
 11
27.39015
 21
184.286
 31
0.0
  0
LINE
  5
11D
100
AcDbEntity
  8
LC-006-003-----0
370
    25
390
0
 62
     2
100
AcDbLine
 10
47.844883
 20
106.525544
 30
0.0
 11
44.19015
 21
134.286
 31
0.0
  0
LINE
  5
11E
100
AcDbEntity
  8
LC-006-003-----0
370
    25
390
0
 62
     2
100
AcDbLine
 10
44.19015
 20
134.286
 30
0.0
 11
40.535416
 21
106.525544
 31
0.0
  0
LINE
  5
11F
100
AcDbEntity
  8
LC-006-003-----0
370
    25
390
0
 62
     2
100
AcDbLine
 10
40.535416
 20
106.525544
 30
0.0
 11
47.844883
 21
106.525544
 31
0.0
  0
LINE
  5
120
100
AcDbEntity
  8
LC-006-003-----0
370
    25
390
0
 62
     2
100
AcDbLine
 10
46.894652
 20
106.463262
 30
0.0
 11
44.19015
 21
127.006
 31
0.0
  0
LINE
  5
121
100
AcDbEntity
  8
LC-006-003-----0
370
    25
390
0
 62
     2
100
AcDbLine
 10
44.19015
 20
127.006
 30
0.0
 11
41.485647
 21
106.463262
 31
0.0
  0
LINE
  5
122
100
AcDbEntity
  8
LC-006-003-----0
370
    25
390
0
 62
     2
100
AcDbLine
 10
45.944422
 20
106.400981
 30
0.0
 11
44.19015
 21
119.726
 31
0.0
  0
LINE
  5
123
100
AcDbEntity
  8
LC-006-003-----0
370
    25
390
0
 62
     2
100
AcDbLine
 10
44.19015
 20
119.726
 30
0.0
 11
42.435878
 21
106.400981
 31
0.0
  0
LINE
  5
124
100
AcDbEntity
  8
LC-006-003-----0
370
    25
390
0
 62
     2
100
AcDbLine
 10
44.994191
 20
106.3387
 30
0.0
 11
44.19015
 21
112.446
 31
0.0
  0
LINE
  5
125
100
AcDbEntity
  8
LC-006-003-----0
370
    25
390
0
 62
     2
100
AcDbLine
 10
44.19015
 20
112.446
 30
0.0
 11
43.386108
 21
106.3387
 31
0.0
  0
LINE
  5
126
100
AcDbEntity
  8
LC-006-003-----0
370
    25
390
0
 62
     2
100
AcDbLine
 10
40.535416
 20
212.046456
 30
0.0
 11
44.19015
 21
184.286
 31
0.0
  0
LINE
  5
127
100
AcDbEntity
  8
LC-006-003-----0
370
    25
390
0
 62
     2
100
AcDbLine
 10
44.19015
 20
184.286
 30
0.0
 11
47.844883
 21
212.046456
 31
0.0
  0
LINE
  5
128
100
AcDbEntity
  8
LC-006-003-----0
370
    25
390
0
 62
     2
100
AcDbLine
 10
47.844883
 20
212.046456
 30
0.0
 11
40.535416
 21
212.046456
 31
0.0
  0
LINE
  5
129
100
AcDbEntity
  8
LC-006-003-----0
370
    25
390
0
 62
     2
100
AcDbLine
 10
41.485647
 20
212.108738
 30
0.0
 11
44.19015
 21
191.566
 31
0.0
  0
LINE
  5
12A
100
AcDbEntity
  8
LC-006-003-----0
370
    25
390
0
 62
     2
100
AcDbLine
 10
44.19015
 20
191.566
 30
0.0
 11
46.894652
 21
212.108738
 31
0.0
  0
LINE
  5
12B
100
AcDbEntity
  8
LC-006-003-----0
370
    25
390
0
 62
     2
100
AcDbLine
 10
42.435878
 20
212.171019
 30
0.0
 11
44.19015
 21
198.846
 31
0.0
  0
LINE
  5
12C
100
AcDbEntity
  8
LC-006-003-----0
370
    25
390
0
 62
     2
100
AcDbLine
 10
44.19015
 20
198.846
 30
0.0
 11
45.944422
 21
212.171019
 31
0.0
  0
LINE
  5
12D
100
AcDbEntity
  8
LC-006-003-----0
370
    25
390
0
 62
     2
100
AcDbLine
 10
43.386108
 20
212.2333
 30
0.0
 11
44.19015
 21
206.126
 31
0.0
  0
LINE
  5
12E
100
AcDbEntity
  8
LC-006-003-----0
370
    25
390
0
 62
     2
100
AcDbLine
 10
44.19015
 20
206.126
 30
0.0
 11
44.994191
 21
212.2333
 31
0.0
  0
LINE
  5
12F
100
AcDbEntity
  8
LC-005-003-MTG-0
370
    25
390
0
 62
     2
100
AcDbLine
 10
44.19015
 20
95.086
 30
0.0
 11
44.19015
 21
270.19
 31
0.0
  0
TEXT
  5
130
100
AcDbEntity
  8
LC-006-003-----0
370
    -2
390
0
 62
     7
100
AcDbText
 10
36.362596
 20
227.83416
 30
0.0
 40
28.0
  1
50
 50
90.0
 41
0.9
 51
15.0
  7
LCTX15-400-0-0-ARIAL
100
AcDbText
  0
ENDBLK
  5
131
100
AcDbEntity
  8
0
390
0
100
AcDbBlockEnd
  0
BLOCK
  5
137
100
AcDbEntity
  8
0
390
0
100
AcDbBlockBegin
  2
*X4
 70
    65
 10
0.0
 20
0.0
 30
0.0
  3
*X4
  1

  0
LINE
  5
138
100
AcDbEntity
  8
LC-003-005-----0
370
    25
390
0
 62
     2
100
AcDbLine
 10
105.090041
 20
184.286
 30
0.0
 11
104.58915
 21
183.785109
 31
0.0
  0
LINE
  5
139
100
AcDbEntity
  8
LC-003-005-----0
370
    25
390
0
 62
     2
100
AcDbLine
 10
106.602118
 20
182.969651
 30
0.0
 11
104.58915
 21
180.956682
 31
0.0
  0
LINE
  5
13A
100
AcDbEntity
  8
LC-003-005-----0
370
    25
390
0
 62
     2
100
AcDbLine
 10
107.199835
 20
180.738941
 30
0.0
 11
104.58915
 21
178.128255
 31
0.0
  0
LINE
  5
13B
100
AcDbEntity
  8
LC-003-005-----0
370
    25
390
0
 62
     2
100
AcDbLine
 10
63.746895
 20
137.286
 30
0.0
 11
63.58915
 21
137.128255
 31
0.0
  0
LINE
  5
13C
100
AcDbEntity
  8
LC-003-005-----0
370
    25
390
0
 62
     2
100
AcDbLine
 10
107.58915
 20
178.299828
 30
0.0
 11
104.58915
 21
175.299828
 31
0.0
  0
LINE
  5
13D
100
AcDbEntity
  8
LC-003-005-----0
370
    25
390
0
 62
     2
100
AcDbLine
 10
66.575322
 20
137.286
 30
0.0
 11
63.58915
 21
134.299828
 31
0.0
  0
LINE
  5
13E
100
AcDbEntity
  8
LC-003-005-----0
370
    25
390
0
 62
     2
100
AcDbLine
 10
107.58915
 20
175.471401
 30
0.0
 11
104.58915
 21
172.471401
 31
0.0
  0
LINE
  5
13F
100
AcDbEntity
  8
LC-003-005-----0
370
    25
390
0
 62
     2
100
AcDbLine
 10
69.403749
 20
137.286
 30
0.0
 11
66.403749
 21
134.286
 31
0.0
  0
LINE
  5
140
100
AcDbEntity
  8
LC-003-005-----0
370
    25
390
0
 62
     2
100
AcDbLine
 10
107.58915
 20
172.642974
 30
0.0
 11
104.58915
 21
169.642974
 31
0.0
  0
LINE
  5
141
100
AcDbEntity
  8
LC-003-005-----0
370
    25
390
0
 62
     2
100
AcDbLine
 10
72.232176
 20
137.286
 30
0.0
 11
69.232176
 21
134.286
 31
0.0
  0
LINE
  5
142
100
AcDbEntity
  8
LC-003-005-----0
370
    25
390
0
 62
     2
100
AcDbLine
 10
107.58915
 20
169.814547
 30
0.0
 11
104.58915
 21
166.814547
 31
0.0
  0
LINE
  5
143
100
AcDbEntity
  8
LC-003-005-----0
370
    25
390
0
 62
     2
100
AcDbLine
 10
75.060603
 20
137.286
 30
0.0
 11
72.060603
 21
134.286
 31
0.0
  0
LINE
  5
144
100
AcDbEntity
  8
LC-003-005-----0
370
    25
390
0
 62
     2
100
AcDbLine
 10
107.58915
 20
166.986119
 30
0.0
 11
104.58915
 21
163.986119
 31
0.0
  0
LINE
  5
145
100
AcDbEntity
  8
LC-003-005-----0
370
    25
390
0
 62
     2
100
AcDbLine
 10
77.88903
 20
137.286
 30
0.0
 11
74.88903
 21
134.286
 31
0.0
  0
LINE
  5
146
100
AcDbEntity
  8
LC-003-005-----0
370
    25
390
0
 62
     2
100
AcDbLine
 10
107.58915
 20
164.157692
 30
0.0
 11
104.58915
 21
161.157692
 31
0.0
  0
LINE
  5
147
100
AcDbEntity
  8
LC-003-005-----0
370
    25
390
0
 62
     2
100
AcDbLine
 10
80.717458
 20
137.286
 30
0.0
 11
77.717458
 21
134.286
 31
0.0
  0
LINE
  5
148
100
AcDbEntity
  8
LC-003-005-----0
370
    25
390
0
 62
     2
100
AcDbLine
 10
107.58915
 20
161.329265
 30
0.0
 11
104.58915
 21
158.329265
 31
0.0
  0
LINE
  5
149
100
AcDbEntity
  8
LC-003-005-----0
370
    25
390
0
 62
     2
100
AcDbLine
 10
82.08915
 20
135.829265
 30
0.0
 11
80.545885
 21
134.286
 31
0.0
  0
LINE
  5
14A
100
AcDbEntity
  8
LC-003-005-----0
370
    25
390
0
 62
     2
100
AcDbLine
 10
107.58915
 20
158.500838
 30
0.0
 11
104.58915
 21
155.500838
 31
0.0
  0
LINE
  5
14B
100
AcDbEntity
  8
LC-003-005-----0
370
    25
390
0
 62
     2
100
AcDbLine
 10
86.374312
 20
137.286
 30
0.0
 11
86.08915
 21
137.000838
 31
0.0
  0
LINE
  5
14C
100
AcDbEntity
  8
LC-003-005-----0
370
    25
390
0
 62
     2
100
AcDbLine
 10
107.58915
 20
155.672411
 30
0.0
 11
104.58915
 21
152.672411
 31
0.0
  0
LINE
  5
14D
100
AcDbEntity
  8
LC-003-005-----0
370
    25
390
0
 62
     2
100
AcDbLine
 10
89.202739
 20
137.286
 30
0.0
 11
86.202739
 21
134.286
 31
0.0
  0
LINE
  5
14E
100
AcDbEntity
  8
LC-003-005-----0
370
    25
390
0
 62
     2
100
AcDbLine
 10
107.58915
 20
152.843984
 30
0.0
 11
104.58915
 21
149.843984
 31
0.0
  0
LINE
  5
14F
100
AcDbEntity
  8
LC-003-005-----0
370
    25
390
0
 62
     2
100
AcDbLine
 10
92.031166
 20
137.286
 30
0.0
 11
89.031166
 21
134.286
 31
0.0
  0
LINE
  5
150
100
AcDbEntity
  8
LC-003-005-----0
370
    25
390
0
 62
     2
100
AcDbLine
 10
107.58915
 20
150.015557
 30
0.0
 11
104.58915
 21
147.015557
 31
0.0
  0
LINE
  5
151
100
AcDbEntity
  8
LC-003-005-----0
370
    25
390
0
 62
     2
100
AcDbLine
 10
94.859593
 20
137.286
 30
0.0
 11
91.859593
 21
134.286
 31
0.0
  0
LINE
  5
152
100
AcDbEntity
  8
LC-003-005-----0
370
    25
390
0
 62
     2
100
AcDbLine
 10
107.58915
 20
147.18713
 30
0.0
 11
94.68802
 21
134.286
 31
0.0
  0
LINE
  5
153
100
AcDbEntity
  8
LC-003-005-----0
370
    25
390
0
 62
     2
100
AcDbLine
 10
107.58915
 20
144.358702
 30
0.0
 11
97.516447
 21
134.286
 31
0.0
  0
ENDBLK
  5
154
100
AcDbEntity
  8
0
390
0
100
AcDbBlockEnd
  0
BLOCK
  5
159
100
AcDbEntity
  8
0
390
0
100
AcDbBlockBegin
  2
*D5
 70
    65
 10
0.0
 20
0.0
 30
0.0
  3
*D5
  1

  0
LINE
  5
15A
100
AcDbEntity
  8
LC-004-003-MTH-0
370
    25
390
0
 62
     2
100
AcDbLine
 10
63.58915
 20
134.286
 30
0.0
 11
63.58915
 21
65.808
 31
0.0
  0
LINE
  5
15B
100
AcDbEntity
  8
LC-004-003-MTH-0
370
    25
390
0
 62
     2
100
AcDbLine
 10
328.58915
 20
134.286
 30
0.0
 11
328.58915
 21
65.808
 31
0.0
  0
LINE
  5
15C
100
AcDbEntity
  8
LC-005-003-MTG-0
370
    25
390
0
 62
     2
100
AcDbLine
 10
63.58915
 20
82.608
 30
0.0
 11
328.58915
 21
82.608
 31
0.0
  0
LINE
  5
15D
100
AcDbEntity
  8
LC-006-003-----0
370
    25
390
0
 62
     2
100
AcDbLine
 10
91.349606
 20
86.262733
 30
0.0
 11
63.58915
 21
82.608
 31
0.0
  0
LINE
  5
15E
100
AcDbEntity
  8
LC-006-003-----0
370
    25
390
0
 62
     2
100
AcDbLine
 10
63.58915
 20
82.608
 30
0.0
 11
91.349606
 21
78.953267
 31
0.0
  0
LINE
  5
15F
100
AcDbEntity
  8
LC-006-003-----0
370
    25
390
0
 62
     2
100
AcDbLine
 10
91.349606
 20
78.953267
 30
0.0
 11
91.349606
 21
86.262733
 31
0.0
  0
LINE
  5
160
100
AcDbEntity
  8
LC-006-003-----0
370
    25
390
0
 62
     2
100
AcDbLine
 10
91.411887
 20
85.312503
 30
0.0
 11
70.86915
 21
82.608
 31
0.0
  0
LINE
  5
161
100
AcDbEntity
  8
LC-006-003-----0
370
    25
390
0
 62
     2
100
AcDbLine
 10
70.86915
 20
82.608
 30
0.0
 11
91.411887
 21
79.903497
 31
0.0
  0
LINE
  5
162
100
AcDbEntity
  8
LC-006-003-----0
370
    25
390
0
 62
     2
100
AcDbLine
 10
91.474169
 20
84.362272
 30
0.0
 11
78.14915
 21
82.608
 31
0.0
  0
LINE
  5
163
100
AcDbEntity
  8
LC-006-003-----0
370
    25
390
0
 62
     2
100
AcDbLine
 10
78.14915
 20
82.608
 30
0.0
 11
91.474169
 21
80.853728
 31
0.0
  0
LINE
  5
164
100
AcDbEntity
  8
LC-006-003-----0
370
    25
390
0
 62
     2
100
AcDbLine
 10
91.53645
 20
83.412041
 30
0.0
 11
85.42915
 21
82.608
 31
0.0
  0
LINE
  5
165
100
AcDbEntity
  8
LC-006-003-----0
370
    25
390
0
 62
     2
100
AcDbLine
 10
85.42915
 20
82.608
 30
0.0
 11
91.53645
 21
81.803959
 31
0.0
  0
LINE
  5
166
100
AcDbEntity
  8
LC-006-003-----0
370
    25
390
0
 62
     2
100
AcDbLine
 10
300.828694
 20
78.953267
 30
0.0
 11
328.58915
 21
82.608
 31
0.0
  0
LINE
  5
167
100
AcDbEntity
  8
LC-006-003-----0
370
    25
390
0
 62
     2
100
AcDbLine
 10
328.58915
 20
82.608
 30
0.0
 11
300.828694
 21
86.262733
 31
0.0
  0
LINE
  5
168
100
AcDbEntity
  8
LC-006-003-----0
370
    25
390
0
 62
     2
100
AcDbLine
 10
300.828694
 20
86.262733
 30
0.0
 11
300.828694
 21
78.953267
 31
0.0
  0
LINE
  5
169
100
AcDbEntity
  8
LC-006-003-----0
370
    25
390
0
 62
     2
100
AcDbLine
 10
300.766412
 20
79.903497
 30
0.0
 11
321.30915
 21
82.608
 31
0.0
  0
LINE
  5
16A
100
AcDbEntity
  8
LC-006-003-----0
370
    25
390
0
 62
     2
100
AcDbLine
 10
321.30915
 20
82.608
 30
0.0
 11
300.766412
 21
85.312503
 31
0.0
  0
LINE
  5
16B
100
AcDbEntity
  8
LC-006-003-----0
370
    25
390
0
 62
     2
100
AcDbLine
 10
300.704131
 20
80.853728
 30
0.0
 11
314.02915
 21
82.608
 31
0.0
  0
LINE
  5
16C
100
AcDbEntity
  8
LC-006-003-----0
370
    25
390
0
 62
     2
100
AcDbLine
 10
314.02915
 20
82.608
 30
0.0
 11
300.704131
 21
84.362272
 31
0.0
  0
LINE
  5
16D
100
AcDbEntity
  8
LC-006-003-----0
370
    25
390
0
 62
     2
100
AcDbLine
 10
300.641849
 20
81.803959
 30
0.0
 11
306.74915
 21
82.608
 31
0.0
  0
LINE
  5
16E
100
AcDbEntity
  8
LC-006-003-----0
370
    25
390
0
 62
     2
100
AcDbLine
 10
306.74915
 20
82.608
 30
0.0
 11
300.641849
 21
83.412041
 31
0.0
  0
TEXT
  5
16F
100
AcDbEntity
  8
LC-006-003-----0
370
    -2
390
0
 62
     7
100
AcDbText
 10
137.43731
 20
90.435554
 30
0.0
 40
28.0
  1
%%c265
 41
0.9
 51
15.0
  7
LCTX15-400-0-0-ARIAL
 72
     1
 11
200.43731
 21
90.435554
 31
0.0
100
AcDbText
  0
ENDBLK
  5
170
100
AcDbEntity
  8
0
390
0
100
AcDbBlockEnd
  0
BLOCK
  5
174
100
AcDbEntity
  8
0
390
0
100
AcDbBlockBegin
  2
*X6
 70
    65
 10
0.0
 20
0.0
 30
0.0
  3
*X6
  1

  0
LINE
  5
175
100
AcDbEntity
  8
LC-003-005-----0
370
    25
390
0
 62
     2
100
AcDbLine
 10
286.109376
 20
184.286
 30
0.0
 11
285.862835
 21
184.039459
 31
0.0
  0
LINE
  5
176
100
AcDbEntity
  8
LC-003-005-----0
370
    25
390
0
 62
     2
100
AcDbLine
 10
287.58915
 20
180.108919
 30
0.0
 11
283.792283
 21
176.312052
 31
0.0
  0
LINE
  5
177
100
AcDbEntity
  8
LC-003-005-----0
370
    25
390
0
 62
     2
100
AcDbLine
 10
287.58915
 20
174.452065
 30
0.0
 11
283.58915
 21
170.452065
 31
0.0
  0
LINE
  5
178
100
AcDbEntity
  8
LC-003-005-----0
370
    25
390
0
 62
     2
100
AcDbLine
 10
287.58915
 20
168.795211
 30
0.0
 11
283.58915
 21
164.795211
 31
0.0
  0
LINE
  5
179
100
AcDbEntity
  8
LC-003-005-----0
370
    25
390
0
 62
     2
100
AcDbLine
 10
287.58915
 20
163.138356
 30
0.0
 11
283.58915
 21
159.138356
 31
0.0
  0
LINE
  5
17A
100
AcDbEntity
  8
LC-003-005-----0
370
    25
390
0
 62
     2
100
AcDbLine
 10
287.58915
 20
157.481502
 30
0.0
 11
283.58915
 21
153.481502
 31
0.0
  0
LINE
  5
17B
100
AcDbEntity
  8
LC-003-005-----0
370
    25
390
0
 62
     2
100
AcDbLine
 10
287.58915
 20
151.824648
 30
0.0
 11
283.58915
 21
147.824648
 31
0.0
  0
LINE
  5
17C
100
AcDbEntity
  8
LC-003-005-----0
370
    25
390
0
 62
     2
100
AcDbLine
 10
287.58915
 20
146.167794
 30
0.0
 11
284.464716
 21
143.043359
 31
0.0
  0
LINE
  5
17D
100
AcDbEntity
  8
LC-003-005-----0
370
    25
390
0
 62
     2
100
AcDbLine
 10
289.47668
 20
142.39847
 30
0.0
 11
287.35536
 21
140.277149
 31
0.0
  0
LINE
  5
17E
100
AcDbEntity
  8
LC-003-005-----0
370
    25
390
0
 62
     2
100
AcDbLine
 10
292.305107
 20
139.570043
 30
0.0
 11
290.183787
 21
137.448722
 31
0.0
  0
LINE
  5
17F
100
AcDbEntity
  8
LC-003-005-----0
370
    25
390
0
 62
     2
100
AcDbLine
 10
295.677919
 20
137.286
 30
0.0
 11
293.012214
 21
134.620295
 31
0.0
  0
LINE
  5
180
100
AcDbEntity
  8
LC-003-005-----0
370
    25
390
0
 62
     2
100
AcDbLine
 10
301.334773
 20
137.286
 30
0.0
 11
298.334773
 21
134.286
 31
0.0
  0
LINE
  5
181
100
AcDbEntity
  8
LC-003-005-----0
370
    25
390
0
 62
     2
100
AcDbLine
 10
306.991627
 20
137.286
 30
0.0
 11
303.991627
 21
134.286
 31
0.0
  0
LINE
  5
182
100
AcDbEntity
  8
LC-003-005-----0
370
    25
390
0
 62
     2
100
AcDbLine
 10
312.648482
 20
137.286
 30
0.0
 11
309.648482
 21
134.286
 31
0.0
  0
LINE
  5
183
100
AcDbEntity
  8
LC-003-005-----0
370
    25
390
0
 62
     2
100
AcDbLine
 10
318.305336
 20
137.286
 30
0.0
 11
315.305336
 21
134.286
 31
0.0
  0
LINE
  5
184
100
AcDbEntity
  8
LC-003-005-----0
370
    25
390
0
 62
     2
100
AcDbLine
 10
323.96219
 20
137.286
 30
0.0
 11
320.96219
 21
134.286
 31
0.0
  0
LINE
  5
185
100
AcDbEntity
  8
LC-003-005-----0
370
    25
390
0
 62
     2
100
AcDbLine
 10
328.58915
 20
136.256105
 30
0.0
 11
326.619044
 21
134.286
 31
0.0
  0
ENDBLK
  5
186
100
AcDbEntity
  8
0
390
0
100
AcDbBlockEnd
  0
ENDSEC
  0
SECTION
  2
ENTITIES
  0
VIEWPORT
  5
18C
100
AcDbEntity
 67
     1
  8
LC-VIEWPORT
390
0
100
AcDbViewport
 10
420.0
 20
297.0
 30
0.0
 40
840.0
 41
594.0
 68
     1
 69
     1
 12
420.0
 22
297.0
 13
0.0
 23
0.0
 14
1.0
 24
1.0
 15
0.0
 25
0.0
 16
0.0
 26
0.0
 36
1.0
 17
0.0
 27
0.0
 37
0.0
 42
50.0
 43
0.0
 44
0.0
 45
594.0
 50
0.0
 51
0.0
 72
   100
 90
    32928
340
0
  1

281
     0
 71
     0
 74
     1
110
0.0
120
0.0
130
0.0
111
1.0
121
0.0
131
0.0
112
0.0
122
1.0
132
0.0
345
0
346
0
 79
     0
146
0.0
  0
LINE
  5
2B
100
AcDbEntity
  8
LC-001-002-----0
370
    50
390
0
 62
     1
100
AcDbLine
 10
283.58915
 20
134.286
 30
0.0
 11
283.58915
 21
434.286
 31
0.0
  0
LINE
  5
2C
100
AcDbEntity
  8
LC-001-002-----0
370
    50
390
0
 62
     1
100
AcDbLine
 10
283.58915
 20
434.286
 30
0.0
 11
108.58915
 21
434.286
 31
0.0
  0
LINE
  5
2D
100
AcDbEntity
  8
LC-001-002-----0
370
    50
390
0
 62
     1
100
AcDbLine
 10
108.58915
 20
434.286
 30
0.0
 11
108.58915
 21
134.286
 31
0.0
  0
LINE
  5
2E
100
AcDbEntity
  8
LC-001-002-----0
370
    50
390
0
 62
     1
100
AcDbLine
 10
108.58915
 20
134.286
 30
0.0
 11
283.58915
 21
134.286
 31
0.0
  0
LINE
  5
31
100
AcDbEntity
  8
LC-002-006-MLN-0
370
    25
390
0
 62
     2
100
AcDbLine
 10
196.08915
 20
124.286
 30
0.0
 11
196.08915
 21
444.286
 31
0.0
  0
CIRCLE
  5
32
100
AcDbEntity
  8
LC-001-002-----0
370
    50
390
0
 62
     1
100
AcDbCircle
 10
476.08915
 20
284.286
 30
0.0
 40
87.5
  0
LINE
  5
33
100
AcDbEntity
  8
LC-001-002-----0
370
    25
390
0
 62
     2
100
AcDbLine
 10
104.58915
 20
184.286
 30
0.0
 11
97.08915
 21
184.286
 31
0.0
  0
INSERT
  5
A8
100
AcDbEntity
  8
LC-003-005-----0
370
    25
390
0
 62
     2
100
AcDbBlockReference
  2
*X0
 10
0.0
 20
0.0
 30
0.0
  0
DIMENSION
  5
C7
100
AcDbEntity
  8
LC-006-003-----0
370
    25
390
0
 62
     2
100
AcDbDimension
  2
*D1
 10
196.08915
 20
470.4
 30
0.0
 11
196.08915
 21
470.4
 31
0.0
 71
     5
 72
     1
 41
1.0
 42
0.0
  1
%%c<>
  3
LC-DIM-L-0140-02-02
100
AcDbAlignedDimension
 13
108.58915
 23
134.286
 33
0.0
 14
283.58915
 24
134.286
 34
0.0
100
AcDbRotatedDimension
  0
DIMENSION
  5
E1
100
AcDbEntity
  8
LC-006-003-----0
370
    25
390
0
 62
     2
100
AcDbDimension
  2
*D2
 10
336.0
 20
284.286
 30
0.0
 11
336.0
 21
284.286
 31
0.0
 71
     5
 72
     1
 41
1.0
 42
0.0
  3
LC-DIM-L-0140-02-02
100
AcDbAlignedDimension
 13
283.58915
 23
134.286
 33
0.0
 14
283.58915
 24
434.286
 34
0.0
 50
90.0
100
AcDbRotatedDimension
  0
LINE
  5
E2
102
{ACAD_REACTORS
330
18D
102
}
100
AcDbEntity
  8
LC-002-006-MLN-0
370
    25
390
0
 62
     2
100
AcDbLine
 10
476.08915
 20
409.286
 30
0.0
 11
476.08915
 21
159.286
 31
0.0
  0
LINE
  5
E3
102
{ACAD_REACTORS
330
18D
102
}
100
AcDbEntity
  8
LC-002-006-MLN-0
370
    25
390
0
 62
     2
100
AcDbLine
 10
601.08915
 20
284.286
 30
0.0
 11
351.08915
 21
284.286
 31
0.0
  0
ARC
  5
E4
100
AcDbEntity
  8
LC-001-002-----0
370
    25
390
0
 62
     2
100
AcDbCircle
 10
476.08915
 20
284.286
 30
0.0
 40
87.500032
100
AcDbArc
 50
112.5
 51
123.806611
  0
CIRCLE
  5
E5
102
{ACAD_REACTORS
330
18E
102
}
100
AcDbEntity
  8
LC-001-002-----0
370
    50
390
0
 62
     1
100
AcDbCircle
 10
476.08915
 20
284.286
 30
0.0
 40
132.5
  0
CIRCLE
  5
E6
102
{ACAD_REACTORS
330
18E
102
}
100
AcDbEntity
  8
LC-001-002-----0
370
    50
390
0
 62
     1
100
AcDbCircle
 10
476.08915
 20
284.286
 30
0.0
 40
91.5
  0
CIRCLE
  5
E7
102
{ACAD_REACTORS
330
18E
102
}
100
AcDbEntity
  8
LC-001-002-----0
370
    50
390
0
 62
     1
100
AcDbCircle
 10
476.08915
 20
284.286
 30
0.0
 40
89.839746
  0
CIRCLE
  5
E8
102
{ACAD_REACTORS
330
18E
102
}
100
AcDbEntity
  8
LC-001-002-----0
370
    50
390
0
 62
     1
100
AcDbCircle
 10
476.08915
 20
284.286
 30
0.0
 40
88.5
  0
CIRCLE
  5
E9
102
{ACAD_REACTORS
330
18E
102
}
100
AcDbEntity
  8
LC-002-006-MLN-0
370
    25
390
0
 62
     2
100
AcDbCircle
 10
476.08915
 20
284.286
 30
0.0
 40
112.0
  0
CIRCLE
  5
EA
102
{ACAD_REACTORS
330
18E
102
}
100
AcDbEntity
  8
LC-001-002-----0
370
    50
390
0
 62
     1
100
AcDbCircle
 10
476.08915
 20
396.286
 30
0.0
 40
2.0
  0
CIRCLE
  5
EB
102
{ACAD_REACTORS
330
18E
102
}
100
AcDbEntity
  8
LC-001-002-----0
370
    50
390
0
 62
     1
100
AcDbCircle
 10
476.08915
 20
284.286
 30
0.0
 40
98.5
  0
LINE
  5
EC
102
{ACAD_REACTORS
330
18E
102
}
100
AcDbEntity
  8
LC-001-002-----0
370
    50
390
0
 62
     1
100
AcDbLine
 10
509.573962
 20
365.125488
 30
0.0
 11
510.873185
 21
365.663644
 31
0.0
  0
LINE
  5
ED
102
{ACAD_REACTORS
330
18E
102
}
100
AcDbEntity
  8
LC-001-002-----0
370
    50
390
0
 62
     1
100
AcDbLine
 10
509.573962
 20
365.125488
 30
0.0
 11
509.035807
 21
366.424711
 31
0.0
  0
LINE
  5
EE
100
AcDbEntity
  8
LC-006-003-----0
370
    25
390
0
 62
     2
100
AcDbLine
 10
394.787751
 20
317.962142
 30
0.0
 11
385.548956
 21
321.788976
 31
0.0
  0
LINE
  5
EF
100
AcDbEntity
  8
LC-006-003-----0
370
    25
390
0
 62
     2
100
AcDbLine
 10
385.548956
 20
246.783024
 30
0.0
 11
394.787751
 21
250.609858
 31
0.0
  0
CIRCLE
  5
F0
100
AcDbEntity
  8
LC-001-002-----0
370
    50
390
0
 62
     1
100
AcDbCircle
 10
396.89319
 20
363.481959
 30
0.0
 40
2.0
  0
CIRCLE
  5
F1
100
AcDbEntity
  8
LC-001-002-----0
370
    50
390
0
 62
     1
100
AcDbCircle
 10
364.08915
 20
284.286
 30
0.0
 40
2.0
  0
CIRCLE
  5
F2
100
AcDbEntity
  8
LC-001-002-----0
370
    50
390
0
 62
     1
100
AcDbCircle
 10
396.89319
 20
205.090041
 30
0.0
 40
2.0
  0
CIRCLE
  5
F3
100
AcDbEntity
  8
LC-001-002-----0
370
    50
390
0
 62
     1
100
AcDbCircle
 10
476.08915
 20
172.286
 30
0.0
 40
2.0
  0
CIRCLE
  5
F4
100
AcDbEntity
  8
LC-001-002-----0
370
    50
390
0
 62
     1
100
AcDbCircle
 10
555.285109
 20
205.090041
 30
0.0
 40
2.0
  0
CIRCLE
  5
F5
100
AcDbEntity
  8
LC-001-002-----0
370
    50
390
0
 62
     1
100
AcDbCircle
 10
588.08915
 20
284.286
 30
0.0
 40
2.0
  0
CIRCLE
  5
F6
100
AcDbEntity
  8
LC-001-002-----0
370
    50
390
0
 62
     1
100
AcDbCircle
 10
555.285109
 20
363.481959
 30
0.0
 40
2.0
  0
LINE
  5
F7
100
AcDbEntity
  8
LC-001-002-----0
370
    50
390
0
 62
     1
100
AcDbLine
 10
442.604337
 20
365.125488
 30
0.0
 11
443.142493
 21
366.424711
 31
0.0
  0
LINE
  5
F8
100
AcDbEntity
  8
LC-001-002-----0
370
    50
390
0
 62
     1
100
AcDbLine
 10
442.604337
 20
365.125488
 30
0.0
 11
441.305115
 21
365.663644
 31
0.0
  0
LINE
  5
F9
100
AcDbEntity
  8
LC-001-002-----0
370
    50
390
0
 62
     1
100
AcDbLine
 10
395.249661
 20
317.770812
 30
0.0
 11
394.711506
 21
319.070035
 31
0.0
  0
LINE
  5
FA
100
AcDbEntity
  8
LC-001-002-----0
370
    50
390
0
 62
     1
100
AcDbLine
 10
395.249661
 20
317.770812
 30
0.0
 11
393.950439
 21
317.232657
 31
0.0
  0
LINE
  5
FB
100
AcDbEntity
  8
LC-001-002-----0
370
    50
390
0
 62
     1
100
AcDbLine
 10
395.249661
 20
250.801188
 30
0.0
 11
393.950439
 21
251.339343
 31
0.0
  0
LINE
  5
FC
100
AcDbEntity
  8
LC-001-002-----0
370
    50
390
0
 62
     1
100
AcDbLine
 10
395.249661
 20
250.801188
 30
0.0
 11
394.711506
 21
249.501965
 31
0.0
  0
LINE
  5
FD
100
AcDbEntity
  8
LC-001-002-----0
370
    50
390
0
 62
     1
100
AcDbLine
 10
442.604337
 20
203.446512
 30
0.0
 11
441.305115
 21
202.908356
 31
0.0
  0
LINE
  5
FE
100
AcDbEntity
  8
LC-001-002-----0
370
    50
390
0
 62
     1
100
AcDbLine
 10
442.604337
 20
203.446512
 30
0.0
 11
443.142493
 21
202.147289
 31
0.0
  0
LINE
  5
FF
100
AcDbEntity
  8
LC-001-002-----0
370
    50
390
0
 62
     1
100
AcDbLine
 10
509.573962
 20
203.446512
 30
0.0
 11
509.035807
 21
202.147289
 31
0.0
  0
LINE
  5
100
100
AcDbEntity
  8
LC-001-002-----0
370
    50
390
0
 62
     1
100
AcDbLine
 10
509.573962
 20
203.446512
 30
0.0
 11
510.873185
 21
202.908356
 31
0.0
  0
LINE
  5
101
100
AcDbEntity
  8
LC-001-002-----0
370
    50
390
0
 62
     1
100
AcDbLine
 10
556.928638
 20
250.801188
 30
0.0
 11
557.466794
 21
249.501965
 31
0.0
  0
LINE
  5
102
100
AcDbEntity
  8
LC-001-002-----0
370
    50
390
0
 62
     1
100
AcDbLine
 10
556.928638
 20
250.801188
 30
0.0
 11
558.22786
 21
251.339343
 31
0.0
  0
LINE
  5
103
100
AcDbEntity
  8
LC-001-002-----0
370
    50
390
0
 62
     1
100
AcDbLine
 10
556.928638
 20
317.770812
 30
0.0
 11
558.22786
 21
317.232657
 31
0.0
  0
LINE
  5
104
100
AcDbEntity
  8
LC-001-002-----0
370
    50
390
0
 62
     1
100
AcDbLine
 10
556.928638
 20
317.770812
 30
0.0
 11
557.466794
 21
319.070035
 31
0.0
  0
ARC
  5
105
100
AcDbEntity
  8
LC-001-002-----0
370
    25
390
0
 62
     2
100
AcDbCircle
 10
476.08915
 20
284.286
 30
0.0
 40
87.500032
100
AcDbArc
 50
292.5
 51
303.806611
  0
LINE
  5
106
102
{ACAD_REACTORS
330
18F
102
}
100
AcDbEntity
  8
LC-001-002-----0
370
    50
390
0
 62
     1
100
AcDbLine
 10
328.58915
 20
134.286
 30
0.0
 11
63.58915
 21
134.286
 31
0.0
  0
LINE
  5
107
102
{ACAD_REACTORS
330
18F
102
}
100
AcDbEntity
  8
LC-001-002-----0
370
    50
390
0
 62
     1
100
AcDbLine
 10
63.58915
 20
134.286
 30
0.0
 11
63.58915
 21
137.286
 31
0.0
  0
LINE
  5
108
102
{ACAD_REACTORS
330
18F
102
}
100
AcDbEntity
  8
LC-001-002-----0
370
    50
390
0
 62
     1
100
AcDbLine
 10
63.58915
 20
137.286
 30
0.0
 11
96.760723
 21
137.286
 31
0.0
  0
LINE
  5
109
102
{ACAD_REACTORS
330
18F
102
}
100
AcDbEntity
  8
LC-001-002-----0
370
    50
390
0
 62
     1
100
AcDbLine
 10
328.58915
 20
137.286
 30
0.0
 11
328.58915
 21
134.286
 31
0.0
  0
LINE
  5
10A
102
{ACAD_REACTORS
330
18F
102
}
100
AcDbEntity
  8
LC-001-002-----0
370
    50
390
0
 62
     1
100
AcDbLine
 10
287.58915
 20
184.286
 30
0.0
 11
283.58915
 21
184.286
 31
0.0
  0
LINE
  5
10B
102
{ACAD_REACTORS
330
18F
102
}
100
AcDbEntity
  8
LC-001-002-----0
370
    50
390
0
 62
     1
100
AcDbLine
 10
104.58915
 20
145.114427
 30
0.0
 11
104.58915
 21
184.286
 31
0.0
  0
LINE
  5
10C
102
{ACAD_REACTORS
330
18F
102
}
100
AcDbEntity
  8
LC-001-002-----0
370
    50
390
0
 62
     1
100
AcDbLine
 10
287.58915
 20
184.286
 30
0.0
 11
287.58915
 21
145.114427
 31
0.0
  0
LINE
  5
10D
102
{ACAD_REACTORS
330
18F
102
}
100
AcDbEntity
  8
LC-001-002-----0
370
    50
390
0
 62
     1
100
AcDbLine
 10
107.58915
 20
143.043359
 30
0.0
 11
107.58915
 21
179.286
 31
0.0
  0
LINE
  5
10E
102
{ACAD_REACTORS
330
18F
102
}
100
AcDbEntity
  8
LC-001-002-----0
370
    50
390
0
 62
     1
100
AcDbLine
 10
295.417577
 20
137.286
 30
0.0
 11
328.58915
 21
137.286
 31
0.0
  0
LINE
  5
10F
102
{ACAD_REACTORS
330
18F
102
}
100
AcDbEntity
  8
LC-001-002-----0
370
    50
390
0
 62
     1
100
AcDbLine
 10
104.003363
 20
143.700214
 30
0.0
 11
98.174936
 21
137.871786
 31
0.0
  0
LINE
  5
110
102
{ACAD_REACTORS
330
18F
102
}
100
AcDbEntity
  8
LC-001-002-----0
370
    50
390
0
 62
     1
100
AcDbLine
 10
107.58915
 20
143.043359
 30
0.0
 11
98.83179
 21
134.286
 31
0.0
  0
LINE
  5
111
102
{ACAD_REACTORS
330
18F
102
}
100
AcDbEntity
  8
LC-001-002-----0
370
    50
390
0
 62
     1
100
AcDbLine
 10
288.174936
 20
143.700214
 30
0.0
 11
294.003363
 21
137.871786
 31
0.0
  0
LINE
  5
112
102
{ACAD_REACTORS
330
18F
102
}
100
AcDbEntity
  8
LC-001-002-----0
370
    50
390
0
 62
     1
100
AcDbLine
 10
284.58915
 20
143.043359
 30
0.0
 11
293.346509
 21
134.286
 31
0.0
  0
ARC
  5
114
102
{ACAD_REACTORS
330
18F
102
}
100
AcDbEntity
  8
LC-007-002-RND-0
370
    50
390
0
 62
     1
100
AcDbCircle
 10
289.58915
 20
145.114427
 30
0.0
 40
2.0
100
AcDbArc
 50
180.0
 51
225.0
  0
ARC
  5
115
102
{ACAD_REACTORS
330
18F
102
}
100
AcDbEntity
  8
LC-007-002-RND-0
370
    50
390
0
 62
     1
100
AcDbCircle
 10
295.417577
 20
139.286
 30
0.0
 40
2.0
100
AcDbArc
 50
225.0
 51
270.0
  0
ARC
  5
116
102
{ACAD_REACTORS
330
18F
102
}
100
AcDbEntity
  8
LC-007-002-RND-0
370
    50
390
0
 62
     1
100
AcDbCircle
 10
96.760723
 20
139.286
 30
0.0
 40
2.0
100
AcDbArc
 50
270.0
 51
315.0
  0
ARC
  5
117
102
{ACAD_REACTORS
330
18F
102
}
100
AcDbEntity
  8
LC-007-002-RND-0
370
    50
390
0
 62
     1
100
AcDbCircle
 10
102.58915
 20
145.114427
 30
0.0
 40
2.0
100
AcDbArc
 50
315.0
 51
0.0
  0
LINE
  5
118
102
{ACAD_REACTORS
330
18F
102
}
100
AcDbEntity
  8
LC-001-002-----0
370
    50
390
0
 62
     1
100
AcDbLine
 10
284.58915
 20
143.043359
 30
0.0
 11
283.58915
 21
143.043359
 31
0.0
  0
DIMENSION
  5
132
100
AcDbEntity
  8
LC-006-003-----0
370
    25
390
0
 62
     2
100
AcDbDimension
  2
*D3
 10
44.19015
 20
159.324745
 30
0.0
 11
44.19015
 21
159.324745
 31
0.0
 71
     5
 72
     1
 41
1.0
 42
0.0
  3
LC-DIM-L-0140-02-02
100
AcDbAlignedDimension
 13
97.08915
 23
184.286
 33
0.0
 14
63.58915
 24
134.286
 34
0.0
 50
90.0
100
AcDbRotatedDimension
  0
LINE
  5
133
102
{ACAD_REACTORS
330
18F
102
}
100
AcDbEntity
  8
LC-001-002-----0
370
    50
390
0
 62
     1
100
AcDbLine
 10
82.08915
 20
134.286
 30
0.0
 11
82.08915
 21
137.286
 31
0.0
  0
LINE
  5
134
102
{ACAD_REACTORS
330
18F
102
}
100
AcDbEntity
  8
LC-001-002-----0
370
    50
390
0
 62
     1
100
AcDbLine
 10
86.08915
 20
134.286
 30
0.0
 11
86.08915
 21
137.286
 31
0.0
  0
LINE
  5
135
102
{ACAD_REACTORS
330
18F
102
}
100
AcDbEntity
  8
LC-002-006-MLN-0
370
    25
390
0
 62
     2
100
AcDbLine
 10
84.08915
 20
147.286
 30
0.0
 11
84.08915
 21
124.286
 31
0.0
  0
INSERT
  5
155
102
{ACAD_REACTORS
330
18F
102
}
100
AcDbEntity
  8
LC-003-005-----0
370
    25
390
0
 62
     2
100
AcDbBlockReference
  2
*X4
 10
0.0
 20
0.0
 30
0.0
  0
LINE
  5
156
102
{ACAD_REACTORS
330
18F
102
}
100
AcDbEntity
  8
LC-001-002-----0
370
    50
390
0
 62
     1
100
AcDbLine
 10
284.58915
 20
179.286
 30
0.0
 11
285.928896
 21
184.286
 31
0.0
  0
LINE
  5
157
102
{ACAD_REACTORS
330
18F
102
}
100
AcDbEntity
  8
LC-001-002-----0
370
    50
390
0
 62
     1
100
AcDbLine
 10
107.58915
 20
179.286
 30
0.0
 11
106.249404
 21
184.286
 31
0.0
  0
DIMENSION
  5
171
100
AcDbEntity
  8
LC-006-003-----0
370
    25
390
0
 62
     2
100
AcDbDimension
  2
*D5
 10
196.08915
 20
82.608
 30
0.0
 11
196.08915
 21
82.608
 31
0.0
 71
     5
 72
     1
 41
1.0
 42
0.0
  1
%%c<>
  3
LC-DIM-L-0140-02-02
100
AcDbAlignedDimension
 13
63.58915
 23
134.286
 33
0.0
 14
328.58915
 24
134.286
 34
0.0
100
AcDbRotatedDimension
  0
LINE
  5
172
102
{ACAD_REACTORS
330
18F
102
}
100
AcDbEntity
  8
LC-001-002-----0
370
    50
390
0
 62
     1
100
AcDbLine
 10
283.58915
 20
143.043359
 30
0.0
 11
283.58915
 21
179.286
 31
0.0
  0
INSERT
  5
187
102
{ACAD_REACTORS
330
18F
102
}
100
AcDbEntity
  8
LC-003-005-----0
370
    25
390
0
 62
     2
100
AcDbBlockReference
  2
*X6
 10
0.0
 20
0.0
 30
0.0
  0
LINE
  5
188
102
{ACAD_REACTORS
330
18F
102
}
100
AcDbEntity
  8
LC-001-002-----0
370
    50
390
0
 62
     1
100
AcDbLine
 10
284.58915
 20
179.286
 30
0.0
 11
283.58915
 21
179.286
 31
0.0
  0
LINE
  5
189
102
{ACAD_REACTORS
330
18F
102
}
100
AcDbEntity
  8
LC-001-002-----0
370
    50
390
0
 62
     1
100
AcDbLine
 10
108.58915
 20
184.286
 30
0.0
 11
104.58915
 21
184.286
 31
0.0
  0
LINE
  5
18A
102
{ACAD_REACTORS
330
18F
102
}
100
AcDbEntity
  8
LC-001-002-----0
370
    50
390
0
 62
     1
100
AcDbLine
 10
108.58915
 20
143.043359
 30
0.0
 11
107.58915
 21
143.043359
 31
0.0
  0
LINE
  5
18B
102
{ACAD_REACTORS
330
18F
102
}
100
AcDbEntity
  8
LC-001-002-----0
370
    50
390
0
 62
     1
100
AcDbLine
 10
108.58915
 20
179.286
 30
0.0
 11
107.58915
 21
179.286
 31
0.0
  0
ENDSEC
  0
SECTION
  2
OBJECTS
  0
DICTIONARY
  5
19
100
AcDbDictionary
280
     0
281
     1
  3
ACAD_GROUP
350
1A
  3
ACAD_MLINESTYLE
350
1B
  3
ACAD_LAYOUT
350
1E
  3
ACAD_PLOTSETTINGS
350
22
  3
ACAD_PLOTSTYLENAME
350
1F
  0
DICTIONARY
  5
1A
102
{ACAD_REACTORS
330
19
102
}
100
AcDbDictionary
280
     0
281
     1
  3
GRP61
350
18D
  3
GRP105
350
18E
  3
GRP151
350
18F
  0
DICTIONARY
  5
1B
102
{ACAD_REACTORS
330
19
102
}
100
AcDbDictionary
280
     0
281
     1
  3
Standard
350
1C
  0
MLINESTYLE
  5
1C
102
{ACAD_REACTORS
330
1B
102
}
100
AcDbMlineStyle
  2
Standard
 70
     0
  3

 62
     0
 51
90.0
 52
90.0
 71
     2
 49
0.5
 62
   256
  6
ByLayer
 49
-0.5
 62
   256
  6
ByLayer
  0
ACDBDICTIONARYWDFLT
  5
1F
102
{ACAD_REACTORS
330
19
102
}
100
AcDbDictionary
281
     1
  3
Normal
350
1D
100
AcDbDictionaryWithDefault
340
1D
  0
ACDBPLACEHOLDER
  5
1D
102
{ACAD_REACTORS
330
1F
102
}
  0
LAYOUT
  5
20
102
{ACAD_REACTORS
330
1E
102
}
100
AcDbPlotSettings
  1

  2

  4

  6

 40
0.0
 41
0.0
 42
0.0
 43
0.0
 44
0.0
 45
0.0
 46
0.0
 47
0.0
 48
0.0
 49
0.0
140
0.0
141
0.0
142
1.0
143
1.0
 70
  1152
 72
     0
 73
     0
 74
     0
  7

 75
     0
147
1.0
148
0.0
149
0.0
100
AcDbLayout
  1
Model
 70
     0
 71
     0
 10
0.0
 20
0.0
 11
0.0
 21
0.0
 12
0.0
 22
0.0
 32
0.0
 14
0.0
 24
0.0
 34
0.0
 15
0.0
 25
0.0
 35
0.0
146
0.0
 13
0.0
 23
0.0
 33
0.0
 16
0.0
 26
0.0
 36
0.0
 17
0.0
 27
0.0
 37
0.0
 76
     0
330
A
331
0
345
0
346
0
  0
LAYOUT
  5
21
102
{ACAD_REACTORS
330
1E
102
}
100
AcDbPlotSettings
  1

  2

  4

  6

 40
0.0
 41
0.0
 42
0.0
 43
0.0
 44
0.0
 45
0.0
 46
0.0
 47
0.0
 48
0.0
 49
0.0
140
0.0
141
0.0
142
1.0
143
1.0
 70
   128
 72
     0
 73
     0
 74
     0
  7

 75
     0
147
1.0
148
0.0
149
0.0
100
AcDbLayout
  1
Layout1
 70
     0
 71
     0
 10
0.0
 20
0.0
 11
0.0
 21
0.0
 12
0.0
 22
0.0
 32
0.0
 14
0.0
 24
0.0
 34
0.0
 15
0.0
 25
0.0
 35
0.0
146
0.0
 13
0.0
 23
0.0
 33
0.0
 16
0.0
 26
0.0
 36
0.0
 17
0.0
 27
0.0
 37
0.0
 76
     0
330
B
331
0
345
0
346
0
  0
DICTIONARY
  5
1E
102
{ACAD_REACTORS
330
19
102
}
100
AcDbDictionary
280
     0
281
     1
  3
Layout1
350
21
  3
Model
350
20
  0
DICTIONARY
  5
22
102
{ACAD_REACTORS
330
19
102
}
100
AcDbDictionary
280
     0
281
     1
  0
GROUP
  5
18D
102
{ACAD_REACTORS
330
1A
102
}
100
AcDbGroup
300
GRP61
 70
     0
 71
     1
340
E2
340
E3
  0
GROUP
  5
18E
102
{ACAD_REACTORS
330
1A
102
}
100
AcDbGroup
300
GRP105
 70
     0
 71
     1
340
E5
340
E6
340
E7
340
E8
340
E9
340
EA
340
EB
340
EC
340
ED
  0
GROUP
  5
18F
102
{ACAD_REACTORS
330
1A
102
}
100
AcDbGroup
300
GRP151
 70
     0
 71
     1
340
106
340
107
340
108
340
109
340
10A
340
10B
340
10C
340
10D
340
10E
340
10F
340
110
340
111
340
112
340
114
340
115
340
116
340
117
340
118
340
133
340
134
340
135
340
155
340
156
340
157
340
172
340
187
340
188
340
189
340
18A
340
18B
  0
ENDSEC
  0
EOF
