  0
SECTION
  2
HEADER
  9
$ACADVER
  1
AC1009
  9
$INSBASE
 10
0.0
 20
0.0
 30
0.0
  9
$EXTMIN
 10
-210.0
 20
-148.5
 30
0.0
  9
$EXTMAX
 10
630.0
 20
445.5
 30
0.0
  9
$LIMMIN
 10
-210.0
 20
-148.5
  9
$LIMMAX
 10
630.0
 20
445.5
  9
$ORTHOMODE
 70
     0
  9
$REGENMODE
 70
     1
  9
$FILLMODE
 70
     1
  9
$QTEXTMODE
 70
     0
  9
$MIRRTEXT
 70
     1
  9
$DRAGMODE
 70
     2
  9
$LTSCALE
 40
2.0
  9
$OSMODE
 70
     0
  9
$ATTMODE
 70
     1
  9
$TEXTSIZE
 40
0.2
  9
$TRACEWID
 40
0.05
  9
$TEXTSTYLE
  7
STANDARD
  9
$CLAYER
  8
0
  9
$CELTYPE
  6
BYLAYER
  9
$CECOLOR
 62
     7
  9
$DIMSCALE
 40
2.0
  9
$DIMASZ
 40
3.5
  9
$DIMEXO
 40
0.0625
  9
$DIMDLI
 40
0.38
  9
$DIMRND
 40
0.0
  9
$DIMDLE
 40
0.0
  9
$DIMEXE
 40
0.18
  9
$DIMTP
 40
0.0
  9
$DIMTM
 40
0.0
  9
$DIMTXT
 40
3.5
  9
$DIMCEN
 40
0.09
  9
$DIMTSZ
 40
0.0
  9
$DIMTOL
 70
     0
  9
$DIMLIM
 70
     0
  9
$DIMTIH
 70
     1
  9
$DIMTOH
 70
     1
  9
$DIMSE1
 70
     0
  9
$DIMSE2
 70
     0
  9
$DIMTAD
 70
     1
  9
$DIMZIN
 70
     0
  9
$DIMBLK
  1

  9
$DIMASO
 70
     1
  9
$DIMSHO
 70
     1
  9
$DIMPOST
  1

  9
$DIMAPOST
  1

  9
$DIMALT
 70
     0
  9
$DIMALTD
 70
     2
  9
$DIMALTF
 40
25.4
  9
$DIMLFAC
 40
1.0
  9
$DIMTOFL
 70
     0
  9
$DIMTVP
 40
0.0
  9
$DIMTIX
 70
     0
  9
$DIMSOXD
 70
     0
  9
$DIMSAH
 70
     0
  9
$DIMBLK1
  1

  9
$DIMBLK2
  1

  9
$DIMSTYLE
  2
STANDARD
  9
$DIMCLRD
 70
     0
  9
$DIMCLRE
 70
     0
  9
$DIMCLRT
 70
     0
  9
$DIMTFAC
 40
1.0
  9
$DIMGAP
 40
0.09
  9
$LUNITS
 70
     2
  9
$LUPREC
 70
     2
  9
$AXISMODE
 70
     0
  9
$AXISUNIT
 10
0.0
 20
0.0
  9
$SKETCHINC
 40
0.1
  9
$FILLETRAD
 40
0.0
  9
$AUNITS
 70
     0
  9
$AUPREC
 70
     0
  9
$MENU
  1
acad
  9
$ELEVATION
 40
0.0
  9
$PELEVATION
 40
0.0
  9
$THICKNESS
 40
0.0
  9
$LIMCHECK
 70
     0
  9
$BLIPMODE
 70
     1
  9
$CHAMFERA
 40
0.0
  9
$CHAMFERB
 40
0.0
  9
$SKPOLY
 70
     0
  9
$TDCREATE
 40
0.000000000
  9
$TDUPDATE
 40
0.000000000
  9
$TDINDWG
 40
0.0000000000
  9
$TDUSRTIMER
 40
0.0000000000
  9
$USRTIMER
 70
     1
  9
$ANGBASE
 50
0.0
  9
$ANGDIR
 70
     0
  9
$PDMODE
 70
     0
  9
$PDSIZE
 40
0.0
  9
$PLINEWID
 40
0.0
  9
$COORDS
 70
     0
  9
$SPLFRAME
 70
     0
  9
$SPLINETYPE
 70
     6
  9
$SPLINESEGS
 70
     8
  9
$ATTDIA
 70
     0
  9
$ATTREQ
 70
     1
  9
$HANDLING
 70
     1
  9
$HANDSEED
  5
25C
  9
$SURFTAB1
 70
     6
  9
$SURFTAB2
 70
     6
  9
$SURFTYPE
 70
     6
  9
$SURFU
 70
     6
  9
$SURFV
 70
     6
  9
$UCSNAME
  2

  9
$UCSORG
 10
0.0
 20
0.0
 30
0.0
  9
$UCSXDIR
 10
1.0
 20
0.0
 30
0.0
  9
$UCSYDIR
 10
0.0
 20
1.0
 30
0.0
  9
$PUCSNAME
  2

  9
$PUCSORG
 10
0.0
 20
0.0
 30
0.0
  9
$PUCSXDIR
 10
1.0
 20
0.0
 30
0.0
  9
$PUCSYDIR
 10
0.0
 20
1.0
 30
0.0
  9
$USERI1
 70
     0
  9
$USERI2
 70
     0
  9
$USERI3
 70
     0
  9
$USERI4
 70
     0
  9
$USERI5
 70
     0
  9
$USERR1
 40
0.0
  9
$USERR2
 40
0.0
  9
$USERR3
 40
0.0
  9
$USERR4
 40
0.0
  9
$USERR5
 40
0.0
  9
$WORLDVIEW
 70
     1
  9
$SHADEDGE
 70
     3
  9
$SHADEDIF
 70
    70
  9
$TILEMODE
 70
     1
  9
$MAXACTVP
 70
    16
  9
$PINSBASE
 10
0.0
 20
0.0
 30
0.0
  9
$PLIMCHECK
 70
     0
  9
$PEXTMIN
 10
1.000000E+20
 20
1.000000E+20
 30
1.000000E+20
  9
$PEXTMAX
 10
-1.000000E+20
 20
-1.000000E+20
 30
-1.000000E+20
  9
$PLIMMIN
 10
-210.0
 20
-148.5
  9
$PLIMMAX
 10
630.0
 20
445.5
  9
$UNITMODE
 70
     0
  9
$VISRETAIN
 70
     0
  9
$PLINEGEN
 70
     1
  9
$PSLTSCALE
 70
     0
  9
$TREEDEPTH
 70
  3020
  9
$DWGCODEPAGE
  3
dos850
  0
ENDSEC
  0
SECTION
  2
TABLES
  0
TABLE
  2
VPORT
 70
     1
  0
VPORT
  2
*ACTIVE
 70
     0
 10
0.0
 20
0.0
 11
1.0
 21
1.0
 12
420.0
 22
297.0
 13
0.0
 23
0.0
 14
1.0
 24
1.0
 15
0.0
 25
0.0
 16
0.0
 26
0.0
 36
1.0
 17
-210.0
 27
-148.5
 37
0.0
 40
594.0
 41
1.604229
 42
50.0
 43
0.0
 44
0.0
 50
0.0
 51
0.0
 71
     0
 72
   100
 73
     1
 74
     1
 75
     0
 76
     0
 77
     0
 78
     0
  0
ENDTAB
  0
TABLE
  2
LTYPE
 70
     3
  0
LTYPE
  2
CONTINUOUS
 70
    64
  3
Solid line
 72
    65
 73
     0
 40
0.0
  0
LTYPE
  2
DASHDOT
 70
    64
  3
__ . __ . __ . __ . __
 72
    65
 73
     4
 40
7.5
 49
5.0
 49
-1.25
 49
0.0
 49
-1.25
  0
LTYPE
  2
CENTER
 70
    64
  3
__ . __ . __ . __ . __
 72
    65
 73
     4
 40
7.5
 49
5.0
 49
-1.25
 49
0.0
 49
-1.25
  0
ENDTAB
  0
TABLE
  2
LAYER
 70
    13
  0
LAYER
  2
0
 70
     0
 62
     7
  6
CONTINUOUS
  0
LAYER
  2
LC-INFO-1-2-MM-A3-0
 70
     1
 62
    -1
  6
CONTINUOUS
  0
LAYER
  2
LC-002-005-----0
 70
     0
 62
     2
  6
CONTINUOUS
  0
LAYER
  2
LC-008-003-MTH-0
 70
     0
 62
     2
  6
CONTINUOUS
  0
LAYER
  2
LC-009-003-MTG-0
 70
     0
 62
     2
  6
CONTINUOUS
  0
LAYER
  2
LC-007-003-----0
 70
     0
 62
     2
  6
CONTINUOUS
  0
LAYER
  2
LC-006-000-----0
 70
     0
 62
     7
  6
CONTINUOUS
  0
LAYER
  2
LC-010-000-----0
 70
     0
 62
     7
  6
CONTINUOUS
  0
LAYER
  2
LC-001-002-----0
 70
     0
 62
     1
  6
CONTINUOUS
  0
LAYER
  2
LC-003-001-----0
 70
     0
 62
     1
  6
CONTINUOUS
  0
LAYER
  2
LC-004-002-RND-0
 70
     0
 62
     1
  6
CONTINUOUS
  0
LAYER
  2
LC-005-006-MLN-0
 70
     0
 62
     2
  6
CENTER
  0
LAYER
  2
LC-000
 70
     0
 62
     7
  6
CONTINUOUS
  0
ENDTAB
  0
TABLE
  2
STYLE
 70
     5
  0
STYLE
  2
STANDARD
 70
     0
 40
0.0
 41
1.0
 50
0.0
 71
     0
 42
0.0
  3
txt
  4

  0
STYLE
  2
LC-STANDARD
 70
    64
 40
0.0
 41
1.0
 50
0.0
 71
     0
 42
3.5
  3
MONOTXT
  4

  0
STYLE
  2
LC-TXTSTYLE-150-400-0-0-A2
 70
    64
 40
0.0
 41
1.0
 50
15.0
 71
     0
 42
3.5
  3
MONOTXT
  4

  0
STYLE
  2
LC-TXTSTYLE-0-400-0-0-DIN3
 70
    64
 40
0.0
 41
1.0
 50
0.0
 71
     0
 42
3.5
  3
MONOTXT
  4

  0
STYLE
  2
LC-TXTSTYLE-150-400-0-0-D4
 70
    64
 40
0.0
 41
1.0
 50
15.0
 71
     0
 42
3.5
  3
LC-STANDARD
  4

  0
ENDTAB
  0
TABLE
  2
VIEW
 70
     0
  0
ENDTAB
  0
TABLE
  2
UCS
 70
     0
  0
ENDTAB
  0
TABLE
  2
APPID
 70
     1
  0
APPID
  2
ACAD
 70
     0
  0
ENDTAB
  0
TABLE
  2
DIMSTYLE
 70
     3
  0
DIMSTYLE
  2
STANDARD
 70
     0
  3

  4

  5

  6

  7

 40
1.0
 41
0.18
 42
0.0625
 43
0.38
 44
0.18
 45
0.0
 46
0.0
 47
0.0
 48
0.0
 71
     0
 72
     0
 73
     1
 74
     1
 75
     0
 76
     0
 77
     0
 78
     0
140
0.18
141
0.09
142
0.0
143
25.4
144
1.0
145
0.0
146
1.0
147
0.09
170
     0
171
     2
172
     0
173
     0
174
     0
175
     0
176
     0
177
     0
178
     0
  0
DIMSTYLE
  2
LC-STANDARD
 70
     0
  3

  4

  5

  6

  7

 40
1.0
 41
3.5
 42
0.0
 43
7.5
 44
1.8
 45
0.0
 46
0.0
 47
0.0
 48
0.0
 71
     0
 72
     0
 73
     0
 74
     0
 75
     0
 76
     0
 77
     1
 78
     8
140
3.5
141
0.0
142
0.0
143
25.4
144
1.0
145
0.0
146
0.71
147
1.5
170
     0
171
     2
172
     1
173
     0
174
     0
175
     0
176
     0
177
     0
178
     3
  0
DIMSTYLE
  2
LC-DIM-L-0140-02-02
 70
     0
  3

  4

  5

  6

  7

 40
2.0
 41
3.5
 42
0.0
 43
7.5
 44
1.8
 45
0.0
 46
0.0
 47
0.0
 48
0.0
 71
     0
 72
     0
 73
     0
 74
     0
 75
     0
 76
     0
 77
     1
 78
     8
140
14.0
141
0.0
142
0.0
143
25.4
144
1.0
145
0.0
146
0.71
147
1.5
170
     0
171
     2
172
     0
173
     0
174
     0
175
     0
176
     2
177
     2
178
     8
  0
ENDTAB
  0
ENDSEC
  0
SECTION
  2
BLOCKS
  0
BLOCK
  8
0
  5
24
  2
*X0
 70
    65
 10
134.353092
 20
108.742986
 30
0.0
  3
*X0
  0
LINE
  8
LC-002-005-----0
  6
CONTINUOUS
  5
26
 10
146.353092
 20
210.028725
 30
0.0
 11
138.138832
 21
218.242986
 31
0.0
  0
LINE
  8
LC-002-005-----0
  6
CONTINUOUS
  5
27
 10
146.353092
 20
207.200298
 30
0.0
 11
135.310405
 21
218.242986
 31
0.0
  0
LINE
  8
LC-002-005-----0
  6
CONTINUOUS
  5
28
 10
146.353092
 20
204.371871
 30
0.0
 11
143.353092
 21
207.371871
 31
0.0
  0
LINE
  8
LC-002-005-----0
  6
CONTINUOUS
  5
29
 10
137.353092
 20
213.371871
 30
0.0
 11
134.43735
 21
216.287613
 31
0.0
  0
LINE
  8
LC-002-005-----0
  6
CONTINUOUS
  5
2A
 10
146.353092
 20
201.543444
 30
0.0
 11
143.353092
 21
204.543444
 31
0.0
  0
LINE
  8
LC-002-005-----0
  6
CONTINUOUS
  5
2B
 10
137.353092
 20
210.543444
 30
0.0
 11
135.353092
 21
212.543444
 31
0.0
  0
LINE
  8
LC-002-005-----0
  6
CONTINUOUS
  5
2C
 10
146.353092
 20
198.715017
 30
0.0
 11
143.353092
 21
201.715017
 31
0.0
  0
LINE
  8
LC-002-005-----0
  6
CONTINUOUS
  5
2D
 10
137.353092
 20
207.715017
 30
0.0
 11
135.353092
 21
209.715017
 31
0.0
  0
LINE
  8
LC-002-005-----0
  6
CONTINUOUS
  5
2E
 10
146.353092
 20
195.88659
 30
0.0
 11
143.353092
 21
198.88659
 31
0.0
  0
LINE
  8
LC-002-005-----0
  6
CONTINUOUS
  5
2F
 10
146.353092
 20
193.058163
 30
0.0
 11
143.353092
 21
196.058163
 31
0.0
  0
LINE
  8
LC-002-005-----0
  6
CONTINUOUS
  5
30
 10
146.353092
 20
190.229735
 30
0.0
 11
143.353092
 21
193.229735
 31
0.0
  0
LINE
  8
LC-002-005-----0
  6
CONTINUOUS
  5
31
 10
146.353092
 20
187.401308
 30
0.0
 11
143.353092
 21
190.401308
 31
0.0
  0
LINE
  8
LC-002-005-----0
  6
CONTINUOUS
  5
32
 10
146.353092
 20
184.572881
 30
0.0
 11
143.353092
 21
187.572881
 31
0.0
  0
LINE
  8
LC-002-005-----0
  6
CONTINUOUS
  5
33
 10
146.353092
 20
181.744454
 30
0.0
 11
143.353092
 21
184.744454
 31
0.0
  0
LINE
  8
LC-002-005-----0
  6
CONTINUOUS
  5
34
 10
146.353092
 20
178.916027
 30
0.0
 11
143.353092
 21
181.916027
 31
0.0
  0
LINE
  8
LC-002-005-----0
  6
CONTINUOUS
  5
35
 10
146.353092
 20
176.0876
 30
0.0
 11
143.353092
 21
179.0876
 31
0.0
  0
LINE
  8
LC-002-005-----0
  6
CONTINUOUS
  5
36
 10
146.353092
 20
173.259173
 30
0.0
 11
143.353092
 21
176.259173
 31
0.0
  0
LINE
  8
LC-002-005-----0
  6
CONTINUOUS
  5
37
 10
146.353092
 20
170.430746
 30
0.0
 11
143.353092
 21
173.430746
 31
0.0
  0
LINE
  8
LC-002-005-----0
  6
CONTINUOUS
  5
38
 10
146.353092
 20
167.602318
 30
0.0
 11
143.353092
 21
170.602318
 31
0.0
  0
LINE
  8
LC-002-005-----0
  6
CONTINUOUS
  5
39
 10
146.353092
 20
164.773891
 30
0.0
 11
143.353092
 21
167.773891
 31
0.0
  0
LINE
  8
LC-002-005-----0
  6
CONTINUOUS
  5
3A
 10
146.353092
 20
161.945464
 30
0.0
 11
143.353092
 21
164.945464
 31
0.0
  0
LINE
  8
LC-002-005-----0
  6
CONTINUOUS
  5
3B
 10
146.353092
 20
159.117037
 30
0.0
 11
143.353092
 21
162.117037
 31
0.0
  0
LINE
  8
LC-002-005-----0
  6
CONTINUOUS
  5
3C
 10
146.353092
 20
156.28861
 30
0.0
 11
143.353092
 21
159.28861
 31
0.0
  0
LINE
  8
LC-002-005-----0
  6
CONTINUOUS
  5
3D
 10
146.353092
 20
153.460183
 30
0.0
 11
143.353092
 21
156.460183
 31
0.0
  0
LINE
  8
LC-002-005-----0
  6
CONTINUOUS
  5
3E
 10
146.353092
 20
150.631756
 30
0.0
 11
143.353092
 21
153.631756
 31
0.0
  0
LINE
  8
LC-002-005-----0
  6
CONTINUOUS
  5
3F
 10
146.353092
 20
147.803329
 30
0.0
 11
143.353092
 21
150.803329
 31
0.0
  0
LINE
  8
LC-002-005-----0
  6
CONTINUOUS
  5
40
 10
146.353092
 20
144.974901
 30
0.0
 11
143.353092
 21
147.974901
 31
0.0
  0
LINE
  8
LC-002-005-----0
  6
CONTINUOUS
  5
41
 10
146.353092
 20
142.146474
 30
0.0
 11
143.353092
 21
145.146474
 31
0.0
  0
LINE
  8
LC-002-005-----0
  6
CONTINUOUS
  5
42
 10
146.353092
 20
139.318047
 30
0.0
 11
143.353092
 21
142.318047
 31
0.0
  0
LINE
  8
LC-002-005-----0
  6
CONTINUOUS
  5
43
 10
146.353092
 20
136.48962
 30
0.0
 11
143.353092
 21
139.48962
 31
0.0
  0
LINE
  8
LC-002-005-----0
  6
CONTINUOUS
  5
44
 10
146.353092
 20
133.661193
 30
0.0
 11
143.353092
 21
136.661193
 31
0.0
  0
LINE
  8
LC-002-005-----0
  6
CONTINUOUS
  5
45
 10
146.353092
 20
130.832766
 30
0.0
 11
143.353092
 21
133.832766
 31
0.0
  0
LINE
  8
LC-002-005-----0
  6
CONTINUOUS
  5
46
 10
146.353092
 20
128.004339
 30
0.0
 11
143.353092
 21
131.004339
 31
0.0
  0
LINE
  8
LC-002-005-----0
  6
CONTINUOUS
  5
47
 10
146.353092
 20
125.175912
 30
0.0
 11
143.353092
 21
128.175912
 31
0.0
  0
LINE
  8
LC-002-005-----0
  6
CONTINUOUS
  5
48
 10
146.353092
 20
122.347484
 30
0.0
 11
143.353092
 21
125.347484
 31
0.0
  0
LINE
  8
LC-002-005-----0
  6
CONTINUOUS
  5
49
 10
146.353092
 20
119.519057
 30
0.0
 11
143.353092
 21
122.519057
 31
0.0
  0
LINE
  8
LC-002-005-----0
  6
CONTINUOUS
  5
4A
 10
146.353092
 20
116.69063
 30
0.0
 11
143.353092
 21
119.69063
 31
0.0
  0
LINE
  8
LC-002-005-----0
  6
CONTINUOUS
  5
4B
 10
146.353092
 20
113.862203
 30
0.0
 11
143.353092
 21
116.862203
 31
0.0
  0
LINE
  8
LC-002-005-----0
  6
CONTINUOUS
  5
4C
 10
146.353092
 20
111.033776
 30
0.0
 11
143.353092
 21
114.033776
 31
0.0
  0
LINE
  8
LC-002-005-----0
  6
CONTINUOUS
  5
4D
 10
145.584274
 20
108.974167
 30
0.0
 11
143.353092
 21
111.205349
 31
0.0
  0
ENDBLK
  8
0
  5
4E
  0
BLOCK
  8
0
  5
50
  2
*X1
 70
    65
 10
37.653092
 20
208.974306
 30
0.0
  3
*X1
  0
LINE
  8
LC-002-005-----0
  6
CONTINUOUS
  5
51
 10
48.366353
 20
209.586699
 30
0.0
 11
48.912498
 21
210.132844
 31
0.0
  0
LINE
  8
LC-002-005-----0
  6
CONTINUOUS
  5
52
 10
47.611598
 20
211.660372
 30
0.0
 11
48.157743
 21
212.206516
 31
0.0
  0
LINE
  8
LC-002-005-----0
  6
CONTINUOUS
  5
53
 10
48.494212
 20
212.542986
 30
0.0
 11
48.853092
 21
212.901866
 31
0.0
  0
LINE
  8
LC-002-005-----0
  6
CONTINUOUS
  5
54
 10
48.153092
 20
215.030293
 30
0.0
 11
48.853092
 21
215.730293
 31
0.0
  0
LINE
  8
LC-002-005-----0
  6
CONTINUOUS
  5
55
 10
48.142016
 20
217.847644
 30
0.0
 11
48.671715
 21
218.377342
 31
0.0
  0
LINE
  8
LC-002-005-----0
  6
CONTINUOUS
  5
56
 10
45.776967
 20
218.311022
 30
0.0
 11
46.408931
 21
218.942986
 31
0.0
  0
LINE
  8
LC-002-005-----0
  6
CONTINUOUS
  5
57
 10
44.55331
 20
219.915792
 30
0.0
 11
45.253092
 21
220.615574
 31
0.0
  0
LINE
  8
LC-002-005-----0
  6
CONTINUOUS
  5
58
 10
44.553092
 20
222.744001
 30
0.0
 11
45.253092
 21
223.444001
 31
0.0
  0
LINE
  8
LC-002-005-----0
  6
CONTINUOUS
  5
59
 10
44.553092
 20
225.572428
 30
0.0
 11
45.253092
 21
226.272428
 31
0.0
  0
LINE
  8
LC-002-005-----0
  6
CONTINUOUS
  5
5A
 10
41.353092
 20
225.200856
 30
0.0
 11
42.053092
 21
225.900856
 31
0.0
  0
LINE
  8
LC-002-005-----0
  6
CONTINUOUS
  5
5B
 10
44.504171
 20
228.351934
 30
0.0
 11
45.032569
 21
228.880332
 31
0.0
  0
LINE
  8
LC-002-005-----0
  6
CONTINUOUS
  5
5C
 10
41.353092
 20
228.029283
 30
0.0
 11
43.066795
 21
229.742986
 31
0.0
  0
ENDBLK
  8
0
  5
5D
  0
BLOCK
  8
0
  5
5F
  2
BLK1
 70
    64
 10
0.0
 20
0.0
 30
0.0
  3
BLK1
  0
ENDBLK
  8
0
  5
60
  0
BLOCK
  8
0
  5
62
  2
BLK2
 70
    64
 10
0.0
 20
0.0
 30
0.0
  3
BLK2
  0
ENDBLK
  8
0
  5
63
  0
BLOCK
  8
0
  5
65
  2
*X4
 70
    65
 10
133.502814
 20
208.974306
 30
0.0
  3
*X4
  0
LINE
  8
LC-002-005-----0
  6
CONTINUOUS
  5
66
 10
133.809926
 20
210.177458
 30
0.0
 11
134.981136
 21
211.348668
 31
0.0
  0
LINE
  8
LC-002-005-----0
  6
CONTINUOUS
  5
67
 10
133.853092
 20
213.049052
 30
0.0
 11
134.553092
 21
213.749052
 31
0.0
  0
LINE
  8
LC-002-005-----0
  6
CONTINUOUS
  5
68
 10
133.853092
 20
215.877479
 30
0.0
 11
134.553092
 21
216.577479
 31
0.0
  0
LINE
  8
LC-002-005-----0
  6
CONTINUOUS
  5
69
 10
136.218599
 20
218.242986
 30
0.0
 11
138.153092
 21
220.177479
 31
0.0
  0
LINE
  8
LC-002-005-----0
  6
CONTINUOUS
  5
6A
 10
141.121342
 20
223.145728
 30
0.0
 11
141.621677
 21
223.646064
 31
0.0
  0
LINE
  8
LC-002-005-----0
  6
CONTINUOUS
  5
6B
 10
137.453092
 20
222.305906
 30
0.0
 11
138.153092
 21
223.005906
 31
0.0
  0
LINE
  8
LC-002-005-----0
  6
CONTINUOUS
  5
6C
 10
140.653092
 20
225.505906
 30
0.0
 11
141.353092
 21
226.205906
 31
0.0
  0
LINE
  8
LC-002-005-----0
  6
CONTINUOUS
  5
6D
 10
137.453092
 20
225.134333
 30
0.0
 11
138.153092
 21
225.834333
 31
0.0
  0
LINE
  8
LC-002-005-----0
  6
CONTINUOUS
  5
6E
 10
140.619344
 20
228.300585
 30
0.0
 11
141.156093
 21
228.837334
 31
0.0
  0
LINE
  8
LC-002-005-----0
  6
CONTINUOUS
  5
6F
 10
137.453092
 20
227.96276
 30
0.0
 11
139.233318
 21
229.742986
 31
0.0
  0
ENDBLK
  8
0
  5
70
  0
BLOCK
  8
0
  5
72
  2
BLK3
 70
    64
 10
0.0
 20
0.0
 30
0.0
  3
BLK3
  0
ENDBLK
  8
0
  5
73
  0
BLOCK
  8
0
  5
75
  2
*D6
 70
    65
 10
0.0
 20
0.0
 30
0.0
  3
*D6
  0
LINE
  8
LC-008-003-MTH-0
  6
CONTINUOUS
  5
77
 10
41.353092
 20
228.042986
 30
0.0
 11
41.353092
 21
268.8
 31
0.0
  0
LINE
  8
LC-008-003-MTH-0
  6
CONTINUOUS
  5
78
 10
141.353092
 20
228.042986
 30
0.0
 11
141.353092
 21
268.8
 31
0.0
  0
LINE
  8
LC-009-003-MTG-0
  6
CONTINUOUS
  5
7A
 10
41.353092
 20
252.0
 30
0.0
 11
141.353092
 21
252.0
 31
0.0
  0
LINE
  8
LC-007-003-----0
  6
CONTINUOUS
  5
7C
 10
69.113549
 20
255.654733
 30
0.0
 11
41.353092
 21
252.0
 31
0.0
  0
LINE
  8
LC-007-003-----0
  6
CONTINUOUS
  5
7D
 10
41.353092
 20
252.0
 30
0.0
 11
69.113549
 21
248.345267
 31
0.0
  0
LINE
  8
LC-007-003-----0
  6
CONTINUOUS
  5
7E
 10
69.113549
 20
248.345267
 30
0.0
 11
69.113549
 21
255.654733
 31
0.0
  0
LINE
  8
LC-007-003-----0
  6
CONTINUOUS
  5
7F
 10
69.17583
 20
254.704503
 30
0.0
 11
48.633092
 21
252.0
 31
0.0
  0
LINE
  8
LC-007-003-----0
  6
CONTINUOUS
  5
80
 10
48.633092
 20
252.0
 30
0.0
 11
69.17583
 21
249.295497
 31
0.0
  0
LINE
  8
LC-007-003-----0
  6
CONTINUOUS
  5
81
 10
69.238111
 20
253.754272
 30
0.0
 11
55.913092
 21
252.0
 31
0.0
  0
LINE
  8
LC-007-003-----0
  6
CONTINUOUS
  5
82
 10
55.913092
 20
252.0
 30
0.0
 11
69.238111
 21
250.245728
 31
0.0
  0
LINE
  8
LC-007-003-----0
  6
CONTINUOUS
  5
83
 10
69.300393
 20
252.804041
 30
0.0
 11
63.193092
 21
252.0
 31
0.0
  0
LINE
  8
LC-007-003-----0
  6
CONTINUOUS
  5
84
 10
63.193092
 20
252.0
 30
0.0
 11
69.300393
 21
251.195959
 31
0.0
  0
LINE
  8
LC-007-003-----0
  6
CONTINUOUS
  5
85
 10
113.592636
 20
248.345267
 30
0.0
 11
141.353092
 21
252.0
 31
0.0
  0
LINE
  8
LC-007-003-----0
  6
CONTINUOUS
  5
86
 10
141.353092
 20
252.0
 30
0.0
 11
113.592636
 21
255.654733
 31
0.0
  0
LINE
  8
LC-007-003-----0
  6
CONTINUOUS
  5
87
 10
113.592636
 20
255.654733
 30
0.0
 11
113.592636
 21
248.345267
 31
0.0
  0
LINE
  8
LC-007-003-----0
  6
CONTINUOUS
  5
88
 10
113.530355
 20
249.295497
 30
0.0
 11
134.073092
 21
252.0
 31
0.0
  0
LINE
  8
LC-007-003-----0
  6
CONTINUOUS
  5
89
 10
134.073092
 20
252.0
 30
0.0
 11
113.530355
 21
254.704503
 31
0.0
  0
LINE
  8
LC-007-003-----0
  6
CONTINUOUS
  5
8A
 10
113.468073
 20
250.245728
 30
0.0
 11
126.793092
 21
252.0
 31
0.0
  0
LINE
  8
LC-007-003-----0
  6
CONTINUOUS
  5
8B
 10
126.793092
 20
252.0
 30
0.0
 11
113.468073
 21
253.754272
 31
0.0
  0
LINE
  8
LC-007-003-----0
  6
CONTINUOUS
  5
8C
 10
113.405792
 20
251.195959
 30
0.0
 11
119.513092
 21
252.0
 31
0.0
  0
LINE
  8
LC-007-003-----0
  6
CONTINUOUS
  5
8D
 10
119.513092
 20
252.0
 30
0.0
 11
113.405792
 21
252.804041
 31
0.0
  0
TEXT
  8
LC-007-003-----0
  6
CONTINUOUS
 62
     8
  5
8F
 10
65.937473
 20
259.827554
 30
0.0
 40
28.0
  1
100
 41
0.9
 51
15.0
  7
LC-TXTSTYLE-150-400-0-0-D0
 72
     1
 11
95.701252
 21
259.827554
 31
0.0
  0
ENDBLK
  8
0
  5
90
  0
BLOCK
  8
0
  5
92
  2
*D7
 70
    65
 10
0.0
 20
0.0
 30
0.0
  3
*D7
  0
LINE
  8
LC-008-003-MTH-0
  6
CONTINUOUS
  5
93
 10
40.853092
 20
222.542986
 30
0.0
 11
-16.8
 21
222.542986
 31
0.0
  0
LINE
  8
LC-008-003-MTH-0
  6
CONTINUOUS
  5
94
 10
43.353092
 20
229.742986
 30
0.0
 11
-16.8
 21
229.742986
 31
0.0
  0
LINE
  8
LC-007-003-----0
  6
CONTINUOUS
  5
95
 10
3.654733
 20
194.78253
 30
0.0
 11
0.0
 21
222.542986
 31
0.0
  0
LINE
  8
LC-007-003-----0
  6
CONTINUOUS
  5
96
 10
0.0
 20
222.542986
 30
0.0
 11
-3.654733
 21
194.78253
 31
0.0
  0
LINE
  8
LC-007-003-----0
  6
CONTINUOUS
  5
97
 10
-3.654733
 20
194.78253
 30
0.0
 11
3.654733
 21
194.78253
 31
0.0
  0
LINE
  8
LC-007-003-----0
  6
CONTINUOUS
  5
98
 10
2.704503
 20
194.720248
 30
0.0
 11
0.0
 21
215.262986
 31
0.0
  0
LINE
  8
LC-007-003-----0
  6
CONTINUOUS
  5
99
 10
0.0
 20
215.262986
 30
0.0
 11
-2.704503
 21
194.720248
 31
0.0
  0
LINE
  8
LC-007-003-----0
  6
CONTINUOUS
  5
9A
 10
1.754272
 20
194.657967
 30
0.0
 11
0.0
 21
207.982986
 31
0.0
  0
LINE
  8
LC-007-003-----0
  6
CONTINUOUS
  5
9B
 10
0.0
 20
207.982986
 30
0.0
 11
-1.754272
 21
194.657967
 31
0.0
  0
LINE
  8
LC-007-003-----0
  6
CONTINUOUS
  5
9C
 10
0.804041
 20
194.595685
 30
0.0
 11
0.0
 21
200.702986
 31
0.0
  0
LINE
  8
LC-007-003-----0
  6
CONTINUOUS
  5
9D
 10
0.0
 20
200.702986
 30
0.0
 11
-0.804041
 21
194.595685
 31
0.0
  0
LINE
  8
LC-007-003-----0
  6
CONTINUOUS
  5
9E
 10
-3.654733
 20
257.503442
 30
0.0
 11
0.0
 21
229.742986
 31
0.0
  0
LINE
  8
LC-007-003-----0
  6
CONTINUOUS
  5
9F
 10
0.0
 20
229.742986
 30
0.0
 11
3.654733
 21
257.503442
 31
0.0
  0
LINE
  8
LC-007-003-----0
  6
CONTINUOUS
  5
A0
 10
3.654733
 20
257.503442
 30
0.0
 11
-3.654733
 21
257.503442
 31
0.0
  0
LINE
  8
LC-007-003-----0
  6
CONTINUOUS
  5
A1
 10
-2.704503
 20
257.565723
 30
0.0
 11
0.0
 21
237.022986
 31
0.0
  0
LINE
  8
LC-007-003-----0
  6
CONTINUOUS
  5
A2
 10
0.0
 20
237.022986
 30
0.0
 11
2.704503
 21
257.565723
 31
0.0
  0
LINE
  8
LC-007-003-----0
  6
CONTINUOUS
  5
A3
 10
-1.754272
 20
257.628005
 30
0.0
 11
0.0
 21
244.302986
 31
0.0
  0
LINE
  8
LC-007-003-----0
  6
CONTINUOUS
  5
A4
 10
0.0
 20
244.302986
 30
0.0
 11
1.754272
 21
257.628005
 31
0.0
  0
LINE
  8
LC-007-003-----0
  6
CONTINUOUS
  5
A5
 10
-0.804041
 20
257.690286
 30
0.0
 11
0.0
 21
251.582986
 31
0.0
  0
LINE
  8
LC-007-003-----0
  6
CONTINUOUS
  5
A6
 10
0.0
 20
251.582986
 30
0.0
 11
0.804041
 21
257.690286
 31
0.0
  0
LINE
  8
LC-009-003-MTG-0
  6
CONTINUOUS
  5
A7
 10
0.0
 20
156.780786
 30
0.0
 11
0.0
 21
268.942986
 31
0.0
  0
TEXT
  8
LC-007-003-----0
  6
CONTINUOUS
 62
     8
  5
A8
 10
-7.827554
 20
174.524531
 30
0.0
 40
28.0
  1
7
 50
90.0
 51
15.0
  7
LC-TXTSTYLE-150-400-0-0-D0
 72
     2
 11
-7.827554
 21
188.811146
 31
0.0
  0
ENDBLK
  8
0
  5
A9
  0
BLOCK
  8
0
  5
AB
  2
*D8
 70
    65
 10
0.0
 20
0.0
 30
0.0
  3
*D8
  0
LINE
  8
LC-008-003-MTH-0
  6
CONTINUOUS
  5
AC
 10
36.353092
 20
109.742986
 30
0.0
 11
36.353092
 21
22.4
 31
0.0
  0
LINE
  8
LC-008-003-MTH-0
  6
CONTINUOUS
  5
AD
 10
146.353092
 20
109.742986
 30
0.0
 11
146.353092
 21
22.4
 31
0.0
  0
LINE
  8
LC-009-003-MTG-0
  6
CONTINUOUS
  5
AE
 10
36.353092
 20
39.2
 30
0.0
 11
146.353092
 21
39.2
 31
0.0
  0
LINE
  8
LC-007-003-----0
  6
CONTINUOUS
  5
AF
 10
64.113549
 20
42.854733
 30
0.0
 11
36.353092
 21
39.2
 31
0.0
  0
LINE
  8
LC-007-003-----0
  6
CONTINUOUS
  5
B0
 10
36.353092
 20
39.2
 30
0.0
 11
64.113549
 21
35.545267
 31
0.0
  0
LINE
  8
LC-007-003-----0
  6
CONTINUOUS
  5
B1
 10
64.113549
 20
35.545267
 30
0.0
 11
64.113549
 21
42.854733
 31
0.0
  0
LINE
  8
LC-007-003-----0
  6
CONTINUOUS
  5
B2
 10
64.17583
 20
41.904503
 30
0.0
 11
43.633092
 21
39.2
 31
0.0
  0
LINE
  8
LC-007-003-----0
  6
CONTINUOUS
  5
B3
 10
43.633092
 20
39.2
 30
0.0
 11
64.17583
 21
36.495497
 31
0.0
  0
LINE
  8
LC-007-003-----0
  6
CONTINUOUS
  5
B4
 10
64.238111
 20
40.954272
 30
0.0
 11
50.913092
 21
39.2
 31
0.0
  0
LINE
  8
LC-007-003-----0
  6
CONTINUOUS
  5
B5
 10
50.913092
 20
39.2
 30
0.0
 11
64.238111
 21
37.445728
 31
0.0
  0
LINE
  8
LC-007-003-----0
  6
CONTINUOUS
  5
B6
 10
64.300393
 20
40.004041
 30
0.0
 11
58.193092
 21
39.2
 31
0.0
  0
LINE
  8
LC-007-003-----0
  6
CONTINUOUS
  5
B7
 10
58.193092
 20
39.2
 30
0.0
 11
64.300393
 21
38.395959
 31
0.0
  0
LINE
  8
LC-007-003-----0
  6
CONTINUOUS
  5
B8
 10
118.592636
 20
35.545267
 30
0.0
 11
146.353092
 21
39.2
 31
0.0
  0
LINE
  8
LC-007-003-----0
  6
CONTINUOUS
  5
B9
 10
146.353092
 20
39.2
 30
0.0
 11
118.592636
 21
42.854733
 31
0.0
  0
LINE
  8
LC-007-003-----0
  6
CONTINUOUS
  5
BA
 10
118.592636
 20
42.854733
 30
0.0
 11
118.592636
 21
35.545267
 31
0.0
  0
LINE
  8
LC-007-003-----0
  6
CONTINUOUS
  5
BB
 10
118.530355
 20
36.495497
 30
0.0
 11
139.073092
 21
39.2
 31
0.0
  0
LINE
  8
LC-007-003-----0
  6
CONTINUOUS
  5
BC
 10
139.073092
 20
39.2
 30
0.0
 11
118.530355
 21
41.904503
 31
0.0
  0
LINE
  8
LC-007-003-----0
  6
CONTINUOUS
  5
BD
 10
118.468073
 20
37.445728
 30
0.0
 11
131.793092
 21
39.2
 31
0.0
  0
LINE
  8
LC-007-003-----0
  6
CONTINUOUS
  5
BE
 10
131.793092
 20
39.2
 30
0.0
 11
118.468073
 21
40.954272
 31
0.0
  0
LINE
  8
LC-007-003-----0
  6
CONTINUOUS
  5
BF
 10
118.405792
 20
38.395959
 30
0.0
 11
124.513092
 21
39.2
 31
0.0
  0
LINE
  8
LC-007-003-----0
  6
CONTINUOUS
  5
C0
 10
124.513092
 20
39.2
 30
0.0
 11
118.405792
 21
40.004041
 31
0.0
  0
TEXT
  8
LC-007-003-----0
  6
CONTINUOUS
 62
     8
  5
C1
 10
57.603615
 20
47.027554
 30
0.0
 40
28.0
  1
Ø110
 51
15.0
  7
LC-TXTSTYLE-150-400-0-0-D0
 72
     1
 11
95.701252
 21
47.027554
 31
0.0
  0
ENDBLK
  8
0
  5
C2
  0
BLOCK
  8
0
  5
C4
  2
BLK4
 70
    64
 10
0.0
 20
0.0
 30
0.0
  3
BLK4
  0
ENDBLK
  8
0
  5
C5
  0
BLOCK
  8
0
  5
C7
  2
BLK5
 70
    64
 10
0.0
 20
0.0
 30
0.0
  3
BLK5
  0
ENDBLK
  8
0
  5
C8
  0
BLOCK
  8
0
  5
CA
  2
*X11
 70
    65
 10
36.353092
 20
108.742986
 30
0.0
  3
*X11
  0
LINE
  8
LC-002-005-----0
  6
CONTINUOUS
  5
CB
 10
48.353092
 20
214.69063
 30
0.0
 11
44.800737
 21
218.242986
 31
0.0
  0
LINE
  8
LC-002-005-----0
  6
CONTINUOUS
  5
CC
 10
47.353092
 20
212.862203
 30
0.0
 11
42.662701
 21
217.552594
 31
0.0
  0
LINE
  8
LC-002-005-----0
  6
CONTINUOUS
  5
CD
 10
47.353092
 20
210.033776
 30
0.0
 11
45.353092
 21
212.033776
 31
0.0
  0
LINE
  8
LC-002-005-----0
  6
CONTINUOUS
  5
CE
 10
43.369808
 20
214.01706
 30
0.0
 11
41.248488
 21
216.138381
 31
0.0
  0
LINE
  8
LC-002-005-----0
  6
CONTINUOUS
  5
CF
 10
47.315456
 20
207.242986
 30
0.0
 11
45.353092
 21
209.205349
 31
0.0
  0
LINE
  8
LC-002-005-----0
  6
CONTINUOUS
  5
D0
 10
41.955594
 20
212.602847
 30
0.0
 11
39.834274
 21
214.724167
 31
0.0
  0
LINE
  8
LC-002-005-----0
  6
CONTINUOUS
  5
D1
 10
40.541381
 20
211.188633
 30
0.0
 11
38.42006
 21
213.309954
 31
0.0
  0
LINE
  8
LC-002-005-----0
  6
CONTINUOUS
  5
D2
 10
39.353092
 20
209.548495
 30
0.0
 11
37.005847
 21
211.89574
 31
0.0
  0
LINE
  8
LC-002-005-----0
  6
CONTINUOUS
  5
D3
 10
39.353092
 20
206.720067
 30
0.0
 11
36.353092
 21
209.720067
 31
0.0
  0
LINE
  8
LC-002-005-----0
  6
CONTINUOUS
  5
D4
 10
39.353092
 20
203.89164
 30
0.0
 11
36.353092
 21
206.89164
 31
0.0
  0
LINE
  8
LC-002-005-----0
  6
CONTINUOUS
  5
D5
 10
39.353092
 20
201.063213
 30
0.0
 11
36.353092
 21
204.063213
 31
0.0
  0
LINE
  8
LC-002-005-----0
  6
CONTINUOUS
  5
D6
 10
39.353092
 20
198.234786
 30
0.0
 11
36.353092
 21
201.234786
 31
0.0
  0
LINE
  8
LC-002-005-----0
  6
CONTINUOUS
  5
D7
 10
39.353092
 20
195.406359
 30
0.0
 11
36.353092
 21
198.406359
 31
0.0
  0
LINE
  8
LC-002-005-----0
  6
CONTINUOUS
  5
D8
 10
39.353092
 20
192.577932
 30
0.0
 11
36.353092
 21
195.577932
 31
0.0
  0
LINE
  8
LC-002-005-----0
  6
CONTINUOUS
  5
D9
 10
39.353092
 20
189.749505
 30
0.0
 11
36.353092
 21
192.749505
 31
0.0
  0
LINE
  8
LC-002-005-----0
  6
CONTINUOUS
  5
DA
 10
39.353092
 20
186.921078
 30
0.0
 11
36.353092
 21
189.921078
 31
0.0
  0
LINE
  8
LC-002-005-----0
  6
CONTINUOUS
  5
DB
 10
39.353092
 20
184.09265
 30
0.0
 11
36.353092
 21
187.09265
 31
0.0
  0
LINE
  8
LC-002-005-----0
  6
CONTINUOUS
  5
DC
 10
39.353092
 20
181.264223
 30
0.0
 11
36.353092
 21
184.264223
 31
0.0
  0
LINE
  8
LC-002-005-----0
  6
CONTINUOUS
  5
DD
 10
39.353092
 20
178.435796
 30
0.0
 11
36.353092
 21
181.435796
 31
0.0
  0
LINE
  8
LC-002-005-----0
  6
CONTINUOUS
  5
DE
 10
39.353092
 20
175.607369
 30
0.0
 11
36.353092
 21
178.607369
 31
0.0
  0
LINE
  8
LC-002-005-----0
  6
CONTINUOUS
  5
DF
 10
39.353092
 20
172.778942
 30
0.0
 11
36.353092
 21
175.778942
 31
0.0
  0
LINE
  8
LC-002-005-----0
  6
CONTINUOUS
  5
E0
 10
39.353092
 20
169.950515
 30
0.0
 11
36.353092
 21
172.950515
 31
0.0
  0
LINE
  8
LC-002-005-----0
  6
CONTINUOUS
  5
E1
 10
39.353092
 20
167.122088
 30
0.0
 11
36.353092
 21
170.122088
 31
0.0
  0
LINE
  8
LC-002-005-----0
  6
CONTINUOUS
  5
E2
 10
39.353092
 20
164.293661
 30
0.0
 11
36.353092
 21
167.293661
 31
0.0
  0
LINE
  8
LC-002-005-----0
  6
CONTINUOUS
  5
E3
 10
39.353092
 20
161.465233
 30
0.0
 11
36.353092
 21
164.465233
 31
0.0
  0
LINE
  8
LC-002-005-----0
  6
CONTINUOUS
  5
E4
 10
39.353092
 20
158.636806
 30
0.0
 11
36.353092
 21
161.636806
 31
0.0
  0
LINE
  8
LC-002-005-----0
  6
CONTINUOUS
  5
E5
 10
39.353092
 20
155.808379
 30
0.0
 11
36.353092
 21
158.808379
 31
0.0
  0
LINE
  8
LC-002-005-----0
  6
CONTINUOUS
  5
E6
 10
39.353092
 20
152.979952
 30
0.0
 11
36.353092
 21
155.979952
 31
0.0
  0
LINE
  8
LC-002-005-----0
  6
CONTINUOUS
  5
E7
 10
39.353092
 20
150.151525
 30
0.0
 11
36.353092
 21
153.151525
 31
0.0
  0
LINE
  8
LC-002-005-----0
  6
CONTINUOUS
  5
E8
 10
39.353092
 20
147.323098
 30
0.0
 11
36.353092
 21
150.323098
 31
0.0
  0
LINE
  8
LC-002-005-----0
  6
CONTINUOUS
  5
E9
 10
39.353092
 20
144.494671
 30
0.0
 11
36.353092
 21
147.494671
 31
0.0
  0
LINE
  8
LC-002-005-----0
  6
CONTINUOUS
  5
EA
 10
39.353092
 20
141.666244
 30
0.0
 11
36.353092
 21
144.666244
 31
0.0
  0
LINE
  8
LC-002-005-----0
  6
CONTINUOUS
  5
EB
 10
39.353092
 20
138.837816
 30
0.0
 11
36.353092
 21
141.837816
 31
0.0
  0
LINE
  8
LC-002-005-----0
  6
CONTINUOUS
  5
EC
 10
39.353092
 20
136.009389
 30
0.0
 11
36.353092
 21
139.009389
 31
0.0
  0
LINE
  8
LC-002-005-----0
  6
CONTINUOUS
  5
ED
 10
39.353092
 20
133.180962
 30
0.0
 11
36.353092
 21
136.180962
 31
0.0
  0
LINE
  8
LC-002-005-----0
  6
CONTINUOUS
  5
EE
 10
39.353092
 20
130.352535
 30
0.0
 11
36.353092
 21
133.352535
 31
0.0
  0
LINE
  8
LC-002-005-----0
  6
CONTINUOUS
  5
EF
 10
39.353092
 20
127.524108
 30
0.0
 11
36.353092
 21
130.524108
 31
0.0
  0
LINE
  8
LC-002-005-----0
  6
CONTINUOUS
  5
F0
 10
39.353092
 20
124.695681
 30
0.0
 11
36.353092
 21
127.695681
 31
0.0
  0
LINE
  8
LC-002-005-----0
  6
CONTINUOUS
  5
F1
 10
39.353092
 20
121.867254
 30
0.0
 11
36.353092
 21
124.867254
 31
0.0
  0
LINE
  8
LC-002-005-----0
  6
CONTINUOUS
  5
F2
 10
39.353092
 20
119.038827
 30
0.0
 11
36.353092
 21
122.038827
 31
0.0
  0
LINE
  8
LC-002-005-----0
  6
CONTINUOUS
  5
F3
 10
39.353092
 20
116.210399
 30
0.0
 11
36.353092
 21
119.210399
 31
0.0
  0
LINE
  8
LC-002-005-----0
  6
CONTINUOUS
  5
F4
 10
39.353092
 20
113.381972
 30
0.0
 11
36.353092
 21
116.381972
 31
0.0
  0
LINE
  8
LC-002-005-----0
  6
CONTINUOUS
  5
F5
 10
39.353092
 20
110.553545
 30
0.0
 11
36.353092
 21
113.553545
 31
0.0
  0
LINE
  8
LC-002-005-----0
  6
CONTINUOUS
  5
F6
 10
38.335225
 20
108.742986
 30
0.0
 11
36.353092
 21
110.725118
 31
0.0
  0
ENDBLK
  8
0
  5
F7
  0
BLOCK
  8
0
  5
F9
  2
*X12
 70
    65
 10
31.353485
 20
105.743011
 30
0.0
  3
*X12
  0
LINE
  8
LC-002-005-----0
  6
CONTINUOUS
  5
FA
 10
37.86076
 20
105.743011
 30
0.0
 11
39.35353
 21
107.235781
 31
0.0
  0
LINE
  8
LC-002-005-----0
  6
CONTINUOUS
  5
FB
 10
35.032333
 20
105.743011
 30
0.0
 11
38.032308
 21
108.742986
 31
0.0
  0
LINE
  8
LC-002-005-----0
  6
CONTINUOUS
  5
FC
 10
32.203906
 20
105.743011
 30
0.0
 11
36.353559
 21
109.892664
 31
0.0
  0
LINE
  8
LC-002-005-----0
  6
CONTINUOUS
  5
FD
 10
31.353485
 20
107.721018
 30
0.0
 11
36.353568
 21
112.7211
 31
0.0
  0
LINE
  8
LC-002-005-----0
  6
CONTINUOUS
  5
FE
 10
31.353485
 20
110.549445
 30
0.0
 11
36.353576
 21
115.549536
 31
0.0
  0
LINE
  8
LC-002-005-----0
  6
CONTINUOUS
  5
FF
 10
31.353485
 20
113.377872
 30
0.0
 11
33.71854
 21
115.742927
 31
0.0
  0
LINE
  8
LC-002-005-----0
  6
CONTINUOUS
  5
100
 10
34.353579
 20
116.377966
 30
0.0
 11
36.353585
 21
118.377972
 31
0.0
  0
LINE
  8
LC-002-005-----0
  6
CONTINUOUS
  5
101
 10
34.353579
 20
119.206393
 30
0.0
 11
36.353594
 21
121.206407
 31
0.0
  0
LINE
  8
LC-002-005-----0
  6
CONTINUOUS
  5
102
 10
34.353579
 20
122.03482
 30
0.0
 11
36.20759
 21
123.888831
 31
0.0
  0
LINE
  8
LC-002-005-----0
  6
CONTINUOUS
  5
103
 10
34.353579
 20
124.863247
 30
0.0
 11
34.793377
 21
125.303045
 31
0.0
  0
ENDBLK
  8
0
  5
104
  0
BLOCK
  8
0
  5
106
  2
*X13
 70
    65
 10
143.352655
 20
105.743011
 30
0.0
  3
*X13
  0
LINE
  8
LC-002-005-----0
  6
CONTINUOUS
  5
107
 10
150.997845
 20
105.743011
 30
0.0
 11
151.352699
 21
106.097865
 31
0.0
  0
LINE
  8
LC-002-005-----0
  6
CONTINUOUS
  5
108
 10
148.169418
 20
105.743011
 30
0.0
 11
151.352699
 21
108.926292
 31
0.0
  0
LINE
  8
LC-002-005-----0
  6
CONTINUOUS
  5
109
 10
145.340991
 20
105.743011
 30
0.0
 11
151.352699
 21
111.75472
 31
0.0
  0
LINE
  8
LC-002-005-----0
  6
CONTINUOUS
  5
10A
 10
143.352655
 20
106.583102
 30
0.0
 11
145.512538
 21
108.742986
 31
0.0
  0
LINE
  8
LC-002-005-----0
  6
CONTINUOUS
  5
10B
 10
146.352627
 20
109.583074
 30
0.0
 11
151.352699
 21
114.583147
 31
0.0
  0
LINE
  8
LC-002-005-----0
  6
CONTINUOUS
  5
10C
 10
146.352618
 20
112.411493
 30
0.0
 11
149.684052
 21
115.742927
 31
0.0
  0
LINE
  8
LC-002-005-----0
  6
CONTINUOUS
  5
10D
 10
146.352609
 20
115.239911
 30
0.0
 11
148.352606
 21
117.239907
 31
0.0
  0
LINE
  8
LC-002-005-----0
  6
CONTINUOUS
  5
10E
 10
146.352601
 20
118.06833
 30
0.0
 11
148.352606
 21
120.068334
 31
0.0
  0
LINE
  8
LC-002-005-----0
  6
CONTINUOUS
  5
10F
 10
146.352592
 20
120.896748
 30
0.0
 11
148.352606
 21
122.896761
 31
0.0
  0
LINE
  8
LC-002-005-----0
  6
CONTINUOUS
  5
110
 10
146.352583
 20
123.725166
 30
0.0
 11
148.352606
 21
125.725189
 31
0.0
  0
ENDBLK
  8
0
  5
111
  0
BLOCK
  8
0
  5
113
  2
BLK6
 70
    64
 10
0.0
 20
0.0
 30
0.0
  3
BLK6
  0
ENDBLK
  8
0
  5
114
  0
BLOCK
  8
0
  5
116
  2
*X15
 70
    65
 10
39.353092
 20
108.742986
 30
0.0
  3
*X15
  0
LINE
  8
LC-002-005-----0
  6
CONTINUOUS
  5
117
 10
86.115569
 20
108.742986
 30
0.0
 11
91.353092
 21
113.980509
 31
0.0
  0
LINE
  8
LC-002-005-----0
  6
CONTINUOUS
  5
118
 10
80.458714
 20
108.742986
 30
0.0
 11
91.353092
 21
119.637364
 31
0.0
  0
LINE
  8
LC-002-005-----0
  6
CONTINUOUS
  5
119
 10
74.80186
 20
108.742986
 30
0.0
 11
88.80186
 21
122.742986
 31
0.0
  0
LINE
  8
LC-002-005-----0
  6
CONTINUOUS
  5
11A
 10
69.145006
 20
108.742986
 30
0.0
 11
83.145006
 21
122.742986
 31
0.0
  0
LINE
  8
LC-002-005-----0
  6
CONTINUOUS
  5
11B
 10
63.488152
 20
108.742986
 30
0.0
 11
77.488152
 21
122.742986
 31
0.0
  0
LINE
  8
LC-002-005-----0
  6
CONTINUOUS
  5
11C
 10
57.831297
 20
108.742986
 30
0.0
 11
71.831297
 21
122.742986
 31
0.0
  0
LINE
  8
LC-002-005-----0
  6
CONTINUOUS
  5
11D
 10
52.174443
 20
108.742986
 30
0.0
 11
66.174443
 21
122.742986
 31
0.0
  0
LINE
  8
LC-002-005-----0
  6
CONTINUOUS
  5
11E
 10
46.517589
 20
108.742986
 30
0.0
 11
60.517589
 21
122.742986
 31
0.0
  0
LINE
  8
LC-002-005-----0
  6
CONTINUOUS
  5
11F
 10
40.860735
 20
108.742986
 30
0.0
 11
54.860735
 21
122.742986
 31
0.0
  0
LINE
  8
LC-002-005-----0
  6
CONTINUOUS
  5
120
 10
39.353092
 20
112.892198
 30
0.0
 11
49.20388
 21
122.742986
 31
0.0
  0
LINE
  8
LC-002-005-----0
  6
CONTINUOUS
  5
121
 10
39.353092
 20
118.549052
 30
0.0
 11
43.547026
 21
122.742986
 31
0.0
  0
LINE
  8
LC-002-005-----0
  6
CONTINUOUS
  5
122
 10
91.353092
 20
117.950515
 30
0.0
 11
86.560622
 21
122.742986
 31
0.0
  0
LINE
  8
LC-002-005-----0
  6
CONTINUOUS
  5
123
 10
91.353092
 20
112.293661
 30
0.0
 11
80.903767
 21
122.742986
 31
0.0
  0
LINE
  8
LC-002-005-----0
  6
CONTINUOUS
  5
124
 10
89.246913
 20
108.742986
 30
0.0
 11
75.246913
 21
122.742986
 31
0.0
  0
LINE
  8
LC-002-005-----0
  6
CONTINUOUS
  5
125
 10
83.590059
 20
108.742986
 30
0.0
 11
69.590059
 21
122.742986
 31
0.0
  0
LINE
  8
LC-002-005-----0
  6
CONTINUOUS
  5
126
 10
77.933205
 20
108.742986
 30
0.0
 11
63.933205
 21
122.742986
 31
0.0
  0
LINE
  8
LC-002-005-----0
  6
CONTINUOUS
  5
127
 10
72.27635
 20
108.742986
 30
0.0
 11
58.27635
 21
122.742986
 31
0.0
  0
LINE
  8
LC-002-005-----0
  6
CONTINUOUS
  5
128
 10
66.619496
 20
108.742986
 30
0.0
 11
52.619496
 21
122.742986
 31
0.0
  0
LINE
  8
LC-002-005-----0
  6
CONTINUOUS
  5
129
 10
60.962642
 20
108.742986
 30
0.0
 11
46.962642
 21
122.742986
 31
0.0
  0
LINE
  8
LC-002-005-----0
  6
CONTINUOUS
  5
12A
 10
55.305788
 20
108.742986
 30
0.0
 11
41.305788
 21
122.742986
 31
0.0
  0
LINE
  8
LC-002-005-----0
  6
CONTINUOUS
  5
12B
 10
49.648933
 20
108.742986
 30
0.0
 11
39.353092
 21
119.038827
 31
0.0
  0
LINE
  8
LC-002-005-----0
  6
CONTINUOUS
  5
12C
 10
43.992079
 20
108.742986
 30
0.0
 11
39.353092
 21
113.381972
 31
0.0
  0
ENDBLK
  8
0
  5
12D
  0
BLOCK
  8
0
  5
12F
  2
*X16
 70
    65
 10
91.353092
 20
108.742986
 30
0.0
  3
*X16
  0
LINE
  8
LC-002-005-----0
  6
CONTINUOUS
  5
130
 10
142.684111
 20
108.742986
 30
0.0
 11
143.353092
 21
109.411967
 31
0.0
  0
LINE
  8
LC-002-005-----0
  6
CONTINUOUS
  5
131
 10
137.027257
 20
108.742986
 30
0.0
 11
143.353092
 21
115.068821
 31
0.0
  0
LINE
  8
LC-002-005-----0
  6
CONTINUOUS
  5
132
 10
131.370403
 20
108.742986
 30
0.0
 11
143.353092
 21
120.725675
 31
0.0
  0
LINE
  8
LC-002-005-----0
  6
CONTINUOUS
  5
133
 10
125.713548
 20
108.742986
 30
0.0
 11
139.713548
 21
122.742986
 31
0.0
  0
LINE
  8
LC-002-005-----0
  6
CONTINUOUS
  5
134
 10
120.056694
 20
108.742986
 30
0.0
 11
134.056694
 21
122.742986
 31
0.0
  0
LINE
  8
LC-002-005-----0
  6
CONTINUOUS
  5
135
 10
114.39984
 20
108.742986
 30
0.0
 11
128.39984
 21
122.742986
 31
0.0
  0
LINE
  8
LC-002-005-----0
  6
CONTINUOUS
  5
136
 10
108.742986
 20
108.742986
 30
0.0
 11
122.742986
 21
122.742986
 31
0.0
  0
LINE
  8
LC-002-005-----0
  6
CONTINUOUS
  5
137
 10
103.086131
 20
108.742986
 30
0.0
 11
117.086131
 21
122.742986
 31
0.0
  0
LINE
  8
LC-002-005-----0
  6
CONTINUOUS
  5
138
 10
97.429277
 20
108.742986
 30
0.0
 11
111.429277
 21
122.742986
 31
0.0
  0
LINE
  8
LC-002-005-----0
  6
CONTINUOUS
  5
139
 10
91.772423
 20
108.742986
 30
0.0
 11
105.772423
 21
122.742986
 31
0.0
  0
LINE
  8
LC-002-005-----0
  6
CONTINUOUS
  5
13A
 10
91.353092
 20
113.980509
 30
0.0
 11
100.115569
 21
122.742986
 31
0.0
  0
LINE
  8
LC-002-005-----0
  6
CONTINUOUS
  5
13B
 10
91.353092
 20
119.637364
 30
0.0
 11
94.458714
 21
122.742986
 31
0.0
  0
LINE
  8
LC-002-005-----0
  6
CONTINUOUS
  5
13C
 10
143.353092
 20
122.519057
 30
0.0
 11
143.129164
 21
122.742986
 31
0.0
  0
LINE
  8
LC-002-005-----0
  6
CONTINUOUS
  5
13D
 10
143.353092
 20
116.862203
 30
0.0
 11
137.47231
 21
122.742986
 31
0.0
  0
LINE
  8
LC-002-005-----0
  6
CONTINUOUS
  5
13E
 10
143.353092
 20
111.205349
 30
0.0
 11
131.815456
 21
122.742986
 31
0.0
  0
LINE
  8
LC-002-005-----0
  6
CONTINUOUS
  5
13F
 10
140.158601
 20
108.742986
 30
0.0
 11
126.158601
 21
122.742986
 31
0.0
  0
LINE
  8
LC-002-005-----0
  6
CONTINUOUS
  5
140
 10
134.501747
 20
108.742986
 30
0.0
 11
120.501747
 21
122.742986
 31
0.0
  0
LINE
  8
LC-002-005-----0
  6
CONTINUOUS
  5
141
 10
128.844893
 20
108.742986
 30
0.0
 11
114.844893
 21
122.742986
 31
0.0
  0
LINE
  8
LC-002-005-----0
  6
CONTINUOUS
  5
142
 10
123.188039
 20
108.742986
 30
0.0
 11
109.188039
 21
122.742986
 31
0.0
  0
LINE
  8
LC-002-005-----0
  6
CONTINUOUS
  5
143
 10
117.531184
 20
108.742986
 30
0.0
 11
103.531184
 21
122.742986
 31
0.0
  0
LINE
  8
LC-002-005-----0
  6
CONTINUOUS
  5
144
 10
111.87433
 20
108.742986
 30
0.0
 11
97.87433
 21
122.742986
 31
0.0
  0
LINE
  8
LC-002-005-----0
  6
CONTINUOUS
  5
145
 10
106.217476
 20
108.742986
 30
0.0
 11
92.217476
 21
122.742986
 31
0.0
  0
LINE
  8
LC-002-005-----0
  6
CONTINUOUS
  5
146
 10
100.560622
 20
108.742986
 30
0.0
 11
91.353092
 21
117.950515
 31
0.0
  0
LINE
  8
LC-002-005-----0
  6
CONTINUOUS
  5
147
 10
94.903767
 20
108.742986
 30
0.0
 11
91.353092
 21
112.293661
 31
0.0
  0
ENDBLK
  8
0
  5
148
  0
BLOCK
  8
0
  5
14A
  2
*D17
 70
    65
 10
0.0
 20
0.0
 30
0.0
  3
*D17
  0
LINE
  8
LC-008-003-MTH-0
  6
CONTINUOUS
  5
14B
 10
143.352655
 20
108.742986
 30
0.0
 11
212.803401
 21
108.740814
 31
0.0
  0
LINE
  8
LC-008-003-MTH-0
  6
CONTINUOUS
  5
14C
 10
143.353092
 20
122.742986
 30
0.0
 11
212.803839
 21
122.740814
 31
0.0
  0
LINE
  8
LC-007-003-----0
  6
CONTINUOUS
  5
14D
 10
199.657266
 20
80.980769
 30
0.0
 11
196.003401
 21
108.741339
 31
0.0
  0
LINE
  8
LC-007-003-----0
  6
CONTINUOUS
  5
14E
 10
196.003401
 20
108.741339
 30
0.0
 11
192.347799
 21
80.980997
 31
0.0
  0
LINE
  8
LC-007-003-----0
  6
CONTINUOUS
  5
14F
 10
192.347799
 20
80.980997
 30
0.0
 11
199.657266
 21
80.980769
 31
0.0
  0
LINE
  8
LC-007-003-----0
  6
CONTINUOUS
  5
150
 10
198.707033
 20
80.918517
 30
0.0
 11
196.003173
 21
101.461339
 31
0.0
  0
LINE
  8
LC-007-003-----0
  6
CONTINUOUS
  5
151
 10
196.003173
 20
101.461339
 30
0.0
 11
193.298028
 21
80.918686
 31
0.0
  0
LINE
  8
LC-007-003-----0
  6
CONTINUOUS
  5
152
 10
197.756801
 20
80.856265
 30
0.0
 11
196.002946
 21
94.181339
 31
0.0
  0
LINE
  8
LC-007-003-----0
  6
CONTINUOUS
  5
153
 10
196.002946
 20
94.181339
 30
0.0
 11
194.248257
 21
80.856375
 31
0.0
  0
LINE
  8
LC-007-003-----0
  6
CONTINUOUS
  5
154
 10
196.806568
 20
80.794014
 30
0.0
 11
196.002718
 21
86.901339
 31
0.0
  0
LINE
  8
LC-007-003-----0
  6
CONTINUOUS
  5
155
 10
196.002718
 20
86.901339
 30
0.0
 11
195.198486
 21
80.794064
 31
0.0
  0
LINE
  8
LC-007-003-----0
  6
CONTINUOUS
  5
156
 10
192.349974
 20
150.501909
 30
0.0
 11
196.003839
 21
122.741339
 31
0.0
  0
LINE
  8
LC-007-003-----0
  6
CONTINUOUS
  5
157
 10
196.003839
 20
122.741339
 30
0.0
 11
199.65944
 21
150.501681
 31
0.0
  0
LINE
  8
LC-007-003-----0
  6
CONTINUOUS
  5
158
 10
199.65944
 20
150.501681
 30
0.0
 11
192.349974
 21
150.501909
 31
0.0
  0
LINE
  8
LC-007-003-----0
  6
CONTINUOUS
  5
159
 10
193.300206
 20
150.564161
 30
0.0
 11
196.004066
 21
130.021339
 31
0.0
  0
LINE
  8
LC-007-003-----0
  6
CONTINUOUS
  5
15A
 10
196.004066
 20
130.021339
 30
0.0
 11
198.709212
 21
150.563992
 31
0.0
  0
LINE
  8
LC-007-003-----0
  6
CONTINUOUS
  5
15B
 10
194.250439
 20
150.626413
 30
0.0
 11
196.004294
 21
137.301339
 31
0.0
  0
LINE
  8
LC-007-003-----0
  6
CONTINUOUS
  5
15C
 10
196.004294
 20
137.301339
 30
0.0
 11
197.758983
 21
150.626303
 31
0.0
  0
LINE
  8
LC-007-003-----0
  6
CONTINUOUS
  5
15D
 10
195.200671
 20
150.688664
 30
0.0
 11
196.004522
 21
144.581339
 31
0.0
  0
LINE
  8
LC-007-003-----0
  6
CONTINUOUS
  5
15E
 10
196.004522
 20
144.581339
 30
0.0
 11
196.808754
 21
150.688614
 31
0.0
  0
LINE
  8
LC-009-003-MTG-0
  6
CONTINUOUS
  5
15F
 10
196.002175
 20
69.541339
 30
0.0
 11
196.006446
 21
206.105739
 31
0.0
  0
TEXT
  8
LC-007-003-----0
  6
CONTINUOUS
 62
     8
  5
160
 10
188.177161
 20
165.169236
 30
0.0
 40
28.0
  1
14
 50
90.0
 51
15.0
  7
LC-TXTSTYLE-150-400-0-0-D0
  0
ENDBLK
  8
0
  5
161
  0
BLOCK
  8
0
  5
163
  2
*D18
 70
    65
 10
0.0
 20
0.0
 30
0.0
  3
*D18
  0
LINE
  8
LC-008-003-MTH-0
  6
CONTINUOUS
  5
164
 10
143.353092
 20
122.742986
 30
0.0
 11
252.0
 21
122.742986
 31
0.0
  0
LINE
  8
LC-008-003-MTH-0
  6
CONTINUOUS
  5
165
 10
139.653092
 20
229.742986
 30
0.0
 11
252.0
 21
229.742986
 31
0.0
  0
LINE
  8
LC-009-003-MTG-0
  6
CONTINUOUS
  5
166
 10
235.2
 20
122.742986
 30
0.0
 11
235.2
 21
229.742986
 31
0.0
  0
LINE
  8
LC-007-003-----0
  6
CONTINUOUS
  5
167
 10
231.545267
 20
150.503442
 30
0.0
 11
235.2
 21
122.742986
 31
0.0
  0
LINE
  8
LC-007-003-----0
  6
CONTINUOUS
  5
168
 10
235.2
 20
122.742986
 30
0.0
 11
238.854733
 21
150.503442
 31
0.0
  0
LINE
  8
LC-007-003-----0
  6
CONTINUOUS
  5
169
 10
238.854733
 20
150.503442
 30
0.0
 11
231.545267
 21
150.503442
 31
0.0
  0
LINE
  8
LC-007-003-----0
  6
CONTINUOUS
  5
16A
 10
232.495497
 20
150.565723
 30
0.0
 11
235.2
 21
130.022986
 31
0.0
  0
LINE
  8
LC-007-003-----0
  6
CONTINUOUS
  5
16B
 10
235.2
 20
130.022986
 30
0.0
 11
237.904503
 21
150.565723
 31
0.0
  0
LINE
  8
LC-007-003-----0
  6
CONTINUOUS
  5
16C
 10
233.445728
 20
150.628005
 30
0.0
 11
235.2
 21
137.302986
 31
0.0
  0
LINE
  8
LC-007-003-----0
  6
CONTINUOUS
  5
16D
 10
235.2
 20
137.302986
 30
0.0
 11
236.954272
 21
150.628005
 31
0.0
  0
LINE
  8
LC-007-003-----0
  6
CONTINUOUS
  5
16E
 10
234.395959
 20
150.690286
 30
0.0
 11
235.2
 21
144.582986
 31
0.0
  0
LINE
  8
LC-007-003-----0
  6
CONTINUOUS
  5
16F
 10
235.2
 20
144.582986
 30
0.0
 11
236.004041
 21
150.690286
 31
0.0
  0
LINE
  8
LC-007-003-----0
  6
CONTINUOUS
  5
170
 10
238.854733
 20
201.98253
 30
0.0
 11
235.2
 21
229.742986
 31
0.0
  0
LINE
  8
LC-007-003-----0
  6
CONTINUOUS
  5
171
 10
235.2
 20
229.742986
 30
0.0
 11
231.545267
 21
201.98253
 31
0.0
  0
LINE
  8
LC-007-003-----0
  6
CONTINUOUS
  5
172
 10
231.545267
 20
201.98253
 30
0.0
 11
238.854733
 21
201.98253
 31
0.0
  0
LINE
  8
LC-007-003-----0
  6
CONTINUOUS
  5
173
 10
237.904503
 20
201.920248
 30
0.0
 11
235.2
 21
222.462986
 31
0.0
  0
LINE
  8
LC-007-003-----0
  6
CONTINUOUS
  5
174
 10
235.2
 20
222.462986
 30
0.0
 11
232.495497
 21
201.920248
 31
0.0
  0
LINE
  8
LC-007-003-----0
  6
CONTINUOUS
  5
175
 10
236.954272
 20
201.857967
 30
0.0
 11
235.2
 21
215.182986
 31
0.0
  0
LINE
  8
LC-007-003-----0
  6
CONTINUOUS
  5
176
 10
235.2
 20
215.182986
 30
0.0
 11
233.445728
 21
201.857967
 31
0.0
  0
LINE
  8
LC-007-003-----0
  6
CONTINUOUS
  5
177
 10
236.004041
 20
201.795685
 30
0.0
 11
235.2
 21
207.902986
 31
0.0
  0
LINE
  8
LC-007-003-----0
  6
CONTINUOUS
  5
178
 10
235.2
 20
207.902986
 30
0.0
 11
234.395959
 21
201.795685
 31
0.0
  0
TEXT
  8
LC-007-003-----0
  6
CONTINUOUS
 62
     8
  5
179
 10
227.372446
 20
130.047839
 30
0.0
 40
28.0
  1
15-107
 50
90.0
 51
15.0
  7
LC-TXTSTYLE-150-400-0-0-D0
 72
     1
 11
227.372446
 21
180.591146
 31
0.0
  0
ENDBLK
  8
0
  5
17A
  0
ENDSEC
  0
SECTION
  2
ENTITIES
  0
VIEWPORT
  8
LC-000
  5
252
 67
     1
 68
     1
 10
420.0
 20
297.0
 30
0.0
 40
840.0
 41
594.0
 69
     1
1001
ACAD
1000
MVIEW
1002
{
1070
    16
1010
0.0
1020
0.0
1030
0.0
1010
0.0
1020
0.0
1030
1.0
1040
0.0
1040
594.0
1040
420.0
1040
297.0
1040
50.0
1040
0.0
1040
0.0
1070
     0
1070
   100
1070
     1
1070
     1
1070
     0
1070
     0
1070
     0
1070
     0
1040
0.0
1040
0.0
1040
0.0
1040
1.0
1040
1.0
1040
0.0
1040
0.0
1070
     0
1002
{
1002
}
1002
}
  0
VIEWPORT
  8
0
  5
253
 67
     1
 68
     1
 10
0.0
 20
0.0
 30
0.0
 40
0.0
 41
0.0
 69
     1
1001
ACAD
1000
MVIEW
1002
{
1070
    16
1010
0.0
1020
0.0
1030
0.0
1010
0.0
1020
0.0
1030
1.0
1040
0.0
1040
594.0
1040
0.0
1040
0.0
1040
50.0
1040
0.0
1040
0.0
1070
     0
1070
   100
1070
     0
1070
     1
1070
     0
1070
     0
1070
     0
1070
     0
1040
0.0
1040
0.0
1040
0.0
1040
0.5
1040
0.5
1040
0.5
1040
0.5
1070
     0
1002
{
1002
}
1002
}
  0
INSERT
  8
0
  5
17B
  2
*X0
 10
134.353092
 20
108.742986
 30
0.0
  0
INSERT
  8
0
  5
17C
  2
*X1
 10
37.653092
 20
208.974306
 30
0.0
  0
INSERT
  8
0
  5
17E
  2
BLK1
 10
0.0
 20
0.0
 30
0.0
  0
INSERT
  8
0
  5
17F
  2
BLK2
 10
0.0
 20
0.0
 30
0.0
  0
INSERT
  8
0
  5
180
  2
*X4
 10
133.502814
 20
208.974306
 30
0.0
  0
INSERT
  8
0
  5
181
  2
BLK3
 10
0.0
 20
0.0
 30
0.0
  0
DIMENSION
  8
0
  5
182
  2
*D6
 10
91.353092
 20
252.0
 30
0.0
 11
91.353092
 21
252.0
 31
0.0
 13
41.353092
 23
228.042986
 33
0.0
 14
141.353092
 24
228.042986
 34
0.0
  3
LC-DIM-L-0140-02-02
  0
DIMENSION
  8
0
  5
183
  2
*D7
 10
0.0
 20
183.546
 30
0.0
 11
0.0
 21
183.546
 31
0.0
  1
7
 13
43.353092
 23
229.742986
 33
0.0
 14
40.853092
 24
222.542986
 34
0.0
 50
90.0
  3
LC-DIM-L-0140-02-02
  0
DIMENSION
  8
0
  5
184
  2
*D8
 10
91.353092
 20
39.2
 30
0.0
 11
91.353092
 21
39.2
 31
0.0
  1
%%c110
 13
36.353092
 23
109.742986
 33
0.0
 14
146.353092
 24
109.742986
 34
0.0
  3
LC-DIM-L-0140-02-02
  0
INSERT
  8
0
  5
186
  2
BLK4
 10
0.0
 20
0.0
 30
0.0
  0
INSERT
  8
0
  5
187
  2
BLK5
 10
0.0
 20
0.0
 30
0.0
  0
INSERT
  8
0
  5
188
  2
*X11
 10
36.353092
 20
108.742986
 30
0.0
  0
INSERT
  8
0
  5
189
  2
*X12
 10
31.353485
 20
105.743011
 30
0.0
  0
INSERT
  8
0
  5
18A
  2
*X13
 10
143.352655
 20
105.743011
 30
0.0
  0
INSERT
  8
0
  5
18B
  2
BLK6
 10
0.0
 20
0.0
 30
0.0
  0
INSERT
  8
0
  5
18C
  2
*X15
 10
39.353092
 20
108.742986
 30
0.0
  0
INSERT
  8
0
  5
18D
  2
*X16
 10
91.353092
 20
108.742986
 30
0.0
  0
DIMENSION
  8
0
  5
18E
  2
*D17
 10
196.00362
 20
115.741339
 30
0.0
 11
196.00362
 21
115.741339
 31
0.0
 70
     1
 13
143.352655
 23
108.742986
 33
0.0
 14
143.353092
 24
122.742986
 34
0.0
  3
LC-DIM-L-0140-02-02
  0
DIMENSION
  8
0
  5
18F
  2
*D18
 10
235.2
 20
176.242986
 30
0.0
 11
235.2
 21
176.242986
 31
0.0
  1
15-107
 13
143.353092
 23
122.742986
 33
0.0
 14
139.653092
 24
229.742986
 34
0.0
 50
90.0
  3
LC-DIM-L-0140-02-02
  0
LINE
  8
LC-001-002-----0
  6
CONTINUOUS
  5
191
 10
137.353092
 20
213.586131
 30
0.0
 11
137.353092
 21
207.242986
 31
0.0
  0
LINE
  8
LC-001-002-----0
  6
CONTINUOUS
  5
192
 10
134.353092
 20
216.056116
 30
0.0
 11
135.149048
 21
218.242986
 31
0.0
  0
LINE
  8
LC-001-002-----0
  6
CONTINUOUS
  5
193
 10
135.149048
 20
218.242986
 30
0.0
 11
139.353092
 21
218.242986
 31
0.0
  0
LINE
  8
LC-003-001-----0
  6
CONTINUOUS
  5
195
 10
46.253092
 20
224.042986
 30
0.0
 11
91.353092
 21
224.042986
 31
0.0
  0
LINE
  8
LC-003-001-----0
  6
CONTINUOUS
  5
196
 10
45.253092
 20
229.742986
 30
0.0
 11
91.353092
 21
229.742986
 31
0.0
  0
LINE
  8
LC-003-001-----0
  6
CONTINUOUS
  5
197
 10
47.653092
 20
218.942986
 30
0.0
 11
91.353092
 21
218.942986
 31
0.0
  0
ARC
  8
LC-001-002-----0
  6
CONTINUOUS
  5
198
 10
301.353092
 20
174.984815
 30
0.0
 40
55.0
 50
66.661707
 51
113.338293
  0
LINE
  8
LC-003-001-----0
  6
CONTINUOUS
  5
199
 10
46.253092
 20
223.342986
 30
0.0
 11
91.353092
 21
223.342986
 31
0.0
  0
LINE
  8
LC-001-002-----0
  6
CONTINUOUS
  5
19A
 10
344.853092
 20
224.484815
 30
0.0
 11
257.853092
 21
224.484815
 31
0.0
  0
LINE
  8
LC-001-002-----0
  6
CONTINUOUS
  5
19B
 10
251.853092
 20
218.484815
 30
0.0
 11
251.853092
 21
131.484815
 31
0.0
  0
LINE
  8
LC-001-002-----0
  6
CONTINUOUS
  5
19C
 10
257.853092
 20
125.484815
 30
0.0
 11
344.853092
 21
125.484815
 31
0.0
  0
LINE
  8
LC-001-002-----0
  6
CONTINUOUS
  5
19D
 10
350.853092
 20
131.484815
 30
0.0
 11
350.853092
 21
218.484815
 31
0.0
  0
LINE
  8
LC-003-001-----0
  6
CONTINUOUS
  5
19E
 10
48.153092
 20
217.742986
 30
0.0
 11
48.153092
 21
213.242986
 31
0.0
  0
LINE
  8
LC-003-001-----0
  6
CONTINUOUS
  5
19F
 10
48.853092
 20
217.742986
 30
0.0
 11
48.853092
 21
212.542986
 31
0.0
  0
CIRCLE
  8
LC-001-002-----0
  6
CONTINUOUS
  5
1A0
 10
301.353092
 20
174.984815
 30
0.0
 40
42.0
  0
CIRCLE
  8
LC-001-002-----0
  6
CONTINUOUS
  5
1A1
 10
301.353092
 20
174.984815
 30
0.0
 40
46.5
  0
LINE
  8
LC-003-001-----0
  6
CONTINUOUS
  5
1A2
 10
45.253092
 20
228.042986
 30
0.0
 11
45.253092
 21
225.042986
 31
0.0
  0
LINE
  8
LC-003-001-----0
  6
CONTINUOUS
  5
1A3
 10
44.553092
 20
228.042986
 30
0.0
 11
44.553092
 21
221.542986
 31
0.0
  0
CIRCLE
  8
LC-001-002-----0
  6
CONTINUOUS
  5
1A4
 10
339.853092
 20
213.484815
 30
0.0
 40
2.0
  0
CIRCLE
  8
LC-001-002-----0
  6
CONTINUOUS
  5
1A5
 10
262.853092
 20
136.484815
 30
0.0
 40
2.0
  0
ARC
  8
LC-003-001-----0
  6
CONTINUOUS
  5
1A6
 10
47.653092
 20
217.742986
 30
0.0
 40
0.5
 50
360.0
 51
90.0
  0
ARC
  8
LC-004-002-RND-0
  6
CONTINUOUS
  5
1A8
 10
257.853092
 20
218.484815
 30
0.0
 40
6.0
 50
90.0
 51
180.0
  0
ARC
  8
LC-004-002-RND-0
  6
CONTINUOUS
  5
1A9
 10
344.853092
 20
218.484815
 30
0.0
 40
6.0
 50
0.0
 51
90.0
  0
ARC
  8
LC-004-002-RND-0
  6
CONTINUOUS
  5
1AA
 10
344.853092
 20
131.484815
 30
0.0
 40
6.0
 50
270.0
 51
0.0
  0
ARC
  8
LC-004-002-RND-0
  6
CONTINUOUS
  5
1AB
 10
257.853092
 20
131.484815
 30
0.0
 40
6.0
 50
180.0
 51
270.0
  0
LINE
  8
LC-003-001-----0
  6
CONTINUOUS
  5
1AC
 10
47.653092
 20
218.242986
 30
0.0
 11
46.253092
 21
218.242986
 31
0.0
  0
LINE
  8
LC-003-001-----0
  6
CONTINUOUS
  5
1AD
 10
44.553092
 20
221.542986
 30
0.0
 11
44.553092
 21
219.942986
 31
0.0
  0
ARC
  8
LC-003-001-----0
  6
CONTINUOUS
  5
1AE
 10
46.253092
 20
219.942986
 30
0.0
 40
1.0
 50
180.0
 51
270.0
  0
LINE
  8
LC-001-002-----0
  6
CONTINUOUS
  5
1AF
 10
250.853092
 20
131.484815
 30
0.0
 11
250.853092
 21
218.484815
 31
0.0
  0
ARC
  8
LC-001-002-----0
  6
CONTINUOUS
  5
1B0
 10
257.853092
 20
218.484815
 30
0.0
 40
7.0
 50
90.0
 51
180.0
  0
LINE
  8
LC-001-002-----0
  6
CONTINUOUS
  5
1B1
 10
257.853092
 20
225.484815
 30
0.0
 11
344.853092
 21
225.484815
 31
0.0
  0
ARC
  8
LC-001-002-----0
  6
CONTINUOUS
  5
1B2
 10
344.853092
 20
218.484815
 30
0.0
 40
7.0
 50
0.0
 51
90.0
  0
LINE
  8
LC-001-002-----0
  6
CONTINUOUS
  5
1B3
 10
351.836678
 20
218.66607
 30
0.0
 11
351.836678
 21
131.66607
 31
0.0
  0
ARC
  8
LC-001-002-----0
  6
CONTINUOUS
  5
1B4
 10
344.853092
 20
131.484815
 30
0.0
 40
7.0
 50
270.0
 51
0.0
  0
LINE
  8
LC-001-002-----0
  6
CONTINUOUS
  5
1B5
 10
344.853092
 20
124.484815
 30
0.0
 11
257.853092
 21
124.484815
 31
0.0
  0
ARC
  8
LC-001-002-----0
  6
CONTINUOUS
  5
1B6
 10
257.853092
 20
131.484815
 30
0.0
 40
7.0
 50
180.0
 51
270.0
  0
LINE
  8
LC-003-001-----0
  6
CONTINUOUS
  5
1B7
 10
46.253092
 20
218.242986
 30
0.0
 11
47.653092
 21
218.242986
 31
0.0
  0
LINE
  8
LC-003-001-----0
  6
CONTINUOUS
  5
1B8
 10
46.253092
 20
218.942986
 30
0.0
 11
47.653092
 21
218.942986
 31
0.0
  0
LINE
  8
LC-003-001-----0
  6
CONTINUOUS
  5
1B9
 10
45.253092
 20
225.042986
 30
0.0
 11
45.253092
 21
219.942986
 31
0.0
  0
LINE
  8
LC-005-006-MLN-0
  6
DASHDOT
  5
1BD
 10
91.353092
 20
228.242986
 30
0.0
 11
91.353092
 21
109.600826
 31
0.0
  0
LINE
  8
LC-001-002-----0
  6
CONTINUOUS
  5
1BE
 10
135.353092
 20
207.242986
 30
0.0
 11
91.353092
 21
207.242986
 31
0.0
  0
LINE
  8
LC-001-002-----0
  6
CONTINUOUS
  5
1BF
 10
134.353092
 20
214.242986
 30
0.0
 11
134.353092
 21
216.056116
 31
0.0
  0
ARC
  8
LC-003-001-----0
  6
CONTINUOUS
  5
1C0
 10
46.253092
 20
225.042986
 30
0.0
 40
1.7
 50
233.968121
 51
270.0
  0
ARC
  8
LC-003-001-----0
  6
CONTINUOUS
  5
1C1
 10
46.253092
 20
225.042986
 30
0.0
 40
1.0
 50
180.0
 51
270.0
  0
LINE
  8
LC-001-002-----0
  6
CONTINUOUS
  5
1C2
 10
134.353092
 20
214.242986
 30
0.0
 11
135.353092
 21
213.242986
 31
0.0
  0
LINE
  8
LC-001-002-----0
  6
CONTINUOUS
  5
1C3
 10
135.353092
 20
213.242986
 30
0.0
 11
135.353092
 21
207.242986
 31
0.0
  0
ARC
  8
LC-003-001-----0
  6
CONTINUOUS
  5
1C4
 10
47.653092
 20
217.742986
 30
0.0
 40
1.2
 50
360.0
 51
90.0
  0
LINE
  8
LC-001-002-----0
  6
CONTINUOUS
  5
1C5
 10
145.353092
 20
108.742986
 30
0.0
 11
146.353092
 21
109.742986
 31
0.0
  0
LINE
  8
LC-001-002-----0
  6
CONTINUOUS
  5
1C6
 10
137.353092
 20
207.242986
 30
0.0
 11
135.353092
 21
207.242986
 31
0.0
  0
ARC
  8
LC-003-001-----0
  6
CONTINUOUS
  5
1C7
 10
46.253092
 20
219.942986
 30
0.0
 40
1.7
 50
180.0
 51
270.0
  0
LINE
  8
LC-003-001-----0
  6
CONTINUOUS
  5
1C8
 10
43.553092
 20
229.042986
 30
0.0
 11
43.053092
 21
229.042986
 31
0.0
  0
LINE
  8
LC-003-001-----0
  6
CONTINUOUS
  5
1C9
 10
43.553092
 20
229.742986
 30
0.0
 11
43.053092
 21
229.742986
 31
0.0
  0
LINE
  8
LC-001-002-----0
  6
CONTINUOUS
  5
1CA
 10
47.426338
 20
212.16937
 30
0.0
 11
48.589246
 21
208.974306
 31
0.0
  0
LINE
  8
LC-001-002-----0
  6
CONTINUOUS
  5
1CB
 10
143.353092
 20
210.000345
 30
0.0
 11
143.353092
 21
108.742986
 31
0.0
  0
ARC
  8
LC-003-001-----0
  6
CONTINUOUS
  5
1CC
 10
43.053092
 20
228.042986
 30
0.0
 40
1.0
 50
90.0
 51
180.0
  0
ARC
  8
LC-003-001-----0
  6
CONTINUOUS
  5
1CD
 10
43.053092
 20
228.042986
 30
0.0
 40
1.7
 50
90.0
 51
180.0
  0
LINE
  8
LC-003-001-----0
  6
CONTINUOUS
  5
1CE
 10
41.353092
 20
228.042986
 30
0.0
 11
41.353092
 21
224.502577
 31
0.0
  0
LINE
  8
LC-003-001-----0
  6
CONTINUOUS
  5
1CF
 10
42.053092
 20
224.502577
 30
0.0
 11
42.053092
 21
228.042986
 31
0.0
  0
ARC
  8
LC-003-001-----0
  6
CONTINUOUS
  5
1D0
 10
43.553092
 20
228.042986
 30
0.0
 40
1.0
 50
360.0
 51
90.0
  0
ARC
  8
LC-003-001-----0
  6
CONTINUOUS
  5
1D1
 10
43.553092
 20
228.042986
 30
0.0
 40
1.0
 50
360.0
 51
90.0
  0
ARC
  8
LC-003-001-----0
  6
CONTINUOUS
  5
1D2
 10
43.553092
 20
228.042986
 30
0.0
 40
1.7
 50
360.0
 51
90.0
  0
LINE
  8
LC-003-001-----0
  6
CONTINUOUS
  5
1D3
 10
45.253092
 20
229.742986
 30
0.0
 11
43.553092
 21
229.742986
 31
0.0
  0
LINE
  8
LC-001-002-----0
  6
CONTINUOUS
  5
1D4
 10
48.589246
 20
208.974306
 30
0.0
 11
49.203371
 21
209.333675
 31
0.0
  0
ARC
  8
LC-001-002-----0
  6
CONTINUOUS
  5
1D5
 10
48.178092
 20
212.442986
 30
0.0
 40
0.8
 50
91.790785
 51
200.0
  0
ARC
  8
LC-001-002-----0
  6
CONTINUOUS
  5
1D6
 10
39.853092
 20
224.502577
 30
0.0
 40
1.5
 50
311.810315
 51
360.0
  0
ARC
  8
LC-001-002-----0
  6
CONTINUOUS
  5
1D7
 10
39.853092
 20
224.502577
 30
0.0
 40
2.2
 50
297.035692
 51
360.0
  0
LINE
  8
LC-001-002-----0
  6
CONTINUOUS
  5
1D8
 10
48.035278
 20
212.542986
 30
0.0
 11
49.203371
 21
209.333675
 31
0.0
  0
LINE
  8
LC-001-002-----0
  6
CONTINUOUS
  5
1D9
 10
146.353092
 20
109.742986
 30
0.0
 11
146.353092
 21
211.242986
 31
0.0
  0
LINE
  8
LC-001-002-----0
  6
CONTINUOUS
  5
1DA
 10
49.203371
 20
209.333675
 30
0.0
 11
91.353092
 21
209.333675
 31
0.0
  0
LINE
  8
LC-001-002-----0
  6
CONTINUOUS
  5
1DB
 10
91.353092
 20
212.542986
 30
0.0
 11
48.035278
 21
212.542986
 31
0.0
  0
LINE
  8
LC-001-002-----0
  6
CONTINUOUS
  5
1DC
 10
40.853092
 20
223.384543
 30
0.0
 11
40.853092
 21
222.542986
 31
0.0
  0
LINE
  8
LC-001-002-----0
  6
CONTINUOUS
  5
1DD
 10
48.589246
 20
208.974306
 30
0.0
 11
91.353092
 21
208.974306
 31
0.0
  0
LINE
  8
LC-003-001-----0
  6
CONTINUOUS
  5
1DE
 10
136.453092
 20
224.042986
 30
0.0
 11
91.353092
 21
224.042986
 31
0.0
  0
LINE
  8
LC-003-001-----0
  6
CONTINUOUS
  5
1DF
 10
137.453092
 20
229.742986
 30
0.0
 11
91.353092
 21
229.742986
 31
0.0
  0
LINE
  8
LC-003-001-----0
  6
CONTINUOUS
  5
1E0
 10
135.053092
 20
218.942986
 30
0.0
 11
91.353092
 21
218.942986
 31
0.0
  0
LINE
  8
LC-003-001-----0
  6
CONTINUOUS
  5
1E1
 10
136.453092
 20
223.342986
 30
0.0
 11
91.353092
 21
223.342986
 31
0.0
  0
LINE
  8
LC-001-002-----0
  6
CONTINUOUS
  5
1E2
 10
146.353092
 20
211.242986
 30
0.0
 11
139.353092
 21
218.242986
 31
0.0
  0
LINE
  8
LC-003-001-----0
  6
CONTINUOUS
  5
1E3
 10
134.553092
 20
217.742986
 30
0.0
 11
134.553092
 21
213.242986
 31
0.0
  0
LINE
  8
LC-001-002-----0
  6
CONTINUOUS
  5
1E4
 10
139.060199
 20
214.293238
 30
0.0
 11
143.353092
 21
210.000345
 31
0.0
  0
LINE
  8
LC-003-001-----0
  6
CONTINUOUS
  5
1E5
 10
133.853092
 20
217.742986
 30
0.0
 11
133.853092
 21
212.542986
 31
0.0
  0
LINE
  8
LC-003-001-----0
  6
CONTINUOUS
  5
1E6
 10
137.453092
 20
228.042986
 30
0.0
 11
137.453092
 21
225.042986
 31
0.0
  0
LINE
  8
LC-003-001-----0
  6
CONTINUOUS
  5
1E7
 10
138.153092
 20
228.042986
 30
0.0
 11
138.153092
 21
221.542986
 31
0.0
  0
ARC
  8
LC-003-001-----0
  6
CONTINUOUS
  5
1E8
 10
135.053092
 20
217.742986
 30
0.0
 40
0.5
 50
90.0
 51
180.0
  0
LINE
  8
LC-003-001-----0
  6
CONTINUOUS
  5
1E9
 10
135.053092
 20
218.242986
 30
0.0
 11
136.453092
 21
218.242986
 31
0.0
  0
LINE
  8
LC-003-001-----0
  6
CONTINUOUS
  5
1EA
 10
138.153092
 20
221.542986
 30
0.0
 11
138.153092
 21
219.942986
 31
0.0
  0
ARC
  8
LC-003-001-----0
  6
CONTINUOUS
  5
1EB
 10
136.453092
 20
219.942986
 30
0.0
 40
1.0
 50
270.0
 51
0.0
  0
ARC
  8
LC-004-002-RND-0
  6
CONTINUOUS
  5
1EC
 10
138.353092
 20
213.586131
 30
0.0
 40
1.0
 50
45.0
 51
180.0
  0
LINE
  8
LC-003-001-----0
  6
CONTINUOUS
  5
1ED
 10
136.453092
 20
218.242986
 30
0.0
 11
135.053092
 21
218.242986
 31
0.0
  0
LINE
  8
LC-003-001-----0
  6
CONTINUOUS
  5
1EE
 10
136.453092
 20
218.942986
 30
0.0
 11
135.053092
 21
218.942986
 31
0.0
  0
LINE
  8
LC-003-001-----0
  6
CONTINUOUS
  5
1EF
 10
137.453092
 20
225.042986
 30
0.0
 11
137.453092
 21
219.942986
 31
0.0
  0
ARC
  8
LC-003-001-----0
  6
CONTINUOUS
  5
1F0
 10
136.453092
 20
225.042986
 30
0.0
 40
1.7
 50
270.0
 51
306.031879
  0
LINE
  8
LC-001-002-----0
  6
CONTINUOUS
  5
1F1
 10
145.353092
 20
108.742986
 30
0.0
 11
143.353092
 21
108.742986
 31
0.0
  0
ARC
  8
LC-003-001-----0
  6
CONTINUOUS
  5
1F2
 10
136.453092
 20
225.042986
 30
0.0
 40
1.0
 50
270.0
 51
0.0
  0
ARC
  8
LC-003-001-----0
  6
CONTINUOUS
  5
1F3
 10
135.053092
 20
217.742986
 30
0.0
 40
1.2
 50
90.0
 51
180.0
  0
ARC
  8
LC-003-001-----0
  6
CONTINUOUS
  5
1F4
 10
136.453092
 20
219.942986
 30
0.0
 40
1.7
 50
270.0
 51
0.0
  0
LINE
  8
LC-003-001-----0
  6
CONTINUOUS
  5
1F5
 10
139.153092
 20
229.042986
 30
0.0
 11
139.653092
 21
229.042986
 31
0.0
  0
LINE
  8
LC-003-001-----0
  6
CONTINUOUS
  5
1F6
 10
139.153092
 20
229.742986
 30
0.0
 11
139.653092
 21
229.742986
 31
0.0
  0
LINE
  8
LC-001-002-----0
  6
CONTINUOUS
  5
1F7
 10
135.279847
 20
212.16937
 30
0.0
 11
134.116939
 21
208.974306
 31
0.0
  0
ARC
  8
LC-003-001-----0
  6
CONTINUOUS
  5
1F8
 10
139.653092
 20
228.042986
 30
0.0
 40
1.0
 50
0.0
 51
90.0
  0
ARC
  8
LC-003-001-----0
  6
CONTINUOUS
  5
1F9
 10
139.653092
 20
228.042986
 30
0.0
 40
1.7
 50
0.0
 51
90.0
  0
LINE
  8
LC-003-001-----0
  6
CONTINUOUS
  5
1FA
 10
141.353092
 20
228.042986
 30
0.0
 11
141.353092
 21
224.502577
 31
0.0
  0
ARC
  8
LC-001-002-----0
  6
CONTINUOUS
  5
1FB
 10
301.353092
 20
174.984815
 30
0.0
 40
55.0
 50
156.661707
 51
203.338293
  0
LINE
  8
LC-003-001-----0
  6
CONTINUOUS
  5
1FC
 10
140.653092
 20
224.502577
 30
0.0
 11
140.653092
 21
228.042986
 31
0.0
  0
ARC
  8
LC-003-001-----0
  6
CONTINUOUS
  5
1FD
 10
139.153092
 20
228.042986
 30
0.0
 40
1.0
 50
90.0
 51
180.0
  0
ARC
  8
LC-003-001-----0
  6
CONTINUOUS
  5
1FE
 10
139.153092
 20
228.042986
 30
0.0
 40
1.0
 50
90.0
 51
180.0
  0
ARC
  8
LC-003-001-----0
  6
CONTINUOUS
  5
1FF
 10
139.153092
 20
228.042986
 30
0.0
 40
1.7
 50
90.0
 51
180.0
  0
LINE
  8
LC-003-001-----0
  6
CONTINUOUS
  5
200
 10
137.453092
 20
229.742986
 30
0.0
 11
139.153092
 21
229.742986
 31
0.0
  0
LINE
  8
LC-001-002-----0
  6
CONTINUOUS
  5
201
 10
134.116939
 20
208.974306
 30
0.0
 11
133.502814
 21
209.333675
 31
0.0
  0
ARC
  8
LC-001-002-----0
  6
CONTINUOUS
  5
202
 10
134.528092
 20
212.442986
 30
0.0
 40
0.8
 50
340.0
 51
88.209215
  0
ARC
  8
LC-001-002-----0
  6
CONTINUOUS
  5
203
 10
142.853092
 20
224.502577
 30
0.0
 40
1.5
 50
180.0
 51
228.189685
  0
ARC
  8
LC-001-002-----0
  6
CONTINUOUS
  5
204
 10
142.853092
 20
224.502577
 30
0.0
 40
2.2
 50
180.0
 51
242.964308
  0
LINE
  8
LC-001-002-----0
  6
CONTINUOUS
  5
205
 10
134.670907
 20
212.542986
 30
0.0
 11
133.502814
 21
209.333675
 31
0.0
  0
LINE
  8
LC-001-002-----0
  6
CONTINUOUS
  5
206
 10
133.502814
 20
209.333675
 30
0.0
 11
91.353092
 21
209.333675
 31
0.0
  0
LINE
  8
LC-001-002-----0
  6
CONTINUOUS
  5
207
 10
91.353092
 20
212.542986
 30
0.0
 11
134.670907
 21
212.542986
 31
0.0
  0
LINE
  8
LC-001-002-----0
  6
CONTINUOUS
  5
208
 10
141.853092
 20
223.384543
 30
0.0
 11
141.853092
 21
222.542986
 31
0.0
  0
LINE
  8
LC-001-002-----0
  6
CONTINUOUS
  5
209
 10
134.116939
 20
208.974306
 30
0.0
 11
91.353092
 21
208.974306
 31
0.0
  0
LINE
  8
LC-001-002-----0
  6
CONTINUOUS
  5
20A
 10
43.353092
 20
218.242986
 30
0.0
 11
47.557137
 21
218.242986
 31
0.0
  0
LINE
  8
LC-001-002-----0
  6
CONTINUOUS
  5
20B
 10
40.853092
 20
222.542986
 30
0.0
 11
44.553092
 21
222.542986
 31
0.0
  0
LINE
  8
LC-001-002-----0
  6
CONTINUOUS
  5
20C
 10
141.853092
 20
222.542986
 30
0.0
 11
138.153092
 21
222.542986
 31
0.0
  0
LINE
  8
LC-001-002-----0
  6
CONTINUOUS
 62
     2
  5
20D
 10
66.967568
 20
264.774
 30
0.0
 11
51.967568
 21
264.774
 31
0.0
  0
LINE
  8
LC-001-002-----0
  6
CONTINUOUS
 62
     2
  5
20E
 10
51.967568
 20
264.774
 30
0.0
 11
51.967568
 21
279.774
 31
0.0
  0
LINE
  8
LC-001-002-----0
  6
CONTINUOUS
  5
20F
 10
344.853092
 20
221.484815
 30
0.0
 11
257.853092
 21
221.484815
 31
0.0
  0
ARC
  8
LC-004-002-RND-0
  6
CONTINUOUS
  5
210
 10
257.853092
 20
218.484815
 30
0.0
 40
3.0
 50
90.0
 51
180.0
  0
LINE
  8
LC-001-002-----0
  6
CONTINUOUS
  5
211
 10
254.853092
 20
218.484815
 30
0.0
 11
254.853092
 21
131.484815
 31
0.0
  0
ARC
  8
LC-004-002-RND-0
  6
CONTINUOUS
  5
212
 10
257.853092
 20
131.484815
 30
0.0
 40
3.0
 50
180.0
 51
270.0
  0
LINE
  8
LC-001-002-----0
  6
CONTINUOUS
  5
213
 10
257.853092
 20
128.484815
 30
0.0
 11
344.853092
 21
128.484815
 31
0.0
  0
ARC
  8
LC-004-002-RND-0
  6
CONTINUOUS
  5
214
 10
344.853092
 20
131.484815
 30
0.0
 40
3.0
 50
270.0
 51
0.0
  0
LINE
  8
LC-001-002-----0
  6
CONTINUOUS
  5
215
 10
347.853092
 20
131.484815
 30
0.0
 11
347.853092
 21
218.484815
 31
0.0
  0
ARC
  8
LC-004-002-RND-0
  6
CONTINUOUS
  5
216
 10
344.853092
 20
218.484815
 30
0.0
 40
3.0
 50
0.0
 51
90.0
  0
LINE
  8
LC-001-002-----0
  6
CONTINUOUS
  5
217
 10
134.353092
 20
207.242986
 30
0.0
 11
91.353092
 21
207.242986
 31
0.0
  0
LINE
  8
LC-001-002-----0
  6
CONTINUOUS
  5
218
 10
45.353092
 20
213.586131
 30
0.0
 11
45.353092
 21
207.242986
 31
0.0
  0
LINE
  8
LC-001-002-----0
  6
CONTINUOUS
  5
219
 10
48.353092
 20
216.056116
 30
0.0
 11
47.557137
 21
218.242986
 31
0.0
  0
LINE
  8
LC-001-002-----0
  6
CONTINUOUS
  5
21A
 10
39.353092
 20
210.000345
 30
0.0
 11
39.353092
 21
108.742986
 31
0.0
  0
LINE
  8
LC-001-002-----0
  6
CONTINUOUS
  5
21B
 10
36.353092
 20
109.742986
 30
0.0
 11
36.353092
 21
211.242986
 31
0.0
  0
LINE
  8
LC-001-002-----0
  6
CONTINUOUS
  5
21C
 10
47.353092
 20
207.242986
 30
0.0
 11
91.353092
 21
207.242986
 31
0.0
  0
LINE
  8
LC-001-002-----0
  6
CONTINUOUS
  5
21D
 10
48.353092
 20
214.242986
 30
0.0
 11
48.353092
 21
216.056116
 31
0.0
  0
LINE
  8
LC-001-002-----0
  6
CONTINUOUS
  5
21E
 10
36.353092
 20
211.242986
 30
0.0
 11
43.353092
 21
218.242986
 31
0.0
  0
LINE
  8
LC-001-002-----0
  6
CONTINUOUS
  5
21F
 10
43.645986
 20
214.293238
 30
0.0
 11
39.353092
 21
210.000345
 31
0.0
  0
LINE
  8
LC-001-002-----0
  6
CONTINUOUS
  5
220
 10
48.353092
 20
214.242986
 30
0.0
 11
47.353092
 21
213.242986
 31
0.0
  0
LINE
  8
LC-001-002-----0
  6
CONTINUOUS
  5
221
 10
47.353092
 20
213.242986
 30
0.0
 11
47.353092
 21
207.242986
 31
0.0
  0
LINE
  8
LC-001-002-----0
  6
CONTINUOUS
  5
222
 10
37.353092
 20
108.742986
 30
0.0
 11
39.353092
 21
108.742986
 31
0.0
  0
LINE
  8
LC-001-002-----0
  6
CONTINUOUS
  5
223
 10
37.353092
 20
108.742986
 30
0.0
 11
36.353092
 21
109.742986
 31
0.0
  0
LINE
  8
LC-001-002-----0
  6
CONTINUOUS
  5
224
 10
45.353092
 20
207.242986
 30
0.0
 11
47.353092
 21
207.242986
 31
0.0
  0
ARC
  8
LC-004-002-RND-0
  6
CONTINUOUS
  5
225
 10
44.353092
 20
213.586131
 30
0.0
 40
1.0
 50
360.0
 51
135.0
  0
LINE
  8
LC-001-002-----0
  6
CONTINUOUS
  5
226
 10
143.353092
 20
108.742986
 30
0.0
 11
39.353092
 21
108.742986
 31
0.0
  0
LINE
  8
LC-001-002-----0
  6
CONTINUOUS
 62
     2
  5
227
 10
66.967568
 20
264.774
 30
0.0
 11
66.967568
 21
279.774
 31
0.0
  0
LINE
  8
LC-001-002-----0
  6
CONTINUOUS
 62
     2
  5
228
 10
66.967568
 20
279.774
 30
0.0
 11
51.967568
 21
279.774
 31
0.0
  0
LINE
  8
LC-001-002-----0
  6
CONTINUOUS
  5
229
 10
146.352583
 20
123.74282
 30
0.0
 11
146.352608
 21
115.742927
 31
0.0
  0
LINE
  8
LC-001-002-----0
  6
CONTINUOUS
  5
22A
 10
143.352655
 20
105.743011
 30
0.0
 11
151.352699
 21
105.743011
 31
0.0
  0
LINE
  8
LC-001-002-----0
  6
CONTINUOUS
  5
22B
 10
127.046383
 20
105.743011
 30
0.0
 11
127.046383
 21
108.742986
 31
0.0
  0
LINE
  8
LC-001-002-----0
  6
CONTINUOUS
  5
22C
 10
55.659802
 20
105.743011
 30
0.0
 11
55.659802
 21
108.742986
 31
0.0
  0
LINE
  8
LC-001-002-----0
  6
CONTINUOUS
  5
22D
 10
53.538499
 20
105.743011
 30
0.0
 11
53.538499
 21
108.742986
 31
0.0
  0
LINE
  8
LC-001-002-----0
  6
CONTINUOUS
  5
22E
 10
151.352699
 20
105.743011
 30
0.0
 11
151.352699
 21
115.742236
 31
0.0
  0
LINE
  8
LC-001-002-----0
  6
CONTINUOUS
  5
22F
 10
148.352606
 20
125.742842
 30
0.0
 11
148.352606
 21
115.742927
 31
0.0
  0
LINE
  8
LC-001-002-----0
  6
CONTINUOUS
  5
230
 10
149.852712
 20
115.742927
 30
0.0
 11
151.352699
 21
115.742927
 31
0.0
  0
LINE
  8
LC-001-002-----0
  6
CONTINUOUS
  5
231
 10
148.352606
 20
125.742842
 30
0.0
 11
146.352583
 21
123.74282
 31
0.0
  0
LINE
  8
LC-001-002-----0
  6
CONTINUOUS
  5
232
 10
149.852712
 20
115.742927
 30
0.0
 11
148.352606
 21
115.742927
 31
0.0
  0
LINE
  8
LC-001-002-----0
  6
CONTINUOUS
  5
233
 10
89.853105
 20
108.742986
 30
0.0
 11
92.85308
 21
108.742986
 31
0.0
  0
LINE
  8
LC-001-002-----0
  6
CONTINUOUS
  5
234
 10
92.85308
 20
105.743011
 30
0.0
 11
92.85308
 21
108.742986
 31
0.0
  0
LINE
  8
LC-001-002-----0
  6
CONTINUOUS
  5
235
 10
48.93863
 20
105.743011
 30
0.0
 11
48.93863
 21
108.742986
 31
0.0
  0
LINE
  8
LC-001-002-----0
  6
CONTINUOUS
  5
236
 10
48.93863
 20
108.742986
 30
0.0
 11
55.659802
 21
108.742986
 31
0.0
  0
LINE
  8
LC-001-002-----0
  6
CONTINUOUS
  5
237
 10
39.35353
 20
105.743011
 30
0.0
 11
92.85308
 21
105.743011
 31
0.0
  0
LINE
  8
LC-001-002-----0
  6
CONTINUOUS
  5
238
 10
92.85308
 20
105.743011
 30
0.0
 11
127.046383
 21
105.743011
 31
0.0
  0
LINE
  8
LC-001-002-----0
  6
CONTINUOUS
  5
239
 10
127.046383
 20
105.743011
 30
0.0
 11
143.331016
 21
105.743011
 31
0.0
  0
LINE
  8
LC-001-002-----0
  6
CONTINUOUS
  5
23A
 10
89.853105
 20
105.743011
 30
0.0
 11
89.853105
 21
108.742986
 31
0.0
  0
LINE
  8
LC-001-002-----0
  6
CONTINUOUS
  5
23B
 10
36.353601
 20
123.74282
 30
0.0
 11
36.353556
 21
108.742986
 31
0.0
  0
LINE
  8
LC-001-002-----0
  6
CONTINUOUS
  5
23C
 10
39.35353
 20
105.743011
 30
0.0
 11
31.353485
 21
105.743011
 31
0.0
  0
LINE
  8
LC-001-002-----0
  6
CONTINUOUS
  5
23D
 10
31.353485
 20
105.743011
 30
0.0
 11
31.353485
 21
115.742236
 31
0.0
  0
LINE
  8
LC-001-002-----0
  6
CONTINUOUS
  5
23E
 10
34.353579
 20
125.742842
 30
0.0
 11
34.353579
 21
115.742927
 31
0.0
  0
LINE
  8
LC-001-002-----0
  6
CONTINUOUS
  5
23F
 10
32.853473
 20
115.742927
 30
0.0
 11
31.353485
 21
115.742927
 31
0.0
  0
LINE
  8
LC-001-002-----0
  6
CONTINUOUS
  5
240
 10
34.353579
 20
125.742842
 30
0.0
 11
36.353601
 21
123.74282
 31
0.0
  0
LINE
  8
LC-001-002-----0
  6
CONTINUOUS
  5
241
 10
36.353556
 20
108.742986
 30
0.0
 11
39.35353
 21
108.742986
 31
0.0
  0
LINE
  8
LC-001-002-----0
  6
CONTINUOUS
  5
242
 10
39.35353
 20
108.742986
 30
0.0
 11
39.35353
 21
105.743011
 31
0.0
  0
LINE
  8
LC-001-002-----0
  6
CONTINUOUS
  5
243
 10
32.853473
 20
115.742927
 30
0.0
 11
34.353579
 21
115.742927
 31
0.0
  0
LINE
  8
LC-001-002-----0
  6
CONTINUOUS
  5
244
 10
146.352629
 20
108.742986
 30
0.0
 11
143.352655
 21
108.742986
 31
0.0
  0
LINE
  8
LC-001-002-----0
  6
CONTINUOUS
  5
245
 10
143.352655
 20
108.742986
 30
0.0
 11
143.352655
 21
105.743011
 31
0.0
  0
LINE
  8
LC-001-002-----0
  6
CONTINUOUS
  5
246
 10
146.352583
 20
123.74282
 30
0.0
 11
146.352629
 21
108.742986
 31
0.0
  0
LINE
  8
LC-001-002-----0
  6
CONTINUOUS
  5
247
 10
148.352606
 20
125.742842
 30
0.0
 11
146.352583
 21
123.74282
 31
0.0
  0
LINE
  8
LC-001-002-----0
  6
CONTINUOUS
  5
248
 10
148.352606
 20
125.742842
 30
0.0
 11
148.352606
 21
115.742927
 31
0.0
  0
LINE
  8
LC-001-002-----0
  6
CONTINUOUS
  5
249
 10
151.352699
 20
105.743011
 30
0.0
 11
151.352699
 21
115.742236
 31
0.0
  0
LINE
  8
LC-001-002-----0
  6
CONTINUOUS
  5
24A
 10
143.352655
 20
105.743011
 30
0.0
 11
151.352699
 21
105.743011
 31
0.0
  0
LINE
  8
LC-001-002-----0
  6
CONTINUOUS
  5
24B
 10
133.767555
 20
105.743011
 30
0.0
 11
133.767555
 21
108.742986
 31
0.0
  0
LINE
  8
LC-001-002-----0
  6
CONTINUOUS
  5
24C
 10
133.767555
 20
108.742986
 30
0.0
 11
127.046383
 21
108.742986
 31
0.0
  0
LINE
  8
LC-001-002-----0
  6
CONTINUOUS
  5
24D
 10
129.167686
 20
105.743011
 30
0.0
 11
129.167686
 21
108.742986
 31
0.0
  0
ARC
  8
LC-001-002-----0
  6
CONTINUOUS
  5
24E
 10
301.353092
 20
174.984815
 30
0.0
 40
55.0
 50
246.661707
 51
293.338293
  0
ARC
  8
LC-001-002-----0
  6
CONTINUOUS
  5
24F
 10
301.353092
 20
174.984815
 30
0.0
 40
55.0
 50
336.618582
 51
23.381418
  0
LINE
  8
LC-001-002-----0
  6
CONTINUOUS
 62
     2
  5
250
 10
143.353092
 20
122.742986
 30
0.0
 11
39.353092
 21
122.742986
 31
0.0
  0
ENDSEC
  0
EOF
