  0
SECTION
  2
HEADER
  9
$ACADVER
  1
AC1015
  9
$ACADMAINTVER
 70
     6
  9
$DWGCODEPAGE
  3
ANSI_1252
  9
$INSBASE
 10
-11.905377
 20
68.4
 30
0.0
  9
$EXTMIN
 10
-11.905377
 20
68.4
 30
0.0
  9
$EXTMAX
 10
828.094623
 20
662.4
 30
0.0
  9
$LIMMIN
 10
-11.905377
 20
68.4
  9
$LIMMAX
 10
828.094623
 20
662.4
  9
$ORTHOMODE
 70
     0
  9
$REGENMODE
 70
     1
  9
$FILLMODE
 70
     1
  9
$QTEXTMODE
 70
     0
  9
$MIRRTEXT
 70
     1
  9
$LTSCALE
 40
2.0
  9
$ATTMODE
 70
     1
  9
$TEXTSIZE
 40
2.5
  9
$TRACEWID
 40
1.0
  9
$TEXTSTYLE
  7
Standard
  9
$CLAYER
  8
0
  9
$CELTYPE
  6
ByLayer
  9
$CECOLOR
 62
     7
  9
$CELTSCALE
 40
1.0
  9
$DISPSILH
 70
     0
  9
$DIMSCALE
 40
2.0
  9
$DIMASZ
 40
3.5
  9
$DIMEXO
 40
0.625
  9
$DIMDLI
 40
3.75
  9
$DIMRND
 40
0.0
  9
$DIMDLE
 40
0.0
  9
$DIMEXE
 40
1.25
  9
$DIMTP
 40
0.0
  9
$DIMTM
 40
0.0
  9
$DIMTXT
 40
3.5
  9
$DIMCEN
 40
2.5
  9
$DIMTSZ
 40
0.0
  9
$DIMTOL
 70
     0
  9
$DIMLIM
 70
     0
  9
$DIMTIH
 70
     0
  9
$DIMTOH
 70
     0
  9
$DIMSE1
 70
     0
  9
$DIMSE2
 70
     0
  9
$DIMTAD
 70
     1
  9
$DIMZIN
 70
     8
  9
$DIMBLK
  1

  9
$DIMASO
 70
     1
  9
$DIMSHO
 70
     1
  9
$DIMPOST
  1

  9
$DIMAPOST
  1

  9
$DIMALT
 70
     0
  9
$DIMALTD
 70
     3
  9
$DIMALTF
 40
0.03937
  9
$DIMLFAC
 40
1.0
  9
$DIMTOFL
 70
     1
  9
$DIMTVP
 40
0.0
  9
$DIMTIX
 70
     0
  9
$DIMSOXD
 70
     0
  9
$DIMSAH
 70
     0
  9
$DIMBLK1
  1

  9
$DIMBLK2
  1

  9
$DIMSTYLE
  2
ISO-25
  9
$DIMCLRD
 70
     0
  9
$DIMCLRE
 70
     0
  9
$DIMCLRT
 70
     0
  9
$DIMTFAC
 40
1.0
  9
$DIMGAP
 40
0.625
  9
$DIMJUST
 70
     0
  9
$DIMSD1
 70
     0
  9
$DIMSD2
 70
     0
  9
$DIMTOLJ
 70
     0
  9
$DIMTZIN
 70
     8
  9
$DIMALTZ
 70
     0
  9
$DIMALTTZ
 70
     0
  9
$DIMUPT
 70
     0
  9
$DIMDEC
 70
     2
  9
$DIMTDEC
 70
     2
  9
$DIMALTU
 70
     2
  9
$DIMALTTD
 70
     3
  9
$DIMTXSTY
  7
Standard
  9
$DIMAUNIT
 70
     0
  9
$DIMADEC
 70
     0
  9
$DIMALTRND
 40
0.0
  9
$DIMAZIN
 70
     0
  9
$DIMDSEP
 70
    44
  9
$DIMATFIT
 70
     3
  9
$DIMFRAC
 70
     0
  9
$DIMLDRBLK
  1

  9
$DIMLUNIT
 70
     2
  9
$DIMLWD
 70
    -2
  9
$DIMLWE
 70
    -2
  9
$DIMTMOVE
 70
     0
  9
$LUNITS
 70
     2
  9
$LUPREC
 70
     4
  9
$SKETCHINC
 40
1.0
  9
$FILLETRAD
 40
10.0
  9
$AUNITS
 70
     0
  9
$AUPREC
 70
     0
  9
$MENU
  1
.
  9
$ELEVATION
 40
0.0
  9
$PELEVATION
 40
0.0
  9
$THICKNESS
 40
0.0
  9
$LIMCHECK
 70
     0
  9
$CHAMFERA
 40
10.0
  9
$CHAMFERB
 40
10.0
  9
$CHAMFERC
 40
20.0
  9
$CHAMFERD
 40
0.0
  9
$SKPOLY
 70
     0
  9
$TDCREATE
 40
2455537.264761736
  9
$TDUCREATE
 40
2455537.22309507
  9
$TDUPDATE
 40
2455537.264761748
  9
$TDUUPDATE
 40
2455537.223095081
  9
$TDINDWG
 40
0.0000000116
  9
$TDUSRTIMER
 40
0.0000000116
  9
$USRTIMER
 70
     1
  9
$ANGBASE
 50
0.0
  9
$ANGDIR
 70
     0
  9
$PDMODE
 70
     0
  9
$PDSIZE
 40
0.0
  9
$PLINEWID
 40
0.0
  9
$SPLFRAME
 70
     0
  9
$SPLINETYPE
 70
     6
  9
$SPLINESEGS
 70
     8
  9
$HANDSEED
  5
20E
  9
$SURFTAB1
 70
     6
  9
$SURFTAB2
 70
     6
  9
$SURFTYPE
 70
     6
  9
$SURFU
 70
     6
  9
$SURFV
 70
     6
  9
$UCSBASE
  2

  9
$UCSNAME
  2

  9
$UCSORG
 10
0.0
 20
0.0
 30
0.0
  9
$UCSXDIR
 10
1.0
 20
0.0
 30
0.0
  9
$UCSYDIR
 10
0.0
 20
1.0
 30
0.0
  9
$UCSORTHOREF
  2

  9
$UCSORTHOVIEW
 70
     0
  9
$UCSORGTOP
 10
0.0
 20
0.0
 30
0.0
  9
$UCSORGBOTTOM
 10
0.0
 20
0.0
 30
0.0
  9
$UCSORGLEFT
 10
0.0
 20
0.0
 30
0.0
  9
$UCSORGRIGHT
 10
0.0
 20
0.0
 30
0.0
  9
$UCSORGFRONT
 10
0.0
 20
0.0
 30
0.0
  9
$UCSORGBACK
 10
0.0
 20
0.0
 30
0.0
  9
$PUCSBASE
  2

  9
$PUCSNAME
  2

  9
$PUCSORG
 10
0.0
 20
0.0
 30
0.0
  9
$PUCSXDIR
 10
1.0
 20
0.0
 30
0.0
  9
$PUCSYDIR
 10
0.0
 20
1.0
 30
0.0
  9
$PUCSORTHOREF
  2

  9
$PUCSORTHOVIEW
 70
     0
  9
$PUCSORGTOP
 10
0.0
 20
0.0
 30
0.0
  9
$PUCSORGBOTTOM
 10
0.0
 20
0.0
 30
0.0
  9
$PUCSORGLEFT
 10
0.0
 20
0.0
 30
0.0
  9
$PUCSORGRIGHT
 10
0.0
 20
0.0
 30
0.0
  9
$PUCSORGFRONT
 10
0.0
 20
0.0
 30
0.0
  9
$PUCSORGBACK
 10
0.0
 20
0.0
 30
0.0
  9
$USERI1
 70
     0
  9
$USERI2
 70
     0
  9
$USERI3
 70
     0
  9
$USERI4
 70
     0
  9
$USERI5
 70
     0
  9
$USERR1
 40
0.0
  9
$USERR2
 40
0.0
  9
$USERR3
 40
0.0
  9
$USERR4
 40
0.0
  9
$USERR5
 40
0.0
  9
$WORLDVIEW
 70
     1
  9
$SHADEDGE
 70
     3
  9
$SHADEDIF
 70
    70
  9
$TILEMODE
 70
     1
  9
$MAXACTVP
 70
    64
  9
$PINSBASE
 10
0.0
 20
0.0
 30
0.0
  9
$PLIMCHECK
 70
     0
  9
$PEXTMIN
 10
-11.905377
 20
68.4
 30
0.0
  9
$PEXTMAX
 10
828.094623
 20
662.4
 30
0.0
  9
$PLIMMIN
 10
-11.905377
 20
68.4
  9
$PLIMMAX
 10
828.094623
 20
662.4
  9
$UNITMODE
 70
     0
  9
$VISRETAIN
 70
     1
  9
$PLINEGEN
 70
     0
  9
$PSLTSCALE
 70
     1
  9
$TREEDEPTH
 70
  3020
  9
$CMLSTYLE
  2
Standard
  9
$CMLJUST
 70
     0
  9
$CMLSCALE
 40
20.0
  9
$PROXYGRAPHICS
 70
     1
  9
$MEASUREMENT
 70
     1
  9
$CELWEIGHT
370
    -1
  9
$ENDCAPS
280
     0
  9
$JOINSTYLE
280
     0
  9
$LWDISPLAY
290
     0
  9
$INSUNITS
 70
     4
  9
$HYPERLINKBASE
  1

  9
$STYLESHEET
  1

  9
$XEDIT
290
     1
  9
$CEPSNTYPE
380
     0
  9
$PSTYLEMODE
290
     1
  9
$FINGERPRINTGUID
  2
{FAEB1C30-E019-11D5-929B-00C0DF256EC4}
  9
$VERSIONGUID
  2
{FAEB1C32-E019-11D5-929B-00C0DF256EC4}
  9
$EXTNAMES
290
     1
  9
$PSVPSCALE
 40
0.0
  9
$OLESTARTUP
290
     0
  0
ENDSEC
  0
SECTION
  2
CLASSES
  0
CLASS
  1
ACDBDICTIONARYWDFLT
  2
AcDbDictionaryWithDefault
  3
ObjectDBX Classes
 90
        0
280
     0
281
     0
  0
CLASS
  1
ACDBPLACEHOLDER
  2
AcDbPlaceHolder
  3
ObjectDBX Classes
 90
        0
280
     0
281
     0
  0
CLASS
  1
LAYOUT
  2
AcDbLayout
  3
ObjectDBX Classes
 90
        0
280
     0
281
     0
  0
ENDSEC
  0
SECTION
  2
TABLES
  0
TABLE
  2
VPORT
  5
8
330
0
100
AcDbSymbolTable
 70
     2
  0
VPORT
  5
29
330
8
100
AcDbSymbolTableRecord
100
AcDbViewportTableRecord
  2
*ACTIVE
 70
     0
 10
0.0
 20
0.0
 11
1.0
 21
1.0
 12
408.094623
 22
365.4
 13
0.0
 23
0.0
 14
1.0
 24
1.0
 15
0.0
 25
0.0
 16
0.0
 26
0.0
 36
1.0
 17
0.0
 27
0.0
 37
0.0
 40
594.0
 41
1.414141
 42
50.0
 43
0.0
 44
0.0
 50
0.0
 51
0.0
 71
    16
 72
   100
 73
     1
 74
     0
 75
     0
 76
     0
 77
     0
 78
     0
281
     0
 65
     0
110
0.0
120
0.0
130
0.0
111
1.0
121
0.0
131
0.0
112
0.0
122
1.0
132
0.0
 79
     0
146
0.0
  0
ENDTAB
  0
TABLE
  2
LTYPE
  5
5
330
0
100
AcDbSymbolTable
 70
     3
  0
LTYPE
  5
14
330
5
100
AcDbSymbolTableRecord
100
AcDbLinetypeTableRecord
  2
ByBlock
 70
     0
  3

 72
    65
 73
     0
 40
0.0
  0
LTYPE
  5
15
330
5
100
AcDbSymbolTableRecord
100
AcDbLinetypeTableRecord
  2
ByLayer
 70
     0
  3

 72
    65
 73
     0
 40
0.0
  0
LTYPE
  5
16
330
5
100
AcDbSymbolTableRecord
100
AcDbLinetypeTableRecord
  2
Continuous
 70
     0
  3
Solid line
 72
    65
 73
     0
 40
0.0
  0
LTYPE
  5
2A
330
5
100
AcDbSymbolTableRecord
100
AcDbLinetypeTableRecord
  2
DASHED
 70
     0
  3
__ __ __ __ __
 72
    65
 73
     2
 40
6.25
 49
5.0
 74
     4
 75
     0
340
0
 46
1.0
 50
0.0
 44
0.0
 45
0.0
 49
-1.25
 74
     4
 75
     0
340
0
 46
1.0
 50
0.0
 44
0.0
 45
0.0
  0
LTYPE
  5
3F
330
5
100
AcDbSymbolTableRecord
100
AcDbLinetypeTableRecord
  2
CENTER
 70
     0
  3
__ . __ . __ . __ . __
 72
    65
 73
     4
 40
7.5
 49
5.0
 74
     4
 75
     0
340
0
 46
1.0
 50
0.0
 44
0.0
 45
0.0
 49
-1.25
 74
     4
 75
     0
340
0
 46
1.0
 50
0.0
 44
0.0
 45
0.0
 49
0.0
 74
     4
 75
     0
340
0
 46
1.0
 50
0.0
 44
0.0
 45
0.0
 49
-1.25
 74
     4
 75
     0
340
0
 46
1.0
 50
0.0
 44
0.0
 45
0.0
  0
ENDTAB
  0
TABLE
  2
LAYER
  5
2
330
0
100
AcDbSymbolTable
 70
    11
  0
LAYER
  5
10
330
2
100
AcDbSymbolTableRecord
100
AcDbLayerTableRecord
  2
0
 70
     0
 62
     7
  6
Continuous
370
    -3
390
F
  0
LAYER
  5
2B
330
2
100
AcDbSymbolTableRecord
100
AcDbLayerTableRecord
  2
LC-INFO-1-2-mm-A3-0
 70
     1
 62
     7
  6
ByBlock
370
    -3
390
F
  0
LAYER
  5
2C
330
2
100
AcDbSymbolTableRecord
100
AcDbLayerTableRecord
  2
LC-CUT-HIDDEN
 70
     0
 62
     7
  6
DASHED
370
    -3
390
F
  0
LAYER
  5
2D
330
2
100
AcDbSymbolTableRecord
100
AcDbLayerTableRecord
  2
LC-VIEWPORT
 70
     0
 62
     7
  6
ByBlock
370
    -3
390
F
  0
LAYER
  5
2E
330
2
100
AcDbSymbolTableRecord
100
AcDbLayerTableRecord
  2
LC-3D-HIDDEN
 70
     0
 62
     9
  6
DASHED
370
    -3
390
F
  0
LAYER
  5
30
330
2
100
AcDbSymbolTableRecord
100
AcDbLayerTableRecord
  2
LC-001-002-----0
 70
     0
 62
     1
  6
ByBlock
370
    -3
390
F
  0
LAYER
  5
40
330
2
100
AcDbSymbolTableRecord
100
AcDbLayerTableRecord
  2
LC-002-006-MLN-0
 70
     0
 62
     2
  6
CENTER
370
    -3
390
F
  0
LAYER
  5
7E
330
2
100
AcDbSymbolTableRecord
100
AcDbLayerTableRecord
  2
LC-003-005-----0
 70
     0
 62
     2
  6
ByBlock
370
    -3
390
F
  0
LAYER
  5
104
330
2
100
AcDbSymbolTableRecord
100
AcDbLayerTableRecord
  2
LC-004-002-RND-0
 70
     0
 62
     1
  6
ByBlock
370
    -3
390
F
  0
LAYER
  5
1C6
330
2
100
AcDbSymbolTableRecord
100
AcDbLayerTableRecord
  2
LC-005-003-----0
 70
     0
 62
     2
  6
ByBlock
370
    -3
390
F
  0
LAYER
  5
1C8
330
2
100
AcDbSymbolTableRecord
100
AcDbLayerTableRecord
  2
Defpoints
 70
     0
 62
     7
  6
Continuous
290
     0
370
    -3
390
F
  0
ENDTAB
  0
TABLE
  2
STYLE
  5
3
330
0
100
AcDbSymbolTable
 70
     3
  0
STYLE
  5
11
330
3
100
AcDbSymbolTableRecord
100
AcDbTextStyleTableRecord
  2
Standard
 70
     0
 40
0.0
 41
1.0
 50
0.0
 71
     0
 42
2.5
  3
txt
  4

  0
STYLE
  5
2F
330
3
100
AcDbSymbolTableRecord
100
AcDbTextStyleTableRecord
  2
LCTX15-400-0-0-Arial
 70
     0
 40
0.0
 41
0.75
 50
0.0
 71
     0
 42
3.5
  3

  4

1001
ACAD
1000
Arial
1071
 16777218
  0
STYLE
  5
1C4
330
3
100
AcDbSymbolTableRecord
100
AcDbTextStyleTableRecord
  2
LCTX15-400-0-0pDIN-Schrift
 70
     0
 40
2.5
 41
0.8
 50
15.0
 71
     0
 42
3.5
  3
STANDARD
  4

  0
ENDTAB
  0
TABLE
  2
VIEW
  5
6
330
0
100
AcDbSymbolTable
 70
     0
  0
ENDTAB
  0
TABLE
  2
UCS
  5
7
330
0
100
AcDbSymbolTable
 70
     0
  0
ENDTAB
  0
TABLE
  2
APPID
  5
9
330
0
100
AcDbSymbolTable
 70
     1
  0
APPID
  5
12
330
9
100
AcDbSymbolTableRecord
100
AcDbRegAppTableRecord
  2
ACAD
 70
     0
  0
ENDTAB
  0
TABLE
  2
DIMSTYLE
  5
A
330
0
100
AcDbSymbolTable
 70
     2
100
AcDbDimStyleTable
  0
DIMSTYLE
105
27
330
A
100
AcDbSymbolTableRecord
100
AcDbDimStyleTableRecord
  2
ISO-25
 70
     0
 41
2.5
 42
0.625
 43
3.75
 44
1.25
 73
     0
 74
     0
 77
     1
 78
     8
140
2.5
141
2.5
143
0.03937
147
0.625
171
     3
172
     1
271
     2
272
     2
274
     3
278
    44
283
     0
284
     8
340
11
  0
DIMSTYLE
105
1C5
102
{ACAD_REACTORS
330
1C7
330
1D5
330
1E3
330
1F0
330
1FD
102
}
330
A
100
AcDbSymbolTableRecord
100
AcDbDimStyleTableRecord
  2
LC-DIM-L-0140-02-02
 70
     0
 40
2.0
 41
14.0
 42
0.0
 43
7.5
 44
1.8
 73
     0
 74
     0
 77
     1
 78
     8
 79
     2
140
14.0
141
0.0
146
0.71
147
1.5
176
     2
177
     2
178
     2
179
     2
271
     2
278
    44
289
     1
340
1C4
  0
ENDTAB
  0
TABLE
  2
BLOCK_RECORD
  5
1
330
0
100
AcDbSymbolTable
 70
    12
  0
BLOCK_RECORD
  5
1F
330
1
100
AcDbSymbolTableRecord
100
AcDbBlockTableRecord
  2
*Model_Space
340
22
  0
BLOCK_RECORD
  5
1B
330
1
100
AcDbSymbolTableRecord
100
AcDbBlockTableRecord
  2
*Paper_Space
340
1E
  0
BLOCK_RECORD
  5
23
330
1
100
AcDbSymbolTableRecord
100
AcDbBlockTableRecord
  2
*Paper_Space0
340
26
  0
BLOCK_RECORD
  5
7B
330
1
100
AcDbSymbolTableRecord
100
AcDbBlockTableRecord
  2
*X11
340
0
102
{BLKREFS
331
C0
102
}
  0
BLOCK_RECORD
  5
C1
330
1
100
AcDbSymbolTableRecord
100
AcDbBlockTableRecord
  2
*X22
340
0
102
{BLKREFS
331
FF
102
}
  0
BLOCK_RECORD
  5
119
330
1
100
AcDbSymbolTableRecord
100
AcDbBlockTableRecord
  2
*X33
340
0
102
{BLKREFS
331
12B
102
}
  0
BLOCK_RECORD
  5
14E
330
1
100
AcDbSymbolTableRecord
100
AcDbBlockTableRecord
  2
*X44
340
0
102
{BLKREFS
331
1B3
102
}
  0
BLOCK_RECORD
  5
1B9
330
1
100
AcDbSymbolTableRecord
100
AcDbBlockTableRecord
  2
*X55
340
0
102
{BLKREFS
331
1BE
102
}
  0
BLOCK_RECORD
  5
1BF
330
1
100
AcDbSymbolTableRecord
100
AcDbBlockTableRecord
  2
*X66
340
0
102
{BLKREFS
331
1C3
102
}
  0
BLOCK_RECORD
  5
1C9
330
1
100
AcDbSymbolTableRecord
100
AcDbBlockTableRecord
  2
*D7
340
0
  0
BLOCK_RECORD
  5
1D6
330
1
100
AcDbSymbolTableRecord
100
AcDbBlockTableRecord
  2
*D8
340
0
  0
BLOCK_RECORD
  5
1E4
330
1
100
AcDbSymbolTableRecord
100
AcDbBlockTableRecord
  2
*D9
340
0
  0
BLOCK_RECORD
  5
1F1
330
1
100
AcDbSymbolTableRecord
100
AcDbBlockTableRecord
  2
*D10
340
0
  0
BLOCK_RECORD
  5
1FE
330
1
100
AcDbSymbolTableRecord
100
AcDbBlockTableRecord
  2
*D11
340
0
  0
ENDTAB
  0
ENDSEC
  0
SECTION
  2
BLOCKS
  0
BLOCK
  5
20
330
1F
100
AcDbEntity
  8
0
100
AcDbBlockBegin
  2
*Model_Space
 70
     0
 71
     0
 10
0.0
 20
0.0
 30
0.0
  3
*Model_Space
  1

  0
ENDBLK
  5
21
330
1F
100
AcDbEntity
  8
0
100
AcDbBlockEnd
  0
BLOCK
  5
1C
330
1B
100
AcDbEntity
 67
     1
  8
0
100
AcDbBlockBegin
  2
*Paper_Space
 70
     0
 71
     0
 10
0.0
 20
0.0
 30
0.0
  3
*Paper_Space
  1

  0
ENDBLK
  5
1D
330
1B
100
AcDbEntity
 67
     1
  8
0
100
AcDbBlockEnd
  0
BLOCK
  5
24
330
23
100
AcDbEntity
  8
0
100
AcDbBlockBegin
  2
*Paper_Space0
 70
     0
 71
     0
 10
0.0
 20
0.0
 30
0.0
  3
*Paper_Space0
  1

  0
ENDBLK
  5
25
330
23
100
AcDbEntity
  8
0
100
AcDbBlockEnd
  0
BLOCK
  5
7C
330
7B
100
AcDbEntity
  8
0
100
AcDbBlockBegin
  2
*X11
 70
     1
 71
     0
 10
0.0
 20
0.0
 30
0.0
  3
*X11
  1

  4
*X1
  0
LINE
  5
7F
330
7B
100
AcDbEntity
  8
LC-003-005-----0
 62
     7
370
    25
100
AcDbLine
 10
353.895316
 20
376.522733
 30
0.0
 11
355.461128
 21
378.088545
 31
0.0
  0
LINE
  5
80
330
7B
100
AcDbEntity
  8
LC-003-005-----0
 62
     7
370
    25
100
AcDbLine
 10
351.066889
 20
376.522733
 30
0.0
 11
351.861128
 21
377.316972
 31
0.0
  0
LINE
  5
81
330
7B
100
AcDbEntity
  8
LC-003-005-----0
 62
     7
370
    25
100
AcDbLine
 10
353.861128
 20
379.316972
 30
0.0
 11
355.461128
 21
380.916972
 31
0.0
  0
LINE
  5
82
330
7B
100
AcDbEntity
  8
LC-003-005-----0
 62
     7
370
    25
100
AcDbLine
 10
360.066889
 20
385.522733
 30
0.0
 11
360.611128
 21
386.066972
 31
0.0
  0
LINE
  5
83
330
7B
100
AcDbEntity
  8
LC-003-005-----0
 62
     7
370
    25
100
AcDbLine
 10
350.261128
 20
378.545399
 30
0.0
 11
351.861128
 21
380.145399
 31
0.0
  0
LINE
  5
84
330
7B
100
AcDbEntity
  8
LC-003-005-----0
 62
     7
370
    25
100
AcDbLine
 10
353.861128
 20
382.145399
 30
0.0
 11
355.461128
 21
383.745399
 31
0.0
  0
LINE
  5
85
330
7B
100
AcDbEntity
  8
LC-003-005-----0
 62
     7
370
    25
100
AcDbLine
 10
357.238462
 20
385.522733
 30
0.0
 11
360.611128
 21
388.895399
 31
0.0
  0
LINE
  5
86
330
7B
100
AcDbEntity
  8
LC-003-005-----0
 62
     7
370
    25
100
AcDbLine
 10
350.261128
 20
381.373826
 30
0.0
 11
351.861128
 21
382.973826
 31
0.0
  0
LINE
  5
87
330
7B
100
AcDbEntity
  8
LC-003-005-----0
 62
     7
370
    25
100
AcDbLine
 10
353.861128
 20
384.973826
 30
0.0
 11
355.910035
 21
387.022733
 31
0.0
  0
LINE
  5
88
330
7B
100
AcDbEntity
  8
LC-003-005-----0
 62
     7
370
    25
100
AcDbLine
 10
356.611128
 20
387.723826
 30
0.0
 11
360.611128
 21
391.723826
 31
0.0
  0
LINE
  5
89
330
7B
100
AcDbEntity
  8
LC-003-005-----0
 62
     7
370
    25
100
AcDbLine
 10
350.261128
 20
384.202253
 30
0.0
 11
353.081608
 21
387.022733
 31
0.0
  0
LINE
  5
8A
330
7B
100
AcDbEntity
  8
LC-003-005-----0
 62
     7
370
    25
100
AcDbLine
 10
356.611128
 20
390.552253
 30
0.0
 11
360.611128
 21
394.552253
 31
0.0
  0
LINE
  5
8B
330
7B
100
AcDbEntity
  8
LC-003-005-----0
 62
     7
370
    25
100
AcDbLine
 10
348.753181
 20
385.522733
 30
0.0
 11
350.253181
 21
387.022733
 31
0.0
  0
LINE
  5
8C
330
7B
100
AcDbEntity
  8
LC-003-005-----0
 62
     7
370
    25
100
AcDbLine
 10
356.611128
 20
393.380681
 30
0.0
 11
360.611128
 21
397.380681
 31
0.0
  0
LINE
  5
8D
330
7B
100
AcDbEntity
  8
LC-003-005-----0
 62
     7
370
    25
100
AcDbLine
 10
345.924754
 20
385.522733
 30
0.0
 11
347.424754
 21
387.022733
 31
0.0
  0
LINE
  5
8E
330
7B
100
AcDbEntity
  8
LC-003-005-----0
 62
     7
370
    25
100
AcDbLine
 10
356.611128
 20
396.209108
 30
0.0
 11
360.611128
 21
400.209108
 31
0.0
  0
LINE
  5
8F
330
7B
100
AcDbEntity
  8
LC-003-005-----0
 62
     7
370
    25
100
AcDbLine
 10
343.096327
 20
385.522733
 30
0.0
 11
344.596327
 21
387.022733
 31
0.0
  0
LINE
  5
90
330
7B
100
AcDbEntity
  8
LC-003-005-----0
 62
     7
370
    25
100
AcDbLine
 10
356.611128
 20
399.037535
 30
0.0
 11
360.611128
 21
403.037535
 31
0.0
  0
LINE
  5
91
330
7B
100
AcDbEntity
  8
LC-003-005-----0
 62
     7
370
    25
100
AcDbLine
 10
340.267899
 20
385.522733
 30
0.0
 11
341.767899
 21
387.022733
 31
0.0
  0
LINE
  5
92
330
7B
100
AcDbEntity
  8
LC-003-005-----0
 62
     7
370
    25
100
AcDbLine
 10
356.611128
 20
401.865962
 30
0.0
 11
360.611128
 21
405.865962
 31
0.0
  0
LINE
  5
93
330
7B
100
AcDbEntity
  8
LC-003-005-----0
 62
     7
370
    25
100
AcDbLine
 10
337.573387
 20
385.656648
 30
0.0
 11
338.947618
 21
387.030879
 31
0.0
  0
LINE
  5
94
330
7B
100
AcDbEntity
  8
LC-003-005-----0
 62
     7
370
    25
100
AcDbLine
 10
356.611128
 20
404.694389
 30
0.0
 11
360.611128
 21
408.694389
 31
0.0
  0
LINE
  5
95
330
7B
100
AcDbEntity
  8
LC-003-005-----0
 62
     7
370
    25
100
AcDbLine
 10
335.314081
 20
386.225769
 30
0.0
 11
336.506528
 21
387.418217
 31
0.0
  0
LINE
  5
96
330
7B
100
AcDbEntity
  8
LC-003-005-----0
 62
     7
370
    25
100
AcDbLine
 10
356.611128
 20
407.522816
 30
0.0
 11
360.611128
 21
411.522816
 31
0.0
  0
LINE
  5
97
330
7B
100
AcDbEntity
  8
LC-003-005-----0
 62
     7
370
    25
100
AcDbLine
 10
333.379645
 20
387.11976
 30
0.0
 11
334.484024
 21
388.224139
 31
0.0
  0
LINE
  5
98
330
7B
100
AcDbEntity
  8
LC-003-005-----0
 62
     7
370
    25
100
AcDbLine
 10
356.611128
 20
410.351243
 30
0.0
 11
360.611128
 21
414.351243
 31
0.0
  0
LINE
  5
99
330
7B
100
AcDbEntity
  8
LC-003-005-----0
 62
     7
370
    25
100
AcDbLine
 10
331.709847
 20
388.278389
 30
0.0
 11
332.775889
 21
389.344431
 31
0.0
  0
LINE
  5
9A
330
7B
100
AcDbEntity
  8
LC-003-005-----0
 62
     7
370
    25
100
AcDbLine
 10
356.611128
 20
413.17967
 30
0.0
 11
360.611128
 21
417.17967
 31
0.0
  0
LINE
  5
9B
330
7B
100
AcDbEntity
  8
LC-003-005-----0
 62
     7
370
    25
100
AcDbLine
 10
330.280676
 20
389.677646
 30
0.0
 11
331.344563
 21
390.741533
 31
0.0
  0
LINE
  5
9C
330
7B
100
AcDbEntity
  8
LC-003-005-----0
 62
     7
370
    25
100
AcDbLine
 10
356.611128
 20
416.008098
 30
0.0
 11
360.611128
 21
420.008098
 31
0.0
  0
LINE
  5
9D
330
7B
100
AcDbEntity
  8
LC-003-005-----0
 62
     7
370
    25
100
AcDbLine
 10
329.090822
 20
391.316219
 30
0.0
 11
330.188056
 21
392.413453
 31
0.0
  0
LINE
  5
9E
330
7B
100
AcDbEntity
  8
LC-003-005-----0
 62
     7
370
    25
100
AcDbLine
 10
356.611128
 20
418.836525
 30
0.0
 11
360.611128
 21
422.836525
 31
0.0
  0
LINE
  5
9F
330
7B
100
AcDbEntity
  8
LC-003-005-----0
 62
     7
370
    25
100
AcDbLine
 10
328.161031
 20
393.214855
 30
0.0
 11
329.338596
 21
394.39242
 31
0.0
  0
LINE
  5
A0
330
7B
100
AcDbEntity
  8
LC-003-005-----0
 62
     7
370
    25
100
AcDbLine
 10
356.611128
 20
421.664952
 30
0.0
 11
360.611128
 21
425.664952
 31
0.0
  0
LINE
  5
A1
330
7B
100
AcDbEntity
  8
LC-003-005-----0
 62
     7
370
    25
100
AcDbLine
 10
327.545429
 20
395.42768
 30
0.0
 11
328.888118
 21
396.770369
 31
0.0
  0
LINE
  5
A2
330
7B
100
AcDbEntity
  8
LC-003-005-----0
 62
     7
370
    25
100
AcDbLine
 10
356.611128
 20
424.493379
 30
0.0
 11
360.611128
 21
428.493379
 31
0.0
  0
LINE
  5
A3
330
7B
100
AcDbEntity
  8
LC-003-005-----0
 62
     7
370
    25
100
AcDbLine
 10
327.361128
 20
398.071806
 30
0.0
 11
328.861128
 21
399.571806
 31
0.0
  0
LINE
  5
A4
330
7B
100
AcDbEntity
  8
LC-003-005-----0
 62
     7
370
    25
100
AcDbLine
 10
356.611128
 20
427.321806
 30
0.0
 11
360.611128
 21
431.321806
 31
0.0
  0
LINE
  5
A5
330
7B
100
AcDbEntity
  8
LC-003-005-----0
 62
     7
370
    25
100
AcDbLine
 10
327.361128
 20
400.900233
 30
0.0
 11
328.861128
 21
402.400233
 31
0.0
  0
LINE
  5
A6
330
7B
100
AcDbEntity
  8
LC-003-005-----0
 62
     7
370
    25
100
AcDbLine
 10
356.611128
 20
430.150233
 30
0.0
 11
360.611128
 21
434.150233
 31
0.0
  0
LINE
  5
A7
330
7B
100
AcDbEntity
  8
LC-003-005-----0
 62
     7
370
    25
100
AcDbLine
 10
327.361128
 20
403.72866
 30
0.0
 11
328.861128
 21
405.22866
 31
0.0
  0
LINE
  5
A8
330
7B
100
AcDbEntity
  8
LC-003-005-----0
 62
     7
370
    25
100
AcDbLine
 10
356.611128
 20
432.97866
 30
0.0
 11
360.197124
 21
436.564657
 31
0.0
  0
LINE
  5
A9
330
7B
100
AcDbEntity
  8
LC-003-005-----0
 62
     7
370
    25
100
AcDbLine
 10
327.361128
 20
406.557087
 30
0.0
 11
328.861128
 21
408.057087
 31
0.0
  0
LINE
  5
AA
330
7B
100
AcDbEntity
  8
LC-003-005-----0
 62
     7
370
    25
100
AcDbLine
 10
356.611128
 20
435.807087
 30
0.0
 11
359.599407
 21
438.795367
 31
0.0
  0
LINE
  5
AB
330
7B
100
AcDbEntity
  8
LC-003-005-----0
 62
     7
370
    25
100
AcDbLine
 10
327.361128
 20
409.385515
 30
0.0
 11
328.861128
 21
410.885515
 31
0.0
  0
LINE
  5
AC
330
7B
100
AcDbEntity
  8
LC-003-005-----0
 62
     7
370
    25
100
AcDbLine
 10
356.611128
 20
438.635515
 30
0.0
 11
357.995187
 21
440.019574
 31
0.0
  0
LINE
  5
AD
330
7B
100
AcDbEntity
  8
LC-003-005-----0
 62
     7
370
    25
100
AcDbLine
 10
327.361128
 20
412.213942
 30
0.0
 11
328.861128
 21
413.713942
 31
0.0
  0
LINE
  5
AE
330
7B
100
AcDbEntity
  8
LC-003-005-----0
 62
     7
370
    25
100
AcDbLine
 10
327.361128
 20
415.042369
 30
0.0
 11
328.861128
 21
416.542369
 31
0.0
  0
LINE
  5
AF
330
7B
100
AcDbEntity
  8
LC-003-005-----0
 62
     7
370
    25
100
AcDbLine
 10
327.361128
 20
417.870796
 30
0.0
 11
328.861128
 21
419.370796
 31
0.0
  0
LINE
  5
B0
330
7B
100
AcDbEntity
  8
LC-003-005-----0
 62
     7
370
    25
100
AcDbLine
 10
327.361128
 20
420.699223
 30
0.0
 11
328.861128
 21
422.199223
 31
0.0
  0
LINE
  5
B1
330
7B
100
AcDbEntity
  8
LC-003-005-----0
 62
     7
370
    25
100
AcDbLine
 10
327.361128
 20
423.52765
 30
0.0
 11
328.861128
 21
425.02765
 31
0.0
  0
LINE
  5
B2
330
7B
100
AcDbEntity
  8
LC-003-005-----0
 62
     7
370
    25
100
AcDbLine
 10
327.361128
 20
426.356077
 30
0.0
 11
328.861128
 21
427.856077
 31
0.0
  0
LINE
  5
B3
330
7B
100
AcDbEntity
  8
LC-003-005-----0
 62
     7
370
    25
100
AcDbLine
 10
327.361128
 20
429.184504
 30
0.0
 11
328.861128
 21
430.684504
 31
0.0
  0
LINE
  5
B4
330
7B
100
AcDbEntity
  8
LC-003-005-----0
 62
     7
370
    25
100
AcDbLine
 10
327.361128
 20
432.012932
 30
0.0
 11
328.861128
 21
433.512932
 31
0.0
  0
LINE
  5
B5
330
7B
100
AcDbEntity
  8
LC-003-005-----0
 62
     7
370
    25
100
AcDbLine
 10
327.199815
 20
434.680046
 30
0.0
 11
328.861128
 21
436.341359
 31
0.0
  0
LINE
  5
B6
330
7B
100
AcDbEntity
  8
LC-003-005-----0
 62
     7
370
    25
100
AcDbLine
 10
325.785602
 20
436.09426
 30
0.0
 11
328.861128
 21
439.169786
 31
0.0
  0
LINE
  5
B7
330
7B
100
AcDbEntity
  8
LC-003-005-----0
 62
     7
370
    25
100
AcDbLine
 10
327.361128
 20
440.498213
 30
0.0
 11
328.861128
 21
441.998213
 31
0.0
  0
LINE
  5
B8
330
7B
100
AcDbEntity
  8
LC-003-005-----0
 62
     7
370
    25
100
AcDbLine
 10
325.554062
 20
441.519574
 30
0.0
 11
328.861128
 21
444.82664
 31
0.0
  0
LINE
  5
B9
330
7B
100
AcDbEntity
  8
LC-003-005-----0
 62
     7
370
    25
100
AcDbLine
 10
324.661128
 20
443.455067
 30
0.0
 11
325.261303
 21
444.055242
 31
0.0
  0
LINE
  5
BA
330
7B
100
AcDbEntity
  8
LC-003-005-----0
 62
     7
370
    25
100
AcDbLine
 10
327.711128
 20
446.505067
 30
0.0
 11
328.861128
 21
447.655067
 31
0.0
  0
LINE
  5
BB
330
7B
100
AcDbEntity
  8
LC-003-005-----0
 62
     7
370
    25
100
AcDbLine
 10
327.192575
 20
448.814941
 30
0.0
 11
328.861128
 21
450.483494
 31
0.0
  0
LINE
  5
BC
330
7B
100
AcDbEntity
  8
LC-003-005-----0
 62
     7
370
    25
100
AcDbLine
 10
324.661128
 20
449.111921
 30
0.0
 11
328.861128
 21
453.311921
 31
0.0
  0
LINE
  5
BD
330
7B
100
AcDbEntity
  8
LC-003-005-----0
 62
     7
370
    25
100
AcDbLine
 10
324.661128
 20
451.940349
 30
0.0
 11
328.240353
 21
455.519574
 31
0.0
  0
LINE
  5
BE
330
7B
100
AcDbEntity
  8
LC-003-005-----0
 62
     7
370
    25
100
AcDbLine
 10
323.411926
 20
453.519574
 30
0.0
 11
325.411926
 21
455.519574
 31
0.0
  0
LINE
  5
BF
330
7B
100
AcDbEntity
  8
LC-003-005-----0
 62
     7
370
    25
100
AcDbLine
 10
321.361128
 20
454.297203
 30
0.0
 11
322.583499
 21
455.519574
 31
0.0
  0
ENDBLK
  5
7D
330
7B
100
AcDbEntity
  8
0
100
AcDbBlockEnd
  0
BLOCK
  5
C2
330
C1
100
AcDbEntity
  8
0
100
AcDbBlockBegin
  2
*X22
 70
     1
 71
     0
 10
0.0
 20
0.0
 30
0.0
  3
*X22
  1

  4
*X2
  0
LINE
  5
C4
330
C1
100
AcDbEntity
  8
LC-003-005-----0
 62
     7
370
    25
100
AcDbLine
 10
415.490437
 20
387.206166
 30
0.0
 11
419.677696
 21
391.393425
 31
0.0
  0
LINE
  5
C5
330
C1
100
AcDbEntity
  8
LC-003-005-----0
 62
     7
370
    25
100
AcDbLine
 10
411.106132
 20
385.650288
 30
0.0
 11
413.209065
 21
387.753221
 31
0.0
  0
LINE
  5
C6
330
C1
100
AcDbEntity
  8
LC-003-005-----0
 62
     7
370
    25
100
AcDbLine
 10
419.130641
 20
393.674797
 30
0.0
 11
421.233573
 21
395.777729
 31
0.0
  0
LINE
  5
C7
330
C1
100
AcDbEntity
  8
LC-003-005-----0
 62
     7
370
    25
100
AcDbLine
 10
408.15015
 20
385.522733
 30
0.0
 11
409.654243
 21
387.026826
 31
0.0
  0
LINE
  5
C8
330
C1
100
AcDbEntity
  8
LC-003-005-----0
 62
     7
370
    25
100
AcDbLine
 10
419.857036
 20
397.229619
 30
0.0
 11
421.361128
 21
398.733711
 31
0.0
  0
LINE
  5
C9
330
C1
100
AcDbEntity
  8
LC-003-005-----0
 62
     7
370
    25
100
AcDbLine
 10
396.861128
 20
377.062138
 30
0.0
 11
398.461128
 21
378.662138
 31
0.0
  0
LINE
  5
CA
330
C1
100
AcDbEntity
  8
LC-003-005-----0
 62
     7
370
    25
100
AcDbLine
 10
405.321723
 20
385.522733
 30
0.0
 11
406.821723
 21
387.022733
 31
0.0
  0
LINE
  5
CB
330
C1
100
AcDbEntity
  8
LC-003-005-----0
 62
     7
370
    25
100
AcDbLine
 10
419.861128
 20
400.062138
 30
0.0
 11
421.361128
 21
401.562138
 31
0.0
  0
LINE
  5
CC
330
C1
100
AcDbEntity
  8
LC-003-005-----0
 62
     7
370
    25
100
AcDbLine
 10
393.543259
 20
376.572697
 30
0.0
 11
394.861128
 21
377.890565
 31
0.0
  0
LINE
  5
CD
330
C1
100
AcDbEntity
  8
LC-003-005-----0
 62
     7
370
    25
100
AcDbLine
 10
396.861128
 20
379.890565
 30
0.0
 11
398.461128
 21
381.490565
 31
0.0
  0
LINE
  5
CE
330
C1
100
AcDbEntity
  8
LC-003-005-----0
 62
     7
370
    25
100
AcDbLine
 10
402.493296
 20
385.522733
 30
0.0
 11
403.993296
 21
387.022733
 31
0.0
  0
LINE
  5
CF
330
C1
100
AcDbEntity
  8
LC-003-005-----0
 62
     7
370
    25
100
AcDbLine
 10
419.861128
 20
402.890565
 30
0.0
 11
421.361128
 21
404.390565
 31
0.0
  0
LINE
  5
D0
330
C1
100
AcDbEntity
  8
LC-003-005-----0
 62
     7
370
    25
100
AcDbLine
 10
393.261128
 20
379.118992
 30
0.0
 11
394.861128
 21
380.718992
 31
0.0
  0
LINE
  5
D1
330
C1
100
AcDbEntity
  8
LC-003-005-----0
 62
     7
370
    25
100
AcDbLine
 10
396.861128
 20
382.718992
 30
0.0
 11
398.461128
 21
384.318992
 31
0.0
  0
LINE
  5
D2
330
C1
100
AcDbEntity
  8
LC-003-005-----0
 62
     7
370
    25
100
AcDbLine
 10
399.664869
 20
385.522733
 30
0.0
 11
401.164869
 21
387.022733
 31
0.0
  0
LINE
  5
D3
330
C1
100
AcDbEntity
  8
LC-003-005-----0
 62
     7
370
    25
100
AcDbLine
 10
419.861128
 20
405.718992
 30
0.0
 11
421.361128
 21
407.218992
 31
0.0
  0
LINE
  5
D4
330
C1
100
AcDbEntity
  8
LC-003-005-----0
 62
     7
370
    25
100
AcDbLine
 10
393.261128
 20
381.947419
 30
0.0
 11
394.861128
 21
383.547419
 31
0.0
  0
LINE
  5
D5
330
C1
100
AcDbEntity
  8
LC-003-005-----0
 62
     7
370
    25
100
AcDbLine
 10
396.836442
 20
385.522733
 30
0.0
 11
398.336442
 21
387.022733
 31
0.0
  0
LINE
  5
D6
330
C1
100
AcDbEntity
  8
LC-003-005-----0
 62
     7
370
    25
100
AcDbLine
 10
419.861128
 20
408.547419
 30
0.0
 11
421.361128
 21
410.047419
 31
0.0
  0
LINE
  5
D7
330
C1
100
AcDbEntity
  8
LC-003-005-----0
 62
     7
370
    25
100
AcDbLine
 10
393.261128
 20
384.775847
 30
0.0
 11
395.508015
 21
387.022733
 31
0.0
  0
LINE
  5
D8
330
C1
100
AcDbEntity
  8
LC-003-005-----0
 62
     7
370
    25
100
AcDbLine
 10
419.861128
 20
411.375847
 30
0.0
 11
421.361128
 21
412.875847
 31
0.0
  0
LINE
  5
D9
330
C1
100
AcDbEntity
  8
LC-003-005-----0
 62
     7
370
    25
100
AcDbLine
 10
391.179588
 20
385.522733
 30
0.0
 11
392.679588
 21
387.022733
 31
0.0
  0
LINE
  5
DA
330
C1
100
AcDbEntity
  8
LC-003-005-----0
 62
     7
370
    25
100
AcDbLine
 10
419.861128
 20
414.204274
 30
0.0
 11
421.361128
 21
415.704274
 31
0.0
  0
LINE
  5
DB
330
C1
100
AcDbEntity
  8
LC-003-005-----0
 62
     7
370
    25
100
AcDbLine
 10
388.351161
 20
385.522733
 30
0.0
 11
392.111128
 21
389.282701
 31
0.0
  0
LINE
  5
DC
330
C1
100
AcDbEntity
  8
LC-003-005-----0
 62
     7
370
    25
100
AcDbLine
 10
419.861128
 20
417.032701
 30
0.0
 11
421.361128
 21
418.532701
 31
0.0
  0
LINE
  5
DD
330
C1
100
AcDbEntity
  8
LC-003-005-----0
 62
     7
370
    25
100
AcDbLine
 10
388.111128
 20
388.111128
 30
0.0
 11
392.111128
 21
392.111128
 31
0.0
  0
LINE
  5
DE
330
C1
100
AcDbEntity
  8
LC-003-005-----0
 62
     7
370
    25
100
AcDbLine
 10
419.861128
 20
419.861128
 30
0.0
 11
421.361128
 21
421.361128
 31
0.0
  0
LINE
  5
DF
330
C1
100
AcDbEntity
  8
LC-003-005-----0
 62
     7
370
    25
100
AcDbLine
 10
388.111128
 20
390.939555
 30
0.0
 11
392.111128
 21
394.939555
 31
0.0
  0
LINE
  5
E0
330
C1
100
AcDbEntity
  8
LC-003-005-----0
 62
     7
370
    25
100
AcDbLine
 10
419.861128
 20
422.689555
 30
0.0
 11
421.361128
 21
424.189555
 31
0.0
  0
LINE
  5
E1
330
C1
100
AcDbEntity
  8
LC-003-005-----0
 62
     7
370
    25
100
AcDbLine
 10
388.111128
 20
393.767982
 30
0.0
 11
392.111128
 21
397.767982
 31
0.0
  0
LINE
  5
E2
330
C1
100
AcDbEntity
  8
LC-003-005-----0
 62
     7
370
    25
100
AcDbLine
 10
419.861128
 20
425.517982
 30
0.0
 11
421.361128
 21
427.017982
 31
0.0
  0
LINE
  5
E3
330
C1
100
AcDbEntity
  8
LC-003-005-----0
 62
     7
370
    25
100
AcDbLine
 10
388.111128
 20
396.596409
 30
0.0
 11
392.111128
 21
400.596409
 31
0.0
  0
LINE
  5
E4
330
C1
100
AcDbEntity
  8
LC-003-005-----0
 62
     7
370
    25
100
AcDbLine
 10
419.861128
 20
428.346409
 30
0.0
 11
421.361128
 21
429.846409
 31
0.0
  0
LINE
  5
E5
330
C1
100
AcDbEntity
  8
LC-003-005-----0
 62
     7
370
    25
100
AcDbLine
 10
388.111128
 20
399.424836
 30
0.0
 11
392.111128
 21
403.424836
 31
0.0
  0
LINE
  5
E6
330
C1
100
AcDbEntity
  8
LC-003-005-----0
 62
     7
370
    25
100
AcDbLine
 10
419.861128
 20
431.174836
 30
0.0
 11
421.361128
 21
432.674836
 31
0.0
  0
LINE
  5
E7
330
C1
100
AcDbEntity
  8
LC-003-005-----0
 62
     7
370
    25
100
AcDbLine
 10
388.111128
 20
402.253264
 30
0.0
 11
392.111128
 21
406.253264
 31
0.0
  0
LINE
  5
E8
330
C1
100
AcDbEntity
  8
LC-003-005-----0
 62
     7
370
    25
100
AcDbLine
 10
419.861128
 20
434.003264
 30
0.0
 11
423.015128
 21
437.157264
 31
0.0
  0
LINE
  5
E9
330
C1
100
AcDbEntity
  8
LC-003-005-----0
 62
     7
370
    25
100
AcDbLine
 10
388.111128
 20
405.081691
 30
0.0
 11
392.111128
 21
409.081691
 31
0.0
  0
LINE
  5
EA
330
C1
100
AcDbEntity
  8
LC-003-005-----0
 62
     7
370
    25
100
AcDbLine
 10
419.861128
 20
436.831691
 30
0.0
 11
421.457318
 21
438.427881
 31
0.0
  0
LINE
  5
EB
330
C1
100
AcDbEntity
  8
LC-003-005-----0
 62
     7
370
    25
100
AcDbLine
 10
388.111128
 20
407.910118
 30
0.0
 11
392.111128
 21
411.910118
 31
0.0
  0
LINE
  5
EC
330
C1
100
AcDbEntity
  8
LC-003-005-----0
 62
     7
370
    25
100
AcDbLine
 10
419.861128
 20
439.660118
 30
0.0
 11
421.361128
 21
441.160118
 31
0.0
  0
LINE
  5
ED
330
C1
100
AcDbEntity
  8
LC-003-005-----0
 62
     7
370
    25
100
AcDbLine
 10
421.720584
 20
441.519574
 30
0.0
 11
424.061128
 21
443.860118
 31
0.0
  0
LINE
  5
EE
330
C1
100
AcDbEntity
  8
LC-003-005-----0
 62
     7
370
    25
100
AcDbLine
 10
388.111128
 20
410.738545
 30
0.0
 11
392.111128
 21
414.738545
 31
0.0
  0
LINE
  5
EF
330
C1
100
AcDbEntity
  8
LC-003-005-----0
 62
     7
370
    25
100
AcDbLine
 10
419.861128
 20
442.488545
 30
0.0
 11
421.591391
 21
444.218808
 31
0.0
  0
LINE
  5
F0
330
C1
100
AcDbEntity
  8
LC-003-005-----0
 62
     7
370
    25
100
AcDbLine
 10
388.111128
 20
413.566972
 30
0.0
 11
392.111128
 21
417.566972
 31
0.0
  0
LINE
  5
F1
330
C1
100
AcDbEntity
  8
LC-003-005-----0
 62
     7
370
    25
100
AcDbLine
 10
419.861128
 20
445.316972
 30
0.0
 11
421.011128
 21
446.466972
 31
0.0
  0
LINE
  5
F2
330
C1
100
AcDbEntity
  8
LC-003-005-----0
 62
     7
370
    25
100
AcDbLine
 10
423.534496
 20
448.99034
 30
0.0
 11
424.061128
 21
449.516972
 31
0.0
  0
LINE
  5
F3
330
C1
100
AcDbEntity
  8
LC-003-005-----0
 62
     7
370
    25
100
AcDbLine
 10
388.111128
 20
416.395399
 30
0.0
 11
392.111128
 21
420.395399
 31
0.0
  0
LINE
  5
F4
330
C1
100
AcDbEntity
  8
LC-003-005-----0
 62
     7
370
    25
100
AcDbLine
 10
419.861128
 20
448.145399
 30
0.0
 11
424.061128
 21
452.345399
 31
0.0
  0
LINE
  5
F5
330
C1
100
AcDbEntity
  8
LC-003-005-----0
 62
     7
370
    25
100
AcDbLine
 10
425.235303
 20
453.519574
 30
0.0
 11
427.235303
 21
455.519574
 31
0.0
  0
LINE
  5
F6
330
C1
100
AcDbEntity
  8
LC-003-005-----0
 62
     7
370
    25
100
AcDbLine
 10
388.111128
 20
419.223826
 30
0.0
 11
392.111128
 21
423.223826
 31
0.0
  0
LINE
  5
F7
330
C1
100
AcDbEntity
  8
LC-003-005-----0
 62
     7
370
    25
100
AcDbLine
 10
419.861128
 20
450.973826
 30
0.0
 11
424.406876
 21
455.519574
 31
0.0
  0
LINE
  5
F8
330
C1
100
AcDbEntity
  8
LC-003-005-----0
 62
     7
370
    25
100
AcDbLine
 10
388.111128
 20
422.052253
 30
0.0
 11
392.111128
 21
426.052253
 31
0.0
  0
LINE
  5
F9
330
C1
100
AcDbEntity
  8
LC-003-005-----0
 62
     7
370
    25
100
AcDbLine
 10
419.861128
 20
453.802253
 30
0.0
 11
421.578448
 21
455.519574
 31
0.0
  0
LINE
  5
FA
330
C1
100
AcDbEntity
  8
LC-003-005-----0
 62
     7
370
    25
100
AcDbLine
 10
388.111128
 20
424.880681
 30
0.0
 11
392.111128
 21
428.880681
 31
0.0
  0
LINE
  5
FB
330
C1
100
AcDbEntity
  8
LC-003-005-----0
 62
     7
370
    25
100
AcDbLine
 10
388.111128
 20
427.709108
 30
0.0
 11
392.111128
 21
431.709108
 31
0.0
  0
LINE
  5
FC
330
C1
100
AcDbEntity
  8
LC-003-005-----0
 62
     7
370
    25
100
AcDbLine
 10
388.111128
 20
430.537535
 30
0.0
 11
392.111128
 21
434.537535
 31
0.0
  0
LINE
  5
FD
330
C1
100
AcDbEntity
  8
LC-003-005-----0
 62
     7
370
    25
100
AcDbLine
 10
388.111128
 20
433.365962
 30
0.0
 11
392.111128
 21
437.365962
 31
0.0
  0
LINE
  5
FE
330
C1
100
AcDbEntity
  8
LC-003-005-----0
 62
     7
370
    25
100
AcDbLine
 10
388.54114
 20
436.624401
 30
0.0
 11
391.936313
 21
440.019574
 31
0.0
  0
ENDBLK
  5
C3
330
C1
100
AcDbEntity
  8
0
100
AcDbBlockEnd
  0
BLOCK
  5
11A
330
119
100
AcDbEntity
  8
0
100
AcDbBlockBegin
  2
*X33
 70
     1
 71
     0
 10
0.0
 20
0.0
 30
0.0
  3
*X33
  1

  4
*X3
  0
LINE
  5
11C
330
119
100
AcDbEntity
  8
LC-003-005-----0
 62
     7
370
    25
100
AcDbLine
 10
351.861128
 20
377.87307
 30
0.0
 11
354.711465
 21
375.022733
 31
0.0
  0
LINE
  5
11D
330
119
100
AcDbEntity
  8
LC-003-005-----0
 62
     7
370
    25
100
AcDbLine
 10
351.861128
 20
382.115711
 30
0.0
 11
353.861128
 21
380.115711
 31
0.0
  0
LINE
  5
11E
330
119
100
AcDbEntity
  8
LC-003-005-----0
 62
     7
370
    25
100
AcDbLine
 10
357.454105
 20
376.522733
 30
0.0
 11
358.954105
 21
375.022733
 31
0.0
  0
LINE
  5
11F
330
119
100
AcDbEntity
  8
LC-003-005-----0
 62
     7
370
    25
100
AcDbLine
 10
352.696746
 20
385.522733
 30
0.0
 11
353.861128
 21
384.358352
 31
0.0
  0
LINE
  5
120
330
119
100
AcDbEntity
  8
LC-003-005-----0
 62
     7
370
    25
100
AcDbLine
 10
361.696746
 20
376.522733
 30
0.0
 11
363.196746
 21
375.022733
 31
0.0
  0
LINE
  5
121
330
119
100
AcDbEntity
  8
LC-003-005-----0
 62
     7
370
    25
100
AcDbLine
 10
365.939387
 20
376.522733
 30
0.0
 11
367.439387
 21
375.022733
 31
0.0
  0
LINE
  5
122
330
119
100
AcDbEntity
  8
LC-003-005-----0
 62
     7
370
    25
100
AcDbLine
 10
370.182027
 20
376.522733
 30
0.0
 11
371.682027
 21
375.022733
 31
0.0
  0
LINE
  5
123
330
119
100
AcDbEntity
  8
LC-003-005-----0
 62
     7
370
    25
100
AcDbLine
 10
374.424668
 20
376.522733
 30
0.0
 11
375.924668
 21
375.022733
 31
0.0
  0
LINE
  5
124
330
119
100
AcDbEntity
  8
LC-003-005-----0
 62
     7
370
    25
100
AcDbLine
 10
378.667309
 20
376.522733
 30
0.0
 11
380.167309
 21
375.022733
 31
0.0
  0
LINE
  5
125
330
119
100
AcDbEntity
  8
LC-003-005-----0
 62
     7
370
    25
100
AcDbLine
 10
382.90995
 20
376.522733
 30
0.0
 11
384.40995
 21
375.022733
 31
0.0
  0
LINE
  5
126
330
119
100
AcDbEntity
  8
LC-003-005-----0
 62
     7
370
    25
100
AcDbLine
 10
387.15259
 20
376.522733
 30
0.0
 11
388.65259
 21
375.022733
 31
0.0
  0
LINE
  5
127
330
119
100
AcDbEntity
  8
LC-003-005-----0
 62
     7
370
    25
100
AcDbLine
 10
391.395231
 20
376.522733
 30
0.0
 11
392.895231
 21
375.022733
 31
0.0
  0
LINE
  5
128
330
119
100
AcDbEntity
  8
LC-003-005-----0
 62
     7
370
    25
100
AcDbLine
 10
394.861128
 20
377.299477
 30
0.0
 11
397.084968
 21
375.075637
 31
0.0
  0
LINE
  5
129
330
119
100
AcDbEntity
  8
LC-003-005-----0
 62
     7
370
    25
100
AcDbLine
 10
394.861128
 20
381.542118
 30
0.0
 11
396.861128
 21
379.542118
 31
0.0
  0
LINE
  5
12A
330
119
100
AcDbEntity
  8
LC-003-005-----0
 62
     7
370
    25
100
AcDbLine
 10
395.123153
 20
385.522733
 30
0.0
 11
396.861128
 21
383.784758
 31
0.0
  0
ENDBLK
  5
11B
330
119
100
AcDbEntity
  8
0
100
AcDbBlockEnd
  0
BLOCK
  5
14F
330
14E
100
AcDbEntity
  8
0
100
AcDbBlockBegin
  2
*X44
 70
     1
 71
     0
 10
0.0
 20
0.0
 30
0.0
  3
*X44
  1

  4
*X4
  0
LINE
  5
151
330
14E
100
AcDbEntity
  8
LC-003-005-----0
 62
     7
370
    25
100
AcDbLine
 10
334.831229
 20
394.902969
 30
0.0
 11
337.244523
 21
392.489675
 31
0.0
  0
LINE
  5
152
330
14E
100
AcDbEntity
  8
LC-003-005-----0
 62
     7
370
    25
100
AcDbLine
 10
334.361128
 20
398.201497
 30
0.0
 11
336.527118
 21
396.035507
 31
0.0
  0
LINE
  5
153
330
14E
100
AcDbEntity
  8
LC-003-005-----0
 62
     7
370
    25
100
AcDbLine
 10
338.377061
 20
394.185564
 30
0.0
 11
340.543051
 21
392.019574
 31
0.0
  0
LINE
  5
154
330
14E
100
AcDbEntity
  8
LC-003-005-----0
 62
     7
370
    25
100
AcDbLine
 10
334.361128
 20
401.029924
 30
0.0
 11
336.361128
 21
399.029924
 31
0.0
  0
LINE
  5
155
330
14E
100
AcDbEntity
  8
LC-003-005-----0
 62
     7
370
    25
100
AcDbLine
 10
341.371479
 20
394.019574
 30
0.0
 11
343.371479
 21
392.019574
 31
0.0
  0
LINE
  5
156
330
14E
100
AcDbEntity
  8
LC-003-005-----0
 62
     7
370
    25
100
AcDbLine
 10
334.361128
 20
403.858352
 30
0.0
 11
336.361128
 21
401.858352
 31
0.0
  0
LINE
  5
157
330
14E
100
AcDbEntity
  8
LC-003-005-----0
 62
     7
370
    25
100
AcDbLine
 10
344.199906
 20
394.019574
 30
0.0
 11
346.199906
 21
392.019574
 31
0.0
  0
LINE
  5
158
330
14E
100
AcDbEntity
  8
LC-003-005-----0
 62
     7
370
    25
100
AcDbLine
 10
334.361128
 20
406.686779
 30
0.0
 11
336.361128
 21
404.686779
 31
0.0
  0
LINE
  5
159
330
14E
100
AcDbEntity
  8
LC-003-005-----0
 62
     7
370
    25
100
AcDbLine
 10
347.028333
 20
394.019574
 30
0.0
 11
349.028333
 21
392.019574
 31
0.0
  0
LINE
  5
15A
330
14E
100
AcDbEntity
  8
LC-003-005-----0
 62
     7
370
    25
100
AcDbLine
 10
334.361128
 20
409.515206
 30
0.0
 11
336.361128
 21
407.515206
 31
0.0
  0
LINE
  5
15B
330
14E
100
AcDbEntity
  8
LC-003-005-----0
 62
     7
370
    25
100
AcDbLine
 10
347.361128
 20
396.515206
 30
0.0
 11
349.361128
 21
394.515206
 31
0.0
  0
LINE
  5
15C
330
14E
100
AcDbEntity
  8
LC-003-005-----0
 62
     7
370
    25
100
AcDbLine
 10
334.361128
 20
412.343633
 30
0.0
 11
336.361128
 21
410.343633
 31
0.0
  0
LINE
  5
15D
330
14E
100
AcDbEntity
  8
LC-003-005-----0
 62
     7
370
    25
100
AcDbLine
 10
347.361128
 20
399.343633
 30
0.0
 11
349.361128
 21
397.343633
 31
0.0
  0
LINE
  5
15E
330
14E
100
AcDbEntity
  8
LC-003-005-----0
 62
     7
370
    25
100
AcDbLine
 10
334.361128
 20
415.17206
 30
0.0
 11
336.361128
 21
413.17206
 31
0.0
  0
LINE
  5
15F
330
14E
100
AcDbEntity
  8
LC-003-005-----0
 62
     7
370
    25
100
AcDbLine
 10
347.361128
 20
402.17206
 30
0.0
 11
349.361128
 21
400.17206
 31
0.0
  0
LINE
  5
160
330
14E
100
AcDbEntity
  8
LC-003-005-----0
 62
     7
370
    25
100
AcDbLine
 10
334.361128
 20
418.000487
 30
0.0
 11
336.361128
 21
416.000487
 31
0.0
  0
LINE
  5
161
330
14E
100
AcDbEntity
  8
LC-003-005-----0
 62
     7
370
    25
100
AcDbLine
 10
347.361128
 20
405.000487
 30
0.0
 11
349.361128
 21
403.000487
 31
0.0
  0
LINE
  5
162
330
14E
100
AcDbEntity
  8
LC-003-005-----0
 62
     7
370
    25
100
AcDbLine
 10
334.361128
 20
420.828914
 30
0.0
 11
336.361128
 21
418.828914
 31
0.0
  0
LINE
  5
163
330
14E
100
AcDbEntity
  8
LC-003-005-----0
 62
     7
370
    25
100
AcDbLine
 10
347.361128
 20
407.828914
 30
0.0
 11
349.361128
 21
405.828914
 31
0.0
  0
LINE
  5
164
330
14E
100
AcDbEntity
  8
LC-003-005-----0
 62
     7
370
    25
100
AcDbLine
 10
334.361128
 20
423.657341
 30
0.0
 11
336.361128
 21
421.657341
 31
0.0
  0
LINE
  5
165
330
14E
100
AcDbEntity
  8
LC-003-005-----0
 62
     7
370
    25
100
AcDbLine
 10
347.361128
 20
410.657341
 30
0.0
 11
349.361128
 21
408.657341
 31
0.0
  0
LINE
  5
166
330
14E
100
AcDbEntity
  8
LC-003-005-----0
 62
     7
370
    25
100
AcDbLine
 10
334.361128
 20
426.485769
 30
0.0
 11
336.361128
 21
424.485769
 31
0.0
  0
LINE
  5
167
330
14E
100
AcDbEntity
  8
LC-003-005-----0
 62
     7
370
    25
100
AcDbLine
 10
347.361128
 20
413.485769
 30
0.0
 11
349.361128
 21
411.485769
 31
0.0
  0
LINE
  5
168
330
14E
100
AcDbEntity
  8
LC-003-005-----0
 62
     7
370
    25
100
AcDbLine
 10
334.361128
 20
429.314196
 30
0.0
 11
336.361128
 21
427.314196
 31
0.0
  0
LINE
  5
169
330
14E
100
AcDbEntity
  8
LC-003-005-----0
 62
     7
370
    25
100
AcDbLine
 10
347.361128
 20
416.314196
 30
0.0
 11
349.361128
 21
414.314196
 31
0.0
  0
LINE
  5
16A
330
14E
100
AcDbEntity
  8
LC-003-005-----0
 62
     7
370
    25
100
AcDbLine
 10
334.361876
 20
432.141875
 30
0.0
 11
336.361128
 21
430.142623
 31
0.0
  0
LINE
  5
16B
330
14E
100
AcDbEntity
  8
LC-003-005-----0
 62
     7
370
    25
100
AcDbLine
 10
347.361128
 20
419.142623
 30
0.0
 11
349.361128
 21
417.142623
 31
0.0
  0
LINE
  5
16C
330
14E
100
AcDbEntity
  8
LC-003-005-----0
 62
     7
370
    25
100
AcDbLine
 10
334.706648
 20
434.62553
 30
0.0
 11
336.411984
 21
432.920194
 31
0.0
  0
LINE
  5
16D
330
14E
100
AcDbEntity
  8
LC-003-005-----0
 62
     7
370
    25
100
AcDbLine
 10
347.361128
 20
421.97105
 30
0.0
 11
349.361128
 21
419.97105
 31
0.0
  0
LINE
  5
16E
330
14E
100
AcDbEntity
  8
LC-003-005-----0
 62
     7
370
    25
100
AcDbLine
 10
335.502176
 20
436.658429
 30
0.0
 11
337.00249
 21
435.158115
 31
0.0
  0
LINE
  5
16F
330
14E
100
AcDbEntity
  8
LC-003-005-----0
 62
     7
370
    25
100
AcDbLine
 10
347.361128
 20
424.799477
 30
0.0
 11
349.361128
 21
422.799477
 31
0.0
  0
LINE
  5
170
330
14E
100
AcDbEntity
  8
LC-003-005-----0
 62
     7
370
    25
100
AcDbLine
 10
336.628546
 20
438.360486
 30
0.0
 11
338.051398
 21
436.937634
 31
0.0
  0
LINE
  5
171
330
14E
100
AcDbEntity
  8
LC-003-005-----0
 62
     7
370
    25
100
AcDbLine
 10
347.361128
 20
427.627904
 30
0.0
 11
349.361128
 21
425.627904
 31
0.0
  0
LINE
  5
172
330
14E
100
AcDbEntity
  8
LC-003-005-----0
 62
     7
370
    25
100
AcDbLine
 10
338.045025
 20
439.772434
 30
0.0
 11
339.468452
 21
438.349007
 31
0.0
  0
LINE
  5
173
330
14E
100
AcDbEntity
  8
LC-003-005-----0
 62
     7
370
    25
100
AcDbLine
 10
347.361128
 20
430.456331
 30
0.0
 11
349.361128
 21
428.456331
 31
0.0
  0
LINE
  5
174
330
14E
100
AcDbEntity
  8
LC-003-005-----0
 62
     7
370
    25
100
AcDbLine
 10
339.751907
 20
440.89398
 30
0.0
 11
341.25425
 21
439.391637
 31
0.0
  0
LINE
  5
175
330
14E
100
AcDbEntity
  8
LC-003-005-----0
 62
     7
370
    25
100
AcDbLine
 10
347.361128
 20
433.284758
 30
0.0
 11
349.361128
 21
431.284758
 31
0.0
  0
LINE
  5
176
330
14E
100
AcDbEntity
  8
LC-003-005-----0
 62
     7
370
    25
100
AcDbLine
 10
341.790731
 20
441.683582
 30
0.0
 11
343.501102
 21
439.973212
 31
0.0
  0
LINE
  5
177
330
14E
100
AcDbEntity
  8
LC-003-005-----0
 62
     7
370
    25
100
AcDbLine
 10
347.361128
 20
436.113186
 30
0.0
 11
349.361128
 21
434.113186
 31
0.0
  0
LINE
  5
178
330
14E
100
AcDbEntity
  8
LC-003-005-----0
 62
     7
370
    25
100
AcDbLine
 10
344.283468
 20
442.019272
 30
0.0
 11
346.283167
 21
440.019574
 31
0.0
  0
LINE
  5
179
330
14E
100
AcDbEntity
  8
LC-003-005-----0
 62
     7
370
    25
100
AcDbLine
 10
347.361128
 20
438.941613
 30
0.0
 11
349.361128
 21
436.941613
 31
0.0
  0
LINE
  5
17A
330
14E
100
AcDbEntity
  8
LC-003-005-----0
 62
     7
370
    25
100
AcDbLine
 10
347.111594
 20
442.019574
 30
0.0
 11
349.361128
 21
439.77004
 31
0.0
  0
LINE
  5
17B
330
14E
100
AcDbEntity
  8
LC-003-005-----0
 62
     7
370
    25
100
AcDbLine
 10
349.940021
 20
442.019574
 30
0.0
 11
351.940021
 21
440.019574
 31
0.0
  0
LINE
  5
17C
330
14E
100
AcDbEntity
  8
LC-003-005-----0
 62
     7
370
    25
100
AcDbLine
 10
399.361128
 20
392.598467
 30
0.0
 11
399.940021
 21
392.019574
 31
0.0
  0
LINE
  5
17D
330
14E
100
AcDbEntity
  8
LC-003-005-----0
 62
     7
370
    25
100
AcDbLine
 10
352.768448
 20
442.019574
 30
0.0
 11
354.768448
 21
440.019574
 31
0.0
  0
LINE
  5
17E
330
14E
100
AcDbEntity
  8
LC-003-005-----0
 62
     7
370
    25
100
AcDbLine
 10
399.361128
 20
395.426894
 30
0.0
 11
402.768448
 21
392.019574
 31
0.0
  0
LINE
  5
17F
330
14E
100
AcDbEntity
  8
LC-003-005-----0
 62
     7
370
    25
100
AcDbLine
 10
355.596875
 20
442.019574
 30
0.0
 11
357.596875
 21
440.019574
 31
0.0
  0
LINE
  5
180
330
14E
100
AcDbEntity
  8
LC-003-005-----0
 62
     7
370
    25
100
AcDbLine
 10
399.361128
 20
398.255321
 30
0.0
 11
401.361128
 21
396.255321
 31
0.0
  0
LINE
  5
181
330
14E
100
AcDbEntity
  8
LC-003-005-----0
 62
     7
370
    25
100
AcDbLine
 10
403.596875
 20
394.019574
 30
0.0
 11
405.596875
 21
392.019574
 31
0.0
  0
LINE
  5
182
330
14E
100
AcDbEntity
  8
LC-003-005-----0
 62
     7
370
    25
100
AcDbLine
 10
358.425302
 20
442.019574
 30
0.0
 11
360.425302
 21
440.019574
 31
0.0
  0
LINE
  5
183
330
14E
100
AcDbEntity
  8
LC-003-005-----0
 62
     7
370
    25
100
AcDbLine
 10
399.361128
 20
401.083748
 30
0.0
 11
401.361128
 21
399.083748
 31
0.0
  0
LINE
  5
184
330
14E
100
AcDbEntity
  8
LC-003-005-----0
 62
     7
370
    25
100
AcDbLine
 10
406.425302
 20
394.019574
 30
0.0
 11
408.425302
 21
392.019574
 31
0.0
  0
LINE
  5
185
330
14E
100
AcDbEntity
  8
LC-003-005-----0
 62
     7
370
    25
100
AcDbLine
 10
361.25373
 20
442.019574
 30
0.0
 11
363.25373
 21
440.019574
 31
0.0
  0
LINE
  5
186
330
14E
100
AcDbEntity
  8
LC-003-005-----0
 62
     7
370
    25
100
AcDbLine
 10
399.361128
 20
403.912175
 30
0.0
 11
401.361128
 21
401.912175
 31
0.0
  0
LINE
  5
187
330
14E
100
AcDbEntity
  8
LC-003-005-----0
 62
     7
370
    25
100
AcDbLine
 10
409.25373
 20
394.019574
 30
0.0
 11
410.983278
 21
392.290025
 31
0.0
  0
LINE
  5
188
330
14E
100
AcDbEntity
  8
LC-003-005-----0
 62
     7
370
    25
100
AcDbLine
 10
364.082157
 20
442.019574
 30
0.0
 11
366.082157
 21
440.019574
 31
0.0
  0
LINE
  5
189
330
14E
100
AcDbEntity
  8
LC-003-005-----0
 62
     7
370
    25
100
AcDbLine
 10
399.361128
 20
406.740603
 30
0.0
 11
401.361128
 21
404.740603
 31
0.0
  0
LINE
  5
18A
330
14E
100
AcDbEntity
  8
LC-003-005-----0
 62
     7
370
    25
100
AcDbLine
 10
411.338372
 20
394.763359
 30
0.0
 11
412.754424
 21
393.347307
 31
0.0
  0
LINE
  5
18B
330
14E
100
AcDbEntity
  8
LC-003-005-----0
 62
     7
370
    25
100
AcDbLine
 10
366.910584
 20
442.019574
 30
0.0
 11
368.910584
 21
440.019574
 31
0.0
  0
LINE
  5
18C
330
14E
100
AcDbEntity
  8
LC-003-005-----0
 62
     7
370
    25
100
AcDbLine
 10
399.361128
 20
409.56903
 30
0.0
 11
401.361128
 21
407.56903
 31
0.0
  0
LINE
  5
18D
330
14E
100
AcDbEntity
  8
LC-003-005-----0
 62
     7
370
    25
100
AcDbLine
 10
412.331459
 20
396.598699
 30
0.0
 11
413.933593
 21
394.996565
 31
0.0
  0
LINE
  5
18E
330
14E
100
AcDbEntity
  8
LC-003-005-----0
 62
     7
370
    25
100
AcDbLine
 10
369.739011
 20
442.019574
 30
0.0
 11
371.739011
 21
440.019574
 31
0.0
  0
LINE
  5
18F
330
14E
100
AcDbEntity
  8
LC-003-005-----0
 62
     7
370
    25
100
AcDbLine
 10
399.361128
 20
412.397457
 30
0.0
 11
401.361128
 21
410.397457
 31
0.0
  0
LINE
  5
190
330
14E
100
AcDbEntity
  8
LC-003-005-----0
 62
     7
370
    25
100
AcDbLine
 10
412.361128
 20
399.397457
 30
0.0
 11
414.361128
 21
397.397457
 31
0.0
  0
LINE
  5
191
330
14E
100
AcDbEntity
  8
LC-003-005-----0
 62
     7
370
    25
100
AcDbLine
 10
372.567438
 20
442.019574
 30
0.0
 11
374.567438
 21
440.019574
 31
0.0
  0
LINE
  5
192
330
14E
100
AcDbEntity
  8
LC-003-005-----0
 62
     7
370
    25
100
AcDbLine
 10
399.361128
 20
415.225884
 30
0.0
 11
401.361128
 21
413.225884
 31
0.0
  0
LINE
  5
193
330
14E
100
AcDbEntity
  8
LC-003-005-----0
 62
     7
370
    25
100
AcDbLine
 10
412.361128
 20
402.225884
 30
0.0
 11
414.361128
 21
400.225884
 31
0.0
  0
LINE
  5
194
330
14E
100
AcDbEntity
  8
LC-003-005-----0
 62
     7
370
    25
100
AcDbLine
 10
375.395865
 20
442.019574
 30
0.0
 11
377.395865
 21
440.019574
 31
0.0
  0
LINE
  5
195
330
14E
100
AcDbEntity
  8
LC-003-005-----0
 62
     7
370
    25
100
AcDbLine
 10
399.361128
 20
418.054311
 30
0.0
 11
401.361128
 21
416.054311
 31
0.0
  0
LINE
  5
196
330
14E
100
AcDbEntity
  8
LC-003-005-----0
 62
     7
370
    25
100
AcDbLine
 10
412.361128
 20
405.054311
 30
0.0
 11
414.361128
 21
403.054311
 31
0.0
  0
LINE
  5
197
330
14E
100
AcDbEntity
  8
LC-003-005-----0
 62
     7
370
    25
100
AcDbLine
 10
378.224292
 20
442.019574
 30
0.0
 11
380.224292
 21
440.019574
 31
0.0
  0
LINE
  5
198
330
14E
100
AcDbEntity
  8
LC-003-005-----0
 62
     7
370
    25
100
AcDbLine
 10
399.361128
 20
420.882738
 30
0.0
 11
401.361128
 21
418.882738
 31
0.0
  0
LINE
  5
199
330
14E
100
AcDbEntity
  8
LC-003-005-----0
 62
     7
370
    25
100
AcDbLine
 10
412.361128
 20
407.882738
 30
0.0
 11
414.361128
 21
405.882738
 31
0.0
  0
LINE
  5
19A
330
14E
100
AcDbEntity
  8
LC-003-005-----0
 62
     7
370
    25
100
AcDbLine
 10
381.052719
 20
442.019574
 30
0.0
 11
383.052719
 21
440.019574
 31
0.0
  0
LINE
  5
19B
330
14E
100
AcDbEntity
  8
LC-003-005-----0
 62
     7
370
    25
100
AcDbLine
 10
399.361128
 20
423.711165
 30
0.0
 11
401.361128
 21
421.711165
 31
0.0
  0
LINE
  5
19C
330
14E
100
AcDbEntity
  8
LC-003-005-----0
 62
     7
370
    25
100
AcDbLine
 10
412.361128
 20
410.711165
 30
0.0
 11
414.361128
 21
408.711165
 31
0.0
  0
LINE
  5
19D
330
14E
100
AcDbEntity
  8
LC-003-005-----0
 62
     7
370
    25
100
AcDbLine
 10
383.881147
 20
442.019574
 30
0.0
 11
385.881147
 21
440.019574
 31
0.0
  0
LINE
  5
19E
330
14E
100
AcDbEntity
  8
LC-003-005-----0
 62
     7
370
    25
100
AcDbLine
 10
399.361128
 20
426.539592
 30
0.0
 11
401.361128
 21
424.539592
 31
0.0
  0
LINE
  5
19F
330
14E
100
AcDbEntity
  8
LC-003-005-----0
 62
     7
370
    25
100
AcDbLine
 10
412.361128
 20
413.539592
 30
0.0
 11
414.361128
 21
411.539592
 31
0.0
  0
LINE
  5
1A0
330
14E
100
AcDbEntity
  8
LC-003-005-----0
 62
     7
370
    25
100
AcDbLine
 10
386.709574
 20
442.019574
 30
0.0
 11
388.709574
 21
440.019574
 31
0.0
  0
LINE
  5
1A1
330
14E
100
AcDbEntity
  8
LC-003-005-----0
 62
     7
370
    25
100
AcDbLine
 10
399.361128
 20
429.36802
 30
0.0
 11
401.361128
 21
427.36802
 31
0.0
  0
LINE
  5
1A2
330
14E
100
AcDbEntity
  8
LC-003-005-----0
 62
     7
370
    25
100
AcDbLine
 10
412.361128
 20
416.36802
 30
0.0
 11
414.361128
 21
414.36802
 31
0.0
  0
LINE
  5
1A3
330
14E
100
AcDbEntity
  8
LC-003-005-----0
 62
     7
370
    25
100
AcDbLine
 10
389.538001
 20
442.019574
 30
0.0
 11
391.538001
 21
440.019574
 31
0.0
  0
LINE
  5
1A4
330
14E
100
AcDbEntity
  8
LC-003-005-----0
 62
     7
370
    25
100
AcDbLine
 10
399.361128
 20
432.196447
 30
0.0
 11
401.361128
 21
430.196447
 31
0.0
  0
LINE
  5
1A5
330
14E
100
AcDbEntity
  8
LC-003-005-----0
 62
     7
370
    25
100
AcDbLine
 10
412.361128
 20
419.196447
 30
0.0
 11
414.361128
 21
417.196447
 31
0.0
  0
LINE
  5
1A6
330
14E
100
AcDbEntity
  8
LC-003-005-----0
 62
     7
370
    25
100
AcDbLine
 10
392.366428
 20
442.019574
 30
0.0
 11
394.366428
 21
440.019574
 31
0.0
  0
LINE
  5
1A7
330
14E
100
AcDbEntity
  8
LC-003-005-----0
 62
     7
370
    25
100
AcDbLine
 10
399.361128
 20
435.024874
 30
0.0
 11
401.361128
 21
433.024874
 31
0.0
  0
LINE
  5
1A8
330
14E
100
AcDbEntity
  8
LC-003-005-----0
 62
     7
370
    25
100
AcDbLine
 10
412.361128
 20
422.024874
 30
0.0
 11
414.361128
 21
420.024874
 31
0.0
  0
LINE
  5
1A9
330
14E
100
AcDbEntity
  8
LC-003-005-----0
 62
     7
370
    25
100
AcDbLine
 10
395.194855
 20
442.019574
 30
0.0
 11
397.194855
 21
440.019574
 31
0.0
  0
LINE
  5
1AA
330
14E
100
AcDbEntity
  8
LC-003-005-----0
 62
     7
370
    25
100
AcDbLine
 10
399.361128
 20
437.853301
 30
0.0
 11
401.361128
 21
435.853301
 31
0.0
  0
LINE
  5
1AB
330
14E
100
AcDbEntity
  8
LC-003-005-----0
 62
     7
370
    25
100
AcDbLine
 10
412.361128
 20
424.853301
 30
0.0
 11
414.361128
 21
422.853301
 31
0.0
  0
LINE
  5
1AC
330
14E
100
AcDbEntity
  8
LC-003-005-----0
 62
     7
370
    25
100
AcDbLine
 10
398.023282
 20
442.019574
 30
0.0
 11
401.361128
 21
438.681728
 31
0.0
  0
LINE
  5
1AD
330
14E
100
AcDbEntity
  8
LC-003-005-----0
 62
     7
370
    25
100
AcDbLine
 10
412.361128
 20
427.681728
 30
0.0
 11
414.361128
 21
425.681728
 31
0.0
  0
LINE
  5
1AE
330
14E
100
AcDbEntity
  8
LC-003-005-----0
 62
     7
370
    25
100
AcDbLine
 10
400.851709
 20
442.019574
 30
0.0
 11
402.851709
 21
440.019574
 31
0.0
  0
LINE
  5
1AF
330
14E
100
AcDbEntity
  8
LC-003-005-----0
 62
     7
370
    25
100
AcDbLine
 10
412.361128
 20
430.510155
 30
0.0
 11
414.361128
 21
428.510155
 31
0.0
  0
LINE
  5
1B0
330
14E
100
AcDbEntity
  8
LC-003-005-----0
 62
     7
370
    25
100
AcDbLine
 10
403.680136
 20
442.019574
 30
0.0
 11
405.812982
 21
439.886728
 31
0.0
  0
LINE
  5
1B1
330
14E
100
AcDbEntity
  8
LC-003-005-----0
 62
     7
370
    25
100
AcDbLine
 10
412.228282
 20
433.471428
 30
0.0
 11
414.361128
 21
431.338582
 31
0.0
  0
LINE
  5
1B2
330
14E
100
AcDbEntity
  8
LC-003-005-----0
 62
     7
370
    25
100
AcDbLine
 10
406.814079
 20
441.714058
 30
0.0
 11
414.055613
 21
434.472525
 31
0.0
  0
ENDBLK
  5
150
330
14E
100
AcDbEntity
  8
0
100
AcDbBlockEnd
  0
BLOCK
  5
1BA
330
1B9
100
AcDbEntity
  8
0
100
AcDbBlockBegin
  2
*X55
 70
     1
 71
     0
 10
0.0
 20
0.0
 30
0.0
  3
*X55
  1

  4
*X5
  0
LINE
  5
1BC
330
1B9
100
AcDbEntity
  8
LC-003-005-----0
 62
     7
370
    25
100
AcDbLine
 10
327.425361
 20
447.563671
 30
0.0
 11
326.371805
 21
448.617228
 31
0.0
  0
LINE
  5
1BD
330
1B9
100
AcDbEntity
  8
LC-003-005-----0
  6
DASHED
 62
     7
370
    25
100
AcDbLine
 10
325.420409
 20
443.911769
 30
0.0
 11
322.719903
 21
446.612275
 31
0.0
  0
ENDBLK
  5
1BB
330
1B9
100
AcDbEntity
  8
0
100
AcDbBlockEnd
  0
BLOCK
  5
1C0
330
1BF
100
AcDbEntity
  8
0
100
AcDbBlockBegin
  2
*X66
 70
     1
 71
     0
 10
0.0
 20
0.0
 30
0.0
  3
*X66
  1

  4
*X6
  0
LINE
  5
1C2
330
1BF
100
AcDbEntity
  8
LC-003-005-----0
 62
     7
370
    25
100
AcDbLine
 10
425.787052
 20
445.368503
 30
0.0
 11
422.476637
 21
448.678918
 31
0.0
  0
ENDBLK
  5
1C1
330
1BF
100
AcDbEntity
  8
0
100
AcDbBlockEnd
  0
BLOCK
  5
1D3
330
1C9
100
AcDbEntity
  8
0
100
AcDbBlockBegin
  2
*D7
 70
     1
 71
     0
 10
0.0
 20
0.0
 30
0.0
  3
*D7
  1

  0
LINE
  5
1CA
330
1C9
100
AcDbEntity
  8
LC-005-003-----0
 62
     2
370
    -2
100
AcDbLine
 10
322.711128
 20
446.402994
 30
0.0
 11
322.711128
 21
488.988
 31
0.0
  0
LINE
  5
1CB
330
1C9
100
AcDbEntity
  8
LC-005-003-----0
 62
     2
370
    -2
100
AcDbLine
 10
426.011128
 20
446.402994
 30
0.0
 11
426.011128
 21
488.988
 31
0.0
  0
LINE
  5
1CC
330
1C9
100
AcDbEntity
  8
LC-005-003-----0
 62
     2
370
    -2
100
AcDbLine
 10
350.711128
 20
485.388
 30
0.0
 11
398.011128
 21
485.388
 31
0.0
  0
SOLID
  5
1CD
330
1C9
100
AcDbEntity
  8
LC-005-003-----0
 62
     2
100
AcDbTrace
 10
350.711128
 20
490.054667
 30
0.0
 11
350.711128
 21
480.721333
 31
0.0
 12
322.711128
 22
485.388
 32
0.0
 13
322.711128
 23
485.388
 33
0.0
  0
SOLID
  5
1CE
330
1C9
100
AcDbEntity
  8
LC-005-003-----0
 62
     2
100
AcDbTrace
 10
398.011128
 20
480.721333
 30
0.0
 11
398.011128
 21
490.054667
 31
0.0
 12
426.011128
 22
485.388
 32
0.0
 13
426.011128
 23
485.388
 33
0.0
  0
MTEXT
  5
1CF
330
1C9
100
AcDbEntity
  8
LC-005-003-----0
 62
     2
100
AcDbMText
 10
371.749176
 20
516.188
 30
0.0
 40
28.0
 41
0.0
 71
     5
 72
     1
  1
\A1;%%c100
  7
LCTX15-400-0-0pDIN-Schrift
 73
     1
 44
1.0
  0
POINT
  5
1D0
330
1C9
100
AcDbEntity
  8
Defpoints
 62
     0
100
AcDbPoint
 10
322.711128
 20
446.402994
 30
0.0
  0
POINT
  5
1D1
330
1C9
100
AcDbEntity
  8
Defpoints
 62
     0
100
AcDbPoint
 10
426.011128
 20
446.402994
 30
0.0
  0
POINT
  5
1D2
330
1C9
100
AcDbEntity
  8
Defpoints
 62
     0
100
AcDbPoint
 10
426.011128
 20
485.388
 30
0.0
  0
ENDBLK
  5
1D4
330
1C9
100
AcDbEntity
  8
0
100
AcDbBlockEnd
  0
BLOCK
  5
1E1
330
1D6
100
AcDbEntity
  8
0
100
AcDbBlockBegin
  2
*D8
 70
     1
 71
     0
 10
0.0
 20
0.0
 30
0.0
  3
*D8
  1

  0
LINE
  5
1D7
330
1D6
100
AcDbEntity
  8
LC-005-003-----0
 62
     2
370
    -2
100
AcDbLine
 10
404.361128
 20
440.019574
 30
0.0
 11
503.887952
 21
440.019574
 31
0.0
  0
LINE
  5
1D8
330
1D6
100
AcDbEntity
  8
LC-005-003-----0
 62
     2
370
    -2
100
AcDbLine
 10
409.361128
 20
392.019574
 30
0.0
 11
503.887952
 21
392.019574
 31
0.0
  0
LINE
  5
1D9
330
1D6
100
AcDbEntity
  8
LC-005-003-----0
 62
     2
370
    -2
100
AcDbLine
 10
500.287952
 20
364.019574
 30
0.0
 11
500.287952
 21
336.019574
 31
0.0
  0
LINE
  5
1DA
330
1D6
100
AcDbEntity
  8
LC-005-003-----0
 62
     2
370
    -2
100
AcDbLine
 10
500.287952
 20
468.019574
 30
0.0
 11
500.287952
 21
495.242226
 31
0.0
  0
SOLID
  5
1DB
330
1D6
100
AcDbEntity
  8
LC-005-003-----0
 62
     2
100
AcDbTrace
 10
495.621285
 20
468.019574
 30
0.0
 11
504.954618
 21
468.019574
 31
0.0
 12
500.287952
 22
440.019574
 32
0.0
 13
500.287952
 23
440.019574
 33
0.0
  0
SOLID
  5
1DC
330
1D6
100
AcDbEntity
  8
LC-005-003-----0
 62
     2
100
AcDbTrace
 10
504.954618
 20
364.019574
 30
0.0
 11
495.621285
 21
364.019574
 31
0.0
 12
500.287952
 22
392.019574
 32
0.0
 13
500.287952
 23
392.019574
 33
0.0
  0
MTEXT
  5
1DD
330
1D6
100
AcDbEntity
  8
LC-005-003-----0
 62
     2
100
AcDbMText
 10
469.487952
 20
472.32
 30
0.0
 40
28.0
 41
0.0
 71
     5
 72
     1
  1
\A1;50
  7
LCTX15-400-0-0pDIN-Schrift
 11
6.123031769111886E-17
 21
1.0
 31
0.0
 73
     1
 44
1.0
  0
POINT
  5
1DE
330
1D6
100
AcDbEntity
  8
Defpoints
 62
     0
100
AcDbPoint
 10
404.361128
 20
440.019574
 30
0.0
  0
POINT
  5
1DF
330
1D6
100
AcDbEntity
  8
Defpoints
 62
     0
100
AcDbPoint
 10
409.361128
 20
392.019574
 30
0.0
  0
POINT
  5
1E0
330
1D6
100
AcDbEntity
  8
Defpoints
 62
     0
100
AcDbPoint
 10
500.287952
 20
392.019574
 30
0.0
  0
ENDBLK
  5
1E2
330
1D6
100
AcDbEntity
  8
0
100
AcDbBlockEnd
  0
BLOCK
  5
1EE
330
1E4
100
AcDbEntity
  8
0
100
AcDbBlockBegin
  2
*D9
 70
     1
 71
     0
 10
0.0
 20
0.0
 30
0.0
  3
*D9
  1

  0
LINE
  5
1E5
330
1E4
100
AcDbEntity
  8
LC-005-003-----0
 62
     2
370
    -2
100
AcDbLine
 10
321.361128
 20
455.519574
 30
0.0
 11
321.361128
 21
537.696
 31
0.0
  0
LINE
  5
1E6
330
1E4
100
AcDbEntity
  8
LC-005-003-----0
 62
     2
370
    -2
100
AcDbLine
 10
427.361128
 20
455.519574
 30
0.0
 11
427.361128
 21
537.696
 31
0.0
  0
LINE
  5
1E7
330
1E4
100
AcDbEntity
  8
LC-005-003-----0
 62
     2
370
    -2
100
AcDbLine
 10
349.361128
 20
534.096
 30
0.0
 11
399.361128
 21
534.096
 31
0.0
  0
SOLID
  5
1E8
330
1E4
100
AcDbEntity
  8
LC-005-003-----0
 62
     2
100
AcDbTrace
 10
349.361128
 20
538.762667
 30
0.0
 11
349.361128
 21
529.429333
 31
0.0
 12
321.361128
 22
534.096
 32
0.0
 13
321.361128
 23
534.096
 33
0.0
  0
SOLID
  5
1E9
330
1E4
100
AcDbEntity
  8
LC-005-003-----0
 62
     2
100
AcDbTrace
 10
399.361128
 20
529.429333
 30
0.0
 11
399.361128
 21
538.762667
 31
0.0
 12
427.361128
 22
534.096
 32
0.0
 13
427.361128
 23
534.096
 33
0.0
  0
MTEXT
  5
1EA
330
1E4
100
AcDbEntity
  8
LC-005-003-----0
 62
     2
100
AcDbMText
 10
374.361128
 20
564.896
 30
0.0
 40
28.0
 41
0.0
 71
     5
 72
     1
  1
%%c\A1;106
  7
LCTX15-400-0-0pDIN-Schrift
 73
     1
 44
1.0
  0
POINT
  5
1EB
330
1E4
100
AcDbEntity
  8
Defpoints
 62
     0
100
AcDbPoint
 10
321.361128
 20
455.519574
 30
0.0
  0
POINT
  5
1EC
330
1E4
100
AcDbEntity
  8
Defpoints
 62
     0
100
AcDbPoint
 10
427.361128
 20
455.519574
 30
0.0
  0
POINT
  5
1ED
330
1E4
100
AcDbEntity
  8
Defpoints
 62
     0
100
AcDbPoint
 10
427.361128
 20
534.096
 30
0.0
  0
ENDBLK
  5
1EF
330
1E4
100
AcDbEntity
  8
0
100
AcDbBlockEnd
  0
BLOCK
  5
1FB
330
1F1
100
AcDbEntity
  8
0
100
AcDbBlockBegin
  2
*D10
 70
     1
 71
     0
 10
0.0
 20
0.0
 30
0.0
  3
*D10
  1

  0
LINE
  5
1F2
330
1F1
100
AcDbEntity
  8
LC-005-003-----0
 62
     2
370
    -2
100
AcDbLine
 10
321.361128
 20
455.519574
 30
0.0
 11
285.039174
 21
455.519574
 31
0.0
  0
LINE
  5
1F3
330
1F1
100
AcDbEntity
  8
LC-005-003-----0
 62
     2
370
    -2
100
AcDbLine
 10
339.361128
 20
385.522733
 30
0.0
 11
285.039174
 21
385.522733
 31
0.0
  0
LINE
  5
1F4
330
1F1
100
AcDbEntity
  8
LC-005-003-----0
 62
     2
370
    -2
100
AcDbLine
 10
288.639174
 20
427.519574
 30
0.0
 11
288.639174
 21
413.522733
 31
0.0
  0
SOLID
  5
1F5
330
1F1
100
AcDbEntity
  8
LC-005-003-----0
 62
     2
100
AcDbTrace
 10
293.305841
 20
427.519574
 30
0.0
 11
283.972507
 21
427.519574
 31
0.0
 12
288.639174
 22
455.519574
 32
0.0
 13
288.639174
 23
455.519574
 33
0.0
  0
SOLID
  5
1F6
330
1F1
100
AcDbEntity
  8
LC-005-003-----0
 62
     2
100
AcDbTrace
 10
283.972507
 20
413.522733
 30
0.0
 11
293.305841
 21
413.522733
 31
0.0
 12
288.639174
 22
385.522733
 32
0.0
 13
288.639174
 23
385.522733
 33
0.0
  0
MTEXT
  5
1F7
330
1F1
100
AcDbEntity
  8
LC-005-003-----0
 62
     2
100
AcDbMText
 10
257.839174
 20
420.521154
 30
0.0
 40
28.0
 41
0.0
 71
     5
 72
     1
  1
\A1;70
  7
LCTX15-400-0-0pDIN-Schrift
 11
6.123031769111886E-17
 21
1.0
 31
0.0
 73
     1
 44
1.0
  0
POINT
  5
1F8
330
1F1
100
AcDbEntity
  8
Defpoints
 62
     0
100
AcDbPoint
 10
321.361128
 20
455.519574
 30
0.0
  0
POINT
  5
1F9
330
1F1
100
AcDbEntity
  8
Defpoints
 62
     0
100
AcDbPoint
 10
339.361128
 20
385.522733
 30
0.0
  0
POINT
  5
1FA
330
1F1
100
AcDbEntity
  8
Defpoints
 62
     0
100
AcDbPoint
 10
288.639174
 20
385.522733
 30
0.0
  0
ENDBLK
  5
1FC
330
1F1
100
AcDbEntity
  8
0
100
AcDbBlockEnd
  0
BLOCK
  5
208
330
1FE
100
AcDbEntity
  8
0
100
AcDbBlockBegin
  2
*D11
 70
     1
 71
     0
 10
0.0
 20
0.0
 30
0.0
  3
*D11
  1

  0
LINE
  5
1FF
330
1FE
100
AcDbEntity
  8
LC-005-003-----0
 62
     2
370
    -2
100
AcDbLine
 10
327.361128
 20
397.522733
 30
0.0
 11
327.361128
 21
314.874
 31
0.0
  0
LINE
  5
200
330
1FE
100
AcDbEntity
  8
LC-005-003-----0
 62
     2
370
    -2
100
AcDbLine
 10
421.361128
 20
397.522733
 30
0.0
 11
421.361128
 21
314.874
 31
0.0
  0
LINE
  5
201
330
1FE
100
AcDbEntity
  8
LC-005-003-----0
 62
     2
370
    -2
100
AcDbLine
 10
355.361128
 20
318.474
 30
0.0
 11
393.361128
 21
318.474
 31
0.0
  0
SOLID
  5
202
330
1FE
100
AcDbEntity
  8
LC-005-003-----0
 62
     2
100
AcDbTrace
 10
355.361128
 20
323.140667
 30
0.0
 11
355.361128
 21
313.807333
 31
0.0
 12
327.361128
 22
318.474
 32
0.0
 13
327.361128
 23
318.474
 33
0.0
  0
SOLID
  5
203
330
1FE
100
AcDbEntity
  8
LC-005-003-----0
 62
     2
100
AcDbTrace
 10
393.361128
 20
313.807333
 30
0.0
 11
393.361128
 21
323.140667
 31
0.0
 12
421.361128
 22
318.474
 32
0.0
 13
421.361128
 23
318.474
 33
0.0
  0
MTEXT
  5
204
330
1FE
100
AcDbEntity
  8
LC-005-003-----0
 62
     2
100
AcDbMText
 10
374.361128
 20
349.274
 30
0.0
 40
28.0
 41
0.0
 71
     5
 72
     1
  1
%%c\A1;94
  7
LCTX15-400-0-0pDIN-Schrift
 73
     1
 44
1.0
  0
POINT
  5
205
330
1FE
100
AcDbEntity
  8
Defpoints
 62
     0
100
AcDbPoint
 10
327.361128
 20
397.522733
 30
0.0
  0
POINT
  5
206
330
1FE
100
AcDbEntity
  8
Defpoints
 62
     0
100
AcDbPoint
 10
421.361128
 20
397.522733
 30
0.0
  0
POINT
  5
207
330
1FE
100
AcDbEntity
  8
Defpoints
 62
     0
100
AcDbPoint
 10
421.361128
 20
318.474
 30
0.0
  0
ENDBLK
  5
209
330
1FE
100
AcDbEntity
  8
0
100
AcDbBlockEnd
  0
ENDSEC
  0
SECTION
  2
ENTITIES
  0
ARC
  5
31
102
{ACAD_REACTORS
330
20B
102
}
330
1F
100
AcDbEntity
  8
LC-001-002-----0
 62
     7
370
    50
100
AcDbCircle
 10
339.361128
 20
397.522733
 30
0.0
 40
12.0
100
AcDbArc
 50
180.0
 51
270.0
  0
ARC
  5
32
102
{ACAD_REACTORS
330
20B
102
}
330
1F
100
AcDbEntity
  8
LC-001-002-----0
 62
     7
370
    50
100
AcDbCircle
 10
350.761128
 20
377.022733
 30
0.0
 40
0.5
100
AcDbArc
 50
180.0
 51
270.0
  0
ARC
  5
33
102
{ACAD_REACTORS
330
20B
102
}
330
1F
100
AcDbEntity
  8
LC-001-002-----0
 62
     7
370
    50
100
AcDbCircle
 10
354.961128
 20
377.022733
 30
0.0
 40
0.5
100
AcDbArc
 50
270.0
 51
0.0
  0
ARC
  5
34
102
{ACAD_REACTORS
330
20B
102
}
330
1F
100
AcDbEntity
  8
LC-001-002-----0
 62
     7
370
    50
100
AcDbCircle
 10
349.761128
 20
385.022733
 30
0.0
 40
0.5
100
AcDbArc
 50
0.0
 51
90.0
  0
ARC
  5
35
102
{ACAD_REACTORS
330
20B
102
}
330
1F
100
AcDbEntity
  8
LC-001-002-----0
 62
     7
370
    50
100
AcDbCircle
 10
355.961128
 20
385.022733
 30
0.0
 40
0.5
100
AcDbArc
 50
90.0
 51
180.0
  0
ARC
  5
36
102
{ACAD_REACTORS
330
20B
102
}
330
1F
100
AcDbEntity
  8
LC-001-002-----0
 62
     7
370
    50
100
AcDbCircle
 10
392.761128
 20
385.022733
 30
0.0
 40
0.5
100
AcDbArc
 50
0.0
 51
90.0
  0
ARC
  5
37
102
{ACAD_REACTORS
330
20B
102
}
330
1F
100
AcDbEntity
  8
LC-001-002-----0
 62
     7
370
    50
100
AcDbCircle
 10
398.961128
 20
385.022733
 30
0.0
 40
0.5
100
AcDbArc
 50
90.0
 51
180.0
  0
ARC
  5
38
102
{ACAD_REACTORS
330
20B
102
}
330
1F
100
AcDbEntity
  8
LC-001-002-----0
 62
     7
370
    50
100
AcDbCircle
 10
393.761128
 20
377.022733
 30
0.0
 40
0.5
100
AcDbArc
 50
180.0
 51
270.0
  0
ARC
  5
39
102
{ACAD_REACTORS
330
20B
102
}
330
1F
100
AcDbEntity
  8
LC-001-002-----0
 62
     7
370
    50
100
AcDbCircle
 10
397.961128
 20
377.022733
 30
0.0
 40
0.5
100
AcDbArc
 50
270.0
 51
0.0
  0
ARC
  5
3A
102
{ACAD_REACTORS
330
20B
102
}
330
1F
100
AcDbEntity
  8
LC-001-002-----0
 62
     7
370
    50
100
AcDbCircle
 10
409.361128
 20
397.522733
 30
0.0
 40
12.0
100
AcDbArc
 50
270.0
 51
0.0
  0
ARC
  5
3B
102
{ACAD_REACTORS
330
20B
102
}
330
1F
100
AcDbEntity
  8
LC-001-002-----0
 62
     7
370
    50
100
AcDbCircle
 10
421.861128
 20
438.722733
 30
0.0
 40
0.500000000003638
100
AcDbArc
 50
180.0
 51
270.0
  0
ARC
  5
3C
102
{ACAD_REACTORS
330
20B
102
}
330
1F
100
AcDbEntity
  8
LC-001-002-----0
 62
     7
370
    50
100
AcDbCircle
 10
326.861128
 20
438.722733
 30
0.0
 40
0.5
100
AcDbArc
 50
270.0
 51
0.0
  0
LINE
  5
3D
102
{ACAD_REACTORS
330
20B
102
}
330
1F
100
AcDbEntity
  8
LC-001-002-----0
 62
     7
370
    50
100
AcDbLine
 10
328.861128
 20
397.522733
 30
0.0
 11
328.861128
 21
455.519574
 31
0.0
  0
ARC
  5
3E
102
{ACAD_REACTORS
330
20B
102
}
330
1F
100
AcDbEntity
  8
LC-001-002-----0
 62
     7
370
    50
100
AcDbCircle
 10
339.361128
 20
397.522733
 30
0.0
 40
10.50000000000364
100
AcDbArc
 50
180.0
 51
270.0
  0
LINE
  5
41
102
{ACAD_REACTORS
330
20B
102
}
330
1F
100
AcDbEntity
  8
LC-002-006-MLN-0
 62
     7
370
    25
100
AcDbLine
 10
374.361128
 20
465.519574
 30
0.0
 11
374.361128
 21
365.022733
 31
0.0
  0
LINE
  5
42
102
{ACAD_REACTORS
330
20B
102
}
330
1F
100
AcDbEntity
  8
LC-001-002-----0
 62
     7
370
    50
100
AcDbLine
 10
392.111128
 20
387.022733
 30
0.0
 11
392.111128
 21
440.019574
 31
0.0
  0
LINE
  5
43
102
{ACAD_REACTORS
330
20B
102
}
330
1F
100
AcDbEntity
  8
LC-001-002-----0
 62
     7
370
    50
100
AcDbLine
 10
339.361128
 20
387.022733
 30
0.0
 11
356.611128
 21
387.022733
 31
0.0
  0
LINE
  5
44
102
{ACAD_REACTORS
330
20B
102
}
330
1F
100
AcDbEntity
  8
LC-001-002-----0
 62
     7
370
    50
100
AcDbLine
 10
356.611128
 20
387.022733
 30
0.0
 11
356.611128
 21
440.019574
 31
0.0
  0
LINE
  5
45
102
{ACAD_REACTORS
330
20B
102
}
330
1F
100
AcDbEntity
  8
LC-001-002-----0
 62
     7
370
    50
100
AcDbLine
 10
360.611128
 20
385.522733
 30
0.0
 11
360.611128
 21
435.019574
 31
0.0
  0
LINE
  5
46
102
{ACAD_REACTORS
330
20B
102
}
330
1F
100
AcDbEntity
  8
LC-001-002-----0
 62
     7
370
    50
100
AcDbLine
 10
388.111128
 20
385.522733
 30
0.0
 11
388.111128
 21
435.019574
 31
0.0
  0
LINE
  5
47
102
{ACAD_REACTORS
330
20B
102
}
330
1F
100
AcDbEntity
  8
LC-001-002-----0
 62
     7
370
    50
100
AcDbLine
 10
356.611128
 20
440.019574
 30
0.0
 11
392.111128
 21
440.019574
 31
0.0
  0
LINE
  5
48
102
{ACAD_REACTORS
330
20B
102
}
330
1F
100
AcDbEntity
  8
LC-001-002-----0
 62
     7
370
    50
100
AcDbLine
 10
355.961128
 20
385.522733
 30
0.0
 11
358.361128
 21
385.522733
 31
0.0
  0
LINE
  5
49
102
{ACAD_REACTORS
330
20B
102
}
330
1F
100
AcDbEntity
  8
LC-001-002-----0
 62
     7
370
    50
100
AcDbLine
 10
350.761128
 20
376.522733
 30
0.0
 11
351.861128
 21
376.522733
 31
0.0
  0
LINE
  5
4A
102
{ACAD_REACTORS
330
20B
102
}
330
1F
100
AcDbEntity
  8
LC-001-002-----0
 62
     7
370
    50
100
AcDbLine
 10
353.861128
 20
376.522733
 30
0.0
 11
354.961128
 21
376.522733
 31
0.0
  0
LINE
  5
4B
102
{ACAD_REACTORS
330
20B
102
}
330
1F
100
AcDbEntity
  8
LC-001-002-----0
 62
     7
370
    50
100
AcDbLine
 10
349.761128
 20
385.522733
 30
0.0
 11
339.361128
 21
385.522733
 31
0.0
  0
LINE
  5
4C
102
{ACAD_REACTORS
330
20B
102
}
330
1F
100
AcDbEntity
  8
LC-001-002-----0
 62
     7
370
    50
100
AcDbLine
 10
350.261128
 20
385.022733
 30
0.0
 11
350.261128
 21
377.022733
 31
0.0
  0
LINE
  5
4D
102
{ACAD_REACTORS
330
20B
102
}
330
1F
100
AcDbEntity
  8
LC-001-002-----0
 62
     7
370
    50
100
AcDbLine
 10
358.361128
 20
385.522733
 30
0.0
 11
358.461128
 21
385.522733
 31
0.0
  0
LINE
  5
4E
102
{ACAD_REACTORS
330
20B
102
}
330
1F
100
AcDbEntity
  8
LC-001-002-----0
 62
     7
370
    50
100
AcDbLine
 10
360.611128
 20
435.019574
 30
0.0
 11
359.271382
 21
440.019574
 31
0.0
  0
LINE
  5
4F
102
{ACAD_REACTORS
330
20B
102
}
330
1F
100
AcDbEntity
  8
LC-001-002-----0
 62
     7
370
    50
100
AcDbLine
 10
327.711128
 20
448.769574
 30
0.0
 11
327.711128
 21
444.269574
 31
0.0
  0
LINE
  5
50
102
{ACAD_REACTORS
330
20B
102
}
330
1F
100
AcDbEntity
  8
LC-001-002-----0
 62
     7
370
    50
100
AcDbLine
 10
327.361128
 20
397.522733
 30
0.0
 11
327.361128
 21
434.518733
 31
0.0
  0
LINE
  5
51
102
{ACAD_REACTORS
330
20B
102
}
330
1F
100
AcDbEntity
  8
LC-001-002-----0
 62
     7
370
    50
100
AcDbLine
 10
327.711128
 20
444.269574
 30
0.0
 11
324.661128
 21
444.002733
 31
0.0
  0
LINE
  5
52
102
{ACAD_REACTORS
330
20B
102
}
330
1F
100
AcDbEntity
  8
LC-001-002-----0
 62
     7
370
    50
100
AcDbLine
 10
324.661128
 20
441.519574
 30
0.0
 11
324.661128
 21
444.002733
 31
0.0
  0
LINE
  5
53
102
{ACAD_REACTORS
330
20B
102
}
330
1F
100
AcDbEntity
  8
LC-001-002-----0
 62
     7
370
    50
100
AcDbLine
 10
324.661128
 20
441.519574
 30
0.0
 11
327.361128
 21
441.519574
 31
0.0
  0
LINE
  5
54
102
{ACAD_REACTORS
330
20B
102
}
330
1F
100
AcDbEntity
  8
LC-001-002-----0
 62
     7
370
    50
100
AcDbLine
 10
327.711128
 20
448.769574
 30
0.0
 11
324.661128
 21
449.036414
 31
0.0
  0
LINE
  5
55
102
{ACAD_REACTORS
330
20B
102
}
330
1F
100
AcDbEntity
  8
LC-001-002-----0
 62
     7
370
    50
100
AcDbLine
 10
324.661128
 20
449.036414
 30
0.0
 11
324.661128
 21
453.519574
 31
0.0
  0
LINE
  5
56
102
{ACAD_REACTORS
330
20B
102
}
330
1F
100
AcDbEntity
  8
LC-001-002-----0
 62
     7
370
    50
100
AcDbLine
 10
355.461128
 20
377.022733
 30
0.0
 11
355.461128
 21
385.022733
 31
0.0
  0
LINE
  5
57
102
{ACAD_REACTORS
330
20B
102
}
330
1F
100
AcDbEntity
  8
LC-001-002-----0
 62
     7
370
    50
100
AcDbLine
 10
358.361128
 20
385.522733
 30
0.0
 11
374.361128
 21
385.522733
 31
0.0
  0
LINE
  5
58
102
{ACAD_REACTORS
330
20B
102
}
330
1F
100
AcDbEntity
  8
LC-001-002-----0
 62
     7
370
    50
100
AcDbLine
 10
321.361128
 20
455.519574
 30
0.0
 11
427.361128
 21
455.519574
 31
0.0
  0
LINE
  5
59
102
{ACAD_REACTORS
330
20B
102
}
330
1F
100
AcDbEntity
  8
LC-001-002-----0
 62
     7
370
    50
100
AcDbLine
 10
388.111128
 20
435.019574
 30
0.0
 11
389.450874
 21
440.019574
 31
0.0
  0
LINE
  5
5A
102
{ACAD_REACTORS
330
20B
102
}
330
1F
100
AcDbEntity
  8
LC-001-002-----0
 62
     7
370
    50
100
AcDbLine
 10
360.611128
 20
435.019574
 30
0.0
 11
388.111128
 21
435.019574
 31
0.0
  0
LINE
  5
5B
102
{ACAD_REACTORS
330
20B
102
}
330
1F
100
AcDbEntity
  8
LC-001-002-----0
 62
     7
370
    50
100
AcDbLine
 10
324.661128
 20
453.519574
 30
0.0
 11
321.361128
 21
453.519574
 31
0.0
  0
LINE
  5
5C
102
{ACAD_REACTORS
330
20B
102
}
330
1F
100
AcDbEntity
  8
LC-001-002-----0
 62
     7
370
    50
100
AcDbLine
 10
321.361128
 20
453.519574
 30
0.0
 11
321.361128
 21
455.519574
 31
0.0
  0
LINE
  5
5D
102
{ACAD_REACTORS
330
20B
102
}
330
1F
100
AcDbEntity
  8
LC-001-002-----0
 62
     7
370
    50
100
AcDbLine
 10
353.861128
 20
376.522733
 30
0.0
 11
353.861128
 21
385.522733
 31
0.0
  0
LINE
  5
5E
102
{ACAD_REACTORS
330
20B
102
}
330
1F
100
AcDbEntity
  8
LC-001-002-----0
 62
     7
370
    50
100
AcDbLine
 10
427.361128
 20
455.519574
 30
0.0
 11
427.361128
 21
453.519574
 31
0.0
  0
LINE
  5
5F
102
{ACAD_REACTORS
330
20B
102
}
330
1F
100
AcDbEntity
  8
LC-001-002-----0
 62
     7
370
    50
100
AcDbLine
 10
427.361128
 20
453.519574
 30
0.0
 11
424.061128
 21
453.519574
 31
0.0
  0
LINE
  5
60
102
{ACAD_REACTORS
330
20B
102
}
330
1F
100
AcDbEntity
  8
LC-001-002-----0
 62
     7
370
    50
100
AcDbLine
 10
374.361128
 20
385.522733
 30
0.0
 11
390.361128
 21
385.522733
 31
0.0
  0
LINE
  5
61
102
{ACAD_REACTORS
330
20B
102
}
330
1F
100
AcDbEntity
  8
LC-001-002-----0
 62
     7
370
    50
100
AcDbLine
 10
393.261128
 20
385.022733
 30
0.0
 11
393.261128
 21
377.022733
 31
0.0
  0
LINE
  5
62
102
{ACAD_REACTORS
330
20B
102
}
330
1F
100
AcDbEntity
  8
LC-001-002-----0
 62
     7
370
    50
100
AcDbLine
 10
424.061128
 20
453.519574
 30
0.0
 11
424.061128
 21
449.036414
 31
0.0
  0
LINE
  5
63
102
{ACAD_REACTORS
330
20B
102
}
330
1F
100
AcDbEntity
  8
LC-001-002-----0
 62
     7
370
    50
100
AcDbLine
 10
424.061128
 20
449.036414
 30
0.0
 11
421.011128
 21
448.769574
 31
0.0
  0
LINE
  5
64
102
{ACAD_REACTORS
330
20B
102
}
330
1F
100
AcDbEntity
  8
LC-001-002-----0
 62
     7
370
    50
100
AcDbLine
 10
421.361128
 20
441.519574
 30
0.0
 11
424.061128
 21
441.519574
 31
0.0
  0
LINE
  5
65
102
{ACAD_REACTORS
330
20B
102
}
330
1F
100
AcDbEntity
  8
LC-001-002-----0
 62
     7
370
    50
100
AcDbLine
 10
424.061128
 20
444.002733
 30
0.0
 11
424.061128
 21
441.519574
 31
0.0
  0
LINE
  5
66
102
{ACAD_REACTORS
330
20B
102
}
330
1F
100
AcDbEntity
  8
LC-001-002-----0
 62
     7
370
    50
100
AcDbLine
 10
424.061128
 20
444.002733
 30
0.0
 11
421.011128
 21
444.269574
 31
0.0
  0
LINE
  5
67
102
{ACAD_REACTORS
330
20B
102
}
330
1F
100
AcDbEntity
  8
LC-001-002-----0
 62
     7
370
    50
100
AcDbLine
 10
421.361128
 20
441.519574
 30
0.0
 11
421.361128
 21
438.722733
 31
0.0
  0
LINE
  5
68
102
{ACAD_REACTORS
330
20B
102
}
330
1F
100
AcDbEntity
  8
LC-001-002-----0
 62
     7
370
    50
100
AcDbLine
 10
421.011128
 20
444.269574
 30
0.0
 11
421.011128
 21
448.769574
 31
0.0
  0
LINE
  5
69
102
{ACAD_REACTORS
330
20B
102
}
330
1F
100
AcDbEntity
  8
LC-001-002-----0
 62
     7
370
    50
100
AcDbLine
 10
390.261128
 20
385.522733
 30
0.0
 11
390.361128
 21
385.522733
 31
0.0
  0
LINE
  5
6A
102
{ACAD_REACTORS
330
20B
102
}
330
1F
100
AcDbEntity
  8
LC-001-002-----0
 62
     7
370
    50
100
AcDbLine
 10
398.461128
 20
377.022733
 30
0.0
 11
398.461128
 21
385.022733
 31
0.0
  0
LINE
  5
6B
102
{ACAD_REACTORS
330
20B
102
}
330
1F
100
AcDbEntity
  8
LC-001-002-----0
 62
     7
370
    50
100
AcDbLine
 10
409.361128
 20
385.522733
 30
0.0
 11
398.961128
 21
385.522733
 31
0.0
  0
LINE
  5
6C
102
{ACAD_REACTORS
330
20B
102
}
330
1F
100
AcDbEntity
  8
LC-001-002-----0
 62
     7
370
    50
100
AcDbLine
 10
393.761128
 20
376.522733
 30
0.0
 11
394.861128
 21
376.522733
 31
0.0
  0
LINE
  5
6D
102
{ACAD_REACTORS
330
20B
102
}
330
1F
100
AcDbEntity
  8
LC-001-002-----0
 62
     7
370
    50
100
AcDbLine
 10
397.361128
 20
376.522733
 30
0.0
 11
397.961128
 21
376.522733
 31
0.0
  0
LINE
  5
6E
102
{ACAD_REACTORS
330
20B
102
}
330
1F
100
AcDbEntity
  8
LC-001-002-----0
 62
     7
370
    50
100
AcDbLine
 10
390.361128
 20
385.522733
 30
0.0
 11
392.761128
 21
385.522733
 31
0.0
  0
LINE
  5
6F
102
{ACAD_REACTORS
330
20B
102
}
330
1F
100
AcDbEntity
  8
LC-001-002-----0
 62
     7
370
    50
100
AcDbLine
 10
423.015128
 20
438.222733
 30
0.0
 11
421.861128
 21
438.222733
 31
0.0
  0
LINE
  5
70
102
{ACAD_REACTORS
330
20B
102
}
330
1F
100
AcDbEntity
  8
LC-001-002-----0
 62
     7
370
    50
100
AcDbLine
 10
423.015128
 20
436.172733
 30
0.0
 11
423.015128
 21
438.222733
 31
0.0
  0
LINE
  5
71
102
{ACAD_REACTORS
330
20B
102
}
330
1F
100
AcDbEntity
  8
LC-001-002-----0
 62
     7
370
    50
100
AcDbLine
 10
421.361128
 20
434.518733
 30
0.0
 11
423.015128
 21
436.172733
 31
0.0
  0
LINE
  5
72
102
{ACAD_REACTORS
330
20B
102
}
330
1F
100
AcDbEntity
  8
LC-001-002-----0
 62
     7
370
    50
100
AcDbLine
 10
326.861128
 20
438.222733
 30
0.0
 11
325.707128
 21
438.222733
 31
0.0
  0
LINE
  5
73
102
{ACAD_REACTORS
330
20B
102
}
330
1F
100
AcDbEntity
  8
LC-001-002-----0
 62
     7
370
    50
100
AcDbLine
 10
325.707128
 20
438.222733
 30
0.0
 11
325.707128
 21
436.172733
 31
0.0
  0
LINE
  5
74
102
{ACAD_REACTORS
330
20B
102
}
330
1F
100
AcDbEntity
  8
LC-001-002-----0
 62
     7
370
    50
100
AcDbLine
 10
325.707128
 20
436.172733
 30
0.0
 11
327.361128
 21
434.518733
 31
0.0
  0
LINE
  5
75
102
{ACAD_REACTORS
330
20B
102
}
330
1F
100
AcDbEntity
  8
LC-001-002-----0
 62
     7
370
    50
100
AcDbLine
 10
327.361128
 20
438.722733
 30
0.0
 11
327.361128
 21
441.519574
 31
0.0
  0
LINE
  5
76
102
{ACAD_REACTORS
330
20B
102
}
330
1F
100
AcDbEntity
  8
LC-001-002-----0
 62
     7
370
    50
100
AcDbLine
 10
421.361128
 20
434.518733
 30
0.0
 11
421.361128
 21
397.522733
 31
0.0
  0
LINE
  5
77
102
{ACAD_REACTORS
330
20B
102
}
330
1F
100
AcDbEntity
  8
LC-001-002-----0
 62
     7
370
    50
100
AcDbLine
 10
409.361128
 20
387.022733
 30
0.0
 11
392.111128
 21
387.022733
 31
0.0
  0
ARC
  5
78
102
{ACAD_REACTORS
330
20B
102
}
330
1F
100
AcDbEntity
  8
LC-001-002-----0
 62
     7
370
    50
100
AcDbCircle
 10
409.361128
 20
397.522733
 30
0.0
 40
10.50000000000364
100
AcDbArc
 50
270.0
 51
0.0
  0
LINE
  5
79
102
{ACAD_REACTORS
330
20B
102
}
330
1F
100
AcDbEntity
  8
LC-001-002-----0
 62
     7
370
    50
100
AcDbLine
 10
419.861128
 20
397.522733
 30
0.0
 11
419.861128
 21
455.519574
 31
0.0
  0
LINE
  5
7A
102
{ACAD_REACTORS
330
20B
102
}
330
1F
100
AcDbEntity
  8
LC-001-002-----0
 62
     7
370
    50
100
AcDbLine
 10
396.861128
 20
376.522733
 30
0.0
 11
396.861128
 21
385.522733
 31
0.0
  0
INSERT
  5
C0
102
{ACAD_REACTORS
330
20B
102
}
330
1F
100
AcDbEntity
  8
LC-003-005-----0
 62
     7
370
    25
100
AcDbBlockReference
  2
*X11
 10
0.0
 20
0.0
 30
0.0
  0
INSERT
  5
FF
102
{ACAD_REACTORS
330
20B
102
}
330
1F
100
AcDbEntity
  8
LC-003-005-----0
 62
     7
370
    25
100
AcDbBlockReference
  2
*X22
 10
0.0
 20
0.0
 30
0.0
  0
LINE
  5
100
102
{ACAD_REACTORS
330
20B
102
}
330
1F
100
AcDbEntity
  8
LC-001-002-----0
 62
     7
370
    50
100
AcDbLine
 10
333.861128
 20
388.578462
 30
0.0
 11
333.861128
 21
441.519574
 31
0.0
  0
LINE
  5
101
102
{ACAD_REACTORS
330
20B
102
}
330
1F
100
AcDbEntity
  8
LC-001-002-----0
 62
     7
370
    50
100
AcDbLine
 10
414.861128
 20
388.578462
 30
0.0
 11
414.861128
 21
441.519574
 31
0.0
  0
LINE
  5
102
102
{ACAD_REACTORS
330
20B
102
}
330
1F
100
AcDbEntity
  8
LC-001-002-----0
 62
     7
370
    50
100
AcDbLine
 10
328.861128
 20
444.519574
 30
0.0
 11
330.861128
 21
444.519574
 31
0.0
  0
LINE
  5
103
102
{ACAD_REACTORS
330
20B
102
}
330
1F
100
AcDbEntity
  8
LC-001-002-----0
 62
     7
370
    50
100
AcDbLine
 10
417.861128
 20
444.519574
 30
0.0
 11
419.861128
 21
444.519574
 31
0.0
  0
ARC
  5
105
102
{ACAD_REACTORS
330
20B
102
}
330
1F
100
AcDbEntity
  8
LC-004-002-RND-0
 62
     7
370
    50
100
AcDbCircle
 10
330.861128
 20
441.519574
 30
0.0
 40
3.0
100
AcDbArc
 50
0.0
 51
90.0
  0
ARC
  5
106
102
{ACAD_REACTORS
330
20B
102
}
330
1F
100
AcDbEntity
  8
LC-004-002-RND-0
 62
     7
370
    50
100
AcDbCircle
 10
417.861128
 20
441.519574
 30
0.0
 40
3.0
100
AcDbArc
 50
90.0
 51
180.0
  0
ARC
  5
107
102
{ACAD_REACTORS
330
20D
102
}
330
1F
100
AcDbEntity
  8
LC-001-002-----0
 62
     7
370
    50
100
AcDbCircle
 10
351.861128
 20
375.522733
 30
0.0
 40
0.5
100
AcDbArc
 50
180.0
 51
270.0
  0
ARC
  5
108
102
{ACAD_REACTORS
330
20D
102
}
330
1F
100
AcDbEntity
  8
LC-001-002-----0
 62
     7
370
    50
100
AcDbCircle
 10
396.861128
 20
375.522733
 30
0.0
 40
0.5
100
AcDbArc
 50
270.0
 51
0.0
  0
LINE
  5
109
102
{ACAD_REACTORS
330
20D
102
}
330
1F
100
AcDbEntity
  8
LC-001-002-----0
 62
     7
370
    50
100
AcDbLine
 10
372.361128
 20
376.522733
 30
0.0
 11
353.861128
 21
376.522733
 31
0.0
  0
LINE
  5
10A
102
{ACAD_REACTORS
330
20D
102
}
330
1F
100
AcDbEntity
  8
LC-001-002-----0
 62
     7
370
    50
100
AcDbLine
 10
351.361128
 20
376.522733
 30
0.0
 11
351.361128
 21
375.522733
 31
0.0
  0
LINE
  5
10B
102
{ACAD_REACTORS
330
20D
102
}
330
1F
100
AcDbEntity
  8
LC-001-002-----0
 62
     7
370
    50
100
AcDbLine
 10
351.861128
 20
375.022733
 30
0.0
 11
372.361128
 21
375.022733
 31
0.0
  0
LINE
  5
10C
102
{ACAD_REACTORS
330
20D
102
}
330
1F
100
AcDbEntity
  8
LC-001-002-----0
 62
     7
370
    50
100
AcDbLine
 10
372.361128
 20
375.022733
 30
0.0
 11
376.361128
 21
375.022733
 31
0.0
  0
LINE
  5
10D
102
{ACAD_REACTORS
330
20D
102
}
330
1F
100
AcDbEntity
  8
LC-001-002-----0
 62
     7
370
    50
100
AcDbLine
 10
376.361128
 20
376.522733
 30
0.0
 11
372.361128
 21
376.522733
 31
0.0
  0
LINE
  5
10E
102
{ACAD_REACTORS
330
20D
102
}
330
1F
100
AcDbEntity
  8
LC-001-002-----0
 62
     7
370
    50
100
AcDbLine
 10
376.361128
 20
375.022733
 30
0.0
 11
396.861128
 21
375.022733
 31
0.0
  0
LINE
  5
10F
102
{ACAD_REACTORS
330
20D
102
}
330
1F
100
AcDbEntity
  8
LC-001-002-----0
 62
     7
370
    50
100
AcDbLine
 10
397.361128
 20
375.522733
 30
0.0
 11
397.361128
 21
376.522733
 31
0.0
  0
LINE
  5
110
102
{ACAD_REACTORS
330
20D
102
}
330
1F
100
AcDbEntity
  8
LC-001-002-----0
 62
     7
370
    50
100
AcDbLine
 10
397.361128
 20
376.522733
 30
0.0
 11
396.861128
 21
376.522733
 31
0.0
  0
LINE
  5
111
102
{ACAD_REACTORS
330
20D
102
}
330
1F
100
AcDbEntity
  8
LC-001-002-----0
 62
     7
370
    50
100
AcDbLine
 10
351.861128
 20
376.522733
 30
0.0
 11
351.861128
 21
385.522733
 31
0.0
  0
LINE
  5
112
102
{ACAD_REACTORS
330
20D
102
}
330
1F
100
AcDbEntity
  8
LC-001-002-----0
 62
     7
370
    50
100
AcDbLine
 10
353.861128
 20
376.522733
 30
0.0
 11
353.861128
 21
385.522733
 31
0.0
  0
LINE
  5
113
102
{ACAD_REACTORS
330
20D
102
}
330
1F
100
AcDbEntity
  8
LC-001-002-----0
 62
     7
370
    50
100
AcDbLine
 10
353.861128
 20
385.522733
 30
0.0
 11
351.861128
 21
385.522733
 31
0.0
  0
LINE
  5
114
102
{ACAD_REACTORS
330
20D
102
}
330
1F
100
AcDbEntity
  8
LC-001-002-----0
 62
     7
370
    50
100
AcDbLine
 10
394.861128
 20
385.522733
 30
0.0
 11
396.861128
 21
385.522733
 31
0.0
  0
LINE
  5
115
102
{ACAD_REACTORS
330
20D
102
}
330
1F
100
AcDbEntity
  8
LC-001-002-----0
 62
     7
370
    50
100
AcDbLine
 10
396.861128
 20
376.522733
 30
0.0
 11
396.861128
 21
385.522733
 31
0.0
  0
LINE
  5
116
102
{ACAD_REACTORS
330
20D
102
}
330
1F
100
AcDbEntity
  8
LC-001-002-----0
 62
     7
370
    50
100
AcDbLine
 10
394.861128
 20
376.522733
 30
0.0
 11
394.861128
 21
385.522733
 31
0.0
  0
LINE
  5
117
102
{ACAD_REACTORS
330
20D
102
}
330
1F
100
AcDbEntity
  8
LC-001-002-----0
 62
     7
370
    50
100
AcDbLine
 10
351.861128
 20
376.522733
 30
0.0
 11
351.361128
 21
376.522733
 31
0.0
  0
LINE
  5
118
102
{ACAD_REACTORS
330
20D
102
}
330
1F
100
AcDbEntity
  8
LC-001-002-----0
 62
     7
370
    50
100
AcDbLine
 10
394.861128
 20
376.522733
 30
0.0
 11
376.361128
 21
376.522733
 31
0.0
  0
INSERT
  5
12B
102
{ACAD_REACTORS
330
20D
102
}
330
1F
100
AcDbEntity
  8
LC-003-005-----0
 62
     7
370
    25
100
AcDbBlockReference
  2
*X33
 10
0.0
 20
0.0
 30
0.0
  0
LINE
  5
12C
102
{ACAD_REACTORS
330
20C
102
}
330
1F
100
AcDbEntity
  8
LC-001-002-----0
 62
     7
370
    50
100
AcDbLine
 10
375.361128
 20
447.019574
 30
0.0
 11
375.361128
 21
442.019574
 31
0.0
  0
LINE
  5
12D
102
{ACAD_REACTORS
330
20C
102
}
330
1F
100
AcDbEntity
  8
LC-001-002-----0
 62
     7
370
    50
100
AcDbLine
 10
414.361128
 20
397.019574
 30
0.0
 11
414.361128
 21
432.019574
 31
0.0
  0
LINE
  5
12E
102
{ACAD_REACTORS
330
20C
102
}
330
1F
100
AcDbEntity
  8
LC-001-002-----0
 62
     7
370
    50
100
AcDbLine
 10
334.361128
 20
397.019574
 30
0.0
 11
334.361128
 21
432.019574
 31
0.0
  0
LINE
  5
12F
102
{ACAD_REACTORS
330
20C
102
}
330
1F
100
AcDbEntity
  8
LC-001-002-----0
 62
     7
370
    50
100
AcDbLine
 10
339.361128
 20
392.019574
 30
0.0
 11
356.611128
 21
392.019574
 31
0.0
  0
LINE
  5
130
102
{ACAD_REACTORS
330
20C
102
}
330
1F
100
AcDbEntity
  8
LC-001-002-----0
 62
     7
370
    50
100
AcDbLine
 10
344.361128
 20
442.019574
 30
0.0
 11
404.361128
 21
442.019574
 31
0.0
  0
LINE
  5
131
102
{ACAD_REACTORS
330
20C
102
}
330
1F
100
AcDbEntity
  8
LC-001-002-----0
 62
     7
370
    50
100
AcDbLine
 10
349.361128
 20
392.019574
 30
0.0
 11
349.361128
 21
440.019574
 31
0.0
  0
LINE
  5
132
102
{ACAD_REACTORS
330
20C
102
}
330
1F
100
AcDbEntity
  8
LC-001-002-----0
 62
     7
370
    50
100
AcDbLine
 10
399.361128
 20
392.019574
 30
0.0
 11
399.361128
 21
440.019574
 31
0.0
  0
LINE
  5
133
102
{ACAD_REACTORS
330
20C
102
}
330
1F
100
AcDbEntity
  8
LC-001-002-----0
 62
     7
370
    50
100
AcDbLine
 10
344.361128
 20
440.019574
 30
0.0
 11
347.361128
 21
440.019574
 31
0.0
  0
LINE
  5
134
102
{ACAD_REACTORS
330
20C
102
}
330
1F
100
AcDbEntity
  8
LC-001-002-----0
 62
     7
370
    50
100
AcDbLine
 10
336.361128
 20
397.019574
 30
0.0
 11
336.361128
 21
432.019574
 31
0.0
  0
LINE
  5
135
102
{ACAD_REACTORS
330
20C
102
}
330
1F
100
AcDbEntity
  8
LC-001-002-----0
 62
     7
370
    50
100
AcDbLine
 10
347.361128
 20
394.019574
 30
0.0
 11
347.361128
 21
440.019574
 31
0.0
  0
LINE
  5
136
102
{ACAD_REACTORS
330
20C
102
}
330
1F
100
AcDbEntity
  8
LC-001-002-----0
 62
     7
370
    50
100
AcDbLine
 10
339.361128
 20
394.019574
 30
0.0
 11
347.361128
 21
394.019574
 31
0.0
  0
LINE
  5
137
102
{ACAD_REACTORS
330
20C
102
}
330
1F
100
AcDbEntity
  8
LC-001-002-----0
 62
     7
370
    50
100
AcDbLine
 10
373.361128
 20
447.019574
 30
0.0
 11
373.361128
 21
442.019574
 31
0.0
  0
ARC
  5
138
102
{ACAD_REACTORS
330
20C
102
}
330
1F
100
AcDbEntity
  8
LC-004-002-RND-0
 62
     7
370
    50
100
AcDbCircle
 10
344.361128
 20
432.019574
 30
0.0
 40
8.0
100
AcDbArc
 50
90.0
 51
180.0
  0
ARC
  5
139
102
{ACAD_REACTORS
330
20C
102
}
330
1F
100
AcDbEntity
  8
LC-004-002-RND-0
 62
     7
370
    50
100
AcDbCircle
 10
404.361128
 20
432.019574
 30
0.0
 40
8.0
100
AcDbArc
 50
0.0
 51
90.0
  0
LINE
  5
13A
102
{ACAD_REACTORS
330
20C
102
}
330
1F
100
AcDbEntity
  8
LC-001-002-----0
 62
     7
370
    50
100
AcDbLine
 10
349.361128
 20
440.019574
 30
0.0
 11
399.361128
 21
440.019574
 31
0.0
  0
LINE
  5
13B
102
{ACAD_REACTORS
330
20C
102
}
330
1F
100
AcDbEntity
  8
LC-001-002-----0
 62
     7
370
    50
100
AcDbLine
 10
404.361128
 20
440.019574
 30
0.0
 11
401.361128
 21
440.019574
 31
0.0
  0
LINE
  5
13C
102
{ACAD_REACTORS
330
20C
102
}
330
1F
100
AcDbEntity
  8
LC-001-002-----0
 62
     7
370
    50
100
AcDbLine
 10
401.361128
 20
394.019574
 30
0.0
 11
401.361128
 21
440.019574
 31
0.0
  0
LINE
  5
13D
102
{ACAD_REACTORS
330
20C
102
}
330
1F
100
AcDbEntity
  8
LC-001-002-----0
 62
     7
370
    50
100
AcDbLine
 10
412.361128
 20
397.019574
 30
0.0
 11
412.361128
 21
432.019574
 31
0.0
  0
LINE
  5
13E
102
{ACAD_REACTORS
330
20C
102
}
330
1F
100
AcDbEntity
  8
LC-001-002-----0
 62
     7
370
    50
100
AcDbLine
 10
409.361128
 20
394.019574
 30
0.0
 11
401.361128
 21
394.019574
 31
0.0
  0
ARC
  5
13F
102
{ACAD_REACTORS
330
20C
102
}
330
1F
100
AcDbEntity
  8
LC-004-002-RND-0
 62
     7
370
    50
100
AcDbCircle
 10
344.361128
 20
432.019574
 30
0.0
 40
10.0
100
AcDbArc
 50
90.0
 51
180.0
  0
ARC
  5
140
102
{ACAD_REACTORS
330
20C
102
}
330
1F
100
AcDbEntity
  8
LC-004-002-RND-0
 62
     7
370
    50
100
AcDbCircle
 10
404.361128
 20
432.019574
 30
0.0
 40
10.0
100
AcDbArc
 50
0.0
 51
90.0
  0
ARC
  5
141
102
{ACAD_REACTORS
330
20C
102
}
330
1F
100
AcDbEntity
  8
LC-004-002-RND-0
 62
     7
370
    50
100
AcDbCircle
 10
339.361128
 20
397.019574
 30
0.0
 40
5.0
100
AcDbArc
 50
180.0
 51
270.0
  0
ARC
  5
142
102
{ACAD_REACTORS
330
20C
102
}
330
1F
100
AcDbEntity
  8
LC-004-002-RND-0
 62
     7
370
    50
100
AcDbCircle
 10
409.361128
 20
397.019574
 30
0.0
 40
5.0
100
AcDbArc
 50
270.0
 51
0.0
  0
ARC
  5
143
102
{ACAD_REACTORS
330
20C
102
}
330
1F
100
AcDbEntity
  8
LC-004-002-RND-0
 62
     7
370
    50
100
AcDbCircle
 10
339.361128
 20
397.019574
 30
0.0
 40
3.0
100
AcDbArc
 50
180.0
 51
270.0
  0
ARC
  5
144
102
{ACAD_REACTORS
330
20C
102
}
330
1F
100
AcDbEntity
  8
LC-004-002-RND-0
 62
     7
370
    50
100
AcDbCircle
 10
409.361128
 20
397.019574
 30
0.0
 40
3.0
100
AcDbArc
 50
270.0
 51
0.0
  0
LINE
  5
145
102
{ACAD_REACTORS
330
20C
102
}
330
1F
100
AcDbEntity
  8
LC-001-002-----0
 62
     7
370
    50
100
AcDbLine
 10
384.361128
 20
442.019574
 30
0.0
 11
383.617179
 21
444.796031
 31
0.0
  0
LINE
  5
146
102
{ACAD_REACTORS
330
20C
102
}
330
1F
100
AcDbEntity
  8
LC-001-002-----0
 62
     7
370
    50
100
AcDbLine
 10
376.861128
 20
445.019574
 30
0.0
 11
376.861128
 21
447.019574
 31
0.0
  0
LINE
  5
147
102
{ACAD_REACTORS
330
20C
102
}
330
1F
100
AcDbEntity
  8
LC-001-002-----0
 62
     7
370
    50
100
AcDbLine
 10
368.002855
 20
447.019574
 30
0.0
 11
371.861128
 21
447.019574
 31
0.0
  0
LINE
  5
148
102
{ACAD_REACTORS
330
20C
102
}
330
1F
100
AcDbEntity
  8
LC-001-002-----0
 62
     7
370
    50
100
AcDbLine
 10
364.361128
 20
442.019574
 30
0.0
 11
365.105077
 21
444.796031
 31
0.0
  0
ARC
  5
149
102
{ACAD_REACTORS
330
20C
102
}
330
1F
100
AcDbEntity
  8
LC-004-002-RND-0
 62
     7
370
    50
100
AcDbCircle
 10
380.719401
 20
444.019574
 30
0.0
 40
2.999999999999967
100
AcDbArc
 50
15.0
 51
90.0
  0
ARC
  5
14A
102
{ACAD_REACTORS
330
20C
102
}
330
1F
100
AcDbEntity
  8
LC-004-002-RND-0
 62
     7
370
    50
100
AcDbCircle
 10
368.002855
 20
444.019574
 30
0.0
 40
2.999999999999943
100
AcDbArc
 50
90.0
 51
165.0
  0
LINE
  5
14B
102
{ACAD_REACTORS
330
20C
102
}
330
1F
100
AcDbEntity
  8
LC-001-002-----0
 62
     7
370
    50
100
AcDbLine
 10
371.861128
 20
445.019574
 30
0.0
 11
371.861128
 21
447.019574
 31
0.0
  0
LINE
  5
14C
102
{ACAD_REACTORS
330
20C
102
}
330
1F
100
AcDbEntity
  8
LC-001-002-----0
 62
     7
370
    50
100
AcDbLine
 10
371.861128
 20
445.019574
 30
0.0
 11
373.361128
 21
445.019574
 31
0.0
  0
LINE
  5
14D
102
{ACAD_REACTORS
330
20C
102
}
330
1F
100
AcDbEntity
  8
LC-001-002-----0
 62
     7
370
    50
100
AcDbLine
 10
376.861128
 20
447.019574
 30
0.0
 11
380.719401
 21
447.019574
 31
0.0
  0
INSERT
  5
1B3
102
{ACAD_REACTORS
330
20C
102
}
330
1F
100
AcDbEntity
  8
LC-003-005-----0
 62
     7
370
    25
100
AcDbBlockReference
  2
*X44
 10
0.0
 20
0.0
 30
0.0
  0
LINE
  5
1B4
102
{ACAD_REACTORS
330
20C
102
}
330
1F
100
AcDbEntity
  8
LC-001-002-----0
 62
     7
370
    50
100
AcDbLine
 10
392.111128
 20
392.019574
 30
0.0
 11
409.361128
 21
392.019574
 31
0.0
  0
LINE
  5
1B5
102
{ACAD_REACTORS
330
20C
102
}
330
1F
100
AcDbEntity
  8
LC-001-002-----0
 62
     7
370
    50
100
AcDbLine
 10
373.361128
 20
447.019574
 30
0.0
 11
375.361128
 21
447.019574
 31
0.0
  0
LINE
  5
1B6
102
{ACAD_REACTORS
330
20C
102
}
330
1F
100
AcDbEntity
  8
LC-001-002-----0
 62
     7
370
    50
100
AcDbLine
 10
375.361128
 20
445.019574
 30
0.0
 11
376.861128
 21
445.019574
 31
0.0
  0
CIRCLE
  5
1B7
102
{ACAD_REACTORS
330
20A
102
}
330
1F
100
AcDbEntity
  8
LC-001-002-----0
 62
     7
370
    50
100
AcDbCircle
 10
325.211128
 20
446.402994
 30
0.0
 40
2.5
  0
CIRCLE
  5
1B8
102
{ACAD_REACTORS
330
20A
102
}
330
1F
100
AcDbEntity
  8
LC-001-002-----0
 62
     7
370
    50
100
AcDbCircle
 10
423.511128
 20
446.402994
 30
0.0
 40
2.5
  0
INSERT
  5
1BE
102
{ACAD_REACTORS
330
20A
102
}
330
1F
100
AcDbEntity
  8
LC-003-005-----0
 62
     7
370
    25
100
AcDbBlockReference
  2
*X55
 10
0.0
 20
0.0
 30
0.0
  0
INSERT
  5
1C3
102
{ACAD_REACTORS
330
20A
102
}
330
1F
100
AcDbEntity
  8
LC-003-005-----0
 62
     7
370
    25
100
AcDbBlockReference
  2
*X66
 10
0.0
 20
0.0
 30
0.0
  0
DIMENSION
  5
1C7
330
1F
100
AcDbEntity
  8
LC-005-003-----0
 62
     7
370
    25
100
AcDbDimension
  2
*D7
 10
426.011128
 20
485.388
 30
0.0
 11
371.749176
 21
516.188
 31
0.0
 70
   160
  1
%%c100
 71
     5
 42
103.3
  3
LC-DIM-L-0140-02-02
100
AcDbAlignedDimension
 13
322.711128
 23
446.402994
 33
0.0
 14
426.011128
 24
446.402994
 34
0.0
100
AcDbRotatedDimension
  0
DIMENSION
  5
1D5
330
1F
100
AcDbEntity
  8
LC-005-003-----0
 62
     7
370
    25
100
AcDbDimension
  2
*D8
 10
500.287952
 20
392.019574
 30
0.0
 11
469.487952
 21
472.32
 31
0.0
 70
   160
  1
50
 71
     5
 42
48.0
 53
90.0
  3
LC-DIM-L-0140-02-02
100
AcDbAlignedDimension
 13
404.361128
 23
440.019574
 33
0.0
 14
409.361128
 24
392.019574
 34
0.0
 50
90.0
100
AcDbRotatedDimension
  0
DIMENSION
  5
1E3
330
1F
100
AcDbEntity
  8
LC-005-003-----0
 62
     7
370
    25
100
AcDbDimension
  2
*D9
 10
427.361128
 20
534.096
 30
0.0
 11
374.361128
 21
564.896
 31
0.0
 70
   160
  1
%%c<>
 71
     5
 42
106.0
  3
LC-DIM-L-0140-02-02
100
AcDbAlignedDimension
 13
321.361128
 23
455.519574
 33
0.0
 14
427.361128
 24
455.519574
 34
0.0
100
AcDbRotatedDimension
  0
DIMENSION
  5
1F0
330
1F
100
AcDbEntity
  8
LC-005-003-----0
 62
     7
370
    25
100
AcDbDimension
  2
*D10
 10
288.639174
 20
385.522733
 30
0.0
 11
257.839174
 21
420.521154
 31
0.0
 70
   160
 71
     5
 42
69.99684
 53
90.0
  3
LC-DIM-L-0140-02-02
100
AcDbAlignedDimension
 13
321.361128
 23
455.519574
 33
0.0
 14
339.361128
 24
385.522733
 34
0.0
 50
90.0
100
AcDbRotatedDimension
  0
DIMENSION
  5
1FD
330
1F
100
AcDbEntity
  8
LC-005-003-----0
 62
     7
370
    25
100
AcDbDimension
  2
*D11
 10
421.361128
 20
318.474
 30
0.0
 11
374.361128
 21
349.274
 31
0.0
 70
   160
  1
%%c<>
 71
     5
 42
94.0
  3
LC-DIM-L-0140-02-02
100
AcDbAlignedDimension
 13
327.361128
 23
397.522733
 33
0.0
 14
421.361128
 24
397.522733
 34
0.0
100
AcDbRotatedDimension
  0
ENDSEC
  0
SECTION
  2
OBJECTS
  0
DICTIONARY
  5
C
330
0
100
AcDbDictionary
281
     1
  3
ACAD_GROUP
350
D
  3
ACAD_LAYOUT
350
1A
  3
ACAD_MLINESTYLE
350
17
  3
ACAD_PLOTSETTINGS
350
19
  3
ACAD_PLOTSTYLENAME
350
E
  0
DICTIONARY
  5
D
102
{ACAD_REACTORS
330
C
102
}
330
C
100
AcDbDictionary
281
     1
  3
LCGROUP112
350
20A
  3
LCGROUP156
350
20B
  3
LCGROUP209
350
20C
  3
LCGROUP238
350
20D
  0
DICTIONARY
  5
1A
102
{ACAD_REACTORS
330
C
102
}
330
C
100
AcDbDictionary
281
     1
  3
Layout1
350
1E
  3
Layout2
350
26
  3
Model
350
22
  0
DICTIONARY
  5
17
102
{ACAD_REACTORS
330
C
102
}
330
C
100
AcDbDictionary
281
     1
  3
Standard
350
18
  0
DICTIONARY
  5
19
102
{ACAD_REACTORS
330
C
102
}
330
C
100
AcDbDictionary
281
     1
  0
ACDBDICTIONARYWDFLT
  5
E
102
{ACAD_REACTORS
330
C
102
}
330
C
100
AcDbDictionary
281
     1
  3
Normal
350
F
100
AcDbDictionaryWithDefault
340
F
  0
GROUP
  5
20A
102
{ACAD_REACTORS
330
D
102
}
330
D
100
AcDbGroup
300
GRP112
 70
     1
 71
     1
340
1B7
340
1B8
340
1BE
340
1C3
  0
GROUP
  5
20B
102
{ACAD_REACTORS
330
D
102
}
330
D
100
AcDbGroup
300
AUTOGRUPPE 155
 70
     1
 71
     1
340
31
340
32
340
33
340
34
340
35
340
36
340
37
340
38
340
39
340
3A
340
3B
340
3C
340
3D
340
3E
340
41
340
42
340
43
340
44
340
45
340
46
340
47
340
48
340
49
340
4A
340
4B
340
4C
340
4D
340
4E
340
4F
340
50
340
51
340
52
340
53
340
54
340
55
340
56
340
57
340
58
340
59
340
5A
340
5B
340
5C
340
5D
340
5E
340
5F
340
60
340
61
340
62
340
63
340
64
340
65
340
66
340
67
340
68
340
69
340
6A
340
6B
340
6C
340
6D
340
6E
340
6F
340
70
340
71
340
72
340
73
340
74
340
75
340
76
340
77
340
78
340
79
340
7A
340
C0
340
FF
340
100
340
101
340
102
340
103
340
105
340
106
  0
GROUP
  5
20C
102
{ACAD_REACTORS
330
D
102
}
330
D
100
AcDbGroup
300
AUTOGRUPPE 208
 70
     1
 71
     1
340
12C
340
12D
340
12E
340
12F
340
130
340
131
340
132
340
133
340
134
340
135
340
136
340
137
340
138
340
139
340
13A
340
13B
340
13C
340
13D
340
13E
340
13F
340
140
340
141
340
142
340
143
340
144
340
145
340
146
340
147
340
148
340
149
340
14A
340
14B
340
14C
340
14D
340
1B3
340
1B4
340
1B5
340
1B6
  0
GROUP
  5
20D
102
{ACAD_REACTORS
330
D
102
}
330
D
100
AcDbGroup
300
AUTOGRUPPE 237
 70
     1
 71
     1
340
107
340
108
340
109
340
10A
340
10B
340
10C
340
10D
340
10E
340
10F
340
110
340
111
340
112
340
113
340
114
340
115
340
116
340
117
340
118
340
12B
  0
LAYOUT
  5
1E
102
{ACAD_REACTORS
330
1A
102
}
330
1A
100
AcDbPlotSettings
  1

  2

  4

  6

 40
0.0
 41
0.0
 42
0.0
 43
0.0
 44
0.0
 45
0.0
 46
0.0
 47
0.0
 48
0.0
 49
0.0
140
0.0
141
0.0
142
1.0
143
1.0
 70
   688
 72
     0
 73
     0
 74
     5
  7

 75
    16
147
1.0
148
0.0
149
0.0
100
AcDbLayout
  1
Layout1
 70
     1
 71
     1
 10
-11.905377
 20
68.4
 11
828.094623
 21
662.4
 12
0.0
 22
0.0
 32
0.0
 14
-11.905377
 24
68.4
 34
0.0
 15
828.094623
 25
662.4
 35
0.0
146
0.0
 13
0.0
 23
0.0
 33
0.0
 16
1.0
 26
0.0
 36
0.0
 17
0.0
 27
1.0
 37
0.0
 76
     0
330
1B
  0
LAYOUT
  5
26
102
{ACAD_REACTORS
330
1A
102
}
330
1A
100
AcDbPlotSettings
  1

  2

  4

  6

 40
0.0
 41
0.0
 42
0.0
 43
0.0
 44
0.0
 45
0.0
 46
0.0
 47
0.0
 48
0.0
 49
0.0
140
0.0
141
0.0
142
1.0
143
1.0
 70
   688
 72
     0
 73
     0
 74
     5
  7

 75
    16
147
1.0
148
0.0
149
0.0
100
AcDbLayout
  1
Layout2
 70
     1
 71
     2
 10
0.0
 20
0.0
 11
0.0
 21
0.0
 12
0.0
 22
0.0
 32
0.0
 14
0.0
 24
0.0
 34
0.0
 15
0.0
 25
0.0
 35
0.0
146
0.0
 13
0.0
 23
0.0
 33
0.0
 16
1.0
 26
0.0
 36
0.0
 17
0.0
 27
1.0
 37
0.0
 76
     0
330
23
  0
LAYOUT
  5
22
102
{ACAD_REACTORS
330
1A
102
}
330
1A
100
AcDbPlotSettings
  1

  2

  4

  6

 40
0.0
 41
0.0
 42
0.0
 43
0.0
 44
0.0
 45
0.0
 46
0.0
 47
0.0
 48
0.0
 49
0.0
140
0.0
141
0.0
142
1.0
143
1.0
 70
  1776
 72
     0
 73
     0
 74
     0
  7

 75
     0
147
1.0
148
0.0
149
0.0
100
AcDbLayout
  1
Model
 70
     1
 71
     0
 10
-11.905377
 20
68.4
 11
828.094623
 21
662.4
 12
-11.905377
 22
68.4
 32
0.0
 14
-11.905377
 24
68.4
 34
0.0
 15
828.094623
 25
662.4
 35
0.0
146
0.0
 13
0.0
 23
0.0
 33
0.0
 16
1.0
 26
0.0
 36
0.0
 17
0.0
 27
1.0
 37
0.0
 76
     0
330
1F
  0
MLINESTYLE
  5
18
102
{ACAD_REACTORS
330
17
102
}
330
17
100
AcDbMlineStyle
  2
Standard
 70
     0
  3

 62
   256
 51
90.0
 52
90.0
 71
     2
 49
0.5
 62
   256
  6
BYLAYER
 49
-0.5
 62
   256
  6
BYLAYER
  0
ACDBPLACEHOLDER
  5
F
102
{ACAD_REACTORS
330
E
102
}
330
E
  0
ENDSEC
  0
EOF
