  0
SECTION
  2
HEADER
  9
$ACADVER
  1
AC1015
  9
$ACADMAINTVER
 70
     6
  9
$DWGCODEPAGE
  3
ANSI_1252
  9
$INSBASE
 10
0.0
 20
0.0
 30
0.0
  9
$EXTMIN
 10
-209.760318
 20
-147.978432
 30
0.0
  9
$EXTMAX
 10
630.239682
 20
446.021568
 30
0.0
  9
$LIMMIN
 10
-209.760318
 20
-147.978432
  9
$LIMMAX
 10
630.239682
 20
446.021568
  9
$ORTHOMODE
 70
     0
  9
$REGENMODE
 70
     1
  9
$FILLMODE
 70
     1
  9
$QTEXTMODE
 70
     0
  9
$MIRRTEXT
 70
     1
  9
$LTSCALE
 40
2.0
  9
$ATTMODE
 70
     1
  9
$TEXTSIZE
 40
2.5
  9
$TRACEWID
 40
1.0
  9
$TEXTSTYLE
  7
Standard
  9
$CLAYER
  8
0
  9
$CELTYPE
  6
ByLayer
  9
$CECOLOR
 62
     7
  9
$CELTSCALE
 40
1.0
  9
$DISPSILH
 70
     0
  9
$DIMSCALE
 40
2.0
  9
$DIMASZ
 40
3.5
  9
$DIMEXO
 40
0.625
  9
$DIMDLI
 40
3.75
  9
$DIMRND
 40
0.0
  9
$DIMDLE
 40
0.0
  9
$DIMEXE
 40
1.25
  9
$DIMTP
 40
0.0
  9
$DIMTM
 40
0.0
  9
$DIMTXT
 40
3.5
  9
$DIMCEN
 40
2.5
  9
$DIMTSZ
 40
0.0
  9
$DIMTOL
 70
     0
  9
$DIMLIM
 70
     0
  9
$DIMTIH
 70
     0
  9
$DIMTOH
 70
     0
  9
$DIMSE1
 70
     0
  9
$DIMSE2
 70
     0
  9
$DIMTAD
 70
     1
  9
$DIMZIN
 70
     8
  9
$DIMBLK
  1

  9
$DIMASO
 70
     1
  9
$DIMSHO
 70
     1
  9
$DIMPOST
  1

  9
$DIMAPOST
  1

  9
$DIMALT
 70
     0
  9
$DIMALTD
 70
     3
  9
$DIMALTF
 40
0.03937
  9
$DIMLFAC
 40
1.0
  9
$DIMTOFL
 70
     1
  9
$DIMTVP
 40
0.0
  9
$DIMTIX
 70
     0
  9
$DIMSOXD
 70
     0
  9
$DIMSAH
 70
     0
  9
$DIMBLK1
  1

  9
$DIMBLK2
  1

  9
$DIMSTYLE
  2
ISO-25
  9
$DIMCLRD
 70
     0
  9
$DIMCLRE
 70
     0
  9
$DIMCLRT
 70
     0
  9
$DIMTFAC
 40
1.0
  9
$DIMGAP
 40
0.625
  9
$DIMJUST
 70
     0
  9
$DIMSD1
 70
     0
  9
$DIMSD2
 70
     0
  9
$DIMTOLJ
 70
     0
  9
$DIMTZIN
 70
     8
  9
$DIMALTZ
 70
     0
  9
$DIMALTTZ
 70
     0
  9
$DIMUPT
 70
     0
  9
$DIMDEC
 70
     2
  9
$DIMTDEC
 70
     2
  9
$DIMALTU
 70
     2
  9
$DIMALTTD
 70
     3
  9
$DIMTXSTY
  7
Standard
  9
$DIMAUNIT
 70
     0
  9
$DIMADEC
 70
     0
  9
$DIMALTRND
 40
0.0
  9
$DIMAZIN
 70
     0
  9
$DIMDSEP
 70
    44
  9
$DIMATFIT
 70
     3
  9
$DIMFRAC
 70
     0
  9
$DIMLDRBLK
  1

  9
$DIMLUNIT
 70
     2
  9
$DIMLWD
 70
    -2
  9
$DIMLWE
 70
    -2
  9
$DIMTMOVE
 70
     0
  9
$LUNITS
 70
     2
  9
$LUPREC
 70
     4
  9
$SKETCHINC
 40
1.0
  9
$FILLETRAD
 40
10.0
  9
$AUNITS
 70
     0
  9
$AUPREC
 70
     0
  9
$MENU
  1
.
  9
$ELEVATION
 40
0.0
  9
$PELEVATION
 40
0.0
  9
$THICKNESS
 40
0.0
  9
$LIMCHECK
 70
     0
  9
$CHAMFERA
 40
10.0
  9
$CHAMFERB
 40
10.0
  9
$CHAMFERC
 40
20.0
  9
$CHAMFERD
 40
0.0
  9
$SKPOLY
 70
     0
  9
$TDCREATE
 40
2456941.500106435
  9
$TDUCREATE
 40
2456941.416773102
  9
$TDUPDATE
 40
2456941.500106447
  9
$TDUUPDATE
 40
2456941.416773113
  9
$TDINDWG
 40
0.0000000116
  9
$TDUSRTIMER
 40
0.0000000116
  9
$USRTIMER
 70
     1
  9
$ANGBASE
 50
0.0
  9
$ANGDIR
 70
     0
  9
$PDMODE
 70
     0
  9
$PDSIZE
 40
0.0
  9
$PLINEWID
 40
0.0
  9
$SPLFRAME
 70
     0
  9
$SPLINETYPE
 70
     6
  9
$SPLINESEGS
 70
     8
  9
$HANDSEED
  5
336
  9
$SURFTAB1
 70
     6
  9
$SURFTAB2
 70
     6
  9
$SURFTYPE
 70
     6
  9
$SURFU
 70
     6
  9
$SURFV
 70
     6
  9
$UCSBASE
  2

  9
$UCSNAME
  2

  9
$UCSORG
 10
0.0
 20
0.0
 30
0.0
  9
$UCSXDIR
 10
1.0
 20
0.0
 30
0.0
  9
$UCSYDIR
 10
0.0
 20
1.0
 30
0.0
  9
$UCSORTHOREF
  2

  9
$UCSORTHOVIEW
 70
     0
  9
$UCSORGTOP
 10
0.0
 20
0.0
 30
0.0
  9
$UCSORGBOTTOM
 10
0.0
 20
0.0
 30
0.0
  9
$UCSORGLEFT
 10
0.0
 20
0.0
 30
0.0
  9
$UCSORGRIGHT
 10
0.0
 20
0.0
 30
0.0
  9
$UCSORGFRONT
 10
0.0
 20
0.0
 30
0.0
  9
$UCSORGBACK
 10
0.0
 20
0.0
 30
0.0
  9
$PUCSBASE
  2

  9
$PUCSNAME
  2

  9
$PUCSORG
 10
0.0
 20
0.0
 30
0.0
  9
$PUCSXDIR
 10
1.0
 20
0.0
 30
0.0
  9
$PUCSYDIR
 10
0.0
 20
1.0
 30
0.0
  9
$PUCSORTHOREF
  2

  9
$PUCSORTHOVIEW
 70
     0
  9
$PUCSORGTOP
 10
0.0
 20
0.0
 30
0.0
  9
$PUCSORGBOTTOM
 10
0.0
 20
0.0
 30
0.0
  9
$PUCSORGLEFT
 10
0.0
 20
0.0
 30
0.0
  9
$PUCSORGRIGHT
 10
0.0
 20
0.0
 30
0.0
  9
$PUCSORGFRONT
 10
0.0
 20
0.0
 30
0.0
  9
$PUCSORGBACK
 10
0.0
 20
0.0
 30
0.0
  9
$USERI1
 70
     0
  9
$USERI2
 70
     0
  9
$USERI3
 70
     0
  9
$USERI4
 70
     0
  9
$USERI5
 70
     0
  9
$USERR1
 40
0.0
  9
$USERR2
 40
0.0
  9
$USERR3
 40
0.0
  9
$USERR4
 40
0.0
  9
$USERR5
 40
0.0
  9
$WORLDVIEW
 70
     1
  9
$SHADEDGE
 70
     3
  9
$SHADEDIF
 70
    70
  9
$TILEMODE
 70
     1
  9
$MAXACTVP
 70
    64
  9
$PINSBASE
 10
0.0
 20
0.0
 30
0.0
  9
$PLIMCHECK
 70
     0
  9
$PEXTMIN
 10
-209.760318
 20
-147.978432
 30
0.0
  9
$PEXTMAX
 10
630.239682
 20
446.021568
 30
0.0
  9
$PLIMMIN
 10
-209.760318
 20
-147.978432
  9
$PLIMMAX
 10
630.239682
 20
446.021568
  9
$UNITMODE
 70
     0
  9
$VISRETAIN
 70
     1
  9
$PLINEGEN
 70
     0
  9
$PSLTSCALE
 70
     1
  9
$TREEDEPTH
 70
  3020
  9
$CMLSTYLE
  2
Standard
  9
$CMLJUST
 70
     0
  9
$CMLSCALE
 40
20.0
  9
$PROXYGRAPHICS
 70
     1
  9
$MEASUREMENT
 70
     1
  9
$CELWEIGHT
370
    -1
  9
$ENDCAPS
280
     0
  9
$JOINSTYLE
280
     0
  9
$LWDISPLAY
290
     0
  9
$INSUNITS
 70
     4
  9
$HYPERLINKBASE
  1

  9
$STYLESHEET
  1

  9
$XEDIT
290
     1
  9
$CEPSNTYPE
380
     0
  9
$PSTYLEMODE
290
     1
  9
$FINGERPRINTGUID
  2
{FAEB1C30-E019-11D5-929B-00C0DF256EC4}
  9
$VERSIONGUID
  2
{FAEB1C32-E019-11D5-929B-00C0DF256EC4}
  9
$EXTNAMES
290
     1
  9
$PSVPSCALE
 40
0.0
  9
$OLESTARTUP
290
     0
  0
ENDSEC
  0
SECTION
  2
CLASSES
  0
CLASS
  1
ACDBDICTIONARYWDFLT
  2
AcDbDictionaryWithDefault
  3
ObjectDBX Classes
 90
        0
280
     0
281
     0
  0
CLASS
  1
ACDBPLACEHOLDER
  2
AcDbPlaceHolder
  3
ObjectDBX Classes
 90
        0
280
     0
281
     0
  0
CLASS
  1
LAYOUT
  2
AcDbLayout
  3
ObjectDBX Classes
 90
        0
280
     0
281
     0
  0
ENDSEC
  0
SECTION
  2
TABLES
  0
TABLE
  2
VPORT
  5
8
330
0
100
AcDbSymbolTable
 70
     2
  0
VPORT
  5
29
330
8
100
AcDbSymbolTableRecord
100
AcDbViewportTableRecord
  2
*ACTIVE
 70
     0
 10
0.0
 20
0.0
 11
1.0
 21
1.0
 12
210.239682
 22
149.021568
 13
0.0
 23
0.0
 14
1.0
 24
1.0
 15
0.0
 25
0.0
 16
0.0
 26
0.0
 36
1.0
 17
0.0
 27
0.0
 37
0.0
 40
594.0
 41
1.414141
 42
50.0
 43
0.0
 44
0.0
 50
0.0
 51
0.0
 71
    16
 72
   100
 73
     1
 74
     0
 75
     0
 76
     0
 77
     0
 78
     0
281
     0
 65
     0
110
0.0
120
0.0
130
0.0
111
1.0
121
0.0
131
0.0
112
0.0
122
1.0
132
0.0
 79
     0
146
0.0
  0
ENDTAB
  0
TABLE
  2
LTYPE
  5
5
330
0
100
AcDbSymbolTable
 70
     3
  0
LTYPE
  5
14
330
5
100
AcDbSymbolTableRecord
100
AcDbLinetypeTableRecord
  2
ByBlock
 70
     0
  3

 72
    65
 73
     0
 40
0.0
  0
LTYPE
  5
15
330
5
100
AcDbSymbolTableRecord
100
AcDbLinetypeTableRecord
  2
ByLayer
 70
     0
  3

 72
    65
 73
     0
 40
0.0
  0
LTYPE
  5
16
330
5
100
AcDbSymbolTableRecord
100
AcDbLinetypeTableRecord
  2
Continuous
 70
     0
  3
Solid line
 72
    65
 73
     0
 40
0.0
  0
LTYPE
  5
2A
330
5
100
AcDbSymbolTableRecord
100
AcDbLinetypeTableRecord
  2
DASHED
 70
     0
  3
__ __ __ __ __
 72
    65
 73
     2
 40
6.25
 49
5.0
 74
     4
 75
     0
340
0
 46
1.0
 50
0.0
 44
0.0
 45
0.0
 49
-1.25
 74
     4
 75
     0
340
0
 46
1.0
 50
0.0
 44
0.0
 45
0.0
  0
LTYPE
  5
2AC
330
5
100
AcDbSymbolTableRecord
100
AcDbLinetypeTableRecord
  2
DASHDOT
 70
     0
  3
__ . __ . __ . __ . __
 72
    65
 73
     4
 40
7.5
 49
5.0
 74
     4
 75
     0
340
0
 46
1.0
 50
0.0
 44
0.0
 45
0.0
 49
-1.25
 74
     4
 75
     0
340
0
 46
1.0
 50
0.0
 44
0.0
 45
0.0
 49
0.0
 74
     4
 75
     0
340
0
 46
1.0
 50
0.0
 44
0.0
 45
0.0
 49
-1.25
 74
     4
 75
     0
340
0
 46
1.0
 50
0.0
 44
0.0
 45
0.0
  0
ENDTAB
  0
TABLE
  2
LAYER
  5
2
330
0
100
AcDbSymbolTable
 70
    11
  0
LAYER
  5
10
330
2
100
AcDbSymbolTableRecord
100
AcDbLayerTableRecord
  2
0
 70
     0
 62
     7
  6
Continuous
370
    -3
390
F
  0
LAYER
  5
2B
330
2
100
AcDbSymbolTableRecord
100
AcDbLayerTableRecord
  2
LC-INFO-1-2-mm-A3-0
 70
     1
 62
     7
  6
ByBlock
370
    -3
390
F
  0
LAYER
  5
2C
330
2
100
AcDbSymbolTableRecord
100
AcDbLayerTableRecord
  2
LC-CUT-HIDDEN
 70
     0
 62
     7
  6
DASHED
370
    -3
390
F
  0
LAYER
  5
2D
330
2
100
AcDbSymbolTableRecord
100
AcDbLayerTableRecord
  2
LC-VIEWPORT
 70
     0
 62
     7
  6
ByBlock
370
    -3
390
F
  0
LAYER
  5
2E
330
2
100
AcDbSymbolTableRecord
100
AcDbLayerTableRecord
  2
LC-3D-HIDDEN
 70
     0
 62
     9
  6
DASHED
370
    -3
390
F
  0
LAYER
  5
30
330
2
100
AcDbSymbolTableRecord
100
AcDbLayerTableRecord
  2
LC-001-002-----0
 70
     0
 62
     1
  6
ByBlock
370
    -3
390
F
  0
LAYER
  5
33
330
2
100
AcDbSymbolTableRecord
100
AcDbLayerTableRecord
  2
LC-002-100-D00-0
 70
     0
 62
     1
  6
ByBlock
370
    -3
390
F
  0
LAYER
  5
2B1
330
2
100
AcDbSymbolTableRecord
100
AcDbLayerTableRecord
  2
LC-003-003-----0
 70
     0
 62
     2
  6
ByBlock
370
    -3
390
F
  0
LAYER
  5
2B3
330
2
100
AcDbSymbolTableRecord
100
AcDbLayerTableRecord
  2
Defpoints
 70
     0
 62
     7
  6
Continuous
290
     0
370
    -3
390
F
  0
LAYER
  5
32C
330
2
100
AcDbSymbolTableRecord
100
AcDbLayerTableRecord
  2
LC-004-003-MTG-0
 70
     0
 62
     2
  6
ByBlock
370
    -3
390
F
  0
LAYER
  5
32F
330
2
100
AcDbSymbolTableRecord
100
AcDbLayerTableRecord
  2
LC-005-003-MTH-0
 70
     0
 62
     2
  6
ByBlock
370
    -3
390
F
  0
ENDTAB
  0
TABLE
  2
STYLE
  5
3
330
0
100
AcDbSymbolTable
 70
     3
  0
STYLE
  5
11
330
3
100
AcDbSymbolTableRecord
100
AcDbTextStyleTableRecord
  2
Standard
 70
     0
 40
0.0
 41
1.0
 50
0.0
 71
     0
 42
2.5
  3
txt
  4

  0
STYLE
  5
2F
330
3
100
AcDbSymbolTableRecord
100
AcDbTextStyleTableRecord
  2
LCTX15-400-0-0-Arial
 70
     0
 40
0.0
 41
0.8
 50
0.0
 71
     0
 42
3.5
  3
ARIAL.TTF
  4

1001
ACAD
1000
Arial
1071
 16777218
  0
STYLE
  5
2AF
330
3
100
AcDbSymbolTableRecord
100
AcDbTextStyleTableRecord
  2
LCTX15-400-0-0pDIN-Schrift
 70
     0
 40
2.5
 41
0.8
 50
15.0
 71
     0
 42
3.5
  3
STANDARD
  4

  0
ENDTAB
  0
TABLE
  2
VIEW
  5
6
330
0
100
AcDbSymbolTable
 70
     0
  0
ENDTAB
  0
TABLE
  2
UCS
  5
7
330
0
100
AcDbSymbolTable
 70
     0
  0
ENDTAB
  0
TABLE
  2
APPID
  5
9
330
0
100
AcDbSymbolTable
 70
     1
  0
APPID
  5
12
330
9
100
AcDbSymbolTableRecord
100
AcDbRegAppTableRecord
  2
ACAD
 70
     0
  0
ENDTAB
  0
TABLE
  2
DIMSTYLE
  5
A
330
0
100
AcDbSymbolTable
 70
     3
100
AcDbDimStyleTable
  0
DIMSTYLE
105
27
330
A
100
AcDbSymbolTableRecord
100
AcDbDimStyleTableRecord
  2
ISO-25
 70
     0
 41
2.5
 42
0.625
 43
3.75
 44
1.25
 73
     0
 74
     0
 77
     1
 78
     8
140
2.5
141
2.5
143
0.03937
147
0.625
171
     3
172
     1
271
     2
272
     2
274
     3
278
    44
283
     0
284
     8
340
11
  0
DIMSTYLE
105
2B0
102
{ACAD_REACTORS
330
2B2
330
2C2
330
2D0
330
2DE
330
2ED
330
2FB
330
308
102
}
330
A
100
AcDbSymbolTableRecord
100
AcDbDimStyleTableRecord
  2
LC-DIM-L-0140-02-02
 70
     0
 40
2.0
 41
14.0
 42
0.0
 43
7.5
 44
1.8
 73
     0
 74
     0
 77
     1
 78
     8
 79
     2
140
14.0
141
0.0
146
0.71
147
1.5
176
     2
177
     2
178
     2
179
     2
271
     2
278
    44
289
     1
340
2AF
  0
DIMSTYLE
105
315
330
A
100
AcDbSymbolTableRecord
100
AcDbDimStyleTableRecord
  2
LC-DIM-W-0140-02-02
 70
     0
 40
2.0
 41
14.0
 42
0.0
 43
7.5
 44
1.8
 73
     0
 74
     0
 77
     1
 78
     8
 79
     2
140
14.0
141
0.0
146
0.71
147
1.5
176
     2
177
     2
178
     2
179
     2
271
     2
278
    44
289
     1
340
2AF
  0
ENDTAB
  0
TABLE
  2
BLOCK_RECORD
  5
1
330
0
100
AcDbSymbolTable
 70
    28
  0
BLOCK_RECORD
  5
1F
330
1
100
AcDbSymbolTableRecord
100
AcDbBlockTableRecord
  2
*Model_Space
340
22
  0
BLOCK_RECORD
  5
1B
330
1
100
AcDbSymbolTableRecord
100
AcDbBlockTableRecord
  2
*Paper_Space
340
1E
  0
BLOCK_RECORD
  5
23
330
1
100
AcDbSymbolTableRecord
100
AcDbBlockTableRecord
  2
*Paper_Space0
340
26
  0
BLOCK_RECORD
  5
91
330
1
100
AcDbSymbolTableRecord
100
AcDbBlockTableRecord
  2
POLY1
340
0
102
{BLKREFS
331
A4
102
}
  0
BLOCK_RECORD
  5
A5
330
1
100
AcDbSymbolTableRecord
100
AcDbBlockTableRecord
  2
POLY2
340
0
102
{BLKREFS
331
C2
102
}
  0
BLOCK_RECORD
  5
CB
330
1
100
AcDbSymbolTableRecord
100
AcDbBlockTableRecord
  2
KLON1
340
0
102
{BLKREFS
331
D0
102
}
  0
BLOCK_RECORD
  5
D1
330
1
100
AcDbSymbolTableRecord
100
AcDbBlockTableRecord
  2
KLON2
340
0
102
{BLKREFS
331
D6
102
}
  0
BLOCK_RECORD
  5
162
330
1
100
AcDbSymbolTableRecord
100
AcDbBlockTableRecord
  2
POLY3
340
0
102
{BLKREFS
331
16D
102
}
  0
BLOCK_RECORD
  5
175
330
1
100
AcDbSymbolTableRecord
100
AcDbBlockTableRecord
  2
POLY4
340
0
102
{BLKREFS
331
180
102
}
  0
BLOCK_RECORD
  5
1B1
330
1
100
AcDbSymbolTableRecord
100
AcDbBlockTableRecord
  2
KLON3
340
0
102
{BLKREFS
331
1BA
102
}
  0
BLOCK_RECORD
  5
1BB
330
1
100
AcDbSymbolTableRecord
100
AcDbBlockTableRecord
  2
KLON4
340
0
102
{BLKREFS
331
1C5
102
}
  0
BLOCK_RECORD
  5
1C6
330
1
100
AcDbSymbolTableRecord
100
AcDbBlockTableRecord
  2
KLON5
340
0
102
{BLKREFS
331
1ED
102
}
  0
BLOCK_RECORD
  5
1EE
330
1
100
AcDbSymbolTableRecord
100
AcDbBlockTableRecord
  2
KLON6
340
0
102
{BLKREFS
331
1FC
102
}
  0
BLOCK_RECORD
  5
1FD
330
1
100
AcDbSymbolTableRecord
100
AcDbBlockTableRecord
  2
KLON7
340
0
102
{BLKREFS
331
20A
102
}
  0
BLOCK_RECORD
  5
20C
330
1
100
AcDbSymbolTableRecord
100
AcDbBlockTableRecord
  2
KLON8
340
0
102
{BLKREFS
331
212
102
}
  0
BLOCK_RECORD
  5
213
330
1
100
AcDbSymbolTableRecord
100
AcDbBlockTableRecord
  2
KLON9
340
0
102
{BLKREFS
331
219
102
}
  0
BLOCK_RECORD
  5
21A
330
1
100
AcDbSymbolTableRecord
100
AcDbBlockTableRecord
  2
KLON10
340
0
102
{BLKREFS
331
227
102
}
  0
BLOCK_RECORD
  5
228
330
1
100
AcDbSymbolTableRecord
100
AcDbBlockTableRecord
  2
KLON11
340
0
102
{BLKREFS
331
234
102
}
  0
BLOCK_RECORD
  5
235
330
1
100
AcDbSymbolTableRecord
100
AcDbBlockTableRecord
  2
KLON12
340
0
102
{BLKREFS
331
245
102
}
  0
BLOCK_RECORD
  5
246
330
1
100
AcDbSymbolTableRecord
100
AcDbBlockTableRecord
  2
KLON13
340
0
102
{BLKREFS
331
278
102
}
  0
BLOCK_RECORD
  5
279
330
1
100
AcDbSymbolTableRecord
100
AcDbBlockTableRecord
  2
KLON14
340
0
102
{BLKREFS
331
292
102
}
  0
BLOCK_RECORD
  5
293
330
1
100
AcDbSymbolTableRecord
100
AcDbBlockTableRecord
  2
KLON15
340
0
102
{BLKREFS
331
2A9
102
}
  0
BLOCK_RECORD
  5
2B4
330
1
100
AcDbSymbolTableRecord
100
AcDbBlockTableRecord
  2
*D20
340
0
  0
BLOCK_RECORD
  5
2C3
330
1
100
AcDbSymbolTableRecord
100
AcDbBlockTableRecord
  2
*D21
340
0
  0
BLOCK_RECORD
  5
2D1
330
1
100
AcDbSymbolTableRecord
100
AcDbBlockTableRecord
  2
*D22
340
0
  0
BLOCK_RECORD
  5
2DF
330
1
100
AcDbSymbolTableRecord
100
AcDbBlockTableRecord
  2
*D23
340
0
  0
BLOCK_RECORD
  5
2EE
330
1
100
AcDbSymbolTableRecord
100
AcDbBlockTableRecord
  2
*D24
340
0
  0
BLOCK_RECORD
  5
2FC
330
1
100
AcDbSymbolTableRecord
100
AcDbBlockTableRecord
  2
*D25
340
0
  0
BLOCK_RECORD
  5
309
330
1
100
AcDbSymbolTableRecord
100
AcDbBlockTableRecord
  2
*D26
340
0
  0
BLOCK_RECORD
  5
316
330
1
100
AcDbSymbolTableRecord
100
AcDbBlockTableRecord
  2
LCDIM1
340
0
102
{BLKREFS
331
333
102
}
  0
ENDTAB
  0
ENDSEC
  0
SECTION
  2
BLOCKS
  0
BLOCK
  5
20
330
1F
100
AcDbEntity
  8
0
100
AcDbBlockBegin
  2
*Model_Space
 70
     0
 71
     0
 10
0.0
 20
0.0
 30
0.0
  3
*Model_Space
  1

  0
ENDBLK
  5
21
330
1F
100
AcDbEntity
  8
0
100
AcDbBlockEnd
  0
BLOCK
  5
1C
330
1B
100
AcDbEntity
 67
     1
  8
0
100
AcDbBlockBegin
  2
*Paper_Space
 70
     0
 71
     0
 10
0.0
 20
0.0
 30
0.0
  3
*Paper_Space
  1

  0
ENDBLK
  5
1D
330
1B
100
AcDbEntity
 67
     1
  8
0
100
AcDbBlockEnd
  0
BLOCK
  5
24
330
23
100
AcDbEntity
  8
0
100
AcDbBlockBegin
  2
*Paper_Space0
 70
     0
 71
     0
 10
0.0
 20
0.0
 30
0.0
  3
*Paper_Space0
  1

  0
ENDBLK
  5
25
330
23
100
AcDbEntity
  8
0
100
AcDbBlockEnd
  0
BLOCK
  5
92
330
91
100
AcDbEntity
  8
0
100
AcDbBlockBegin
  2
POLY1
 70
     0
 71
     0
 10
0.0
 20
0.0
 30
0.0
  3
POLY1
  1

  4
POLY1
  0
LINE
  5
94
330
91
100
AcDbEntity
  8
LC-002-100-D00-0
 62
     7
370
    50
100
AcDbLine
 10
162.5648
 20
201.606411
 30
0.0
 11
162.5648
 21
201.606411
 31
0.0
  0
LINE
  5
95
330
91
100
AcDbEntity
  8
LC-002-100-D00-0
 62
     7
370
    50
100
AcDbLine
 10
162.5648
 20
201.606411
 30
0.0
 11
162.55067
 21
201.645179
 31
0.0
  0
LINE
  5
96
330
91
100
AcDbEntity
  8
LC-002-100-D00-0
 62
     7
370
    50
100
AcDbLine
 10
162.55067
 20
201.645179
 30
0.0
 11
162.55067
 21
201.645179
 31
0.0
  0
LINE
  5
97
330
91
100
AcDbEntity
  8
LC-002-100-D00-0
 62
     7
370
    50
100
AcDbLine
 10
162.55067
 20
201.645179
 30
0.0
 11
162.521476
 21
201.725281
 31
0.0
  0
LINE
  5
98
330
91
100
AcDbEntity
  8
LC-002-100-D00-0
 62
     7
370
    50
100
AcDbLine
 10
162.521476
 20
201.725281
 30
0.0
 11
162.521476
 21
201.725281
 31
0.0
  0
LINE
  5
99
330
91
100
AcDbEntity
  8
LC-002-100-D00-0
 62
     7
370
    50
100
AcDbLine
 10
162.521476
 20
201.725281
 30
0.0
 11
162.283252
 21
202.391149
 31
0.0
  0
LINE
  5
9A
330
91
100
AcDbEntity
  8
LC-002-100-D00-0
 62
     7
370
    50
100
AcDbLine
 10
162.283252
 20
202.391149
 30
0.0
 11
162.283252
 21
202.391149
 31
0.0
  0
LINE
  5
9B
330
91
100
AcDbEntity
  8
LC-002-100-D00-0
 62
     7
370
    50
100
AcDbLine
 10
162.283252
 20
202.391149
 30
0.0
 11
161.908931
 21
203.484112
 31
0.0
  0
LINE
  5
9C
330
91
100
AcDbEntity
  8
LC-002-100-D00-0
 62
     7
370
    50
100
AcDbLine
 10
161.908931
 20
203.484112
 30
0.0
 11
161.908931
 21
203.484112
 31
0.0
  0
LINE
  5
9D
330
91
100
AcDbEntity
  8
LC-002-100-D00-0
 62
     7
370
    50
100
AcDbLine
 10
161.908931
 20
203.484112
 30
0.0
 11
161.418038
 21
205.024823
 31
0.0
  0
LINE
  5
9E
330
91
100
AcDbEntity
  8
LC-002-100-D00-0
 62
     7
370
    50
100
AcDbLine
 10
161.418038
 20
205.024823
 30
0.0
 11
161.418038
 21
205.024823
 31
0.0
  0
LINE
  5
9F
330
91
100
AcDbEntity
  8
LC-002-100-D00-0
 62
     7
370
    50
100
AcDbLine
 10
161.418038
 20
205.024823
 30
0.0
 11
161.004761
 21
206.4575
 31
0.0
  0
LINE
  5
A0
330
91
100
AcDbEntity
  8
LC-002-100-D00-0
 62
     7
370
    50
100
AcDbLine
 10
161.004761
 20
206.4575
 30
0.0
 11
161.004761
 21
206.4575
 31
0.0
  0
LINE
  5
A1
330
91
100
AcDbEntity
  8
LC-002-100-D00-0
 62
     7
370
    50
100
AcDbLine
 10
161.004761
 20
206.4575
 30
0.0
 11
160.772425
 21
207.354374
 31
0.0
  0
LINE
  5
A2
330
91
100
AcDbEntity
  8
LC-002-100-D00-0
 62
     7
370
    50
100
AcDbLine
 10
160.772425
 20
207.354374
 30
0.0
 11
160.772425
 21
207.354374
 31
0.0
  0
LINE
  5
A3
330
91
100
AcDbEntity
  8
LC-002-100-D00-0
 62
     7
370
    50
100
AcDbLine
 10
160.772425
 20
207.354374
 30
0.0
 11
160.727983
 21
207.525931
 31
0.0
  0
ENDBLK
  5
93
330
91
100
AcDbEntity
  8
0
100
AcDbBlockEnd
  0
BLOCK
  5
A6
330
A5
100
AcDbEntity
  8
0
100
AcDbBlockBegin
  2
POLY2
 70
     0
 71
     0
 10
0.0
 20
0.0
 30
0.0
  3
POLY2
  1

  4
POLY2
  0
LINE
  5
A8
330
A5
100
AcDbEntity
  8
LC-002-100-D00-0
 62
     7
370
    50
100
AcDbLine
 10
160.727983
 20
207.525931
 30
0.0
 11
160.727983
 21
207.525931
 31
0.0
  0
LINE
  5
A9
330
A5
100
AcDbEntity
  8
LC-002-100-D00-0
 62
     7
370
    50
100
AcDbLine
 10
160.727983
 20
207.525931
 30
0.0
 11
160.55516
 21
208.231863
 31
0.0
  0
LINE
  5
AA
330
A5
100
AcDbEntity
  8
LC-002-100-D00-0
 62
     7
370
    50
100
AcDbLine
 10
160.55516
 20
208.231863
 30
0.0
 11
160.55516
 21
208.231863
 31
0.0
  0
LINE
  5
AB
330
A5
100
AcDbEntity
  8
LC-002-100-D00-0
 62
     7
370
    50
100
AcDbLine
 10
160.55516
 20
208.231863
 30
0.0
 11
160.209541
 21
209.643626
 31
0.0
  0
LINE
  5
AC
330
A5
100
AcDbEntity
  8
LC-002-100-D00-0
 62
     7
370
    50
100
AcDbLine
 10
160.209541
 20
209.643626
 30
0.0
 11
160.209541
 21
209.643626
 31
0.0
  0
LINE
  5
AD
330
A5
100
AcDbEntity
  8
LC-002-100-D00-0
 62
     7
370
    50
100
AcDbLine
 10
160.209541
 20
209.643626
 30
0.0
 11
159.722189
 21
212.185634
 31
0.0
  0
LINE
  5
AE
330
A5
100
AcDbEntity
  8
LC-002-100-D00-0
 62
     7
370
    50
100
AcDbLine
 10
159.722189
 20
212.185634
 30
0.0
 11
159.722189
 21
212.185634
 31
0.0
  0
LINE
  5
AF
330
A5
100
AcDbEntity
  8
LC-002-100-D00-0
 62
     7
370
    50
100
AcDbLine
 10
159.722189
 20
212.185634
 30
0.0
 11
159.329634
 21
215.046361
 31
0.0
  0
LINE
  5
B0
330
A5
100
AcDbEntity
  8
LC-002-100-D00-0
 62
     7
370
    50
100
AcDbLine
 10
159.329634
 20
215.046361
 30
0.0
 11
159.329634
 21
215.046361
 31
0.0
  0
LINE
  5
B1
330
A5
100
AcDbEntity
  8
LC-002-100-D00-0
 62
     7
370
    50
100
AcDbLine
 10
159.329634
 20
215.046361
 30
0.0
 11
159.097012
 21
218.13204
 31
0.0
  0
LINE
  5
B2
330
A5
100
AcDbEntity
  8
LC-002-100-D00-0
 62
     7
370
    50
100
AcDbLine
 10
159.097012
 20
218.13204
 30
0.0
 11
159.097012
 21
218.13204
 31
0.0
  0
LINE
  5
B3
330
A5
100
AcDbEntity
  8
LC-002-100-D00-0
 62
     7
370
    50
100
AcDbLine
 10
159.097012
 20
218.13204
 30
0.0
 11
159.074926
 21
221.215432
 31
0.0
  0
LINE
  5
B4
330
A5
100
AcDbEntity
  8
LC-002-100-D00-0
 62
     7
370
    50
100
AcDbLine
 10
159.074926
 20
221.215432
 30
0.0
 11
159.074926
 21
221.215432
 31
0.0
  0
LINE
  5
B5
330
A5
100
AcDbEntity
  8
LC-002-100-D00-0
 62
     7
370
    50
100
AcDbLine
 10
159.074926
 20
221.215432
 30
0.0
 11
159.234617
 21
224.172814
 31
0.0
  0
LINE
  5
B6
330
A5
100
AcDbEntity
  8
LC-002-100-D00-0
 62
     7
370
    50
100
AcDbLine
 10
159.234617
 20
224.172814
 30
0.0
 11
159.234617
 21
224.172814
 31
0.0
  0
LINE
  5
B7
330
A5
100
AcDbEntity
  8
LC-002-100-D00-0
 62
     7
370
    50
100
AcDbLine
 10
159.234617
 20
224.172814
 30
0.0
 11
159.562396
 21
226.979805
 31
0.0
  0
LINE
  5
B8
330
A5
100
AcDbEntity
  8
LC-002-100-D00-0
 62
     7
370
    50
100
AcDbLine
 10
159.562396
 20
226.979805
 30
0.0
 11
159.562396
 21
226.979805
 31
0.0
  0
LINE
  5
B9
330
A5
100
AcDbEntity
  8
LC-002-100-D00-0
 62
     7
370
    50
100
AcDbLine
 10
159.562396
 20
226.979805
 30
0.0
 11
160.012148
 21
229.621084
 31
0.0
  0
LINE
  5
BA
330
A5
100
AcDbEntity
  8
LC-002-100-D00-0
 62
     7
370
    50
100
AcDbLine
 10
160.012148
 20
229.621084
 30
0.0
 11
160.012148
 21
229.621084
 31
0.0
  0
LINE
  5
BB
330
A5
100
AcDbEntity
  8
LC-002-100-D00-0
 62
     7
370
    50
100
AcDbLine
 10
160.012148
 20
229.621084
 30
0.0
 11
160.550527
 21
232.041071
 31
0.0
  0
LINE
  5
BC
330
A5
100
AcDbEntity
  8
LC-002-100-D00-0
 62
     7
370
    50
100
AcDbLine
 10
160.550527
 20
232.041071
 30
0.0
 11
160.550527
 21
232.041071
 31
0.0
  0
LINE
  5
BD
330
A5
100
AcDbEntity
  8
LC-002-100-D00-0
 62
     7
370
    50
100
AcDbLine
 10
160.550527
 20
232.041071
 30
0.0
 11
161.033434
 21
233.861723
 31
0.0
  0
LINE
  5
BE
330
A5
100
AcDbEntity
  8
LC-002-100-D00-0
 62
     7
370
    50
100
AcDbLine
 10
161.033434
 20
233.861723
 30
0.0
 11
161.033434
 21
233.861723
 31
0.0
  0
LINE
  5
BF
330
A5
100
AcDbEntity
  8
LC-002-100-D00-0
 62
     7
370
    50
100
AcDbLine
 10
161.033434
 20
233.861723
 30
0.0
 11
161.307734
 21
234.787974
 31
0.0
  0
LINE
  5
C0
330
A5
100
AcDbEntity
  8
LC-002-100-D00-0
 62
     7
370
    50
100
AcDbLine
 10
161.307734
 20
234.787974
 30
0.0
 11
161.307734
 21
234.787974
 31
0.0
  0
LINE
  5
C1
330
A5
100
AcDbEntity
  8
LC-002-100-D00-0
 62
     7
370
    50
100
AcDbLine
 10
161.307734
 20
234.787974
 30
0.0
 11
161.402035
 21
235.106408
 31
0.0
  0
ENDBLK
  5
A7
330
A5
100
AcDbEntity
  8
0
100
AcDbBlockEnd
  0
BLOCK
  5
CC
330
CB
100
AcDbEntity
  8
0
100
AcDbBlockBegin
  2
KLON1
 70
     0
 71
     0
 10
0.0
 20
0.0
 30
0.0
  3
KLON1
  1

  4
KLON1
  0
LINE
  5
CE
330
CB
100
AcDbEntity
  8
LC-002-100-D00-0
 62
     7
370
    15
100
AcDbLine
 10
80.814802
 20
212.369002
 30
0.0
 11
80.945973
 21
212.351735
 31
0.0
  0
LINE
  5
CF
330
CB
100
AcDbEntity
  8
LC-002-100-D00-0
 62
     7
370
    15
100
AcDbLine
 10
80.945973
 20
212.351735
 30
0.0
 11
81.064799
 21
212.336089
 31
0.0
  0
ENDBLK
  5
CD
330
CB
100
AcDbEntity
  8
0
100
AcDbBlockEnd
  0
BLOCK
  5
D2
330
D1
100
AcDbEntity
  8
0
100
AcDbBlockBegin
  2
KLON2
 70
     0
 71
     0
 10
0.0
 20
0.0
 30
0.0
  3
KLON2
  1

  4
KLON2
  0
LINE
  5
D4
330
D1
100
AcDbEntity
  8
LC-002-100-D00-0
 62
     7
370
    15
100
AcDbLine
 10
142.064801
 20
204.305287
 30
0.0
 11
142.183626
 21
204.289644
 31
0.0
  0
LINE
  5
D5
330
D1
100
AcDbEntity
  8
LC-002-100-D00-0
 62
     7
370
    15
100
AcDbLine
 10
142.183626
 20
204.289644
 30
0.0
 11
142.314801
 21
204.272374
 31
0.0
  0
ENDBLK
  5
D3
330
D1
100
AcDbEntity
  8
0
100
AcDbBlockEnd
  0
BLOCK
  5
163
330
162
100
AcDbEntity
  8
0
100
AcDbBlockBegin
  2
POLY3
 70
     0
 71
     0
 10
0.0
 20
0.0
 30
0.0
  3
POLY3
  1

  4
POLY3
  0
LINE
  5
165
330
162
100
AcDbEntity
  8
LC-002-100-D00-0
 62
     7
370
    50
100
AcDbLine
 10
81.841377
 20
233.920983
 30
0.0
 11
81.841377
 21
233.920983
 31
0.0
  0
LINE
  5
166
330
162
100
AcDbEntity
  8
LC-002-100-D00-0
 62
     7
370
    50
100
AcDbLine
 10
81.841377
 20
233.920983
 30
0.0
 11
81.431398
 21
234.685896
 31
0.0
  0
LINE
  5
167
330
162
100
AcDbEntity
  8
LC-002-100-D00-0
 62
     7
370
    50
100
AcDbLine
 10
81.431398
 20
234.685896
 30
0.0
 11
81.431398
 21
234.685896
 31
0.0
  0
LINE
  5
168
330
162
100
AcDbEntity
  8
LC-002-100-D00-0
 62
     7
370
    50
100
AcDbLine
 10
81.431398
 20
234.685896
 30
0.0
 11
79.37975
 21
238.513731
 31
0.0
  0
LINE
  5
169
330
162
100
AcDbEntity
  8
LC-002-100-D00-0
 62
     7
370
    50
100
AcDbLine
 10
79.37975
 20
238.513731
 30
0.0
 11
79.37975
 21
238.513731
 31
0.0
  0
LINE
  5
16A
330
162
100
AcDbEntity
  8
LC-002-100-D00-0
 62
     7
370
    50
100
AcDbLine
 10
79.37975
 20
238.513731
 30
0.0
 11
77.330093
 21
242.342634
 31
0.0
  0
LINE
  5
16B
330
162
100
AcDbEntity
  8
LC-002-100-D00-0
 62
     7
370
    50
100
AcDbLine
 10
77.330093
 20
242.342634
 30
0.0
 11
77.330093
 21
242.342634
 31
0.0
  0
LINE
  5
16C
330
162
100
AcDbEntity
  8
LC-002-100-D00-0
 62
     7
370
    50
100
AcDbLine
 10
77.330093
 20
242.342634
 30
0.0
 11
75.690017
 21
245.406411
 31
0.0
  0
ENDBLK
  5
164
330
162
100
AcDbEntity
  8
0
100
AcDbBlockEnd
  0
BLOCK
  5
176
330
175
100
AcDbEntity
  8
0
100
AcDbBlockBegin
  2
POLY4
 70
     0
 71
     0
 10
0.0
 20
0.0
 30
0.0
  3
POLY4
  1

  4
POLY4
  0
LINE
  5
178
330
175
100
AcDbEntity
  8
LC-002-100-D00-0
 62
     7
370
    50
100
AcDbLine
 10
147.439582
 20
245.406411
 30
0.0
 11
147.439582
 21
245.406411
 31
0.0
  0
LINE
  5
179
330
175
100
AcDbEntity
  8
LC-002-100-D00-0
 62
     7
370
    50
100
AcDbLine
 10
147.439582
 20
245.406411
 30
0.0
 11
145.799506
 21
242.342634
 31
0.0
  0
LINE
  5
17A
330
175
100
AcDbEntity
  8
LC-002-100-D00-0
 62
     7
370
    50
100
AcDbLine
 10
145.799506
 20
242.342634
 30
0.0
 11
145.799506
 21
242.342634
 31
0.0
  0
LINE
  5
17B
330
175
100
AcDbEntity
  8
LC-002-100-D00-0
 62
     7
370
    50
100
AcDbLine
 10
145.799506
 20
242.342634
 30
0.0
 11
143.749849
 21
238.513732
 31
0.0
  0
LINE
  5
17C
330
175
100
AcDbEntity
  8
LC-002-100-D00-0
 62
     7
370
    50
100
AcDbLine
 10
143.749849
 20
238.513732
 30
0.0
 11
143.749849
 21
238.513732
 31
0.0
  0
LINE
  5
17D
330
175
100
AcDbEntity
  8
LC-002-100-D00-0
 62
     7
370
    50
100
AcDbLine
 10
143.749849
 20
238.513732
 30
0.0
 11
141.698203
 21
234.685896
 31
0.0
  0
LINE
  5
17E
330
175
100
AcDbEntity
  8
LC-002-100-D00-0
 62
     7
370
    50
100
AcDbLine
 10
141.698203
 20
234.685896
 30
0.0
 11
141.698203
 21
234.685896
 31
0.0
  0
LINE
  5
17F
330
175
100
AcDbEntity
  8
LC-002-100-D00-0
 62
     7
370
    50
100
AcDbLine
 10
141.698203
 20
234.685896
 30
0.0
 11
141.288225
 21
233.920983
 31
0.0
  0
ENDBLK
  5
177
330
175
100
AcDbEntity
  8
0
100
AcDbBlockEnd
  0
BLOCK
  5
1B2
330
1B1
100
AcDbEntity
  8
0
100
AcDbBlockBegin
  2
KLON3
 70
     0
 71
     0
 10
0.0
 20
0.0
 30
0.0
  3
KLON3
  1

  4
KLON3
  0
LINE
  5
1B4
330
1B1
100
AcDbEntity
  8
LC-002-100-D00-0
 62
     7
370
    25
100
AcDbLine
 10
153.464801
 20
234.287106
 30
0.0
 11
157.064801
 21
237.887106
 31
0.0
  0
LINE
  5
1B5
330
1B1
100
AcDbEntity
  8
LC-002-100-D00-0
 62
     7
370
    25
100
AcDbLine
 10
160.807702
 20
241.630007
 30
0.0
 11
165.564801
 21
246.387106
 31
0.0
  0
LINE
  5
1B6
330
1B1
100
AcDbEntity
  8
LC-002-100-D00-0
 62
     7
370
    25
100
AcDbLine
 10
154.119519
 20
230.451694
 30
0.0
 11
157.064801
 21
233.396976
 31
0.0
  0
LINE
  5
1B7
330
1B1
100
AcDbEntity
  8
LC-002-100-D00-0
 62
     7
370
    25
100
AcDbLine
 10
160.987511
 20
237.319686
 30
0.0
 11
163.883942
 21
240.216117
 31
0.0
  0
LINE
  5
1B8
330
1B1
100
AcDbEntity
  8
LC-002-100-D00-0
 62
     7
370
    25
100
AcDbLine
 10
164.204148
 20
240.536323
 30
0.0
 11
166.774237
 21
243.106412
 31
0.0
  0
LINE
  5
1B9
330
1B1
100
AcDbEntity
  8
LC-002-100-D00-0
 62
     7
370
    25
100
AcDbLine
 10
166.764367
 20
238.606412
 30
0.0
 11
170.064801
 21
241.906846
 31
0.0
  0
ENDBLK
  5
1B3
330
1B1
100
AcDbEntity
  8
0
100
AcDbBlockEnd
  0
BLOCK
  5
1BC
330
1BB
100
AcDbEntity
  8
0
100
AcDbBlockBegin
  2
KLON4
 70
     0
 71
     0
 10
0.0
 20
0.0
 30
0.0
  3
KLON4
  1

  4
KLON4
  0
LINE
  5
1BE
330
1BB
100
AcDbEntity
  8
LC-002-100-D00-0
 62
     7
370
    25
100
AcDbLine
 10
68.461801
 20
230.106412
 30
0.0
 11
69.664801
 21
231.309411
 31
0.0
  0
LINE
  5
1BF
330
1BB
100
AcDbEntity
  8
LC-002-100-D00-0
 62
     7
370
    25
100
AcDbLine
 10
53.064801
 20
241.650179
 30
0.0
 11
54.521033
 21
243.106412
 31
0.0
  0
LINE
  5
1C0
330
1BB
100
AcDbEntity
  8
LC-002-100-D00-0
 62
     7
370
    25
100
AcDbLine
 10
57.564801
 20
246.150179
 30
0.0
 11
58.521033
 21
247.106412
 31
0.0
  0
LINE
  5
1C1
330
1BB
100
AcDbEntity
  8
LC-002-100-D00-0
 62
     7
370
    25
100
AcDbLine
 10
54.511163
 20
238.606412
 30
0.0
 11
62.064801
 21
246.160049
 31
0.0
  0
LINE
  5
1C2
330
1BB
100
AcDbEntity
  8
LC-002-100-D00-0
 62
     7
370
    25
100
AcDbLine
 10
59.534189
 20
239.139308
 30
0.0
 11
65.501293
 21
245.106412
 31
0.0
  0
LINE
  5
1C3
330
1BB
100
AcDbEntity
  8
LC-002-100-D00-0
 62
     7
370
    25
100
AcDbLine
 10
60.483067
 20
235.598046
 30
0.0
 11
62.139824
 21
237.254803
 31
0.0
  0
LINE
  5
1C4
330
1BB
100
AcDbEntity
  8
LC-002-100-D00-0
 62
     7
370
    25
100
AcDbLine
 10
66.064801
 20
241.179779
 30
0.0
 11
69.328117
 21
244.443095
 31
0.0
  0
ENDBLK
  5
1BD
330
1BB
100
AcDbEntity
  8
0
100
AcDbBlockEnd
  0
BLOCK
  5
1C7
330
1C6
100
AcDbEntity
  8
0
100
AcDbBlockBegin
  2
KLON5
 70
     0
 71
     0
 10
0.0
 20
0.0
 30
0.0
  3
KLON5
  1

  4
KLON5
  0
LINE
  5
1C9
330
1C6
100
AcDbEntity
  8
LC-002-100-D00-0
 62
     7
370
    25
100
AcDbLine
 10
135.731064
 20
194.102729
 30
0.0
 11
141.368483
 21
199.740148
 31
0.0
  0
LINE
  5
1CA
330
1C6
100
AcDbEntity
  8
LC-002-100-D00-0
 62
     7
370
    25
100
AcDbLine
 10
130.544619
 20
193.406412
 30
0.0
 11
132.044619
 21
194.906412
 31
0.0
  0
LINE
  5
1CB
330
1C6
100
AcDbEntity
  8
LC-002-100-D00-0
 62
     7
370
    25
100
AcDbLine
 10
140.564801
 20
203.426593
 30
0.0
 11
142.064801
 21
204.926593
 31
0.0
  0
LINE
  5
1CC
330
1C6
100
AcDbEntity
  8
LC-002-100-D00-0
 62
     7
370
    25
100
AcDbLine
 10
126.054491
 20
193.406412
 30
0.0
 11
127.554491
 21
194.906412
 31
0.0
  0
LINE
  5
1CD
330
1C6
100
AcDbEntity
  8
LC-002-100-D00-0
 62
     7
370
    25
100
AcDbLine
 10
140.564801
 20
207.916721
 30
0.0
 11
142.064801
 21
209.416721
 31
0.0
  0
LINE
  5
1CE
330
1C6
100
AcDbEntity
  8
LC-002-100-D00-0
 62
     7
370
    25
100
AcDbLine
 10
121.564363
 20
193.406412
 30
0.0
 11
123.064363
 21
194.906412
 31
0.0
  0
LINE
  5
1CF
330
1C6
100
AcDbEntity
  8
LC-002-100-D00-0
 62
     7
370
    25
100
AcDbLine
 10
140.564801
 20
212.406849
 30
0.0
 11
142.064801
 21
213.906849
 31
0.0
  0
LINE
  5
1D0
330
1C6
100
AcDbEntity
  8
LC-002-100-D00-0
 62
     7
370
    25
100
AcDbLine
 10
117.074235
 20
193.406412
 30
0.0
 11
118.574235
 21
194.906412
 31
0.0
  0
LINE
  5
1D1
330
1C6
100
AcDbEntity
  8
LC-002-100-D00-0
 62
     7
370
    25
100
AcDbLine
 10
140.564801
 20
216.896978
 30
0.0
 11
142.064801
 21
218.396978
 31
0.0
  0
LINE
  5
1D2
330
1C6
100
AcDbEntity
  8
LC-002-100-D00-0
 62
     7
370
    25
100
AcDbLine
 10
112.584107
 20
193.406412
 30
0.0
 11
114.084107
 21
194.906412
 31
0.0
  0
LINE
  5
1D3
330
1C6
100
AcDbEntity
  8
LC-002-100-D00-0
 62
     7
370
    25
100
AcDbLine
 10
140.564801
 20
221.387106
 30
0.0
 11
142.064801
 21
222.887106
 31
0.0
  0
LINE
  5
1D4
330
1C6
100
AcDbEntity
  8
LC-002-100-D00-0
 62
     7
370
    25
100
AcDbLine
 10
108.093979
 20
193.406412
 30
0.0
 11
109.593979
 21
194.906412
 31
0.0
  0
LINE
  5
1D5
330
1C6
100
AcDbEntity
  8
LC-002-100-D00-0
 62
     7
370
    25
100
AcDbLine
 10
140.564801
 20
225.877234
 30
0.0
 11
142.064801
 21
227.377234
 31
0.0
  0
LINE
  5
1D6
330
1C6
100
AcDbEntity
  8
LC-002-100-D00-0
 62
     7
370
    25
100
AcDbLine
 10
103.60385
 20
193.406412
 30
0.0
 11
105.10385
 21
194.906412
 31
0.0
  0
LINE
  5
1D7
330
1C6
100
AcDbEntity
  8
LC-002-100-D00-0
 62
     7
370
    25
100
AcDbLine
 10
140.564801
 20
230.367362
 30
0.0
 11
142.064801
 21
231.867362
 31
0.0
  0
LINE
  5
1D8
330
1C6
100
AcDbEntity
  8
LC-002-100-D00-0
 62
     7
370
    25
100
AcDbLine
 10
99.113722
 20
193.406412
 30
0.0
 11
100.613722
 21
194.906412
 31
0.0
  0
LINE
  5
1D9
330
1C6
100
AcDbEntity
  8
LC-002-100-D00-0
 62
     7
370
    25
100
AcDbLine
 10
143.50889
 20
237.801579
 30
0.0
 11
147.151747
 21
241.444436
 31
0.0
  0
LINE
  5
1DA
330
1C6
100
AcDbEntity
  8
LC-002-100-D00-0
 62
     7
370
    25
100
AcDbLine
 10
94.623594
 20
193.406412
 30
0.0
 11
96.123594
 21
194.906412
 31
0.0
  0
LINE
  5
1DB
330
1C6
100
AcDbEntity
  8
LC-002-100-D00-0
 62
     7
370
    25
100
AcDbLine
 10
147.564801
 20
246.347618
 30
0.0
 11
150.123594
 21
248.906412
 31
0.0
  0
LINE
  5
1DC
330
1C6
100
AcDbEntity
  8
LC-002-100-D00-0
 62
     7
370
    25
100
AcDbLine
 10
90.173285
 20
193.446231
 30
0.0
 11
91.633466
 21
194.906412
 31
0.0
  0
LINE
  5
1DD
330
1C6
100
AcDbEntity
  8
LC-002-100-D00-0
 62
     7
370
    25
100
AcDbLine
 10
86.663834
 20
194.426908
 30
0.0
 11
87.79671
 21
195.559783
 31
0.0
  0
LINE
  5
1DE
330
1C6
100
AcDbEntity
  8
LC-002-100-D00-0
 62
     7
370
    25
100
AcDbLine
 10
84.038076
 20
196.291277
 30
0.0
 11
85.09876
 21
197.351962
 31
0.0
  0
LINE
  5
1DF
330
1C6
100
AcDbEntity
  8
LC-002-100-D00-0
 62
     7
370
    25
100
AcDbLine
 10
82.144104
 20
198.887433
 30
0.0
 11
83.27098
 21
200.014309
 31
0.0
  0
LINE
  5
1E0
330
1C6
100
AcDbEntity
  8
LC-002-100-D00-0
 62
     7
370
    25
100
AcDbLine
 10
81.120353
 20
202.353811
 30
0.0
 11
82.564801
 21
203.798258
 31
0.0
  0
LINE
  5
1E1
330
1C6
100
AcDbEntity
  8
LC-002-100-D00-0
 62
     7
370
    25
100
AcDbLine
 10
81.064801
 20
206.788386
 30
0.0
 11
82.564801
 21
208.288386
 31
0.0
  0
LINE
  5
1E2
330
1C6
100
AcDbEntity
  8
LC-002-100-D00-0
 62
     7
370
    25
100
AcDbLine
 10
81.064801
 20
211.278514
 30
0.0
 11
82.564801
 21
212.778514
 31
0.0
  0
LINE
  5
1E3
330
1C6
100
AcDbEntity
  8
LC-002-100-D00-0
 62
     7
370
    25
100
AcDbLine
 10
81.064801
 20
215.768642
 30
0.0
 11
82.564801
 21
217.268642
 31
0.0
  0
LINE
  5
1E4
330
1C6
100
AcDbEntity
  8
LC-002-100-D00-0
 62
     7
370
    25
100
AcDbLine
 10
81.064801
 20
220.25877
 30
0.0
 11
82.564801
 21
221.75877
 31
0.0
  0
LINE
  5
1E5
330
1C6
100
AcDbEntity
  8
LC-002-100-D00-0
 62
     7
370
    25
100
AcDbLine
 10
81.064801
 20
224.748898
 30
0.0
 11
82.564801
 21
226.248898
 31
0.0
  0
LINE
  5
1E6
330
1C6
100
AcDbEntity
  8
LC-002-100-D00-0
 62
     7
370
    25
100
AcDbLine
 10
81.064801
 20
229.239027
 30
0.0
 11
82.564801
 21
230.739027
 31
0.0
  0
LINE
  5
1E7
330
1C6
100
AcDbEntity
  8
LC-002-100-D00-0
 62
     7
370
    25
100
AcDbLine
 10
80.430803
 20
233.095157
 30
0.0
 11
81.539499
 21
234.203853
 31
0.0
  0
LINE
  5
1E8
330
1C6
100
AcDbEntity
  8
LC-002-100-D00-0
 62
     7
370
    25
100
AcDbLine
 10
78.869019
 20
236.023501
 30
0.0
 11
79.977715
 21
237.132197
 31
0.0
  0
LINE
  5
1E9
330
1C6
100
AcDbEntity
  8
LC-002-100-D00-0
 62
     7
370
    25
100
AcDbLine
 10
77.307236
 20
238.951846
 30
0.0
 11
78.415931
 21
240.060541
 31
0.0
  0
LINE
  5
1EA
330
1C6
100
AcDbEntity
  8
LC-002-100-D00-0
 62
     7
370
    25
100
AcDbLine
 10
75.745452
 20
241.88019
 30
0.0
 11
76.854148
 21
242.988886
 31
0.0
  0
LINE
  5
1EB
330
1C6
100
AcDbEntity
  8
LC-002-100-D00-0
 62
     7
370
    25
100
AcDbLine
 10
74.187461
 20
244.812327
 30
0.0
 11
75.564801
 21
246.189667
 31
0.0
  0
LINE
  5
1EC
330
1C6
100
AcDbEntity
  8
LC-002-100-D00-0
 62
     7
370
    25
100
AcDbLine
 10
72.291417
 20
247.406412
 30
0.0
 11
73.791417
 21
248.906412
 31
0.0
  0
ENDBLK
  5
1C8
330
1C6
100
AcDbEntity
  8
0
100
AcDbBlockEnd
  0
BLOCK
  5
1EF
330
1EE
100
AcDbEntity
  8
0
100
AcDbBlockBegin
  2
KLON6
 70
     0
 71
     0
 10
0.0
 20
0.0
 30
0.0
  3
KLON6
  1

  4
KLON6
  0
LINE
  5
1F1
330
1EE
100
AcDbEntity
  8
LC-002-100-D00-0
 62
     7
370
    25
100
AcDbLine
 10
93.564801
 20
229.72442
 30
0.0
 11
92.564801
 21
230.72442
 31
0.0
  0
LINE
  5
1F2
330
1EE
100
AcDbEntity
  8
LC-002-100-D00-0
 62
     7
370
    25
100
AcDbLine
 10
77.882809
 20
245.406412
 30
0.0
 11
76.064801
 21
247.22442
 31
0.0
  0
LINE
  5
1F3
330
1EE
100
AcDbEntity
  8
LC-002-100-D00-0
 62
     7
370
    25
100
AcDbLine
 10
74.382809
 20
248.906412
 30
0.0
 11
72.682809
 21
250.606412
 31
0.0
  0
LINE
  5
1F4
330
1EE
100
AcDbEntity
  8
LC-002-100-D00-0
 62
     7
370
    25
100
AcDbLine
 10
93.564801
 20
234.21455
 30
0.0
 11
92.53266
 21
235.246691
 31
0.0
  0
LINE
  5
1F5
330
1EE
100
AcDbEntity
  8
LC-002-100-D00-0
 62
     7
370
    25
100
AcDbLine
 10
82.40508
 20
245.374271
 30
0.0
 11
81.372939
 21
246.406412
 31
0.0
  0
LINE
  5
1F6
330
1EE
100
AcDbEntity
  8
LC-002-100-D00-0
 62
     7
370
    25
100
AcDbLine
 10
78.064801
 20
249.71455
 30
0.0
 11
72.372939
 21
255.406412
 31
0.0
  0
LINE
  5
1F7
330
1EE
100
AcDbEntity
  8
LC-002-100-D00-0
 62
     7
370
    25
100
AcDbLine
 10
93.564801
 20
207.273781
 30
0.0
 11
92.564801
 21
208.273781
 31
0.0
  0
LINE
  5
1F8
330
1EE
100
AcDbEntity
  8
LC-002-100-D00-0
 62
     7
370
    25
100
AcDbLine
 10
92.078594
 20
240.190886
 30
0.0
 11
87.349275
 21
244.920205
 31
0.0
  0
LINE
  5
1F9
330
1EE
100
AcDbEntity
  8
LC-002-100-D00-0
 62
     7
370
    25
100
AcDbLine
 10
77.669905
 20
254.599575
 30
0.0
 11
77.257964
 21
255.011516
 31
0.0
  0
LINE
  5
1FA
330
1EE
100
AcDbEntity
  8
LC-002-100-D00-0
 62
     7
370
    25
100
AcDbLine
 10
93.564801
 20
211.763911
 30
0.0
 11
92.564801
 21
212.763911
 31
0.0
  0
LINE
  5
1FB
330
1EE
100
AcDbEntity
  8
LC-002-100-D00-0
 62
     7
370
    25
100
AcDbLine
 10
93.564801
 20
216.254051
 30
0.0
 11
92.564801
 21
217.254051
 31
0.0
  0
ENDBLK
  5
1F0
330
1EE
100
AcDbEntity
  8
0
100
AcDbBlockEnd
  0
BLOCK
  5
1FE
330
1FD
100
AcDbEntity
  8
0
100
AcDbBlockBegin
  2
KLON7
 70
     0
 71
     0
 10
0.0
 20
0.0
 30
0.0
  3
KLON7
  1

  4
KLON7
  0
LINE
  5
200
330
1FD
100
AcDbEntity
  8
LC-002-100-D00-0
 62
     7
370
    25
100
AcDbLine
 10
150.705114
 20
253.406412
 30
0.0
 11
148.705114
 21
255.406412
 31
0.0
  0
LINE
  5
201
330
1FD
100
AcDbEntity
  8
LC-002-100-D00-0
 62
     7
370
    25
100
AcDbLine
 10
134.409557
 20
242.7612
 30
0.0
 11
133.700515
 21
243.470242
 31
0.0
  0
LINE
  5
202
330
1FD
100
AcDbEntity
  8
LC-002-100-D00-0
 62
     7
370
    25
100
AcDbLine
 10
130.564801
 20
219.665188
 30
0.0
 11
129.564801
 21
220.665188
 31
0.0
  0
LINE
  5
203
330
1FD
100
AcDbEntity
  8
LC-002-100-D00-0
 62
     7
370
    25
100
AcDbLine
 10
137.170377
 20
244.49051
 30
0.0
 11
136.415459
 21
245.245428
 31
0.0
  0
LINE
  5
204
330
1FD
100
AcDbEntity
  8
LC-002-100-D00-0
 62
     7
370
    25
100
AcDbLine
 10
130.564801
 20
224.155318
 30
0.0
 11
129.564801
 21
225.155318
 31
0.0
  0
LINE
  5
205
330
1FD
100
AcDbEntity
  8
LC-002-100-D00-0
 62
     7
370
    25
100
AcDbLine
 10
140.773131
 20
245.377886
 30
0.0
 11
139.865528
 21
246.285489
 31
0.0
  0
LINE
  5
206
330
1FD
100
AcDbEntity
  8
LC-002-100-D00-0
 62
     7
370
    25
100
AcDbLine
 10
130.564801
 20
228.645448
 30
0.0
 11
129.564801
 21
229.645448
 31
0.0
  0
LINE
  5
207
330
1FD
100
AcDbEntity
  8
LC-002-100-D00-0
 62
     7
370
    25
100
AcDbLine
 10
145.234745
 20
245.406412
 30
0.0
 11
144.222269
 21
246.418888
 31
0.0
  0
LINE
  5
208
330
1FD
100
AcDbEntity
  8
LC-002-100-D00-0
 62
     7
370
    25
100
AcDbLine
 10
130.564801
 20
233.135588
 30
0.0
 11
129.564801
 21
234.135588
 31
0.0
  0
LINE
  5
209
330
1FD
100
AcDbEntity
  8
LC-002-100-D00-0
 62
     7
370
    25
100
AcDbLine
 10
130.564801
 20
206.19482
 30
0.0
 11
129.564801
 21
207.19482
 31
0.0
  0
ENDBLK
  5
1FF
330
1FD
100
AcDbEntity
  8
0
100
AcDbBlockEnd
  0
BLOCK
  5
20D
330
20C
100
AcDbEntity
  8
0
100
AcDbBlockBegin
  2
KLON8
 70
     0
 71
     0
 10
0.0
 20
0.0
 30
0.0
  3
KLON8
  1

  4
KLON8
  0
LINE
  5
20F
330
20C
100
AcDbEntity
  8
LC-002-100-D00-0
 62
     7
370
    25
100
AcDbLine
 10
57.564801
 20
243.273781
 30
0.0
 11
55.564801
 21
245.273781
 31
0.0
  0
LINE
  5
210
330
20C
100
AcDbEntity
  8
LC-002-100-D00-0
 62
     7
370
    25
100
AcDbLine
 10
58.2223
 20
247.106412
 30
0.0
 11
55.564801
 21
249.763911
 31
0.0
  0
LINE
  5
211
330
20C
100
AcDbEntity
  8
LC-002-100-D00-0
 62
     7
370
    25
100
AcDbLine
 10
64.21244
 20
245.606412
 30
0.0
 11
60.21244
 21
249.606412
 31
0.0
  0
ENDBLK
  5
20E
330
20C
100
AcDbEntity
  8
0
100
AcDbBlockEnd
  0
BLOCK
  5
214
330
213
100
AcDbEntity
  8
0
100
AcDbBlockBegin
  2
KLON9
 70
     0
 71
     0
 10
0.0
 20
0.0
 30
0.0
  3
KLON9
  1

  4
KLON9
  0
LINE
  5
216
330
213
100
AcDbEntity
  8
LC-002-100-D00-0
 62
     7
370
    25
100
AcDbLine
 10
161.495244
 20
247.106412
 30
0.0
 11
158.722354
 21
249.879302
 31
0.0
  0
LINE
  5
217
330
213
100
AcDbEntity
  8
LC-002-100-D00-0
 62
     7
370
    25
100
AcDbLine
 10
167.564801
 20
245.526985
 30
0.0
 11
163.275087
 21
249.816698
 31
0.0
  0
LINE
  5
218
330
213
100
AcDbEntity
  8
LC-002-100-D00-0
 62
     7
370
    25
100
AcDbLine
 10
167.564801
 20
250.017125
 30
0.0
 11
165.520157
 21
252.061768
 31
0.0
  0
ENDBLK
  5
215
330
213
100
AcDbEntity
  8
0
100
AcDbBlockEnd
  0
BLOCK
  5
21B
330
21A
100
AcDbEntity
  8
0
100
AcDbBlockBegin
  2
KLON10
 70
     0
 71
     0
 10
0.0
 20
0.0
 30
0.0
  3
KLON10
  1

  4
KLON10
  0
LINE
  5
21D
330
21A
100
AcDbEntity
  8
LC-002-100-D00-0
 62
     7
370
    25
100
AcDbLine
 10
72.942058
 20
225.606412
 30
0.0
 11
74.064801
 21
226.729155
 31
0.0
  0
LINE
  5
21E
330
21A
100
AcDbEntity
  8
LC-002-100-D00-0
 62
     7
370
    25
100
AcDbLine
 10
69.258365
 20
226.412847
 30
0.0
 11
74.064801
 21
231.219283
 31
0.0
  0
LINE
  5
21F
330
21A
100
AcDbEntity
  8
LC-002-100-D00-0
 62
     7
370
    25
100
AcDbLine
 10
68.564801
 20
230.209411
 30
0.0
 11
74.064801
 21
235.709411
 31
0.0
  0
LINE
  5
220
330
21A
100
AcDbEntity
  8
LC-002-100-D00-0
 62
     7
370
    25
100
AcDbLine
 10
68.564801
 20
234.699539
 30
0.0
 11
74.064801
 21
240.199539
 31
0.0
  0
LINE
  5
221
330
21A
100
AcDbEntity
  8
LC-002-100-D00-0
 62
     7
370
    25
100
AcDbLine
 10
68.564801
 20
239.189667
 30
0.0
 11
74.064801
 21
244.689667
 31
0.0
  0
LINE
  5
222
330
21A
100
AcDbEntity
  8
LC-002-100-D00-0
 62
     7
370
    25
100
AcDbLine
 10
68.564801
 20
243.679795
 30
0.0
 11
72.291417
 21
247.406412
 31
0.0
  0
LINE
  5
223
330
21A
100
AcDbEntity
  8
LC-002-100-D00-0
 62
     7
370
    25
100
AcDbLine
 10
68.564801
 20
248.169923
 30
0.0
 11
71.564801
 21
251.169923
 31
0.0
  0
LINE
  5
224
330
21A
100
AcDbEntity
  8
LC-002-100-D00-0
 62
     7
370
    25
100
AcDbLine
 10
68.564801
 20
252.660051
 30
0.0
 11
71.244579
 21
255.339829
 31
0.0
  0
LINE
  5
225
330
21A
100
AcDbEntity
  8
LC-002-100-D00-0
 62
     7
370
    25
100
AcDbLine
 10
64.521027
 20
253.106406
 30
0.0
 11
66.98265
 21
255.568028
 31
0.0
  0
LINE
  5
226
330
21A
100
AcDbEntity
  8
LC-002-100-D00-0
 62
     7
370
    25
100
AcDbLine
 10
60.030899
 20
253.106406
 30
0.0
 11
62.054308
 21
255.129814
 31
0.0
  0
ENDBLK
  5
21C
330
21A
100
AcDbEntity
  8
0
100
AcDbBlockEnd
  0
BLOCK
  5
229
330
228
100
AcDbEntity
  8
0
100
AcDbBlockBegin
  2
KLON11
 70
     0
 71
     0
 10
0.0
 20
0.0
 30
0.0
  3
KLON11
  1

  4
KLON11
  0
LINE
  5
22B
330
228
100
AcDbEntity
  8
LC-002-100-D00-0
 62
     7
370
    25
100
AcDbLine
 10
149.274235
 20
225.606412
 30
0.0
 11
154.564801
 21
230.896978
 31
0.0
  0
LINE
  5
22C
330
228
100
AcDbEntity
  8
LC-002-100-D00-0
 62
     7
370
    25
100
AcDbLine
 10
149.064801
 20
229.887106
 30
0.0
 11
154.564801
 21
235.387106
 31
0.0
  0
LINE
  5
22D
330
228
100
AcDbEntity
  8
LC-002-100-D00-0
 62
     7
370
    25
100
AcDbLine
 10
149.064801
 20
234.377234
 30
0.0
 11
154.564801
 21
239.877234
 31
0.0
  0
LINE
  5
22E
330
228
100
AcDbEntity
  8
LC-002-100-D00-0
 62
     7
370
    25
100
AcDbLine
 10
149.064801
 20
238.867362
 30
0.0
 11
154.564801
 21
244.367362
 31
0.0
  0
LINE
  5
22F
330
228
100
AcDbEntity
  8
LC-002-100-D00-0
 62
     7
370
    25
100
AcDbLine
 10
163.303844
 20
253.106406
 30
0.0
 11
164.688785
 21
254.491347
 31
0.0
  0
LINE
  5
230
330
228
100
AcDbEntity
  8
LC-002-100-D00-0
 62
     7
370
    25
100
AcDbLine
 10
149.064801
 20
243.35749
 30
0.0
 11
154.564801
 21
248.85749
 31
0.0
  0
LINE
  5
231
330
228
100
AcDbEntity
  8
LC-002-100-D00-0
 62
     7
370
    25
100
AcDbLine
 10
158.813716
 20
253.106406
 30
0.0
 11
160.865806
 21
255.158496
 31
0.0
  0
LINE
  5
232
330
228
100
AcDbEntity
  8
LC-002-100-D00-0
 62
     7
370
    25
100
AcDbLine
 10
151.564801
 20
250.347618
 30
0.0
 11
156.757534
 21
255.540351
 31
0.0
  0
LINE
  5
233
330
228
100
AcDbEntity
  8
LC-002-100-D00-0
 62
     7
370
    25
100
AcDbLine
 10
151.601349
 20
254.874294
 30
0.0
 11
152.296918
 21
255.569863
 31
0.0
  0
ENDBLK
  5
22A
330
228
100
AcDbEntity
  8
0
100
AcDbBlockEnd
  0
BLOCK
  5
236
330
235
100
AcDbEntity
  8
0
100
AcDbBlockBegin
  2
KLON12
 70
     0
 71
     0
 10
0.0
 20
0.0
 30
0.0
  3
KLON12
  1

  4
KLON12
  0
LINE
  5
238
330
235
100
AcDbEntity
  8
LC-002-100-D00-0
 62
     7
370
    25
100
AcDbLine
 10
212.50781
 20
239.448579
 30
0.0
 11
214.364801
 21
241.305569
 31
0.0
  0
LINE
  5
239
330
235
100
AcDbEntity
  8
LC-002-100-D00-0
 62
     7
370
    25
100
AcDbLine
 10
207.175515
 20
238.606412
 30
0.0
 11
209.429752
 21
240.860648
 31
0.0
  0
LINE
  5
23A
330
235
100
AcDbEntity
  8
LC-002-100-D00-0
 62
     7
370
    25
100
AcDbLine
 10
209.860564
 20
241.29146
 30
0.0
 11
211.671703
 21
243.1026
 31
0.0
  0
LINE
  5
23B
330
235
100
AcDbEntity
  8
LC-002-100-D00-0
 62
     7
370
    25
100
AcDbLine
 10
202.685387
 20
238.606412
 30
0.0
 11
205.664801
 21
241.585825
 31
0.0
  0
LINE
  5
23C
330
235
100
AcDbEntity
  8
LC-002-100-D00-0
 62
     7
370
    25
100
AcDbLine
 10
198.195259
 20
238.606412
 30
0.0
 11
204.550573
 21
244.961725
 31
0.0
  0
LINE
  5
23D
330
235
100
AcDbEntity
  8
LC-002-100-D00-0
 62
     7
370
    25
100
AcDbLine
 10
193.705131
 20
238.606412
 30
0.0
 11
200.145974
 21
245.047254
 31
0.0
  0
LINE
  5
23E
330
235
100
AcDbEntity
  8
LC-002-100-D00-0
 62
     7
370
    25
100
AcDbLine
 10
189.215003
 20
238.606412
 30
0.0
 11
194.651871
 21
244.04328
 31
0.0
  0
LINE
  5
23F
330
235
100
AcDbEntity
  8
LC-002-100-D00-0
 62
     7
370
    25
100
AcDbLine
 10
181.224875
 20
235.106412
 30
0.0
 11
193.45621
 21
247.337747
 31
0.0
  0
LINE
  5
240
330
235
100
AcDbEntity
  8
LC-002-100-D00-0
 62
     7
370
    25
100
AcDbLine
 10
176.734747
 20
235.106412
 30
0.0
 11
183.234747
 21
241.606412
 31
0.0
  0
LINE
  5
241
330
235
100
AcDbEntity
  8
LC-002-100-D00-0
 62
     7
370
    25
100
AcDbLine
 10
172.244619
 20
235.106412
 30
0.0
 11
175.244619
 21
238.106412
 31
0.0
  0
LINE
  5
242
330
235
100
AcDbEntity
  8
LC-002-100-D00-0
 62
     7
370
    25
100
AcDbLine
 10
167.754491
 20
235.106412
 30
0.0
 11
170.754491
 21
238.106412
 31
0.0
  0
LINE
  5
243
330
235
100
AcDbEntity
  8
LC-002-100-D00-0
 62
     7
370
    25
100
AcDbLine
 10
163.264363
 20
235.106412
 30
0.0
 11
166.264363
 21
238.106412
 31
0.0
  0
LINE
  5
244
330
235
100
AcDbEntity
  8
LC-002-100-D00-0
 62
     7
370
    25
100
AcDbLine
 10
163.915641
 20
240.247818
 30
0.0
 11
164.197576
 21
240.529753
 31
0.0
  0
ENDBLK
  5
237
330
235
100
AcDbEntity
  8
0
100
AcDbBlockEnd
  0
BLOCK
  5
247
330
246
100
AcDbEntity
  8
0
100
AcDbBlockBegin
  2
KLON13
 70
     0
 71
     0
 10
0.0
 20
0.0
 30
0.0
  3
KLON13
  1

  4
KLON13
  0
LINE
  5
249
330
246
100
AcDbEntity
  8
LC-002-100-D00-0
 62
     7
370
    25
100
AcDbLine
 10
210.147995
 20
196.677611
 30
0.0
 11
213.869709
 21
200.399325
 31
0.0
  0
LINE
  5
24A
330
246
100
AcDbEntity
  8
LC-002-100-D00-0
 62
     7
370
    25
100
AcDbLine
 10
204.195553
 20
195.215297
 30
0.0
 11
205.664801
 21
196.684544
 31
0.0
  0
LINE
  5
24B
330
246
100
AcDbEntity
  8
LC-002-100-D00-0
 62
     7
370
    25
100
AcDbLine
 10
208.336668
 20
199.356412
 30
0.0
 11
210.328457
 21
201.348201
 31
0.0
  0
LINE
  5
24C
330
246
100
AcDbEntity
  8
LC-002-100-D00-0
 62
     7
370
    25
100
AcDbLine
 10
199.691209
 20
195.201081
 30
0.0
 11
206.09654
 21
201.606412
 31
0.0
  0
LINE
  5
24D
330
246
100
AcDbEntity
  8
LC-002-100-D00-0
 62
     7
370
    25
100
AcDbLine
 10
195.842591
 20
195.842591
 30
0.0
 11
201.606412
 21
201.606412
 31
0.0
  0
LINE
  5
24E
330
246
100
AcDbEntity
  8
LC-002-100-D00-0
 62
     7
370
    25
100
AcDbLine
 10
192.454837
 20
196.944965
 30
0.0
 11
197.116284
 21
201.606412
 31
0.0
  0
LINE
  5
24F
330
246
100
AcDbEntity
  8
LC-002-100-D00-0
 62
     7
370
    25
100
AcDbLine
 10
187.126156
 20
196.106412
 30
0.0
 11
192.626156
 21
201.606412
 31
0.0
  0
LINE
  5
250
330
246
100
AcDbEntity
  8
LC-002-100-D00-0
 62
     7
370
    25
100
AcDbLine
 10
185.136027
 20
198.606412
 30
0.0
 11
188.136027
 21
201.606412
 31
0.0
  0
LINE
  5
251
330
246
100
AcDbEntity
  8
LC-002-100-D00-0
 62
     7
370
    25
100
AcDbLine
 10
180.645899
 20
198.606412
 30
0.0
 11
183.645899
 21
201.606412
 31
0.0
  0
LINE
  5
252
330
246
100
AcDbEntity
  8
LC-002-100-D00-0
 62
     7
370
    25
100
AcDbLine
 10
176.155771
 20
198.606412
 30
0.0
 11
179.155771
 21
201.606412
 31
0.0
  0
LINE
  5
253
330
246
100
AcDbEntity
  8
LC-002-100-D00-0
 62
     7
370
    25
100
AcDbLine
 10
171.665643
 20
198.606412
 30
0.0
 11
174.665643
 21
201.606412
 31
0.0
  0
LINE
  5
254
330
246
100
AcDbEntity
  8
LC-002-100-D00-0
 62
     7
370
    25
100
AcDbLine
 10
167.175515
 20
198.606412
 30
0.0
 11
170.175515
 21
201.606412
 31
0.0
  0
LINE
  5
255
330
246
100
AcDbEntity
  8
LC-002-100-D00-0
 62
     7
370
    25
100
AcDbLine
 10
162.685387
 20
198.606412
 30
0.0
 11
165.685387
 21
201.606412
 31
0.0
  0
LINE
  5
256
330
246
100
AcDbEntity
  8
LC-002-100-D00-0
 62
     7
370
    25
100
AcDbLine
 10
158.680721
 20
199.091874
 30
0.0
 11
161.354587
 21
201.765739
 31
0.0
  0
LINE
  5
257
330
246
100
AcDbEntity
  8
LC-002-100-D00-0
 62
     7
370
    25
100
AcDbLine
 10
154.712959
 20
199.614239
 30
0.0
 11
157.386825
 21
202.288105
 31
0.0
  0
LINE
  5
258
330
246
100
AcDbEntity
  8
LC-002-100-D00-0
 62
     7
370
    25
100
AcDbLine
 10
150.745196
 20
200.136605
 30
0.0
 11
153.419062
 21
202.810471
 31
0.0
  0
LINE
  5
259
330
246
100
AcDbEntity
  8
LC-002-100-D00-0
 62
     7
370
    25
100
AcDbLine
 10
137.243627
 20
191.125164
 30
0.0
 11
144.580125
 21
198.461662
 31
0.0
  0
LINE
  5
25A
330
246
100
AcDbEntity
  8
LC-002-100-D00-0
 62
     7
370
    25
100
AcDbLine
 10
146.777434
 20
200.658971
 30
0.0
 11
149.4513
 21
203.332837
 31
0.0
  0
LINE
  5
25B
330
246
100
AcDbEntity
  8
LC-002-100-D00-0
 62
     7
370
    25
100
AcDbLine
 10
131.734747
 20
190.106412
 30
0.0
 11
135.346526
 21
193.718191
 31
0.0
  0
LINE
  5
25C
330
246
100
AcDbEntity
  8
LC-002-100-D00-0
 62
     7
370
    25
100
AcDbLine
 10
141.703022
 20
200.074686
 30
0.0
 11
145.483538
 21
203.855203
 31
0.0
  0
LINE
  5
25D
330
246
100
AcDbEntity
  8
LC-002-100-D00-0
 62
     7
370
    25
100
AcDbLine
 10
127.244619
 20
190.106412
 30
0.0
 11
130.244619
 21
193.106412
 31
0.0
  0
LINE
  5
25E
330
246
100
AcDbEntity
  8
LC-002-100-D00-0
 62
     7
370
    25
100
AcDbLine
 10
122.754491
 20
190.106412
 30
0.0
 11
125.754491
 21
193.106412
 31
0.0
  0
LINE
  5
25F
330
246
100
AcDbEntity
  8
LC-002-100-D00-0
 62
     7
370
    25
100
AcDbLine
 10
118.264363
 20
190.106412
 30
0.0
 11
121.264363
 21
193.106412
 31
0.0
  0
LINE
  5
260
330
246
100
AcDbEntity
  8
LC-002-100-D00-0
 62
     7
370
    25
100
AcDbLine
 10
113.774235
 20
190.106412
 30
0.0
 11
116.774235
 21
193.106412
 31
0.0
  0
LINE
  5
261
330
246
100
AcDbEntity
  8
LC-002-100-D00-0
 62
     7
370
    25
100
AcDbLine
 10
109.284107
 20
190.106412
 30
0.0
 11
112.284107
 21
193.106412
 31
0.0
  0
LINE
  5
262
330
246
100
AcDbEntity
  8
LC-002-100-D00-0
 62
     7
370
    25
100
AcDbLine
 10
104.793979
 20
190.106412
 30
0.0
 11
107.793979
 21
193.106412
 31
0.0
  0
LINE
  5
263
330
246
100
AcDbEntity
  8
LC-002-100-D00-0
 62
     7
370
    25
100
AcDbLine
 10
100.30385
 20
190.106412
 30
0.0
 11
103.30385
 21
193.106412
 31
0.0
  0
LINE
  5
264
330
246
100
AcDbEntity
  8
LC-002-100-D00-0
 62
     7
370
    25
100
AcDbLine
 10
95.813722
 20
190.106412
 30
0.0
 11
98.813722
 21
193.106412
 31
0.0
  0
LINE
  5
265
330
246
100
AcDbEntity
  8
LC-002-100-D00-0
 62
     7
370
    25
100
AcDbLine
 10
91.323594
 20
190.106412
 30
0.0
 11
94.323594
 21
193.106412
 31
0.0
  0
LINE
  5
266
330
246
100
AcDbEntity
  8
LC-002-100-D00-0
 62
     7
370
    25
100
AcDbLine
 10
87.4104
 20
190.683345
 30
0.0
 11
89.925751
 21
193.198696
 31
0.0
  0
LINE
  5
267
330
246
100
AcDbEntity
  8
LC-002-100-D00-0
 62
     7
370
    25
100
AcDbLine
 10
84.305554
 20
192.068627
 30
0.0
 11
86.508137
 21
194.27121
 31
0.0
  0
LINE
  5
268
330
246
100
AcDbEntity
  8
LC-002-100-D00-0
 62
     7
370
    25
100
AcDbLine
 10
81.788083
 20
194.041285
 30
0.0
 11
83.909409
 21
196.16261
 31
0.0
  0
LINE
  5
269
330
246
100
AcDbEntity
  8
LC-002-100-D00-0
 62
     7
370
    25
100
AcDbLine
 10
79.806132
 20
196.549461
 30
0.0
 11
82.005824
 21
198.749154
 31
0.0
  0
LINE
  5
26A
330
246
100
AcDbEntity
  8
LC-002-100-D00-0
 62
     7
370
    25
100
AcDbLine
 10
78.40967
 20
199.643128
 30
0.0
 11
80.916328
 21
202.149785
 31
0.0
  0
LINE
  5
26B
330
246
100
AcDbEntity
  8
LC-002-100-D00-0
 62
     7
370
    25
100
AcDbLine
 10
77.814971
 20
203.538557
 30
0.0
 11
80.814801
 21
206.538386
 31
0.0
  0
LINE
  5
26C
330
246
100
AcDbEntity
  8
LC-002-100-D00-0
 62
     7
370
    25
100
AcDbLine
 10
77.814801
 20
208.028514
 30
0.0
 11
80.814801
 21
211.028514
 31
0.0
  0
LINE
  5
26D
330
246
100
AcDbEntity
  8
LC-002-100-D00-0
 62
     7
370
    25
100
AcDbLine
 10
75.357714
 20
210.061556
 30
0.0
 11
78.03158
 21
212.735421
 31
0.0
  0
LINE
  5
26E
330
246
100
AcDbEntity
  8
LC-002-100-D00-0
 62
     7
370
    25
100
AcDbLine
 10
71.389951
 20
210.583921
 30
0.0
 11
74.063817
 21
213.257787
 31
0.0
  0
LINE
  5
26F
330
246
100
AcDbEntity
  8
LC-002-100-D00-0
 62
     7
370
    25
100
AcDbLine
 10
67.422189
 20
211.106287
 30
0.0
 11
70.096055
 21
213.780153
 31
0.0
  0
LINE
  5
270
330
246
100
AcDbEntity
  8
LC-002-100-D00-0
 62
     7
370
    25
100
AcDbLine
 10
63.513171
 20
211.687397
 30
0.0
 11
66.128293
 21
214.302519
 31
0.0
  0
LINE
  5
271
330
246
100
AcDbEntity
  8
LC-002-100-D00-0
 62
     7
370
    25
100
AcDbLine
 10
60.534709
 20
213.199063
 30
0.0
 11
62.675099
 21
215.339453
 31
0.0
  0
LINE
  5
272
330
246
100
AcDbEntity
  8
LC-002-100-D00-0
 62
     7
370
    25
100
AcDbLine
 10
58.504129
 20
215.658611
 30
0.0
 11
60.788035
 21
217.942517
 31
0.0
  0
LINE
  5
273
330
246
100
AcDbEntity
  8
LC-002-100-D00-0
 62
     7
370
    25
100
AcDbLine
 10
57.567498
 20
219.212108
 30
0.0
 11
60.564801
 21
222.209411
 31
0.0
  0
LINE
  5
274
330
246
100
AcDbEntity
  8
LC-002-100-D00-0
 62
     7
370
    25
100
AcDbLine
 10
57.564801
 20
223.699539
 30
0.0
 11
60.564801
 21
226.699539
 31
0.0
  0
LINE
  5
275
330
246
100
AcDbEntity
  8
LC-002-100-D00-0
 62
     7
370
    25
100
AcDbLine
 10
57.564801
 20
228.189667
 30
0.0
 11
60.564801
 21
231.189667
 31
0.0
  0
LINE
  5
276
330
246
100
AcDbEntity
  8
LC-002-100-D00-0
 62
     7
370
    25
100
AcDbLine
 10
57.564801
 20
232.679795
 30
0.0
 11
60.464763
 21
235.579757
 31
0.0
  0
LINE
  5
277
330
246
100
AcDbEntity
  8
LC-002-100-D00-0
 62
     7
370
    25
100
AcDbLine
 10
57.564801
 20
237.169923
 30
0.0
 11
59.515887
 21
239.12101
 31
0.0
  0
ENDBLK
  5
248
330
246
100
AcDbEntity
  8
0
100
AcDbBlockEnd
  0
BLOCK
  5
27A
330
279
100
AcDbEntity
  8
0
100
AcDbBlockBegin
  2
KLON14
 70
     0
 71
     0
 10
0.0
 20
0.0
 30
0.0
  3
KLON14
  1

  4
KLON14
  0
LINE
  5
27C
330
279
100
AcDbEntity
  8
LC-002-100-D00-0
 62
     7
370
    25
100
AcDbLine
 10
284.243609
 20
200.690222
 30
0.0
 11
281.827419
 21
203.106412
 31
0.0
  0
LINE
  5
27D
330
279
100
AcDbEntity
  8
LC-002-100-D00-0
 62
     7
370
    25
100
AcDbLine
 10
280.337291
 20
200.106412
 30
0.0
 11
277.337291
 21
203.106412
 31
0.0
  0
LINE
  5
27E
330
279
100
AcDbEntity
  8
LC-002-100-D00-0
 62
     7
370
    25
100
AcDbLine
 10
275.847163
 20
200.106412
 30
0.0
 11
272.847163
 21
203.106412
 31
0.0
  0
LINE
  5
27F
330
279
100
AcDbEntity
  8
LC-002-100-D00-0
 62
     7
370
    25
100
AcDbLine
 10
271.357035
 20
200.106412
 30
0.0
 11
268.357035
 21
203.106412
 31
0.0
  0
LINE
  5
280
330
279
100
AcDbEntity
  8
LC-002-100-D00-0
 62
     7
370
    25
100
AcDbLine
 10
266.866907
 20
200.106412
 30
0.0
 11
263.866907
 21
203.106412
 31
0.0
  0
LINE
  5
281
330
279
100
AcDbEntity
  8
LC-002-100-D00-0
 62
     7
370
    25
100
AcDbLine
 10
262.376779
 20
200.106412
 30
0.0
 11
259.376779
 21
203.106412
 31
0.0
  0
LINE
  5
282
330
279
100
AcDbEntity
  8
LC-002-100-D00-0
 62
     7
370
    25
100
AcDbLine
 10
257.886651
 20
200.106412
 30
0.0
 11
254.886651
 21
203.106412
 31
0.0
  0
LINE
  5
283
330
279
100
AcDbEntity
  8
LC-002-100-D00-0
 62
     7
370
    25
100
AcDbLine
 10
253.396522
 20
200.106412
 30
0.0
 11
250.396522
 21
203.106412
 31
0.0
  0
LINE
  5
284
330
279
100
AcDbEntity
  8
LC-002-100-D00-0
 62
     7
370
    25
100
AcDbLine
 10
248.906394
 20
200.106412
 30
0.0
 11
245.906394
 21
203.106412
 31
0.0
  0
LINE
  5
285
330
279
100
AcDbEntity
  8
LC-002-100-D00-0
 62
     7
370
    25
100
AcDbLine
 10
244.416266
 20
200.106412
 30
0.0
 11
241.416266
 21
203.106412
 31
0.0
  0
LINE
  5
286
330
279
100
AcDbEntity
  8
LC-002-100-D00-0
 62
     7
370
    25
100
AcDbLine
 10
239.926138
 20
200.106412
 30
0.0
 11
236.926138
 21
203.106412
 31
0.0
  0
LINE
  5
287
330
279
100
AcDbEntity
  8
LC-002-100-D00-0
 62
     7
370
    25
100
AcDbLine
 10
235.43601
 20
200.106412
 30
0.0
 11
232.43601
 21
203.106412
 31
0.0
  0
LINE
  5
288
330
279
100
AcDbEntity
  8
LC-002-100-D00-0
 62
     7
370
    25
100
AcDbLine
 10
230.945882
 20
200.106412
 30
0.0
 11
227.945882
 21
203.106412
 31
0.0
  0
LINE
  5
289
330
279
100
AcDbEntity
  8
LC-002-100-D00-0
 62
     7
370
    25
100
AcDbLine
 10
226.455754
 20
200.106412
 30
0.0
 11
223.455754
 21
203.106412
 31
0.0
  0
LINE
  5
28A
330
279
100
AcDbEntity
  8
LC-002-100-D00-0
 62
     7
370
    25
100
AcDbLine
 10
221.965626
 20
200.106412
 30
0.0
 11
219.726907
 21
202.345131
 31
0.0
  0
LINE
  5
28B
330
279
100
AcDbEntity
  8
LC-002-100-D00-0
 62
     7
370
    25
100
AcDbLine
 10
218.991342
 20
198.590567
 30
0.0
 11
217.211059
 21
200.370851
 31
0.0
  0
LINE
  5
28C
330
279
100
AcDbEntity
  8
LC-002-100-D00-0
 62
     7
370
    25
100
AcDbLine
 10
216.356908
 20
196.734873
 30
0.0
 11
214.536161
 21
198.55562
 31
0.0
  0
LINE
  5
28D
330
279
100
AcDbEntity
  8
LC-002-100-D00-0
 62
     7
370
    25
100
AcDbLine
 10
213.440326
 20
195.161328
 30
0.0
 11
211.545036
 21
197.056617
 31
0.0
  0
LINE
  5
28E
330
279
100
AcDbEntity
  8
LC-002-100-D00-0
 62
     7
370
    25
100
AcDbLine
 10
210.20872
 20
193.902805
 30
0.0
 11
208.191362
 21
195.920163
 31
0.0
  0
LINE
  5
28F
330
279
100
AcDbEntity
  8
LC-002-100-D00-0
 62
     7
370
    25
100
AcDbLine
 10
206.603612
 20
193.017785
 30
0.0
 11
204.387391
 21
195.234007
 31
0.0
  0
LINE
  5
290
330
279
100
AcDbEntity
  8
LC-002-100-D00-0
 62
     7
370
    25
100
AcDbLine
 10
202.51712
 20
192.614149
 30
0.0
 11
199.951539
 21
195.179731
 31
0.0
  0
LINE
  5
291
330
279
100
AcDbEntity
  8
LC-002-100-D00-0
 62
     7
370
    25
100
AcDbLine
 10
198.03473
 20
192.606412
 30
0.0
 11
194.608974
 21
196.032167
 31
0.0
  0
ENDBLK
  5
27B
330
279
100
AcDbEntity
  8
0
100
AcDbBlockEnd
  0
BLOCK
  5
294
330
293
100
AcDbEntity
  8
0
100
AcDbBlockBegin
  2
KLON15
 70
     0
 71
     0
 10
0.0
 20
0.0
 30
0.0
  3
KLON15
  1

  4
KLON15
  0
LINE
  5
296
330
293
100
AcDbEntity
  8
LC-002-100-D00-0
 62
     7
370
    25
100
AcDbLine
 10
283.748443
 20
237.106412
 30
0.0
 11
280.748443
 21
240.106412
 31
0.0
  0
LINE
  5
297
330
293
100
AcDbEntity
  8
LC-002-100-D00-0
 62
     7
370
    25
100
AcDbLine
 10
279.258315
 20
237.106412
 30
0.0
 11
276.258315
 21
240.106412
 31
0.0
  0
LINE
  5
298
330
293
100
AcDbEntity
  8
LC-002-100-D00-0
 62
     7
370
    25
100
AcDbLine
 10
274.768187
 20
237.106412
 30
0.0
 11
271.768187
 21
240.106412
 31
0.0
  0
LINE
  5
299
330
293
100
AcDbEntity
  8
LC-002-100-D00-0
 62
     7
370
    25
100
AcDbLine
 10
270.278059
 20
237.106412
 30
0.0
 11
267.278059
 21
240.106412
 31
0.0
  0
LINE
  5
29A
330
293
100
AcDbEntity
  8
LC-002-100-D00-0
 62
     7
370
    25
100
AcDbLine
 10
265.787931
 20
237.106412
 30
0.0
 11
262.787931
 21
240.106412
 31
0.0
  0
LINE
  5
29B
330
293
100
AcDbEntity
  8
LC-002-100-D00-0
 62
     7
370
    25
100
AcDbLine
 10
261.297803
 20
237.106412
 30
0.0
 11
258.297803
 21
240.106412
 31
0.0
  0
LINE
  5
29C
330
293
100
AcDbEntity
  8
LC-002-100-D00-0
 62
     7
370
    25
100
AcDbLine
 10
256.807675
 20
237.106412
 30
0.0
 11
253.807675
 21
240.106412
 31
0.0
  0
LINE
  5
29D
330
293
100
AcDbEntity
  8
LC-002-100-D00-0
 62
     7
370
    25
100
AcDbLine
 10
252.317547
 20
237.106412
 30
0.0
 11
249.317547
 21
240.106412
 31
0.0
  0
LINE
  5
29E
330
293
100
AcDbEntity
  8
LC-002-100-D00-0
 62
     7
370
    25
100
AcDbLine
 10
247.827419
 20
237.106412
 30
0.0
 11
244.827419
 21
240.106412
 31
0.0
  0
LINE
  5
29F
330
293
100
AcDbEntity
  8
LC-002-100-D00-0
 62
     7
370
    25
100
AcDbLine
 10
243.337291
 20
237.106412
 30
0.0
 11
240.337291
 21
240.106412
 31
0.0
  0
LINE
  5
2A0
330
293
100
AcDbEntity
  8
LC-002-100-D00-0
 62
     7
370
    25
100
AcDbLine
 10
238.847163
 20
237.106412
 30
0.0
 11
235.847163
 21
240.106412
 31
0.0
  0
LINE
  5
2A1
330
293
100
AcDbEntity
  8
LC-002-100-D00-0
 62
     7
370
    25
100
AcDbLine
 10
234.357035
 20
237.106412
 30
0.0
 11
231.357035
 21
240.106412
 31
0.0
  0
LINE
  5
2A2
330
293
100
AcDbEntity
  8
LC-002-100-D00-0
 62
     7
370
    25
100
AcDbLine
 10
229.866907
 20
237.106412
 30
0.0
 11
226.866907
 21
240.106412
 31
0.0
  0
LINE
  5
2A3
330
293
100
AcDbEntity
  8
LC-002-100-D00-0
 62
     7
370
    25
100
AcDbLine
 10
225.376779
 20
237.106412
 30
0.0
 11
222.376779
 21
240.106412
 31
0.0
  0
LINE
  5
2A4
330
293
100
AcDbEntity
  8
LC-002-100-D00-0
 62
     7
370
    25
100
AcDbLine
 10
220.407126
 20
237.585936
 30
0.0
 11
212.545543
 21
245.44752
 31
0.0
  0
LINE
  5
2A5
330
293
100
AcDbEntity
  8
LC-002-100-D00-0
 62
     7
370
    25
100
AcDbLine
 10
209.634561
 20
243.868373
 30
0.0
 11
206.248103
 21
247.254831
 31
0.0
  0
LINE
  5
2A6
330
293
100
AcDbEntity
  8
LC-002-100-D00-0
 62
     7
370
    25
100
AcDbLine
 10
203.997531
 20
245.015275
 30
0.0
 11
201.406394
 21
247.606412
 31
0.0
  0
LINE
  5
2A7
330
293
100
AcDbEntity
  8
LC-002-100-D00-0
 62
     7
370
    25
100
AcDbLine
 10
199.525915
 20
244.996763
 30
0.0
 11
196.916266
 21
247.606412
 31
0.0
  0
LINE
  5
2A8
330
293
100
AcDbEntity
  8
LC-002-100-D00-0
 62
     7
370
    25
100
AcDbLine
 10
195.698528
 20
244.334022
 30
0.0
 11
194.064801
 21
245.967749
 31
0.0
  0
ENDBLK
  5
295
330
293
100
AcDbEntity
  8
0
100
AcDbBlockEnd
  0
BLOCK
  5
2C0
330
2B4
100
AcDbEntity
  8
0
100
AcDbBlockBegin
  2
*D20
 70
     1
 71
     0
 10
0.0
 20
0.0
 30
0.0
  3
*D20
  1

  0
LINE
  5
2B5
330
2B4
100
AcDbEntity
  8
LC-003-003-----0
 62
     2
370
    -2
100
AcDbLine
 10
282.064797
 20
240.106411
 30
0.0
 11
318.522618
 21
240.106411
 31
0.0
  0
LINE
  5
2B6
330
2B4
100
AcDbEntity
  8
LC-003-003-----0
 62
     2
370
    -2
100
AcDbLine
 10
282.064797
 20
200.106412
 30
0.0
 11
318.522618
 21
200.106412
 31
0.0
  0
LINE
  5
2B7
330
2B4
100
AcDbEntity
  8
LC-003-003-----0
 62
     2
370
    -2
100
AcDbLine
 10
314.922618
 20
268.106411
 30
0.0
 11
314.922618
 21
296.106411
 31
0.0
  0
LINE
  5
2B8
330
2B4
100
AcDbEntity
  8
LC-003-003-----0
 62
     2
370
    -2
100
AcDbLine
 10
314.922618
 20
172.106412
 30
0.0
 11
314.922618
 21
144.106412
 31
0.0
  0
LINE
  5
2B9
330
2B4
100
AcDbEntity
  8
LC-003-003-----0
 62
     2
370
    -2
100
AcDbLine
 10
314.922618
 20
240.106411
 30
0.0
 11
314.922618
 21
200.106412
 31
0.0
  0
SOLID
  5
2BA
330
2B4
100
AcDbEntity
  8
LC-003-003-----0
 62
     2
100
AcDbTrace
 10
310.255951
 20
268.106411
 30
0.0
 11
319.589284
 21
268.106411
 31
0.0
 12
314.922618
 22
240.106411
 32
0.0
 13
314.922618
 23
240.106411
 33
0.0
  0
SOLID
  5
2BB
330
2B4
100
AcDbEntity
  8
LC-003-003-----0
 62
     2
100
AcDbTrace
 10
319.589284
 20
172.106412
 30
0.0
 11
310.255951
 21
172.106412
 31
0.0
 12
314.922618
 22
200.106412
 32
0.0
 13
314.922618
 23
200.106412
 33
0.0
  0
MTEXT
  5
2BC
330
2B4
100
AcDbEntity
  8
LC-003-003-----0
 62
     2
100
AcDbMText
 10
284.122618
 20
222.471433
 30
0.0
 40
28.0
 41
0.0
 71
     5
 72
     1
  1
\A1;DN40
  7
LCTX15-400-0-0pDIN-Schrift
 11
6.123031769111886E-17
 21
1.0
 31
0.0
 73
     1
 44
1.0
  0
POINT
  5
2BD
330
2B4
100
AcDbEntity
  8
Defpoints
 62
     0
100
AcDbPoint
 10
282.064797
 20
240.106411
 30
0.0
  0
POINT
  5
2BE
330
2B4
100
AcDbEntity
  8
Defpoints
 62
     0
100
AcDbPoint
 10
282.064797
 20
200.106412
 30
0.0
  0
POINT
  5
2BF
330
2B4
100
AcDbEntity
  8
Defpoints
 62
     0
100
AcDbPoint
 10
314.922618
 20
200.106412
 30
0.0
  0
ENDBLK
  5
2C1
330
2B4
100
AcDbEntity
  8
0
100
AcDbBlockEnd
  0
BLOCK
  5
2CE
330
2C3
100
AcDbEntity
  8
0
100
AcDbBlockBegin
  2
*D21
 70
     1
 71
     0
 10
0.0
 20
0.0
 30
0.0
  3
*D21
  1

  0
LINE
  5
2C4
330
2C3
100
AcDbEntity
  8
LC-003-003-----0
 62
     2
370
    -2
100
AcDbLine
 10
77.8148
 20
209.738075
 30
0.0
 11
77.8148
 21
140.669568
 31
0.0
  0
LINE
  5
2C5
330
2C3
100
AcDbEntity
  8
LC-003-003-----0
 62
     2
370
    -2
100
AcDbLine
 10
145.314801
 20
200.85153
 30
0.0
 11
145.314801
 21
140.669568
 31
0.0
  0
LINE
  5
2C6
330
2C3
100
AcDbEntity
  8
LC-003-003-----0
 62
     2
370
    -2
100
AcDbLine
 10
105.8148
 20
144.269568
 30
0.0
 11
117.314801
 21
144.269568
 31
0.0
  0
LINE
  5
2C7
330
2C3
100
AcDbEntity
  8
LC-003-003-----0
 62
     2
370
    -2
100
AcDbLine
 10
145.314801
 20
144.269568
 30
0.0
 11
199.470636
 21
144.269568
 31
0.0
  0
SOLID
  5
2C8
330
2C3
100
AcDbEntity
  8
LC-003-003-----0
 62
     2
100
AcDbTrace
 10
105.8148
 20
148.936235
 30
0.0
 11
105.8148
 21
139.602902
 31
0.0
 12
77.8148
 22
144.269568
 32
0.0
 13
77.8148
 23
144.269568
 33
0.0
  0
SOLID
  5
2C9
330
2C3
100
AcDbEntity
  8
LC-003-003-----0
 62
     2
100
AcDbTrace
 10
117.314801
 20
139.602902
 30
0.0
 11
117.314801
 21
148.936235
 31
0.0
 12
145.314801
 22
144.269568
 32
0.0
 13
145.314801
 23
144.269568
 33
0.0
  0
MTEXT
  5
2CA
330
2C3
100
AcDbEntity
  8
LC-003-003-----0
 62
     2
100
AcDbMText
 10
161.255246
 20
175.069568
 30
0.0
 40
28.0
 41
0.0
 71
     5
 72
     1
  1
%%c\A1;67,5
  7
LCTX15-400-0-0pDIN-Schrift
 73
     1
 44
1.0
  0
POINT
  5
2CB
330
2C3
100
AcDbEntity
  8
Defpoints
 62
     0
100
AcDbPoint
 10
77.8148
 20
209.738075
 30
0.0
  0
POINT
  5
2CC
330
2C3
100
AcDbEntity
  8
Defpoints
 62
     0
100
AcDbPoint
 10
145.314801
 20
200.85153
 30
0.0
  0
POINT
  5
2CD
330
2C3
100
AcDbEntity
  8
Defpoints
 62
     0
100
AcDbPoint
 10
145.314801
 20
144.269568
 30
0.0
  0
ENDBLK
  5
2CF
330
2C3
100
AcDbEntity
  8
0
100
AcDbBlockEnd
  0
BLOCK
  5
2DC
330
2D1
100
AcDbEntity
  8
0
100
AcDbBlockBegin
  2
*D22
 70
     1
 71
     0
 10
0.0
 20
0.0
 30
0.0
  3
*D22
  1

  0
LINE
  5
2D2
330
2D1
100
AcDbEntity
  8
LC-003-003-----0
 62
     2
370
    -2
100
AcDbLine
 10
60.064801
 20
249.606415
 30
0.0
 11
17.591704
 21
249.606415
 31
0.0
  0
LINE
  5
2D3
330
2D1
100
AcDbEntity
  8
LC-003-003-----0
 62
     2
370
    -2
100
AcDbLine
 10
56.562879
 20
253.106407
 30
0.0
 11
17.591704
 21
253.106407
 31
0.0
  0
LINE
  5
2D4
330
2D1
100
AcDbEntity
  8
LC-003-003-----0
 62
     2
370
    -2
100
AcDbLine
 10
21.191704
 20
221.606415
 30
0.0
 11
21.191704
 21
193.606415
 31
0.0
  0
LINE
  5
2D5
330
2D1
100
AcDbEntity
  8
LC-003-003-----0
 62
     2
370
    -2
100
AcDbLine
 10
21.191704
 20
281.106407
 30
0.0
 11
21.191704
 21
305.003802
 31
0.0
  0
SOLID
  5
2D6
330
2D1
100
AcDbEntity
  8
LC-003-003-----0
 62
     2
100
AcDbTrace
 10
25.858371
 20
221.606415
 30
0.0
 11
16.525037
 21
221.606415
 31
0.0
 12
21.191704
 22
249.606415
 32
0.0
 13
21.191704
 23
249.606415
 33
0.0
  0
SOLID
  5
2D7
330
2D1
100
AcDbEntity
  8
LC-003-003-----0
 62
     2
100
AcDbTrace
 10
16.525037
 20
281.106407
 30
0.0
 11
25.858371
 21
281.106407
 31
0.0
 12
21.191704
 22
253.106407
 32
0.0
 13
21.191704
 23
253.106407
 33
0.0
  0
MTEXT
  5
2D8
330
2D1
100
AcDbEntity
  8
LC-003-003-----0
 62
     2
100
AcDbMText
 10
-9.608296
 20
258.255079
 30
0.0
 40
28.0
 41
0.0
 71
     5
 72
     1
  1
\A1;6-25
  7
LCTX15-400-0-0pDIN-Schrift
 11
6.123031769111886E-17
 21
1.0
 31
0.0
 73
     1
 44
1.0
  0
POINT
  5
2D9
330
2D1
100
AcDbEntity
  8
Defpoints
 62
     0
100
AcDbPoint
 10
60.064801
 20
249.606415
 30
0.0
  0
POINT
  5
2DA
330
2D1
100
AcDbEntity
  8
Defpoints
 62
     0
100
AcDbPoint
 10
56.562879
 20
253.106407
 30
0.0
  0
POINT
  5
2DB
330
2D1
100
AcDbEntity
  8
Defpoints
 62
     0
100
AcDbPoint
 10
21.191704
 20
253.106407
 30
0.0
  0
ENDBLK
  5
2DD
330
2D1
100
AcDbEntity
  8
0
100
AcDbBlockEnd
  0
BLOCK
  5
2EB
330
2DF
100
AcDbEntity
  8
0
100
AcDbBlockBegin
  2
*D23
 70
     1
 71
     0
 10
0.0
 20
0.0
 30
0.0
  3
*D23
  1

  0
LINE
  5
2E0
330
2DF
100
AcDbEntity
  8
LC-003-003-----0
 62
     2
370
    -2
100
AcDbLine
 10
60.064801
 20
249.606415
 30
0.0
 11
-76.618146
 21
249.606415
 31
0.0
  0
LINE
  5
2E1
330
2DF
100
AcDbEntity
  8
LC-003-003-----0
 62
     2
370
    -2
100
AcDbLine
 10
91.323594
 20
190.106412
 30
0.0
 11
-76.618146
 21
190.106412
 31
0.0
  0
LINE
  5
2E2
330
2DF
100
AcDbEntity
  8
LC-003-003-----0
 62
     2
370
    -2
100
AcDbLine
 10
-73.018146
 20
277.606415
 30
0.0
 11
-73.018146
 21
305.606415
 31
0.0
  0
LINE
  5
2E3
330
2DF
100
AcDbEntity
  8
LC-003-003-----0
 62
     2
370
    -2
100
AcDbLine
 10
-73.018146
 20
162.106412
 30
0.0
 11
-73.018146
 21
134.106412
 31
0.0
  0
LINE
  5
2E4
330
2DF
100
AcDbEntity
  8
LC-003-003-----0
 62
     2
370
    -2
100
AcDbLine
 10
-73.018146
 20
249.606415
 30
0.0
 11
-73.018146
 21
190.106412
 31
0.0
  0
SOLID
  5
2E5
330
2DF
100
AcDbEntity
  8
LC-003-003-----0
 62
     2
100
AcDbTrace
 10
-77.684813
 20
277.606415
 30
0.0
 11
-68.351479
 21
277.606415
 31
0.0
 12
-73.018146
 22
249.606415
 32
0.0
 13
-73.018146
 23
249.606415
 33
0.0
  0
SOLID
  5
2E6
330
2DF
100
AcDbEntity
  8
LC-003-003-----0
 62
     2
100
AcDbTrace
 10
-68.351479
 20
162.106412
 30
0.0
 11
-77.684813
 21
162.106412
 31
0.0
 12
-73.018146
 22
190.106412
 32
0.0
 13
-73.018146
 23
190.106412
 33
0.0
  0
MTEXT
  5
2E7
330
2DF
100
AcDbEntity
  8
LC-003-003-----0
 62
     2
100
AcDbMText
 10
-103.818146
 20
233.369568
 30
0.0
 40
28.0
 41
0.0
 71
     5
 72
     1
  1
\A1;59,5
  7
LCTX15-400-0-0pDIN-Schrift
 11
6.123031769111886E-17
 21
1.0
 31
0.0
 73
     1
 44
1.0
  0
POINT
  5
2E8
330
2DF
100
AcDbEntity
  8
Defpoints
 62
     0
100
AcDbPoint
 10
60.064801
 20
249.606415
 30
0.0
  0
POINT
  5
2E9
330
2DF
100
AcDbEntity
  8
Defpoints
 62
     0
100
AcDbPoint
 10
91.323594
 20
190.106412
 30
0.0
  0
POINT
  5
2EA
330
2DF
100
AcDbEntity
  8
Defpoints
 62
     0
100
AcDbPoint
 10
-73.018146
 20
190.106412
 30
0.0
  0
ENDBLK
  5
2EC
330
2DF
100
AcDbEntity
  8
0
100
AcDbBlockEnd
  0
BLOCK
  5
2F9
330
2EE
100
AcDbEntity
  8
0
100
AcDbBlockBegin
  2
*D24
 70
     1
 71
     0
 10
0.0
 20
0.0
 30
0.0
  3
*D24
  1

  0
LINE
  5
2EF
330
2EE
100
AcDbEntity
  8
LC-003-003-----0
 62
     2
370
    -2
100
AcDbLine
 10
92.5648
 20
204.40641
 30
0.0
 11
-30.828347
 21
204.40641
 31
0.0
  0
LINE
  5
2F0
330
2EE
100
AcDbEntity
  8
LC-003-003-----0
 62
     2
370
    -2
100
AcDbLine
 10
81.564801
 20
234.406412
 30
0.0
 11
-30.828347
 21
234.406412
 31
0.0
  0
LINE
  5
2F1
330
2EE
100
AcDbEntity
  8
LC-003-003-----0
 62
     2
370
    -2
100
AcDbLine
 10
-27.228347
 20
176.40641
 30
0.0
 11
-27.228347
 21
148.40641
 31
0.0
  0
LINE
  5
2F2
330
2EE
100
AcDbEntity
  8
LC-003-003-----0
 62
     2
370
    -2
100
AcDbLine
 10
-27.228347
 20
262.406412
 30
0.0
 11
-27.228347
 21
271.141795
 31
0.0
  0
SOLID
  5
2F3
330
2EE
100
AcDbEntity
  8
LC-003-003-----0
 62
     2
100
AcDbTrace
 10
-22.56168
 20
176.40641
 30
0.0
 11
-31.895013
 21
176.40641
 31
0.0
 12
-27.228347
 22
204.40641
 32
0.0
 13
-27.228347
 23
204.40641
 33
0.0
  0
SOLID
  5
2F4
330
2EE
100
AcDbEntity
  8
LC-003-003-----0
 62
     2
100
AcDbTrace
 10
-31.895013
 20
262.406412
 30
0.0
 11
-22.56168
 21
262.406412
 31
0.0
 12
-27.228347
 22
234.406412
 32
0.0
 13
-27.228347
 23
234.406412
 33
0.0
  0
MTEXT
  5
2F5
330
2EE
100
AcDbEntity
  8
LC-003-003-----0
 62
     2
100
AcDbMText
 10
-58.028347
 20
248.219568
 30
0.0
 40
28.0
 41
0.0
 71
     5
 72
     1
  1
\A1;30
  7
LCTX15-400-0-0pDIN-Schrift
 11
6.123031769111886E-17
 21
1.0
 31
0.0
 73
     1
 44
1.0
  0
POINT
  5
2F6
330
2EE
100
AcDbEntity
  8
Defpoints
 62
     0
100
AcDbPoint
 10
92.5648
 20
204.40641
 30
0.0
  0
POINT
  5
2F7
330
2EE
100
AcDbEntity
  8
Defpoints
 62
     0
100
AcDbPoint
 10
81.564801
 20
234.406412
 30
0.0
  0
POINT
  5
2F8
330
2EE
100
AcDbEntity
  8
Defpoints
 62
     0
100
AcDbPoint
 10
-27.228347
 20
234.406412
 30
0.0
  0
ENDBLK
  5
2FA
330
2EE
100
AcDbEntity
  8
0
100
AcDbBlockEnd
  0
BLOCK
  5
306
330
2FC
100
AcDbEntity
  8
0
100
AcDbBlockBegin
  2
*D25
 70
     1
 71
     0
 10
0.0
 20
0.0
 30
0.0
  3
*D25
  1

  0
LINE
  5
2FD
330
2FC
100
AcDbEntity
  8
LC-003-003-----0
 62
     2
370
    -2
100
AcDbLine
 10
53.064802
 20
238.606415
 30
0.0
 11
53.064802
 21
84.833568
 31
0.0
  0
LINE
  5
2FE
330
2FC
100
AcDbEntity
  8
LC-003-003-----0
 62
     2
370
    -2
100
AcDbLine
 10
170.064801
 20
238.606415
 30
0.0
 11
170.064801
 21
84.833568
 31
0.0
  0
LINE
  5
2FF
330
2FC
100
AcDbEntity
  8
LC-003-003-----0
 62
     2
370
    -2
100
AcDbLine
 10
81.064802
 20
88.433568
 30
0.0
 11
142.064801
 21
88.433568
 31
0.0
  0
SOLID
  5
300
330
2FC
100
AcDbEntity
  8
LC-003-003-----0
 62
     2
100
AcDbTrace
 10
81.064802
 20
93.100235
 30
0.0
 11
81.064802
 21
83.766902
 31
0.0
 12
53.064802
 22
88.433568
 32
0.0
 13
53.064802
 23
88.433568
 33
0.0
  0
SOLID
  5
301
330
2FC
100
AcDbEntity
  8
LC-003-003-----0
 62
     2
100
AcDbTrace
 10
142.064801
 20
83.766902
 30
0.0
 11
142.064801
 21
93.100235
 31
0.0
 12
170.064801
 22
88.433568
 32
0.0
 13
170.064801
 23
88.433568
 33
0.0
  0
MTEXT
  5
302
330
2FC
100
AcDbEntity
  8
LC-003-003-----0
 62
     2
100
AcDbMText
 10
113.335688
 20
119.233568
 30
0.0
 40
28.0
 41
0.0
 71
     5
 72
     1
  1
%%c\A1;117
  7
LCTX15-400-0-0pDIN-Schrift
 73
     1
 44
1.0
  0
POINT
  5
303
330
2FC
100
AcDbEntity
  8
Defpoints
 62
     0
100
AcDbPoint
 10
53.064802
 20
238.606415
 30
0.0
  0
POINT
  5
304
330
2FC
100
AcDbEntity
  8
Defpoints
 62
     0
100
AcDbPoint
 10
170.064801
 20
238.606415
 30
0.0
  0
POINT
  5
305
330
2FC
100
AcDbEntity
  8
Defpoints
 62
     0
100
AcDbPoint
 10
170.064801
 20
88.433568
 30
0.0
  0
ENDBLK
  5
307
330
2FC
100
AcDbEntity
  8
0
100
AcDbBlockEnd
  0
BLOCK
  5
313
330
309
100
AcDbEntity
  8
0
100
AcDbBlockBegin
  2
*D26
 70
     1
 71
     0
 10
0.0
 20
0.0
 30
0.0
  3
*D26
  1

  0
LINE
  5
30A
330
309
100
AcDbEntity
  8
LC-003-003-----0
 62
     2
370
    -2
100
AcDbLine
 10
111.564801
 20
189.219375
 30
0.0
 11
111.564801
 21
27.215568
 31
0.0
  0
LINE
  5
30B
330
309
100
AcDbEntity
  8
LC-003-003-----0
 62
     2
370
    -2
100
AcDbLine
 10
285.064803
 20
203.10641
 30
0.0
 11
285.064803
 21
27.215568
 31
0.0
  0
LINE
  5
30C
330
309
100
AcDbEntity
  8
LC-003-003-----0
 62
     2
370
    -2
100
AcDbLine
 10
139.564801
 20
30.815568
 30
0.0
 11
257.064803
 21
30.815568
 31
0.0
  0
SOLID
  5
30D
330
309
100
AcDbEntity
  8
LC-003-003-----0
 62
     2
100
AcDbTrace
 10
139.564801
 20
35.482235
 30
0.0
 11
139.564801
 21
26.148902
 31
0.0
 12
111.564801
 22
30.815568
 32
0.0
 13
111.564801
 23
30.815568
 33
0.0
  0
SOLID
  5
30E
330
309
100
AcDbEntity
  8
LC-003-003-----0
 62
     2
100
AcDbTrace
 10
257.064803
 20
26.148902
 30
0.0
 11
257.064803
 21
35.482235
 31
0.0
 12
285.064803
 22
30.815568
 32
0.0
 13
285.064803
 23
30.815568
 33
0.0
  0
MTEXT
  5
30F
330
309
100
AcDbEntity
  8
LC-003-003-----0
 62
     2
100
AcDbMText
 10
175.098673
 20
61.615568
 30
0.0
 40
28.0
 41
0.0
 71
     5
 72
     1
  1
\A1;173,5
  7
LCTX15-400-0-0pDIN-Schrift
 73
     1
 44
1.0
  0
POINT
  5
310
330
309
100
AcDbEntity
  8
Defpoints
 62
     0
100
AcDbPoint
 10
111.564801
 20
189.219375
 30
0.0
  0
POINT
  5
311
330
309
100
AcDbEntity
  8
Defpoints
 62
     0
100
AcDbPoint
 10
285.064803
 20
203.10641
 30
0.0
  0
POINT
  5
312
330
309
100
AcDbEntity
  8
Defpoints
 62
     0
100
AcDbPoint
 10
285.064803
 20
30.815568
 30
0.0
  0
ENDBLK
  5
314
330
309
100
AcDbEntity
  8
0
100
AcDbBlockEnd
  0
BLOCK
  5
317
330
316
100
AcDbEntity
  8
0
100
AcDbBlockBegin
  2
LCDIM1
 70
     0
 71
     0
 10
0.0
 20
0.0
 30
0.0
  3
LCDIM1
  1

  4
LCDIM1
  0
TEXT
  5
319
330
316
100
AcDbEntity
  8
LC-003-003-----0
 62
     7
370
   140
100
AcDbText
 10
354.339242
 20
97.640449
 30
0.0
 40
28.0
  1
 15%%d
 50
58.188492
 41
0.8
 51
15.0
  7
LCTX15-400-0-0-Arial
 72
     1
 11
369.122399
 21
121.472551
 31
0.0
100
AcDbText
  0
LINE
  5
31A
330
316
100
AcDbEntity
  8
LC-003-003-----0
 62
     7
370
    25
100
AcDbLine
 10
399.560388
 20
138.206477
 30
0.0
 11
401.585347
 21
148.333336
 31
0.0
  0
LINE
  5
31B
330
316
100
AcDbEntity
  8
LC-003-003-----0
 62
     7
370
    25
100
AcDbLine
 10
402.263007
 20
151.722331
 30
0.0
 11
405.050563
 21
165.662951
 31
0.0
  0
LINE
  5
31C
330
316
100
AcDbEntity
  8
LC-003-003-----0
 62
     7
370
    25
100
AcDbLine
 10
405.050563
 20
165.662951
 30
0.0
 11
399.121715
 21
153.670888
 31
0.0
  0
LINE
  5
31D
330
316
100
AcDbEntity
  8
LC-003-003-----0
 62
     7
370
    25
100
AcDbLine
 10
396.046055
 20
139.403379
 30
0.0
 11
399.560388
 21
138.206477
 31
0.0
  0
LINE
  5
31E
330
316
100
AcDbEntity
  8
LC-003-003-----0
 62
     7
370
    25
100
AcDbLine
 10
398.640814
 20
138.453868
 30
0.0
 11
400.15533
 21
146.027989
 31
0.0
  0
LINE
  5
31F
330
316
100
AcDbEntity
  8
LC-003-003-----0
 62
     7
370
    25
100
AcDbLine
 10
401.400898
 20
152.257101
 30
0.0
 11
402.703544
 21
158.771659
 31
0.0
  0
LINE
  5
320
330
316
100
AcDbEntity
  8
LC-003-003-----0
 62
     7
370
    25
100
AcDbLine
 10
402.703544
 20
158.771659
 30
0.0
 11
399.932948
 21
153.167676
 31
0.0
  0
LINE
  5
321
330
316
100
AcDbEntity
  8
LC-003-003-----0
 62
     7
370
    25
100
AcDbLine
 10
397.721241
 20
138.701259
 30
0.0
 11
398.725313
 21
143.722642
 31
0.0
  0
LINE
  5
322
330
316
100
AcDbEntity
  8
LC-003-003-----0
 62
     7
370
    25
100
AcDbLine
 10
396.801668
 20
138.948651
 30
0.0
 11
397.295296
 21
141.417295
 31
0.0
  0
LINE
  5
323
330
316
100
AcDbEntity
  8
LC-003-003-----0
 62
     7
370
    25
100
AcDbLine
 10
406.728005
 20
247.562886
 30
0.0
 11
412.218181
 21
220.106412
 31
0.0
  0
LINE
  5
324
330
316
100
AcDbEntity
  8
LC-003-003-----0
 62
     7
370
    25
100
AcDbLine
 10
412.218181
 20
220.106412
 30
0.0
 11
414.021337
 21
248.048291
 31
0.0
  0
LINE
  5
325
330
316
100
AcDbEntity
  8
LC-003-003-----0
 62
     7
370
    25
100
AcDbLine
 10
414.021337
 20
248.048291
 30
0.0
 11
406.728005
 21
247.562886
 31
0.0
  0
LINE
  5
326
330
316
100
AcDbEntity
  8
LC-003-003-----0
 62
     7
370
    25
100
AcDbLine
 10
407.672002
 20
247.688132
 30
0.0
 11
411.734732
 21
227.370342
 31
0.0
  0
LINE
  5
327
330
316
100
AcDbEntity
  8
LC-003-003-----0
 62
     7
370
    25
100
AcDbLine
 10
411.734732
 20
227.370342
 30
0.0
 11
413.069068
 21
248.047332
 31
0.0
  0
LINE
  5
328
330
316
100
AcDbEntity
  8
LC-003-003-----0
 62
     7
370
    25
100
AcDbLine
 10
408.616
 20
247.813379
 30
0.0
 11
411.251284
 21
234.634271
 31
0.0
  0
LINE
  5
329
330
316
100
AcDbEntity
  8
LC-003-003-----0
 62
     7
370
    25
100
AcDbLine
 10
411.251284
 20
234.634271
 30
0.0
 11
412.116799
 21
248.046374
 31
0.0
  0
LINE
  5
32A
330
316
100
AcDbEntity
  8
LC-003-003-----0
 62
     7
370
    25
100
AcDbLine
 10
409.559997
 20
247.938626
 30
0.0
 11
410.767835
 21
241.898201
 31
0.0
  0
LINE
  5
32B
330
316
100
AcDbEntity
  8
LC-003-003-----0
 62
     7
370
    25
100
AcDbLine
 10
410.767835
 20
241.898201
 30
0.0
 11
411.16453
 21
248.045415
 31
0.0
  0
ARC
  5
32D
330
316
100
AcDbEntity
  8
LC-004-003-MTG-0
 62
     7
370
    25
100
AcDbCircle
 10
201.864801
 20
220.106412
 30
0.0
 40
210.3533801260473
100
AcDbArc
 50
318.304252
 51
337.547392
  0
ARC
  5
32E
330
316
100
AcDbEntity
  8
LC-004-003-MTG-0
 62
     7
370
    25
100
AcDbCircle
 10
201.864801
 20
220.106412
 30
0.0
 40
210.3533801260473
100
AcDbArc
 50
341.245552
 51
10.55616
  0
LINE
  5
330
330
316
100
AcDbEntity
  8
LC-005-003-MTH-0
 62
     7
370
    25
100
AcDbLine
 10
249.378656
 20
207.375112
 30
0.0
 11
360.440613
 21
177.616151
 31
0.0
  0
LINE
  5
331
330
316
100
AcDbEntity
  8
LC-005-003-MTH-0
 62
     7
370
    25
100
AcDbLine
 10
360.579093
 20
177.579045
 30
0.0
 11
408.914266
 21
164.627674
 31
0.0
  0
LINE
  5
332
330
316
100
AcDbEntity
  8
LC-005-003-MTH-0
 62
     7
370
    25
100
AcDbLine
 10
287.064801
 20
220.106412
 30
0.0
 11
416.218181
 21
220.106412
 31
0.0
  0
ENDBLK
  5
318
330
316
100
AcDbEntity
  8
0
100
AcDbBlockEnd
  0
ENDSEC
  0
SECTION
  2
ENTITIES
  0
LINE
  5
31
330
1F
100
AcDbEntity
  8
LC-001-002-----0
 62
     7
370
    50
100
AcDbLine
 10
145.064801
 20
253.406412
 30
0.0
 11
145.064801
 21
247.406412
 31
0.0
  0
LINE
  5
32
330
1F
100
AcDbEntity
  8
LC-001-002-----0
 62
     7
370
    25
100
AcDbLine
 10
201.864801
 20
220.106412
 30
0.0
 11
352.017958
 21
179.872994
 31
0.0
  0
LINE
  5
34
330
1F
100
AcDbEntity
  8
LC-002-100-D00-0
 62
     7
370
    50
100
AcDbLine
 10
205.864803
 20
242.856413
 30
0.0
 11
205.864803
 21
240.95641
 31
0.0
  0
LINE
  5
35
330
1F
100
AcDbEntity
  8
LC-002-100-D00-0
 62
     7
370
    50
100
AcDbLine
 10
205.864803
 20
199.256412
 30
0.0
 11
205.864803
 21
197.356412
 31
0.0
  0
LINE
  5
36
330
1F
100
AcDbEntity
  8
LC-002-100-D00-0
 62
     7
370
    50
100
AcDbLine
 10
72.3148
 20
250.906415
 30
0.0
 11
73.564799
 21
250.906415
 31
0.0
  0
LINE
  5
37
330
1F
100
AcDbEntity
  8
LC-002-100-D00-0
 62
     7
370
    50
100
AcDbLine
 10
149.564801
 20
250.906415
 30
0.0
 11
150.814801
 21
250.906415
 31
0.0
  0
CIRCLE
  5
38
330
1F
100
AcDbEntity
  8
LC-002-100-D00-0
 62
     7
370
    50
100
AcDbCircle
 10
207.864801
 20
242.856412
 30
0.0
 40
2.0
  0
CIRCLE
  5
39
330
1F
100
AcDbEntity
  8
LC-002-100-D00-0
 62
     7
370
    50
100
AcDbCircle
 10
207.864801
 20
197.356412
 30
0.0
 40
2.0
  0
LINE
  5
3A
330
1F
100
AcDbEntity
  8
LC-002-100-D00-0
 62
     7
370
    50
100
AcDbLine
 10
194.064801
 20
192.606411
 30
0.0
 11
201.864802
 21
192.606411
 31
0.0
  0
LINE
  5
3B
330
1F
100
AcDbEntity
  8
LC-002-100-D00-0
 62
     7
370
    50
100
AcDbLine
 10
201.864802
 20
247.606411
 30
0.0
 11
194.064801
 21
247.606411
 31
0.0
  0
ARC
  5
3C
330
1F
100
AcDbEntity
  8
LC-002-100-D00-0
 62
     7
370
    50
100
AcDbCircle
 10
194.864801
 20
195.274175
 30
0.0
 40
0.8000000000000065
100
AcDbArc
 50
74.2573
 51
180.0
  0
ARC
  5
3D
330
1F
100
AcDbEntity
  8
LC-002-100-D00-0
 62
     7
370
    50
100
AcDbCircle
 10
201.864801
 20
220.106412
 30
0.0
 40
25.00000000000004
100
AcDbArc
 50
254.2573
 51
314.097488
  0
LINE
  5
3E
330
1F
100
AcDbEntity
  8
LC-002-100-D00-0
 62
     7
370
    50
100
AcDbLine
 10
221.564801
 20
203.10641
 30
0.0
 11
219.261834
 21
202.15249
 31
0.0
  0
LINE
  5
3F
330
1F
100
AcDbEntity
  8
LC-002-100-D00-0
 62
     7
370
    50
100
AcDbLine
 10
285.064803
 20
203.10641
 30
0.0
 11
221.564801
 21
203.10641
 31
0.0
  0
LINE
  5
40
330
1F
100
AcDbEntity
  8
LC-002-100-D00-0
 62
     7
370
    50
100
AcDbLine
 10
285.064803
 20
200.910259
 30
0.0
 11
285.064803
 21
203.10641
 31
0.0
  0
LINE
  5
41
330
1F
100
AcDbEntity
  8
LC-002-100-D00-0
 62
     7
370
    50
100
AcDbLine
 10
285.064803
 20
200.910259
 30
0.0
 11
282.064797
 21
200.106412
 31
0.0
  0
LINE
  5
42
330
1F
100
AcDbEntity
  8
LC-002-100-D00-0
 62
     7
370
    50
100
AcDbLine
 10
220.739388
 20
200.106412
 30
0.0
 11
282.064797
 21
200.106412
 31
0.0
  0
ARC
  5
43
330
1F
100
AcDbEntity
  8
LC-002-100-D00-0
 62
     7
370
    50
100
AcDbCircle
 10
201.864801
 20
220.106412
 30
0.0
 40
27.50000000000003
100
AcDbArc
 50
270.0
 51
313.341758
  0
LINE
  5
44
330
1F
100
AcDbEntity
  8
LC-002-100-D00-0
 62
     7
370
    50
100
AcDbLine
 10
194.064801
 20
195.274174
 30
0.0
 11
194.064801
 21
192.606411
 31
0.0
  0
LINE
  5
45
330
1F
100
AcDbEntity
  8
LC-002-100-D00-0
 62
     7
370
    50
100
AcDbLine
 10
282.064797
 20
240.106411
 30
0.0
 11
220.739388
 21
240.106411
 31
0.0
  0
LINE
  5
46
330
1F
100
AcDbEntity
  8
LC-002-100-D00-0
 62
     7
370
    50
100
AcDbLine
 10
282.064797
 20
240.106411
 30
0.0
 11
285.064803
 21
239.302568
 31
0.0
  0
LINE
  5
47
330
1F
100
AcDbEntity
  8
LC-002-100-D00-0
 62
     7
370
    50
100
AcDbLine
 10
285.064803
 20
237.106412
 30
0.0
 11
285.064803
 21
239.302568
 31
0.0
  0
LINE
  5
48
330
1F
100
AcDbEntity
  8
LC-002-100-D00-0
 62
     7
370
    50
100
AcDbLine
 10
221.564801
 20
237.106412
 30
0.0
 11
285.064803
 21
237.106412
 31
0.0
  0
LINE
  5
49
330
1F
100
AcDbEntity
  8
LC-002-100-D00-0
 62
     7
370
    50
100
AcDbLine
 10
219.261834
 20
238.060332
 30
0.0
 11
221.564801
 21
237.106412
 31
0.0
  0
ARC
  5
4A
330
1F
100
AcDbEntity
  8
LC-002-100-D00-0
 62
     7
370
    50
100
AcDbCircle
 10
201.864801
 20
220.106412
 30
0.0
 40
25.00000000000007
100
AcDbArc
 50
45.902512
 51
105.7427
  0
ARC
  5
4B
330
1F
100
AcDbEntity
  8
LC-002-100-D00-0
 62
     7
370
    50
100
AcDbCircle
 10
194.864801
 20
244.938649
 30
0.0
 40
0.8000000000000682
100
AcDbArc
 50
180.0
 51
285.7427
  0
ARC
  5
4C
330
1F
100
AcDbEntity
  8
LC-002-100-D00-0
 62
     7
370
    50
100
AcDbCircle
 10
201.864801
 20
220.106412
 30
0.0
 40
27.50000000000011
100
AcDbArc
 50
46.658242
 51
90.0
  0
LINE
  5
4D
330
1F
100
AcDbEntity
  8
LC-002-100-D00-0
 62
     7
370
    50
100
AcDbLine
 10
194.064801
 20
247.606411
 30
0.0
 11
194.064801
 21
244.938649
 31
0.0
  0
LINE
  5
4E
330
1F
100
AcDbEntity
  8
LC-002-100-D00-0
 62
     7
370
    50
100
AcDbLine
 10
221.564801
 20
237.106412
 30
0.0
 11
221.564801
 21
203.10641
 31
0.0
  0
LINE
  5
4F
330
1F
100
AcDbEntity
  8
LC-002-100-D00-0
 62
     7
370
    50
100
AcDbLine
 10
219.261834
 20
238.060332
 30
0.0
 11
219.261834
 21
202.15249
 31
0.0
  0
LINE
  5
50
330
1F
100
AcDbEntity
  8
LC-002-100-D00-0
 62
     7
370
    50
100
AcDbLine
 10
285.064803
 20
237.106412
 30
0.0
 11
285.064803
 21
203.10641
 31
0.0
  0
LINE
  5
51
330
1F
100
AcDbEntity
  8
LC-002-100-D00-0
 62
     7
370
    50
100
AcDbLine
 10
194.064801
 20
195.274174
 30
0.0
 11
194.064801
 21
196.354359
 31
0.0
  0
LINE
  5
52
330
1F
100
AcDbEntity
  8
LC-002-100-D00-0
 62
     7
370
    50
100
AcDbLine
 10
209.864804
 20
198.856413
 30
0.0
 11
209.864804
 21
197.128161
 31
0.0
  0
ARC
  5
53
330
1F
100
AcDbEntity
  8
LC-002-100-D00-0
 62
     7
370
    50
100
AcDbCircle
 10
209.364801
 20
198.856412
 30
0.0
 40
0.5
100
AcDbArc
 50
0.0
 51
90.0
  0
LINE
  5
54
330
1F
100
AcDbEntity
  8
LC-002-100-D00-0
 62
     7
370
    50
100
AcDbLine
 10
206.164801
 20
199.35641
 30
0.0
 11
209.364803
 21
199.35641
 31
0.0
  0
ARC
  5
55
330
1F
100
AcDbEntity
  8
LC-002-100-D00-0
 62
     7
370
    50
100
AcDbCircle
 10
206.164801
 20
198.856412
 30
0.0
 40
0.5
100
AcDbArc
 50
90.0
 51
180.0
  0
LINE
  5
56
330
1F
100
AcDbEntity
  8
LC-002-100-D00-0
 62
     7
370
    50
100
AcDbLine
 10
205.6648
 20
195.829674
 30
0.0
 11
205.6648
 21
198.856413
 31
0.0
  0
ARC
  5
57
330
1F
100
AcDbEntity
  8
LC-002-100-D00-0
 62
     7
370
    50
100
AcDbCircle
 10
205.164801
 20
195.829674
 30
0.0
 40
0.5000000000000089
100
AcDbArc
 50
277.740919
 51
0.0
  0
ARC
  5
58
330
1F
100
AcDbEntity
  8
LC-002-100-D00-0
 62
     7
370
    50
100
AcDbCircle
 10
201.864801
 20
220.106412
 30
0.0
 40
24.99999999999998
100
AcDbArc
 50
240.527879
 51
277.740919
  0
LINE
  5
59
330
1F
100
AcDbEntity
  8
LC-002-100-D00-0
 62
     7
370
    50
100
AcDbLine
 10
189.564799
 20
196.106411
 30
0.0
 11
189.564799
 21
198.341533
 31
0.0
  0
LINE
  5
5A
330
1F
100
AcDbEntity
  8
LC-002-100-D00-0
 62
     7
370
    50
100
AcDbLine
 10
186.5648
 20
196.106411
 30
0.0
 11
189.564799
 21
196.106411
 31
0.0
  0
LINE
  5
5B
330
1F
100
AcDbEntity
  8
LC-002-100-D00-0
 62
     7
370
    50
100
AcDbLine
 10
186.5648
 20
198.606412
 30
0.0
 11
162.36817
 21
198.606412
 31
0.0
  0
LINE
  5
5C
330
1F
100
AcDbEntity
  8
LC-002-100-D00-0
 62
     7
370
    50
100
AcDbLine
 10
145.314801
 20
200.851529
 30
0.0
 11
162.36817
 21
198.606412
 31
0.0
  0
ARC
  5
5D
330
1F
100
AcDbEntity
  8
LC-002-100-D00-0
 62
     7
370
    50
100
AcDbCircle
 10
132.098877
 20
203.606412
 30
0.0
 40
13.50000000000003
100
AcDbArc
 50
270.0
 51
348.225213
  0
LINE
  5
5E
330
1F
100
AcDbEntity
  8
LC-002-100-D00-0
 62
     7
370
    50
100
AcDbLine
 10
132.098877
 20
190.106412
 30
0.0
 11
91.314801
 21
190.106412
 31
0.0
  0
ARC
  5
5F
330
1F
100
AcDbEntity
  8
LC-002-100-D00-0
 62
     7
370
    50
100
AcDbCircle
 10
91.314801
 20
203.606412
 30
0.0
 40
13.50000000000003
100
AcDbArc
 50
180.0
 51
270.0
  0
LINE
  5
60
330
1F
100
AcDbEntity
  8
LC-002-100-D00-0
 62
     7
370
    50
100
AcDbLine
 10
77.8148
 20
203.606411
 30
0.0
 11
77.8148
 21
209.738075
 31
0.0
  0
LINE
  5
61
330
1F
100
AcDbEntity
  8
LC-002-100-D00-0
 62
     7
370
    50
100
AcDbLine
 10
64.520591
 20
211.488291
 30
0.0
 11
77.8148
 21
209.738075
 31
0.0
  0
ARC
  5
62
330
1F
100
AcDbEntity
  8
LC-002-100-D00-0
 62
     7
370
    50
100
AcDbCircle
 10
65.564801
 20
219.419849
 30
0.0
 40
8.000000000000014
100
AcDbArc
 50
180.0
 51
262.5
  0
LINE
  5
63
330
1F
100
AcDbEntity
  8
LC-002-100-D00-0
 62
     7
370
    50
100
AcDbLine
 10
57.564804
 20
219.419848
 30
0.0
 11
57.564804
 21
239.740386
 31
0.0
  0
LINE
  5
64
330
1F
100
AcDbEntity
  8
LC-002-100-D00-0
 62
     7
370
    50
100
AcDbLine
 10
57.564804
 20
239.740386
 30
0.0
 11
59.064799
 21
240.606412
 31
0.0
  0
LINE
  5
65
330
1F
100
AcDbEntity
  8
LC-002-100-D00-0
 62
     7
370
    50
100
AcDbLine
 10
59.064799
 20
240.606412
 30
0.0
 11
59.117877
 21
240.606412
 31
0.0
  0
LINE
  5
66
330
1F
100
AcDbEntity
  8
LC-002-100-D00-0
 62
     7
370
    50
100
AcDbLine
 10
59.117877
 20
240.606412
 30
0.0
 11
60.564802
 21
235.20641
 31
0.0
  0
LINE
  5
67
330
1F
100
AcDbEntity
  8
LC-002-100-D00-0
 62
     7
370
    50
100
AcDbLine
 10
60.564802
 20
235.20641
 30
0.0
 11
60.564802
 21
219.419848
 31
0.0
  0
ARC
  5
68
330
1F
100
AcDbEntity
  8
LC-002-100-D00-0
 62
     7
370
    50
100
AcDbCircle
 10
65.564801
 20
219.419849
 30
0.0
 40
5.000000000000007
100
AcDbArc
 50
180.0
 51
262.5
  0
LINE
  5
69
330
1F
100
AcDbEntity
  8
LC-002-100-D00-0
 62
     7
370
    50
100
AcDbLine
 10
80.814802
 20
212.369002
 30
0.0
 11
64.912171
 21
214.462626
 31
0.0
  0
LINE
  5
6A
330
1F
100
AcDbEntity
  8
LC-002-100-D00-0
 62
     7
370
    50
100
AcDbLine
 10
80.814802
 20
212.369002
 30
0.0
 11
80.814802
 21
203.606411
 31
0.0
  0
ARC
  5
6B
330
1F
100
AcDbEntity
  8
LC-002-100-D00-0
 62
     7
370
    50
100
AcDbCircle
 10
91.314801
 20
203.606412
 30
0.0
 40
10.50000000000003
100
AcDbArc
 50
180.0
 51
270.0
  0
LINE
  5
6C
330
1F
100
AcDbEntity
  8
LC-002-100-D00-0
 62
     7
370
    50
100
AcDbLine
 10
91.314801
 20
193.106412
 30
0.0
 11
131.8148
 21
193.106412
 31
0.0
  0
ARC
  5
6D
330
1F
100
AcDbEntity
  8
LC-002-100-D00-0
 62
     7
370
    50
100
AcDbCircle
 10
131.814801
 20
203.606412
 30
0.0
 40
10.5
100
AcDbArc
 50
270.0
 51
0.0
  0
LINE
  5
6E
330
1F
100
AcDbEntity
  8
LC-002-100-D00-0
 62
     7
370
    50
100
AcDbLine
 10
142.314801
 20
203.606411
 30
0.0
 11
142.314801
 21
204.272374
 31
0.0
  0
LINE
  5
6F
330
1F
100
AcDbEntity
  8
LC-002-100-D00-0
 62
     7
370
    50
100
AcDbLine
 10
162.5648
 20
201.606411
 30
0.0
 11
142.314801
 21
204.272374
 31
0.0
  0
LINE
  5
70
330
1F
100
AcDbEntity
  8
LC-002-100-D00-0
 62
     7
370
    50
100
AcDbLine
 10
209.364803
 20
201.606411
 30
0.0
 11
162.5648
 21
201.606411
 31
0.0
  0
LINE
  5
71
330
1F
100
AcDbEntity
  8
LC-002-100-D00-0
 62
     7
370
    50
100
AcDbLine
 10
209.364803
 20
201.606411
 30
0.0
 11
214.364798
 21
200.266666
 31
0.0
  0
LINE
  5
72
330
1F
100
AcDbEntity
  8
LC-002-100-D00-0
 62
     7
370
    50
100
AcDbLine
 10
214.364798
 20
198.746401
 30
0.0
 11
214.364798
 21
200.266666
 31
0.0
  0
ARC
  5
73
330
1F
100
AcDbEntity
  8
LC-002-100-D00-0
 62
     7
370
    50
100
AcDbCircle
 10
213.864801
 20
198.746402
 30
0.0
 40
0.5000000000000074
100
AcDbArc
 50
299.327169
 51
0.0
  0
ARC
  5
74
330
1F
100
AcDbEntity
  8
LC-002-100-D00-0
 62
     7
370
    50
100
AcDbCircle
 10
201.864801
 20
220.106412
 30
0.0
 40
25.00000000000001
100
AcDbArc
 50
290.300191
 51
299.327169
  0
ARC
  5
75
330
1F
100
AcDbEntity
  8
LC-002-100-D00-0
 62
     7
370
    50
100
AcDbCircle
 10
210.364801
 20
197.128161
 30
0.0
 40
0.5
100
AcDbArc
 50
180.0
 51
290.300191
  0
LINE
  5
76
330
1F
100
AcDbEntity
  8
LC-002-100-D00-0
 62
     7
370
    50
100
AcDbLine
 10
186.5648
 20
198.606412
 30
0.0
 11
186.5648
 21
196.106411
 31
0.0
  0
LINE
  5
77
330
1F
100
AcDbEntity
  8
LC-002-100-D00-0
 62
     7
370
    50
100
AcDbLine
 10
183.064801
 20
241.606414
 30
0.0
 11
186.5648
 21
241.606414
 31
0.0
  0
ARC
  5
78
330
1F
100
AcDbEntity
  8
LC-002-100-D00-0
 62
     7
370
    50
100
AcDbCircle
 10
210.364801
 20
243.084662
 30
0.0
 40
0.5000000000000298
100
AcDbArc
 50
69.699809
 51
180.0
  0
ARC
  5
79
330
1F
100
AcDbEntity
  8
LC-002-100-D00-0
 62
     7
370
    50
100
AcDbCircle
 10
201.864801
 20
220.106412
 30
0.0
 40
25.00000000000005
100
AcDbArc
 50
60.672831
 51
69.699809
  0
ARC
  5
7A
330
1F
100
AcDbEntity
  8
LC-002-100-D00-0
 62
     7
370
    50
100
AcDbCircle
 10
213.864801
 20
241.466421
 30
0.0
 40
0.5
100
AcDbArc
 50
0.0
 51
60.672831
  0
LINE
  5
7B
330
1F
100
AcDbEntity
  8
LC-002-100-D00-0
 62
     7
370
    50
100
AcDbLine
 10
214.364798
 20
239.946156
 30
0.0
 11
214.364798
 21
241.466417
 31
0.0
  0
LINE
  5
7C
330
1F
100
AcDbEntity
  8
LC-002-100-D00-0
 62
     7
370
    50
100
AcDbLine
 10
214.364798
 20
239.946156
 30
0.0
 11
209.364803
 21
238.606415
 31
0.0
  0
LINE
  5
7D
330
1F
100
AcDbEntity
  8
LC-002-100-D00-0
 62
     7
370
    50
100
AcDbLine
 10
185.064801
 20
238.606415
 30
0.0
 11
209.364803
 21
238.606415
 31
0.0
  0
LINE
  5
7E
330
1F
100
AcDbEntity
  8
LC-002-100-D00-0
 62
     7
370
    50
100
AcDbLine
 10
185.064801
 20
238.606415
 30
0.0
 11
181.564802
 21
235.106408
 31
0.0
  0
LINE
  5
7F
330
1F
100
AcDbEntity
  8
LC-002-100-D00-0
 62
     7
370
    50
100
AcDbLine
 10
162.5648
 20
235.106408
 30
0.0
 11
181.564802
 21
235.106408
 31
0.0
  0
LINE
  5
80
330
1F
100
AcDbEntity
  8
LC-002-100-D00-0
 62
     7
370
    50
100
AcDbLine
 10
162.5648
 20
235.106408
 30
0.0
 11
162.5648
 21
235.20641
 31
0.0
  0
LINE
  5
81
330
1F
100
AcDbEntity
  8
LC-002-100-D00-0
 62
     7
370
    50
100
AcDbLine
 10
162.5648
 20
235.20641
 30
0.0
 11
164.011725
 21
240.606412
 31
0.0
  0
LINE
  5
82
330
1F
100
AcDbEntity
  8
LC-002-100-D00-0
 62
     7
370
    50
100
AcDbLine
 10
164.011725
 20
240.606412
 30
0.0
 11
164.0648
 21
240.606412
 31
0.0
  0
LINE
  5
83
330
1F
100
AcDbEntity
  8
LC-002-100-D00-0
 62
     7
370
    50
100
AcDbLine
 10
164.0648
 20
240.606412
 30
0.0
 11
165.564801
 21
239.740386
 31
0.0
  0
LINE
  5
84
330
1F
100
AcDbEntity
  8
LC-002-100-D00-0
 62
     7
370
    50
100
AcDbLine
 10
165.564801
 20
239.740386
 30
0.0
 11
165.564801
 21
238.106414
 31
0.0
  0
LINE
  5
85
330
1F
100
AcDbEntity
  8
LC-002-100-D00-0
 62
     7
370
    50
100
AcDbLine
 10
165.564801
 20
238.106414
 30
0.0
 11
179.564801
 21
238.106414
 31
0.0
  0
LINE
  5
86
330
1F
100
AcDbEntity
  8
LC-002-100-D00-0
 62
     7
370
    50
100
AcDbLine
 10
183.064801
 20
241.606414
 30
0.0
 11
179.564801
 21
238.106414
 31
0.0
  0
ARC
  5
87
330
1F
100
AcDbEntity
  8
LC-002-100-D00-0
 62
     7
370
    50
100
AcDbCircle
 10
201.864801
 20
220.106412
 30
0.0
 40
28.50000000000003
100
AcDbArc
 50
105.883617
 51
122.468925
  0
LINE
  5
88
330
1F
100
AcDbEntity
  8
LC-002-100-D00-0
 62
     7
370
    50
100
AcDbLine
 10
194.064801
 20
243.858464
 30
0.0
 11
194.064801
 21
247.518271
 31
0.0
  0
ARC
  5
89
330
1F
100
AcDbEntity
  8
LC-002-100-D00-0
 62
     7
370
    50
100
AcDbCircle
 10
201.864801
 20
220.106412
 30
0.0
 40
25.00000000000003
100
AcDbArc
 50
82.259081
 51
108.179801
  0
ARC
  5
8A
330
1F
100
AcDbEntity
  8
LC-002-100-D00-0
 62
     7
370
    50
100
AcDbCircle
 10
205.164801
 20
244.383149
 30
0.0
 40
0.5000000000000284
100
AcDbArc
 50
0.0
 51
82.259081
  0
LINE
  5
8B
330
1F
100
AcDbEntity
  8
LC-002-100-D00-0
 62
     7
370
    50
100
AcDbLine
 10
205.6648
 20
241.35641
 30
0.0
 11
205.6648
 21
244.383148
 31
0.0
  0
ARC
  5
8C
330
1F
100
AcDbEntity
  8
LC-002-100-D00-0
 62
     7
370
    50
100
AcDbCircle
 10
206.164801
 20
241.356412
 30
0.0
 40
0.5
100
AcDbArc
 50
180.0
 51
270.0
  0
LINE
  5
8D
330
1F
100
AcDbEntity
  8
LC-002-100-D00-0
 62
     7
370
    50
100
AcDbLine
 10
209.364803
 20
240.856409
 30
0.0
 11
206.164801
 21
240.856409
 31
0.0
  0
ARC
  5
8E
330
1F
100
AcDbEntity
  8
LC-002-100-D00-0
 62
     7
370
    50
100
AcDbCircle
 10
209.364801
 20
241.356412
 30
0.0
 40
0.5
100
AcDbArc
 50
270.0
 51
0.0
  0
LINE
  5
8F
330
1F
100
AcDbEntity
  8
LC-002-100-D00-0
 62
     7
370
    50
100
AcDbLine
 10
209.864804
 20
243.084661
 30
0.0
 11
209.864804
 21
241.35641
 31
0.0
  0
LINE
  5
90
330
1F
100
AcDbEntity
  8
LC-002-100-D00-0
 62
     7
370
    50
100
AcDbLine
 10
186.5648
 20
244.151368
 30
0.0
 11
186.5648
 21
241.606414
 31
0.0
  0
INSERT
  5
A4
330
1F
100
AcDbEntity
  8
LC-002-100-D00-0
 62
     7
370
    50
100
AcDbBlockReference
  2
POLY1
 10
0.0
 20
0.0
 30
0.0
  0
INSERT
  5
C2
330
1F
100
AcDbEntity
  8
LC-002-100-D00-0
 62
     7
370
    50
100
AcDbBlockReference
  2
POLY2
 10
0.0
 20
0.0
 30
0.0
  0
LINE
  5
C3
330
1F
100
AcDbEntity
  8
LC-002-100-D00-0
 62
     7
370
    50
100
AcDbLine
 10
209.364803
 20
201.606411
 30
0.0
 11
209.364803
 21
238.606415
 31
0.0
  0
LINE
  5
C4
330
1F
100
AcDbEntity
  8
LC-002-100-D00-0
 62
     7
370
    50
100
AcDbLine
 10
214.364798
 20
239.946156
 30
0.0
 11
214.364798
 21
200.266666
 31
0.0
  0
LINE
  5
C5
330
1F
100
AcDbEntity
  8
LC-002-100-D00-0
 62
     7
370
    50
100
AcDbLine
 10
162.5648
 20
235.20641
 30
0.0
 11
162.541595
 21
235.20641
 31
0.0
  0
LINE
  5
C6
330
1F
100
AcDbEntity
  8
LC-002-100-D00-0
 62
     7
370
    50
100
AcDbLine
 10
60.588003
 20
235.20641
 30
0.0
 11
60.564802
 21
235.20641
 31
0.0
  0
LINE
  5
C7
330
1F
100
AcDbEntity
  8
LC-002-100-D00-0
 62
     7
370
    50
100
AcDbLine
 10
59.117877
 20
240.606412
 30
0.0
 11
59.141078
 21
240.606412
 31
0.0
  0
LINE
  5
C8
330
1F
100
AcDbEntity
  8
LC-002-100-D00-0
 62
     7
370
    50
100
AcDbLine
 10
163.988521
 20
240.606412
 30
0.0
 11
164.011725
 21
240.606412
 31
0.0
  0
ARC
  5
C9
330
1F
100
AcDbEntity
  8
LC-002-100-D00-0
 62
     7
370
    50
100
AcDbCircle
 10
155.791502
 20
207.476248
 30
0.0
 40
4.936730602766414
100
AcDbArc
 50
263.766075
 51
0.576626
  0
LINE
  5
CA
330
1F
100
AcDbEntity
  8
LC-002-100-D00-0
 62
     7
370
    50
100
AcDbLine
 10
162.514801
 20
235.106408
 30
0.0
 11
162.5648
 21
235.106408
 31
0.0
  0
INSERT
  5
D0
330
1F
100
AcDbEntity
  8
LC-002-100-D00-0
 62
     7
370
    50
100
AcDbBlockReference
  2
KLON1
 10
0.0
 20
0.0
 30
0.0
  0
INSERT
  5
D6
330
1F
100
AcDbEntity
  8
LC-002-100-D00-0
 62
     7
370
    50
100
AcDbBlockReference
  2
KLON2
 10
0.0
 20
0.0
 30
0.0
  0
LINE
  5
D7
330
1F
100
AcDbEntity
  8
LC-002-100-D00-0
 62
     7
370
    50
100
AcDbLine
 10
68.964803
 20
255.606412
 30
0.0
 11
76.9648
 21
255.606412
 31
0.0
  0
ARC
  5
D8
330
1F
100
AcDbEntity
  8
LC-002-100-D00-0
 62
     7
370
    50
100
AcDbCircle
 10
68.964801
 20
205.606412
 30
0.0
 40
49.99999999999997
100
AcDbArc
 50
90.0
 51
99.792097
  0
ARC
  5
D9
330
1F
100
AcDbEntity
  8
LC-002-100-D00-0
 62
     7
370
    50
100
AcDbCircle
 10
154.164801
 20
205.606412
 30
0.0
 40
49.99999999999996
100
AcDbArc
 50
80.207903
 51
90.0
  0
LINE
  5
DA
330
1F
100
AcDbEntity
  8
LC-002-100-D00-0
 62
     7
370
    50
100
AcDbLine
 10
76.9648
 20
255.606412
 30
0.0
 11
154.1648
 21
255.606412
 31
0.0
  0
LINE
  5
DB
330
1F
100
AcDbEntity
  8
LC-002-100-D00-0
 62
     7
370
    50
100
AcDbLine
 10
166.566725
 20
253.106407
 30
0.0
 11
166.566725
 21
254.049897
 31
0.0
  0
LINE
  5
DC
330
1F
100
AcDbEntity
  8
LC-002-100-D00-0
 62
     7
370
    50
100
AcDbLine
 10
56.562879
 20
254.049897
 30
0.0
 11
56.562879
 21
253.106407
 31
0.0
  0
ARC
  5
DD
330
1F
100
AcDbEntity
  8
LC-002-100-D00-0
 62
     7
370
    50
100
AcDbCircle
 10
154.18816
 20
205.606412
 30
0.0
 40
49.99999999999998
100
AcDbArc
 50
75.66616
 51
90.0
  0
ARC
  5
DE
330
1F
100
AcDbEntity
  8
LC-002-100-D00-0
 62
     7
370
    50
100
AcDbCircle
 10
68.941441
 20
205.606412
 30
0.0
 40
49.99999999999997
100
AcDbArc
 50
90.0
 51
104.33384
  0
LINE
  5
DF
330
1F
100
AcDbEntity
  8
LC-002-100-D00-0
 62
     7
370
    50
100
AcDbLine
 10
154.564801
 20
227.106411
 30
0.0
 11
154.564801
 21
253.106407
 31
0.0
  0
LINE
  5
E0
330
1F
100
AcDbEntity
  8
LC-002-100-D00-0
 62
     7
370
    50
100
AcDbLine
 10
68.564804
 20
253.106407
 30
0.0
 11
68.564804
 21
227.106411
 31
0.0
  0
LINE
  5
E1
330
1F
100
AcDbEntity
  8
LC-002-100-D00-0
 62
     7
370
    50
100
AcDbLine
 10
70.064799
 20
225.606411
 30
0.0
 11
68.564804
 21
227.106411
 31
0.0
  0
LINE
  5
E2
330
1F
100
AcDbEntity
  8
LC-002-100-D00-0
 62
     7
370
    50
100
AcDbLine
 10
154.564801
 20
227.106411
 30
0.0
 11
153.064801
 21
225.606411
 31
0.0
  0
ARC
  5
E3
330
1F
100
AcDbEntity
  8
LC-002-100-D00-0
 62
     7
370
    50
100
AcDbCircle
 10
152.564801
 20
254.606412
 30
0.0
 40
1.0
100
AcDbArc
 50
90.0
 51
180.0
  0
ARC
  5
E4
330
1F
100
AcDbEntity
  8
LC-002-100-D00-0
 62
     7
370
    50
100
AcDbCircle
 10
70.564801
 20
254.606412
 30
0.0
 40
1.0
100
AcDbArc
 50
0.0
 51
90.0
  0
LINE
  5
E5
330
1F
100
AcDbEntity
  8
LC-002-100-D00-0
 62
     7
370
    50
100
AcDbLine
 10
151.5648
 20
254.60641
 30
0.0
 11
151.5648
 21
247.406415
 31
0.0
  0
LINE
  5
E6
330
1F
100
AcDbEntity
  8
LC-002-100-D00-0
 62
     7
370
    50
100
AcDbLine
 10
71.564802
 20
247.406415
 30
0.0
 11
71.564802
 21
254.60641
 31
0.0
  0
LINE
  5
E7
330
1F
100
AcDbEntity
  8
LC-002-100-D00-0
 62
     7
370
    50
100
AcDbLine
 10
74.0648
 20
225.606411
 30
0.0
 11
81.064799
 21
225.606411
 31
0.0
  0
LINE
  5
E8
330
1F
100
AcDbEntity
  8
LC-002-100-D00-0
 62
     7
370
    50
100
AcDbLine
 10
142.064801
 20
225.606411
 30
0.0
 11
149.064801
 21
225.606411
 31
0.0
  0
LINE
  5
E9
330
1F
100
AcDbEntity
  8
LC-002-100-D00-0
 62
     7
370
    50
100
AcDbLine
 10
74.0648
 20
247.406415
 30
0.0
 11
71.564802
 21
247.406415
 31
0.0
  0
LINE
  5
EA
330
1F
100
AcDbEntity
  8
LC-002-100-D00-0
 62
     7
370
    50
100
AcDbLine
 10
74.0648
 20
247.406415
 30
0.0
 11
74.0648
 21
225.606411
 31
0.0
  0
LINE
  5
EB
330
1F
100
AcDbEntity
  8
LC-002-100-D00-0
 62
     7
370
    50
100
AcDbLine
 10
70.064799
 20
225.606411
 30
0.0
 11
74.0648
 21
225.606411
 31
0.0
  0
LINE
  5
EC
330
1F
100
AcDbEntity
  8
LC-002-100-D00-0
 62
     7
370
    50
100
AcDbLine
 10
70.5648
 20
255.606412
 30
0.0
 11
68.941438
 21
255.606412
 31
0.0
  0
LINE
  5
ED
330
1F
100
AcDbEntity
  8
LC-002-100-D00-0
 62
     7
370
    50
100
AcDbLine
 10
56.562879
 20
253.106407
 30
0.0
 11
68.564804
 21
253.106407
 31
0.0
  0
LINE
  5
EE
330
1F
100
AcDbEntity
  8
LC-002-100-D00-0
 62
     7
370
    50
100
AcDbLine
 10
149.064801
 20
225.606411
 30
0.0
 11
149.064801
 21
247.406415
 31
0.0
  0
LINE
  5
EF
330
1F
100
AcDbEntity
  8
LC-002-100-D00-0
 62
     7
370
    50
100
AcDbLine
 10
151.5648
 20
247.406415
 30
0.0
 11
149.064801
 21
247.406415
 31
0.0
  0
LINE
  5
F0
330
1F
100
AcDbEntity
  8
LC-002-100-D00-0
 62
     7
370
    50
100
AcDbLine
 10
149.064801
 20
225.606411
 30
0.0
 11
153.064801
 21
225.606411
 31
0.0
  0
LINE
  5
F1
330
1F
100
AcDbEntity
  8
LC-002-100-D00-0
 62
     7
370
    50
100
AcDbLine
 10
154.188161
 20
255.606412
 30
0.0
 11
152.564801
 21
255.606412
 31
0.0
  0
LINE
  5
F2
330
1F
100
AcDbEntity
  8
LC-002-100-D00-0
 62
     7
370
    50
100
AcDbLine
 10
154.564801
 20
253.106407
 30
0.0
 11
166.566725
 21
253.106407
 31
0.0
  0
LINE
  5
F3
330
1F
100
AcDbEntity
  8
LC-002-100-D00-0
 62
     7
370
    50
100
AcDbLine
 10
55.5648
 20
243.106409
 30
0.0
 11
55.5648
 21
254.106409
 31
0.0
  0
LINE
  5
F4
330
1F
100
AcDbEntity
  8
LC-002-100-D00-0
 62
     7
370
    50
100
AcDbLine
 10
167.564801
 20
254.106409
 30
0.0
 11
167.564801
 21
243.106409
 31
0.0
  0
LINE
  5
F5
330
1F
100
AcDbEntity
  8
LC-002-100-D00-0
 62
     7
370
    50
100
AcDbLine
 10
167.564801
 20
254.106409
 30
0.0
 11
166.343405
 21
254.106409
 31
0.0
  0
LINE
  5
F6
330
1F
100
AcDbEntity
  8
LC-002-100-D00-0
 62
     7
370
    50
100
AcDbLine
 10
56.786196
 20
254.106409
 30
0.0
 11
55.5648
 21
254.106409
 31
0.0
  0
LINE
  5
F7
330
1F
100
AcDbEntity
  8
LC-002-100-D00-0
 62
     7
370
    50
100
AcDbLine
 10
55.5648
 20
254.106409
 30
0.0
 11
60.064801
 21
249.606415
 31
0.0
  0
LINE
  5
F8
330
1F
100
AcDbEntity
  8
LC-002-100-D00-0
 62
     7
370
    50
100
AcDbLine
 10
163.064801
 20
249.606415
 30
0.0
 11
167.564801
 21
254.106409
 31
0.0
  0
LINE
  5
F9
330
1F
100
AcDbEntity
  8
LC-002-100-D00-0
 62
     7
370
    50
100
AcDbLine
 10
57.564804
 20
247.10641
 30
0.0
 11
57.564804
 21
243.106409
 31
0.0
  0
LINE
  5
FA
330
1F
100
AcDbEntity
  8
LC-002-100-D00-0
 62
     7
370
    50
100
AcDbLine
 10
165.564801
 20
243.106409
 30
0.0
 11
165.564801
 21
247.10641
 31
0.0
  0
LINE
  5
FB
330
1F
100
AcDbEntity
  8
LC-002-100-D00-0
 62
     7
370
    50
100
AcDbLine
 10
161.451553
 20
250.60641
 30
0.0
 11
162.028902
 21
249.606415
 31
0.0
  0
LINE
  5
FC
330
1F
100
AcDbEntity
  8
LC-002-100-D00-0
 62
     7
370
    50
100
AcDbLine
 10
161.451553
 20
250.60641
 30
0.0
 11
160.296851
 21
250.60641
 31
0.0
  0
LINE
  5
FD
330
1F
100
AcDbEntity
  8
LC-002-100-D00-0
 62
     7
370
    50
100
AcDbLine
 10
62.832751
 20
250.60641
 30
0.0
 11
61.678046
 21
250.60641
 31
0.0
  0
LINE
  5
FE
330
1F
100
AcDbEntity
  8
LC-002-100-D00-0
 62
     7
370
    50
100
AcDbLine
 10
61.1007
 20
249.606415
 30
0.0
 11
61.678046
 21
250.60641
 31
0.0
  0
LINE
  5
FF
330
1F
100
AcDbEntity
  8
LC-002-100-D00-0
 62
     7
370
    50
100
AcDbLine
 10
61.678046
 20
250.60641
 30
0.0
 11
62.255399
 21
249.606415
 31
0.0
  0
LINE
  5
100
330
1F
100
AcDbEntity
  8
LC-002-100-D00-0
 62
     7
370
    50
100
AcDbLine
 10
160.874202
 20
249.606415
 30
0.0
 11
161.451553
 21
250.60641
 31
0.0
  0
LINE
  5
101
330
1F
100
AcDbEntity
  8
LC-002-100-D00-0
 62
     7
370
    50
100
AcDbLine
 10
62.064798
 20
245.606414
 30
0.0
 11
62.064798
 21
247.10641
 31
0.0
  0
LINE
  5
102
330
1F
100
AcDbEntity
  8
LC-002-100-D00-0
 62
     7
370
    50
100
AcDbLine
 10
161.064801
 20
247.10641
 30
0.0
 11
161.064801
 21
245.606414
 31
0.0
  0
LINE
  5
103
330
1F
100
AcDbEntity
  8
LC-002-100-D00-0
 62
     7
370
    50
100
AcDbLine
 10
160.296851
 20
250.60641
 30
0.0
 11
160.874202
 21
249.606415
 31
0.0
  0
LINE
  5
104
330
1F
100
AcDbEntity
  8
LC-002-100-D00-0
 62
     7
370
    50
100
AcDbLine
 10
160.296851
 20
250.60641
 30
0.0
 11
159.142151
 21
250.60641
 31
0.0
  0
LINE
  5
105
330
1F
100
AcDbEntity
  8
LC-002-100-D00-0
 62
     7
370
    50
100
AcDbLine
 10
63.98745
 20
250.60641
 30
0.0
 11
62.832751
 21
250.60641
 31
0.0
  0
LINE
  5
106
330
1F
100
AcDbEntity
  8
LC-002-100-D00-0
 62
     7
370
    50
100
AcDbLine
 10
62.255399
 20
249.606415
 30
0.0
 11
62.832751
 21
250.60641
 31
0.0
  0
LINE
  5
107
330
1F
100
AcDbEntity
  8
LC-002-100-D00-0
 62
     7
370
    50
100
AcDbLine
 10
62.832751
 20
250.60641
 30
0.0
 11
63.410097
 21
249.606415
 31
0.0
  0
LINE
  5
108
330
1F
100
AcDbEntity
  8
LC-002-100-D00-0
 62
     7
370
    50
100
AcDbLine
 10
159.719502
 20
249.606415
 30
0.0
 11
160.296851
 21
250.60641
 31
0.0
  0
LINE
  5
109
330
1F
100
AcDbEntity
  8
LC-002-100-D00-0
 62
     7
370
    50
100
AcDbLine
 10
159.142151
 20
250.60641
 30
0.0
 11
159.719502
 21
249.606415
 31
0.0
  0
LINE
  5
10A
330
1F
100
AcDbEntity
  8
LC-002-100-D00-0
 62
     7
370
    50
100
AcDbLine
 10
159.142151
 20
250.60641
 30
0.0
 11
154.564801
 21
250.60641
 31
0.0
  0
LINE
  5
10B
330
1F
100
AcDbEntity
  8
LC-002-100-D00-0
 62
     7
370
    50
100
AcDbLine
 10
68.564804
 20
250.60641
 30
0.0
 11
63.98745
 21
250.60641
 31
0.0
  0
LINE
  5
10C
330
1F
100
AcDbEntity
  8
LC-002-100-D00-0
 62
     7
370
    50
100
AcDbLine
 10
63.410097
 20
249.606415
 30
0.0
 11
63.98745
 21
250.60641
 31
0.0
  0
LINE
  5
10D
330
1F
100
AcDbEntity
  8
LC-002-100-D00-0
 62
     7
370
    50
100
AcDbLine
 10
63.98745
 20
250.60641
 30
0.0
 11
64.564803
 21
249.606415
 31
0.0
  0
LINE
  5
10E
330
1F
100
AcDbEntity
  8
LC-002-100-D00-0
 62
     7
370
    50
100
AcDbLine
 10
158.5648
 20
249.606415
 30
0.0
 11
159.142151
 21
250.60641
 31
0.0
  0
LINE
  5
10F
330
1F
100
AcDbEntity
  8
LC-002-100-D00-0
 62
     7
370
    50
100
AcDbLine
 10
158.5648
 20
249.606415
 30
0.0
 11
154.564801
 21
249.606415
 31
0.0
  0
LINE
  5
110
330
1F
100
AcDbEntity
  8
LC-002-100-D00-0
 62
     7
370
    50
100
AcDbLine
 10
68.564804
 20
249.606415
 30
0.0
 11
64.564803
 21
249.606415
 31
0.0
  0
LINE
  5
111
330
1F
100
AcDbEntity
  8
LC-002-100-D00-0
 62
     7
370
    50
100
AcDbLine
 10
64.564803
 20
249.606415
 30
0.0
 11
64.564803
 21
245.606414
 31
0.0
  0
LINE
  5
112
330
1F
100
AcDbEntity
  8
LC-002-100-D00-0
 62
     7
370
    50
100
AcDbLine
 10
158.5648
 20
245.606414
 30
0.0
 11
158.5648
 21
249.606415
 31
0.0
  0
LINE
  5
113
330
1F
100
AcDbEntity
  8
LC-002-100-D00-0
 62
     7
370
    50
100
AcDbLine
 10
158.5648
 20
245.606414
 30
0.0
 11
154.564801
 21
245.606414
 31
0.0
  0
LINE
  5
114
330
1F
100
AcDbEntity
  8
LC-002-100-D00-0
 62
     7
370
    50
100
AcDbLine
 10
68.564804
 20
245.606414
 30
0.0
 11
64.564803
 21
245.606414
 31
0.0
  0
LINE
  5
115
330
1F
100
AcDbEntity
  8
LC-002-100-D00-0
 62
     7
370
    50
100
AcDbLine
 10
64.564803
 20
245.606414
 30
0.0
 11
62.064798
 21
245.606414
 31
0.0
  0
LINE
  5
116
330
1F
100
AcDbEntity
  8
LC-002-100-D00-0
 62
     7
370
    50
100
AcDbLine
 10
60.064801
 20
249.606415
 30
0.0
 11
61.1007
 21
249.606415
 31
0.0
  0
LINE
  5
117
330
1F
100
AcDbEntity
  8
LC-002-100-D00-0
 62
     7
370
    50
100
AcDbLine
 10
62.064798
 20
247.10641
 30
0.0
 11
57.564804
 21
247.10641
 31
0.0
  0
LINE
  5
118
330
1F
100
AcDbEntity
  8
LC-002-100-D00-0
 62
     7
370
    50
100
AcDbLine
 10
57.564804
 20
243.106409
 30
0.0
 11
55.5648
 21
243.106409
 31
0.0
  0
LINE
  5
119
330
1F
100
AcDbEntity
  8
LC-002-100-D00-0
 62
     7
370
    50
100
AcDbLine
 10
161.064801
 20
245.606414
 30
0.0
 11
158.5648
 21
245.606414
 31
0.0
  0
LINE
  5
11A
330
1F
100
AcDbEntity
  8
LC-002-100-D00-0
 62
     7
370
    50
100
AcDbLine
 10
162.028902
 20
249.606415
 30
0.0
 11
163.064801
 21
249.606415
 31
0.0
  0
LINE
  5
11B
330
1F
100
AcDbEntity
  8
LC-002-100-D00-0
 62
     7
370
    50
100
AcDbLine
 10
165.564801
 20
247.10641
 30
0.0
 11
161.064801
 21
247.10641
 31
0.0
  0
LINE
  5
11C
330
1F
100
AcDbEntity
  8
LC-002-100-D00-0
 62
     7
370
    50
100
AcDbLine
 10
167.564801
 20
243.106409
 30
0.0
 11
165.564801
 21
243.106409
 31
0.0
  0
CIRCLE
  5
11D
330
1F
100
AcDbEntity
  8
LC-002-100-D00-0
 62
     7
370
    50
100
AcDbCircle
 10
72.314801
 20
252.156412
 30
0.0
 40
1.25
  0
CIRCLE
  5
11E
330
1F
100
AcDbEntity
  8
LC-002-100-D00-0
 62
     7
370
    50
100
AcDbCircle
 10
150.814801
 20
252.156412
 30
0.0
 40
1.25
  0
LINE
  5
11F
330
1F
100
AcDbEntity
  8
LC-002-100-D00-0
 62
     7
370
    50
100
AcDbLine
 10
71.814799
 20
253.406412
 30
0.0
 11
71.814799
 21
255.406409
 31
0.0
  0
LINE
  5
120
330
1F
100
AcDbEntity
  8
LC-002-100-D00-0
 62
     7
370
    50
100
AcDbLine
 10
151.314801
 20
255.406409
 30
0.0
 11
151.314801
 21
253.406412
 31
0.0
  0
LINE
  5
121
330
1F
100
AcDbEntity
  8
LC-002-100-D00-0
 62
     7
370
    50
100
AcDbLine
 10
72.064803
 20
248.906411
 30
0.0
 11
72.064803
 21
250.60641
 31
0.0
  0
LINE
  5
122
330
1F
100
AcDbEntity
  8
LC-002-100-D00-0
 62
     7
370
    50
100
AcDbLine
 10
151.0648
 20
250.60641
 30
0.0
 11
151.0648
 21
248.906411
 31
0.0
  0
LINE
  5
123
330
1F
100
AcDbEntity
  8
LC-002-100-D00-0
 62
     7
370
    50
100
AcDbLine
 10
73.564799
 20
250.60641
 30
0.0
 11
73.564799
 21
253.406412
 31
0.0
  0
LINE
  5
124
330
1F
100
AcDbEntity
  8
LC-002-100-D00-0
 62
     7
370
    50
100
AcDbLine
 10
149.564801
 20
253.406412
 30
0.0
 11
149.564801
 21
250.60641
 31
0.0
  0
LINE
  5
125
330
1F
100
AcDbEntity
  8
LC-002-100-D00-0
 62
     7
370
    50
100
AcDbLine
 10
76.0648
 20
245.406411
 30
0.0
 11
76.0648
 21
248.906411
 31
0.0
  0
LINE
  5
126
330
1F
100
AcDbEntity
  8
LC-002-100-D00-0
 62
     7
370
    50
100
AcDbLine
 10
147.064801
 20
248.906411
 30
0.0
 11
147.064801
 21
245.406411
 31
0.0
  0
ARC
  5
127
330
1F
100
AcDbEntity
  8
LC-002-100-D00-0
 62
     7
370
    50
100
AcDbCircle
 10
147.064801
 20
253.406412
 30
0.0
 40
2.0
100
AcDbArc
 50
90.0
 51
180.0
  0
LINE
  5
128
330
1F
100
AcDbEntity
  8
LC-002-100-D00-0
 62
     7
370
    50
100
AcDbLine
 10
147.064801
 20
255.406409
 30
0.0
 11
76.0648
 21
255.406409
 31
0.0
  0
ARC
  5
129
330
1F
100
AcDbEntity
  8
LC-002-100-D00-0
 62
     7
370
    50
100
AcDbCircle
 10
79.064801
 20
247.406412
 30
0.0
 40
1.000000000000028
100
AcDbArc
 50
180.0
 51
270.0
  0
ARC
  5
12A
330
1F
100
AcDbEntity
  8
LC-002-100-D00-0
 62
     7
370
    50
100
AcDbCircle
 10
144.064801
 20
247.406412
 30
0.0
 40
1.0
100
AcDbArc
 50
270.0
 51
0.0
  0
ARC
  5
12B
330
1F
100
AcDbEntity
  8
LC-002-100-D00-0
 62
     7
370
    50
100
AcDbCircle
 10
81.564801
 20
234.406412
 30
0.0
 40
10.99999999999999
100
AcDbArc
 50
0.0
 51
90.0
  0
ARC
  5
12C
330
1F
100
AcDbEntity
  8
LC-002-100-D00-0
 62
     7
370
    50
100
AcDbCircle
 10
141.564801
 20
234.406412
 30
0.0
 40
11.0
100
AcDbArc
 50
90.0
 51
180.0
  0
ARC
  5
12D
330
1F
100
AcDbEntity
  8
LC-002-100-D00-0
 62
     7
370
    50
100
AcDbCircle
 10
81.564801
 20
234.406412
 30
0.0
 40
12.00000000000001
100
AcDbArc
 50
0.0
 51
90.0
  0
ARC
  5
12E
330
1F
100
AcDbEntity
  8
LC-002-100-D00-0
 62
     7
370
    50
100
AcDbCircle
 10
141.564801
 20
234.406412
 30
0.0
 40
12.0
100
AcDbArc
 50
90.0
 51
180.0
  0
LINE
  5
12F
330
1F
100
AcDbEntity
  8
LC-002-100-D00-0
 62
     7
370
    50
100
AcDbLine
 10
141.564801
 20
246.406413
 30
0.0
 11
81.5648
 21
246.406413
 31
0.0
  0
LINE
  5
130
330
1F
100
AcDbEntity
  8
LC-002-100-D00-0
 62
     7
370
    50
100
AcDbLine
 10
92.5648
 20
204.40641
 30
0.0
 11
92.5648
 21
234.406411
 31
0.0
  0
LINE
  5
131
330
1F
100
AcDbEntity
  8
LC-002-100-D00-0
 62
     7
370
    50
100
AcDbLine
 10
130.564801
 20
234.406411
 30
0.0
 11
130.564801
 21
204.40641
 31
0.0
  0
LINE
  5
132
330
1F
100
AcDbEntity
  8
LC-002-100-D00-0
 62
     7
370
    50
100
AcDbLine
 10
93.564802
 20
234.406411
 30
0.0
 11
93.564802
 21
204.40641
 31
0.0
  0
LINE
  5
133
330
1F
100
AcDbEntity
  8
LC-002-100-D00-0
 62
     7
370
    50
100
AcDbLine
 10
129.5648
 20
204.40641
 30
0.0
 11
129.5648
 21
234.406411
 31
0.0
  0
LINE
  5
134
330
1F
100
AcDbEntity
  8
LC-002-100-D00-0
 62
     7
370
    50
100
AcDbLine
 10
129.5648
 20
204.40641
 30
0.0
 11
93.564802
 21
204.40641
 31
0.0
  0
LINE
  5
135
330
1F
100
AcDbEntity
  8
LC-002-100-D00-0
 62
     7
370
    50
100
AcDbLine
 10
93.564802
 20
204.40641
 30
0.0
 11
92.5648
 21
204.40641
 31
0.0
  0
LINE
  5
136
330
1F
100
AcDbEntity
  8
LC-002-100-D00-0
 62
     7
370
    50
100
AcDbLine
 10
79.064799
 20
246.406413
 30
0.0
 11
81.5648
 21
246.406413
 31
0.0
  0
LINE
  5
137
330
1F
100
AcDbEntity
  8
LC-002-100-D00-0
 62
     7
370
    50
100
AcDbLine
 10
81.5648
 20
245.406411
 30
0.0
 11
76.0648
 21
245.406411
 31
0.0
  0
LINE
  5
138
330
1F
100
AcDbEntity
  8
LC-002-100-D00-0
 62
     7
370
    50
100
AcDbLine
 10
72.064803
 20
250.60641
 30
0.0
 11
73.564799
 21
250.60641
 31
0.0
  0
LINE
  5
139
330
1F
100
AcDbEntity
  8
LC-002-100-D00-0
 62
     7
370
    50
100
AcDbLine
 10
76.0648
 20
248.906411
 30
0.0
 11
72.064803
 21
248.906411
 31
0.0
  0
LINE
  5
13A
330
1F
100
AcDbEntity
  8
LC-002-100-D00-0
 62
     7
370
    50
100
AcDbLine
 10
73.564799
 20
253.406412
 30
0.0
 11
71.814799
 21
253.406412
 31
0.0
  0
LINE
  5
13B
330
1F
100
AcDbEntity
  8
LC-002-100-D00-0
 62
     7
370
    50
100
AcDbLine
 10
71.814799
 20
255.406409
 30
0.0
 11
76.0648
 21
255.406409
 31
0.0
  0
LINE
  5
13C
330
1F
100
AcDbEntity
  8
LC-002-100-D00-0
 62
     7
370
    50
100
AcDbLine
 10
130.564801
 20
204.40641
 30
0.0
 11
129.5648
 21
204.40641
 31
0.0
  0
LINE
  5
13D
330
1F
100
AcDbEntity
  8
LC-002-100-D00-0
 62
     7
370
    50
100
AcDbLine
 10
141.564801
 20
246.406413
 30
0.0
 11
144.064801
 21
246.406413
 31
0.0
  0
LINE
  5
13E
330
1F
100
AcDbEntity
  8
LC-002-100-D00-0
 62
     7
370
    50
100
AcDbLine
 10
147.064801
 20
245.406411
 30
0.0
 11
141.564801
 21
245.406411
 31
0.0
  0
LINE
  5
13F
330
1F
100
AcDbEntity
  8
LC-002-100-D00-0
 62
     7
370
    50
100
AcDbLine
 10
149.564801
 20
250.60641
 30
0.0
 11
151.0648
 21
250.60641
 31
0.0
  0
LINE
  5
140
330
1F
100
AcDbEntity
  8
LC-002-100-D00-0
 62
     7
370
    50
100
AcDbLine
 10
151.0648
 20
248.906411
 30
0.0
 11
147.064801
 21
248.906411
 31
0.0
  0
LINE
  5
141
330
1F
100
AcDbEntity
  8
LC-002-100-D00-0
 62
     7
370
    50
100
AcDbLine
 10
151.314801
 20
253.406412
 30
0.0
 11
149.564801
 21
253.406412
 31
0.0
  0
LINE
  5
142
330
1F
100
AcDbEntity
  8
LC-002-100-D00-0
 62
     7
370
    50
100
AcDbLine
 10
147.064801
 20
255.406409
 30
0.0
 11
151.314801
 21
255.406409
 31
0.0
  0
ARC
  5
143
330
1F
100
AcDbEntity
  8
LC-002-100-D00-0
 62
     7
370
    50
100
AcDbCircle
 10
75.564801
 20
245.406412
 30
0.0
 40
1.5
100
AcDbArc
 50
180.0
 51
208.072487
  0
LINE
  5
144
330
1F
100
AcDbEntity
  8
LC-002-100-D00-0
 62
     7
370
    50
100
AcDbLine
 10
74.241274
 20
244.700528
 30
0.0
 11
81.064799
 21
231.906414
 31
0.0
  0
LINE
  5
145
330
1F
100
AcDbEntity
  8
LC-002-100-D00-0
 62
     7
370
    50
100
AcDbLine
 10
91.064801
 20
193.406412
 30
0.0
 11
132.0648
 21
193.406412
 31
0.0
  0
ARC
  5
146
330
1F
100
AcDbEntity
  8
LC-002-100-D00-0
 62
     7
370
    50
100
AcDbCircle
 10
91.064801
 20
203.406412
 30
0.0
 40
10.00000000000001
100
AcDbArc
 50
180.0
 51
270.0
  0
LINE
  5
147
330
1F
100
AcDbEntity
  8
LC-002-100-D00-0
 62
     7
370
    50
100
AcDbLine
 10
81.064799
 20
231.906414
 30
0.0
 11
81.064799
 21
203.406412
 31
0.0
  0
LINE
  5
148
330
1F
100
AcDbEntity
  8
LC-002-100-D00-0
 62
     7
370
    50
100
AcDbLine
 10
74.0648
 20
247.406415
 30
0.0
 11
74.0648
 21
245.406411
 31
0.0
  0
LINE
  5
149
330
1F
100
AcDbEntity
  8
LC-002-100-D00-0
 62
     7
370
    50
100
AcDbLine
 10
71.814799
 20
247.406415
 30
0.0
 11
74.0648
 21
247.406415
 31
0.0
  0
LINE
  5
14A
330
1F
100
AcDbEntity
  8
LC-002-100-D00-0
 62
     7
370
    50
100
AcDbLine
 10
71.814799
 20
248.906411
 30
0.0
 11
71.814799
 21
247.406415
 31
0.0
  0
LINE
  5
14B
330
1F
100
AcDbEntity
  8
LC-002-100-D00-0
 62
     7
370
    50
100
AcDbLine
 10
75.564799
 20
248.906411
 30
0.0
 11
71.814799
 21
248.906411
 31
0.0
  0
LINE
  5
14C
330
1F
100
AcDbEntity
  8
LC-002-100-D00-0
 62
     7
370
    50
100
AcDbLine
 10
75.564799
 20
245.406411
 30
0.0
 11
75.564799
 21
248.906411
 31
0.0
  0
LINE
  5
14D
330
1F
100
AcDbEntity
  8
LC-002-100-D00-0
 62
     7
370
    50
100
AcDbLine
 10
81.690365
 20
233.920983
 30
0.0
 11
75.564799
 21
245.406411
 31
0.0
  0
LINE
  5
14E
330
1F
100
AcDbEntity
  8
LC-002-100-D00-0
 62
     7
370
    50
100
AcDbLine
 10
81.690365
 20
233.920983
 30
0.0
 11
82.564802
 21
232.406415
 31
0.0
  0
LINE
  5
14F
330
1F
100
AcDbEntity
  8
LC-002-100-D00-0
 62
     7
370
    50
100
AcDbLine
 10
82.564802
 20
203.406412
 30
0.0
 11
82.564802
 21
232.406415
 31
0.0
  0
ARC
  5
150
330
1F
100
AcDbEntity
  8
LC-002-100-D00-0
 62
     7
370
    50
100
AcDbCircle
 10
91.064801
 20
203.406412
 30
0.0
 40
8.5
100
AcDbArc
 50
180.0
 51
270.0
  0
LINE
  5
151
330
1F
100
AcDbEntity
  8
LC-002-100-D00-0
 62
     7
370
    50
100
AcDbLine
 10
132.0648
 20
194.906411
 30
0.0
 11
91.064801
 21
194.906411
 31
0.0
  0
ARC
  5
152
330
1F
100
AcDbEntity
  8
LC-002-100-D00-0
 62
     7
370
    50
100
AcDbCircle
 10
132.064801
 20
203.406412
 30
0.0
 40
8.5
100
AcDbArc
 50
270.0
 51
0.0
  0
LINE
  5
153
330
1F
100
AcDbEntity
  8
LC-002-100-D00-0
 62
     7
370
    50
100
AcDbLine
 10
140.564801
 20
232.406415
 30
0.0
 11
140.564801
 21
203.406412
 31
0.0
  0
LINE
  5
154
330
1F
100
AcDbEntity
  8
LC-002-100-D00-0
 62
     7
370
    50
100
AcDbLine
 10
140.564801
 20
232.406415
 30
0.0
 11
141.439237
 21
233.920983
 31
0.0
  0
LINE
  5
155
330
1F
100
AcDbEntity
  8
LC-002-100-D00-0
 62
     7
370
    50
100
AcDbLine
 10
147.564801
 20
245.406411
 30
0.0
 11
141.439237
 21
233.920983
 31
0.0
  0
LINE
  5
156
330
1F
100
AcDbEntity
  8
LC-002-100-D00-0
 62
     7
370
    50
100
AcDbLine
 10
147.564801
 20
248.906411
 30
0.0
 11
147.564801
 21
245.406411
 31
0.0
  0
LINE
  5
157
330
1F
100
AcDbEntity
  8
LC-002-100-D00-0
 62
     7
370
    50
100
AcDbLine
 10
151.314801
 20
248.906411
 30
0.0
 11
147.564801
 21
248.906411
 31
0.0
  0
LINE
  5
158
330
1F
100
AcDbEntity
  8
LC-002-100-D00-0
 62
     7
370
    50
100
AcDbLine
 10
151.314801
 20
247.406415
 30
0.0
 11
151.314801
 21
248.906411
 31
0.0
  0
LINE
  5
159
330
1F
100
AcDbEntity
  8
LC-002-100-D00-0
 62
     7
370
    50
100
AcDbLine
 10
149.064801
 20
247.406415
 30
0.0
 11
151.314801
 21
247.406415
 31
0.0
  0
LINE
  5
15A
330
1F
100
AcDbEntity
  8
LC-002-100-D00-0
 62
     7
370
    50
100
AcDbLine
 10
149.064801
 20
245.406411
 30
0.0
 11
149.064801
 21
247.406415
 31
0.0
  0
ARC
  5
15B
330
1F
100
AcDbEntity
  8
LC-002-100-D00-0
 62
     7
370
    50
100
AcDbCircle
 10
147.564801
 20
245.406412
 30
0.0
 40
1.500000000000003
100
AcDbArc
 50
331.927513
 51
0.0
  0
LINE
  5
15C
330
1F
100
AcDbEntity
  8
LC-002-100-D00-0
 62
     7
370
    50
100
AcDbLine
 10
142.064801
 20
231.906414
 30
0.0
 11
148.88833
 21
244.700528
 31
0.0
  0
LINE
  5
15D
330
1F
100
AcDbEntity
  8
LC-002-100-D00-0
 62
     7
370
    50
100
AcDbLine
 10
142.064801
 20
203.406412
 30
0.0
 11
142.064801
 21
231.906414
 31
0.0
  0
ARC
  5
15E
330
1F
100
AcDbEntity
  8
LC-002-100-D00-0
 62
     7
370
    50
100
AcDbCircle
 10
132.064801
 20
203.406412
 30
0.0
 40
10.0
100
AcDbArc
 50
270.0
 51
0.0
  0
LINE
  5
15F
330
1F
100
AcDbEntity
  8
LC-002-100-D00-0
 62
     7
370
    50
100
AcDbLine
 10
140.564801
 20
232.406415
 30
0.0
 11
130.564801
 21
232.406415
 31
0.0
  0
LINE
  5
160
330
1F
100
AcDbEntity
  8
LC-002-100-D00-0
 62
     7
370
    50
100
AcDbLine
 10
92.5648
 20
232.406415
 30
0.0
 11
82.564802
 21
232.406415
 31
0.0
  0
LINE
  5
161
330
1F
100
AcDbEntity
  8
LC-002-100-D00-0
 62
     7
370
    50
100
AcDbLine
 10
75.564799
 20
245.406411
 30
0.0
 11
75.690017
 21
245.406411
 31
0.0
  0
INSERT
  5
16D
330
1F
100
AcDbEntity
  8
LC-002-100-D00-0
 62
     7
370
    50
100
AcDbBlockReference
  2
POLY3
 10
0.0
 20
0.0
 30
0.0
  0
LINE
  5
16E
330
1F
100
AcDbEntity
  8
LC-002-100-D00-0
 62
     7
370
    50
100
AcDbLine
 10
81.690365
 20
233.920983
 30
0.0
 11
81.841377
 21
233.920983
 31
0.0
  0
LINE
  5
16F
330
1F
100
AcDbEntity
  8
LC-002-100-D00-0
 62
     7
370
    50
100
AcDbLine
 10
147.439582
 20
245.406411
 30
0.0
 11
147.564801
 21
245.406411
 31
0.0
  0
LINE
  5
170
330
1F
100
AcDbEntity
  8
LC-002-100-D00-0
 62
     7
370
    50
100
AcDbLine
 10
147.439582
 20
245.406411
 30
0.0
 11
147.064801
 21
245.406411
 31
0.0
  0
LINE
  5
171
330
1F
100
AcDbEntity
  8
LC-002-100-D00-0
 62
     7
370
    50
100
AcDbLine
 10
76.0648
 20
245.406411
 30
0.0
 11
75.690017
 21
245.406411
 31
0.0
  0
LINE
  5
172
330
1F
100
AcDbEntity
  8
LC-002-100-D00-0
 62
     7
370
    50
100
AcDbLine
 10
81.5597
 20
234.406411
 30
0.0
 11
92.5648
 21
234.406411
 31
0.0
  0
LINE
  5
173
330
1F
100
AcDbEntity
  8
LC-002-100-D00-0
 62
     7
370
    50
100
AcDbLine
 10
130.564801
 20
234.406411
 30
0.0
 11
141.5699
 21
234.406411
 31
0.0
  0
LINE
  5
174
330
1F
100
AcDbEntity
  8
LC-002-100-D00-0
 62
     7
370
    50
100
AcDbLine
 10
141.288225
 20
233.920983
 30
0.0
 11
141.439237
 21
233.920983
 31
0.0
  0
INSERT
  5
180
330
1F
100
AcDbEntity
  8
LC-002-100-D00-0
 62
     7
370
    50
100
AcDbBlockReference
  2
POLY4
 10
0.0
 20
0.0
 30
0.0
  0
LINE
  5
181
330
1F
100
AcDbEntity
  8
LC-002-100-D00-0
 62
     7
370
    50
100
AcDbLine
 10
161.064801
 20
235.106408
 30
0.0
 11
160.843947
 21
241.430841
 31
0.0
  0
LINE
  5
182
330
1F
100
AcDbEntity
  8
LC-002-100-D00-0
 62
     7
370
    50
100
AcDbLine
 10
161.064801
 20
235.106408
 30
0.0
 11
157.0648
 21
235.106408
 31
0.0
  0
LINE
  5
183
330
1F
100
AcDbEntity
  8
LC-002-100-D00-0
 62
     7
370
    50
100
AcDbLine
 10
66.064798
 20
235.106408
 30
0.0
 11
62.064798
 21
235.106408
 31
0.0
  0
LINE
  5
184
330
1F
100
AcDbEntity
  8
LC-002-100-D00-0
 62
     7
370
    50
100
AcDbLine
 10
62.285655
 20
241.430841
 30
0.0
 11
62.064798
 21
235.106408
 31
0.0
  0
LINE
  5
185
330
1F
100
AcDbEntity
  8
LC-002-100-D00-0
 62
     7
370
    50
100
AcDbLine
 10
69.6648
 20
244.106411
 30
0.0
 11
69.6648
 21
231.106415
 31
0.0
  0
LINE
  5
186
330
1F
100
AcDbEntity
  8
LC-002-100-D00-0
 62
     7
370
    50
100
AcDbLine
 10
69.6648
 20
231.106415
 30
0.0
 11
68.664798
 21
230.106413
 31
0.0
  0
LINE
  5
187
330
1F
100
AcDbEntity
  8
LC-002-100-D00-0
 62
     7
370
    50
100
AcDbLine
 10
68.664798
 20
230.106413
 30
0.0
 11
66.064798
 21
230.106413
 31
0.0
  0
LINE
  5
188
330
1F
100
AcDbEntity
  8
LC-002-100-D00-0
 62
     7
370
    50
100
AcDbLine
 10
66.064798
 20
230.106413
 30
0.0
 11
66.064798
 21
241.40641
 31
0.0
  0
ARC
  5
189
330
1F
100
AcDbEntity
  8
LC-002-100-D00-0
 62
     7
370
    50
100
AcDbCircle
 10
65.364801
 20
241.406412
 30
0.0
 40
0.7000000000000171
100
AcDbArc
 50
0.0
 51
90.0
  0
LINE
  5
18A
330
1F
100
AcDbEntity
  8
LC-002-100-D00-0
 62
     7
370
    50
100
AcDbLine
 10
65.364801
 20
242.106415
 30
0.0
 11
62.985228
 21
242.106415
 31
0.0
  0
ARC
  5
18B
330
1F
100
AcDbEntity
  8
LC-002-100-D00-0
 62
     7
370
    50
100
AcDbCircle
 10
62.985228
 20
241.406412
 30
0.0
 40
0.7000000000000171
100
AcDbArc
 50
90.0
 51
178.0
  0
LINE
  5
18C
330
1F
100
AcDbEntity
  8
LC-002-100-D00-0
 62
     7
370
    50
100
AcDbLine
 10
62.064798
 20
235.106408
 30
0.0
 11
60.614803
 21
235.106408
 31
0.0
  0
LINE
  5
18D
330
1F
100
AcDbEntity
  8
LC-002-100-D00-0
 62
     7
370
    50
100
AcDbLine
 10
60.614803
 20
235.106408
 30
0.0
 11
59.128457
 21
240.653529
 31
0.0
  0
LINE
  5
18E
330
1F
100
AcDbEntity
  8
LC-002-100-D00-0
 62
     7
370
    50
100
AcDbLine
 10
59.128457
 20
240.653529
 30
0.0
 11
56.814798
 21
239.317737
 31
0.0
  0
LINE
  5
18F
330
1F
100
AcDbEntity
  8
LC-002-100-D00-0
 62
     7
370
    50
100
AcDbLine
 10
56.814798
 20
239.317737
 30
0.0
 11
56.814798
 21
238.606415
 31
0.0
  0
LINE
  5
190
330
1F
100
AcDbEntity
  8
LC-002-100-D00-0
 62
     7
370
    50
100
AcDbLine
 10
56.814798
 20
238.606415
 30
0.0
 11
53.064802
 21
238.606415
 31
0.0
  0
LINE
  5
191
330
1F
100
AcDbEntity
  8
LC-002-100-D00-0
 62
     7
370
    50
100
AcDbLine
 10
53.064802
 20
238.606415
 30
0.0
 11
53.064802
 21
243.106409
 31
0.0
  0
LINE
  5
192
330
1F
100
AcDbEntity
  8
LC-002-100-D00-0
 62
     7
370
    50
100
AcDbLine
 10
53.064802
 20
243.106409
 30
0.0
 11
57.564804
 21
243.106409
 31
0.0
  0
LINE
  5
193
330
1F
100
AcDbEntity
  8
LC-002-100-D00-0
 62
     7
370
    50
100
AcDbLine
 10
62.064798
 20
247.10641
 30
0.0
 11
62.064798
 21
245.106413
 31
0.0
  0
LINE
  5
194
330
1F
100
AcDbEntity
  8
LC-002-100-D00-0
 62
     7
370
    50
100
AcDbLine
 10
62.064798
 20
245.106413
 30
0.0
 11
68.664798
 21
245.106413
 31
0.0
  0
LINE
  5
195
330
1F
100
AcDbEntity
  8
LC-002-100-D00-0
 62
     7
370
    50
100
AcDbLine
 10
68.664798
 20
245.106413
 30
0.0
 11
69.6648
 21
244.106411
 31
0.0
  0
ARC
  5
196
330
1F
100
AcDbEntity
  8
LC-002-100-D00-0
 62
     7
370
    50
100
AcDbCircle
 10
160.144373
 20
241.406412
 30
0.0
 40
0.7000000000000066
100
AcDbArc
 50
2.0
 51
90.0
  0
ARC
  5
197
330
1F
100
AcDbEntity
  8
LC-002-100-D00-0
 62
     7
370
    50
100
AcDbCircle
 10
157.764801
 20
241.406412
 30
0.0
 40
0.7000000000000171
100
AcDbArc
 50
90.0
 51
180.0
  0
LINE
  5
198
330
1F
100
AcDbEntity
  8
LC-002-100-D00-0
 62
     7
370
    50
100
AcDbLine
 10
157.0648
 20
241.40641
 30
0.0
 11
157.0648
 21
230.106413
 31
0.0
  0
LINE
  5
199
330
1F
100
AcDbEntity
  8
LC-002-100-D00-0
 62
     7
370
    50
100
AcDbLine
 10
166.3148
 20
239.317737
 30
0.0
 11
164.001146
 21
240.653529
 31
0.0
  0
LINE
  5
19A
330
1F
100
AcDbEntity
  8
LC-002-100-D00-0
 62
     7
370
    50
100
AcDbLine
 10
166.3148
 20
239.317737
 30
0.0
 11
165.564801
 21
239.317737
 31
0.0
  0
LINE
  5
19B
330
1F
100
AcDbEntity
  8
LC-002-100-D00-0
 62
     7
370
    50
100
AcDbLine
 10
57.564804
 20
239.317737
 30
0.0
 11
56.814798
 21
239.317737
 31
0.0
  0
LINE
  5
19C
330
1F
100
AcDbEntity
  8
LC-002-100-D00-0
 62
     7
370
    50
100
AcDbLine
 10
166.3148
 20
238.606415
 30
0.0
 11
166.3148
 21
239.317737
 31
0.0
  0
LINE
  5
19D
330
1F
100
AcDbEntity
  8
LC-002-100-D00-0
 62
     7
370
    50
100
AcDbLine
 10
166.3148
 20
238.606415
 30
0.0
 11
165.564801
 21
238.606415
 31
0.0
  0
LINE
  5
19E
330
1F
100
AcDbEntity
  8
LC-002-100-D00-0
 62
     7
370
    50
100
AcDbLine
 10
57.564804
 20
238.606415
 30
0.0
 11
56.814798
 21
238.606415
 31
0.0
  0
LINE
  5
19F
330
1F
100
AcDbEntity
  8
LC-002-100-D00-0
 62
     7
370
    50
100
AcDbLine
 10
164.001146
 20
240.653529
 30
0.0
 11
162.514801
 21
235.106408
 31
0.0
  0
LINE
  5
1A0
330
1F
100
AcDbEntity
  8
LC-002-100-D00-0
 62
     7
370
    50
100
AcDbLine
 10
161.064801
 20
245.106413
 30
0.0
 11
161.064801
 21
247.10641
 31
0.0
  0
LINE
  5
1A1
330
1F
100
AcDbEntity
  8
LC-002-100-D00-0
 62
     7
370
    50
100
AcDbLine
 10
154.464801
 20
230.106413
 30
0.0
 11
153.464801
 21
231.106415
 31
0.0
  0
LINE
  5
1A2
330
1F
100
AcDbEntity
  8
LC-002-100-D00-0
 62
     7
370
    50
100
AcDbLine
 10
153.464801
 20
244.106411
 30
0.0
 11
154.464801
 21
245.106413
 31
0.0
  0
LINE
  5
1A3
330
1F
100
AcDbEntity
  8
LC-002-100-D00-0
 62
     7
370
    50
100
AcDbLine
 10
153.464801
 20
231.106415
 30
0.0
 11
153.464801
 21
244.106411
 31
0.0
  0
LINE
  5
1A4
330
1F
100
AcDbEntity
  8
LC-002-100-D00-0
 62
     7
370
    50
100
AcDbLine
 10
170.064801
 20
243.106409
 30
0.0
 11
170.064801
 21
238.606415
 31
0.0
  0
LINE
  5
1A5
330
1F
100
AcDbEntity
  8
LC-002-100-D00-0
 62
     7
370
    50
100
AcDbLine
 10
157.0648
 20
230.106413
 30
0.0
 11
154.464801
 21
230.106413
 31
0.0
  0
LINE
  5
1A6
330
1F
100
AcDbEntity
  8
LC-002-100-D00-0
 62
     7
370
    50
100
AcDbLine
 10
154.464801
 20
245.106413
 30
0.0
 11
161.064801
 21
245.106413
 31
0.0
  0
LINE
  5
1A7
330
1F
100
AcDbEntity
  8
LC-002-100-D00-0
 62
     7
370
    50
100
AcDbLine
 10
162.514801
 20
235.106408
 30
0.0
 11
161.064801
 21
235.106408
 31
0.0
  0
LINE
  5
1A8
330
1F
100
AcDbEntity
  8
LC-002-100-D00-0
 62
     7
370
    50
100
AcDbLine
 10
165.564801
 20
243.106409
 30
0.0
 11
170.064801
 21
243.106409
 31
0.0
  0
LINE
  5
1A9
330
1F
100
AcDbEntity
  8
LC-002-100-D00-0
 62
     7
370
    50
100
AcDbLine
 10
170.064801
 20
238.606415
 30
0.0
 11
166.3148
 21
238.606415
 31
0.0
  0
LINE
  5
1AA
330
1F
100
AcDbEntity
  8
LC-002-100-D00-0
 62
     7
370
    50
100
AcDbLine
 10
160.144373
 20
242.106415
 30
0.0
 11
157.764801
 21
242.106415
 31
0.0
  0
LINE
  5
1AB
330
1F
100
AcDbEntity
  8
LC-002-100-D00-0
 62
     7
370
    50
100
AcDbLine
 10
80.814802
 20
203.606411
 30
0.0
 11
81.064799
 21
203.606411
 31
0.0
  0
LINE
  5
1AC
330
1F
100
AcDbEntity
  8
LC-002-100-D00-0
 62
     7
370
    50
100
AcDbLine
 10
142.064801
 20
203.606411
 30
0.0
 11
142.314801
 21
203.606411
 31
0.0
  0
LINE
  5
1AD
330
1F
100
AcDbEntity
  8
LC-002-100-D00-0
 62
     7
370
    50
100
AcDbLine
 10
151.5648
 20
254.60641
 30
0.0
 11
151.314801
 21
254.60641
 31
0.0
  0
LINE
  5
1AE
330
1F
100
AcDbEntity
  8
LC-002-100-D00-0
 62
     7
370
    50
100
AcDbLine
 10
71.814799
 20
254.60641
 30
0.0
 11
71.564802
 21
254.60641
 31
0.0
  0
LINE
  5
1AF
330
1F
100
AcDbEntity
  8
LC-002-100-D00-0
 62
     7
370
    50
100
AcDbLine
 10
160.843947
 20
241.430841
 30
0.0
 11
157.065227
 21
241.430841
 31
0.0
  0
LINE
  5
1B0
330
1F
100
AcDbEntity
  8
LC-002-100-D00-0
 62
     7
370
    50
100
AcDbLine
 10
66.064374
 20
241.430841
 30
0.0
 11
62.285655
 21
241.430841
 31
0.0
  0
INSERT
  5
1BA
330
1F
100
AcDbEntity
  8
LC-002-100-D00-0
 62
     7
370
    25
100
AcDbBlockReference
  2
KLON3
 10
0.0
 20
0.0
 30
0.0
  0
INSERT
  5
1C5
330
1F
100
AcDbEntity
  8
LC-002-100-D00-0
 62
     7
370
    25
100
AcDbBlockReference
  2
KLON4
 10
0.0
 20
0.0
 30
0.0
  0
INSERT
  5
1ED
330
1F
100
AcDbEntity
  8
LC-002-100-D00-0
 62
     7
370
    25
100
AcDbBlockReference
  2
KLON5
 10
0.0
 20
0.0
 30
0.0
  0
INSERT
  5
1FC
330
1F
100
AcDbEntity
  8
LC-002-100-D00-0
 62
     7
370
    25
100
AcDbBlockReference
  2
KLON6
 10
0.0
 20
0.0
 30
0.0
  0
INSERT
  5
20A
330
1F
100
AcDbEntity
  8
LC-002-100-D00-0
 62
     7
370
    25
100
AcDbBlockReference
  2
KLON7
 10
0.0
 20
0.0
 30
0.0
  0
LINE
  5
20B
330
1F
100
AcDbEntity
  8
LC-002-100-D00-0
 62
     7
370
    50
100
AcDbLine
 10
71.557106
 20
251.162229
 30
0.0
 11
73.308983
 21
252.914106
 31
0.0
  0
INSERT
  5
212
330
1F
100
AcDbEntity
  8
LC-002-100-D00-0
 62
     7
370
    25
100
AcDbBlockReference
  2
KLON8
 10
0.0
 20
0.0
 30
0.0
  0
INSERT
  5
219
330
1F
100
AcDbEntity
  8
LC-002-100-D00-0
 62
     7
370
    25
100
AcDbBlockReference
  2
KLON9
 10
0.0
 20
0.0
 30
0.0
  0
INSERT
  5
227
330
1F
100
AcDbEntity
  8
LC-002-100-D00-0
 62
     7
370
    25
100
AcDbBlockReference
  2
KLON10
 10
0.0
 20
0.0
 30
0.0
  0
INSERT
  5
234
330
1F
100
AcDbEntity
  8
LC-002-100-D00-0
 62
     7
370
    25
100
AcDbBlockReference
  2
KLON11
 10
0.0
 20
0.0
 30
0.0
  0
INSERT
  5
245
330
1F
100
AcDbEntity
  8
LC-002-100-D00-0
 62
     7
370
    25
100
AcDbBlockReference
  2
KLON12
 10
0.0
 20
0.0
 30
0.0
  0
INSERT
  5
278
330
1F
100
AcDbEntity
  8
LC-002-100-D00-0
 62
     7
370
    25
100
AcDbBlockReference
  2
KLON13
 10
0.0
 20
0.0
 30
0.0
  0
INSERT
  5
292
330
1F
100
AcDbEntity
  8
LC-002-100-D00-0
 62
     7
370
    25
100
AcDbBlockReference
  2
KLON14
 10
0.0
 20
0.0
 30
0.0
  0
INSERT
  5
2A9
330
1F
100
AcDbEntity
  8
LC-002-100-D00-0
 62
     7
370
    25
100
AcDbBlockReference
  2
KLON15
 10
0.0
 20
0.0
 30
0.0
  0
LINE
  5
2AA
330
1F
100
AcDbEntity
  8
LC-002-100-D00-0
 62
     7
370
    25
100
AcDbLine
 10
205.910691
 20
196.930435
 30
0.0
 11
208.290777
 21
199.310521
 31
0.0
  0
LINE
  5
2AB
330
1F
100
AcDbEntity
  8
LC-002-100-D00-0
 62
     7
370
    25
100
AcDbLine
 10
206.064411
 20
241.985436
 30
0.0
 11
208.735776
 21
244.656801
 31
0.0
  0
LINE
  5
2AD
330
1F
100
AcDbEntity
  8
LC-002-100-D00-0
  6
DASHDOT
 62
     7
370
    25
100
AcDbLine
 10
111.564801
 20
255.606412
 30
0.0
 11
111.564801
 21
189.219375
 31
0.0
  0
LINE
  5
2AE
330
1F
100
AcDbEntity
  8
LC-002-100-D00-0
  6
DASHDOT
 62
     7
370
    25
100
AcDbLine
 10
158.179858
 20
220.106412
 30
0.0
 11
287.064801
 21
220.106412
 31
0.0
  0
DIMENSION
  5
2B2
330
1F
100
AcDbEntity
  8
LC-003-003-----0
 62
     7
370
    25
100
AcDbDimension
  2
*D20
 10
314.922618
 20
200.106412
 30
0.0
 11
284.122618
 21
222.471433
 31
0.0
 70
   160
  1
DN40
 71
     5
 42
39.999999
 53
90.0
  3
LC-DIM-L-0140-02-02
100
AcDbAlignedDimension
 13
282.064797
 23
240.106411
 33
0.0
 14
282.064797
 24
200.106412
 34
0.0
 50
90.0
100
AcDbRotatedDimension
  0
DIMENSION
  5
2C2
330
1F
100
AcDbEntity
  8
LC-003-003-----0
 62
     7
370
    25
100
AcDbDimension
  2
*D21
 10
145.314801
 20
144.269568
 30
0.0
 11
161.255246
 21
175.069568
 31
0.0
 70
   160
  1
%%c<>
 71
     5
 42
67.500001
  3
LC-DIM-L-0140-02-02
100
AcDbAlignedDimension
 13
77.8148
 23
209.738075
 33
0.0
 14
145.314801
 24
200.85153
 34
0.0
100
AcDbRotatedDimension
  0
DIMENSION
  5
2D0
330
1F
100
AcDbEntity
  8
LC-003-003-----0
 62
     7
370
    25
100
AcDbDimension
  2
*D22
 10
21.191704
 20
253.106407
 30
0.0
 11
-9.608296
 21
258.255079
 31
0.0
 70
   160
  1
6-25
 71
     5
 42
3.499992
 53
90.0
  3
LC-DIM-L-0140-02-02
100
AcDbAlignedDimension
 13
60.064801
 23
249.606415
 33
0.0
 14
56.562879
 24
253.106407
 34
0.0
 50
90.0
100
AcDbRotatedDimension
  0
DIMENSION
  5
2DE
330
1F
100
AcDbEntity
  8
LC-003-003-----0
 62
     7
370
    25
100
AcDbDimension
  2
*D23
 10
-73.018146
 20
190.106412
 30
0.0
 11
-103.818146
 21
233.369568
 31
0.0
 70
   160
 71
     5
 42
59.500003
 53
90.0
  3
LC-DIM-L-0140-02-02
100
AcDbAlignedDimension
 13
60.064801
 23
249.606415
 33
0.0
 14
91.323594
 24
190.106412
 34
0.0
 50
90.0
100
AcDbRotatedDimension
  0
DIMENSION
  5
2ED
330
1F
100
AcDbEntity
  8
LC-003-003-----0
 62
     7
370
    25
100
AcDbDimension
  2
*D24
 10
-27.228347
 20
234.406412
 30
0.0
 11
-58.028347
 21
248.219568
 31
0.0
 70
   160
 71
     5
 42
30.000002
 53
90.0
  3
LC-DIM-L-0140-02-02
100
AcDbAlignedDimension
 13
92.5648
 23
204.40641
 33
0.0
 14
81.564801
 24
234.406412
 34
0.0
 50
90.0
100
AcDbRotatedDimension
  0
DIMENSION
  5
2FB
330
1F
100
AcDbEntity
  8
LC-003-003-----0
 62
     7
370
    25
100
AcDbDimension
  2
*D25
 10
170.064801
 20
88.433568
 30
0.0
 11
113.335688
 21
119.233568
 31
0.0
 70
   160
  1
%%c<>
 71
     5
 42
116.999999
  3
LC-DIM-L-0140-02-02
100
AcDbAlignedDimension
 13
53.064802
 23
238.606415
 33
0.0
 14
170.064801
 24
238.606415
 34
0.0
100
AcDbRotatedDimension
  0
DIMENSION
  5
308
330
1F
100
AcDbEntity
  8
LC-003-003-----0
 62
     7
370
    25
100
AcDbDimension
  2
*D26
 10
285.064803
 20
30.815568
 30
0.0
 11
175.098673
 21
61.615568
 31
0.0
 70
   160
 71
     5
 42
173.500002
  3
LC-DIM-L-0140-02-02
100
AcDbAlignedDimension
 13
111.564801
 23
189.219375
 33
0.0
 14
285.064803
 24
203.10641
 34
0.0
100
AcDbRotatedDimension
  0
INSERT
  5
333
330
1F
100
AcDbEntity
  8
LC-003-003-----0
 62
     7
370
    25
100
AcDbBlockReference
  2
LCDIM1
 10
0.0
 20
0.0
 30
0.0
  0
LINE
  5
334
330
1F
100
AcDbEntity
  8
LC-001-002-----0
 62
     7
370
    50
100
AcDbLine
 10
78.064801
 20
253.406412
 30
0.0
 11
78.064801
 21
247.406412
 31
0.0
  0
ARC
  5
335
330
1F
100
AcDbEntity
  8
LC-002-100-D00-0
 62
     7
370
    50
100
AcDbCircle
 10
76.064801
 20
253.406412
 30
0.0
 40
2.0
100
AcDbArc
 50
0.0
 51
90.0
  0
ENDSEC
  0
SECTION
  2
OBJECTS
  0
DICTIONARY
  5
C
330
0
100
AcDbDictionary
281
     1
  3
ACAD_GROUP
350
D
  3
ACAD_LAYOUT
350
1A
  3
ACAD_MLINESTYLE
350
17
  3
ACAD_PLOTSETTINGS
350
19
  3
ACAD_PLOTSTYLENAME
350
E
  0
DICTIONARY
  5
D
102
{ACAD_REACTORS
330
C
102
}
330
C
100
AcDbDictionary
281
     1
  0
DICTIONARY
  5
1A
102
{ACAD_REACTORS
330
C
102
}
330
C
100
AcDbDictionary
281
     1
  3
Layout1
350
1E
  3
Layout2
350
26
  3
Model
350
22
  0
DICTIONARY
  5
17
102
{ACAD_REACTORS
330
C
102
}
330
C
100
AcDbDictionary
281
     1
  3
Standard
350
18
  0
DICTIONARY
  5
19
102
{ACAD_REACTORS
330
C
102
}
330
C
100
AcDbDictionary
281
     1
  0
ACDBDICTIONARYWDFLT
  5
E
102
{ACAD_REACTORS
330
C
102
}
330
C
100
AcDbDictionary
281
     1
  3
Normal
350
F
100
AcDbDictionaryWithDefault
340
F
  0
LAYOUT
  5
1E
102
{ACAD_REACTORS
330
1A
102
}
330
1A
100
AcDbPlotSettings
  1

  2

  4

  6

 40
0.0
 41
0.0
 42
0.0
 43
0.0
 44
0.0
 45
0.0
 46
0.0
 47
0.0
 48
0.0
 49
0.0
140
0.0
141
0.0
142
1.0
143
1.0
 70
   688
 72
     0
 73
     0
 74
     5
  7

 75
    16
147
1.0
148
0.0
149
0.0
100
AcDbLayout
  1
Layout1
 70
     1
 71
     1
 10
-209.760318
 20
-147.978432
 11
630.239682
 21
446.021568
 12
0.0
 22
0.0
 32
0.0
 14
-209.760318
 24
-147.978432
 34
0.0
 15
630.239682
 25
446.021568
 35
0.0
146
0.0
 13
0.0
 23
0.0
 33
0.0
 16
1.0
 26
0.0
 36
0.0
 17
0.0
 27
1.0
 37
0.0
 76
     0
330
1B
  0
LAYOUT
  5
26
102
{ACAD_REACTORS
330
1A
102
}
330
1A
100
AcDbPlotSettings
  1

  2

  4

  6

 40
0.0
 41
0.0
 42
0.0
 43
0.0
 44
0.0
 45
0.0
 46
0.0
 47
0.0
 48
0.0
 49
0.0
140
0.0
141
0.0
142
1.0
143
1.0
 70
   688
 72
     0
 73
     0
 74
     5
  7

 75
    16
147
1.0
148
0.0
149
0.0
100
AcDbLayout
  1
Layout2
 70
     1
 71
     2
 10
0.0
 20
0.0
 11
0.0
 21
0.0
 12
0.0
 22
0.0
 32
0.0
 14
0.0
 24
0.0
 34
0.0
 15
0.0
 25
0.0
 35
0.0
146
0.0
 13
0.0
 23
0.0
 33
0.0
 16
1.0
 26
0.0
 36
0.0
 17
0.0
 27
1.0
 37
0.0
 76
     0
330
23
  0
LAYOUT
  5
22
102
{ACAD_REACTORS
330
1A
102
}
330
1A
100
AcDbPlotSettings
  1

  2

  4

  6

 40
0.0
 41
0.0
 42
0.0
 43
0.0
 44
0.0
 45
0.0
 46
0.0
 47
0.0
 48
0.0
 49
0.0
140
0.0
141
0.0
142
1.0
143
1.0
 70
  1776
 72
     0
 73
     0
 74
     0
  7

 75
     0
147
1.0
148
0.0
149
0.0
100
AcDbLayout
  1
Model
 70
     1
 71
     0
 10
-209.760318
 20
-147.978432
 11
630.239682
 21
446.021568
 12
0.0
 22
0.0
 32
0.0
 14
-209.760318
 24
-147.978432
 34
0.0
 15
630.239682
 25
446.021568
 35
0.0
146
0.0
 13
0.0
 23
0.0
 33
0.0
 16
1.0
 26
0.0
 36
0.0
 17
0.0
 27
1.0
 37
0.0
 76
     0
330
1F
  0
MLINESTYLE
  5
18
102
{ACAD_REACTORS
330
17
102
}
330
17
100
AcDbMlineStyle
  2
Standard
 70
     0
  3

 62
   256
 51
90.0
 52
90.0
 71
     2
 49
0.5
 62
   256
  6
BYLAYER
 49
-0.5
 62
   256
  6
BYLAYER
  0
ACDBPLACEHOLDER
  5
F
102
{ACAD_REACTORS
330
E
102
}
330
E
  0
ENDSEC
  0
EOF
